osu file format v14

[General]
AudioFilename: audio.mp3
AudioLeadIn: 0
PreviewTime: 29380
Countdown: 0
SampleSet: Soft
StackLeniency: 0.7
Mode: 3
LetterboxInBreaks: 0
SpecialStyle: 0
WidescreenStoryboard: 1

[Editor]
Bookmarks: 61780
DistanceSpacing: 1
BeatDivisor: 4
GridSize: 32
TimelineZoom: 1.9

[Metadata]
Title:White Aura
TitleUnicode:White Aura
Artist:HyuN
ArtistUnicode:HyuN
Creator:Niks
Version:Normal
Source:
Tags:INFX KRUX electronic instrumental FA featured artist stream BMS STAGE 2 taba2 blue happy hardcore piano mappers' guild mpg
BeatmapID:4184224
BeatmapSetID:2010834

[Difficulty]
HPDrainRate:6
CircleSize:7
OverallDifficulty:7
ApproachRate:5
SliderMultiplier:1.4
SliderTickRate:1

[Events]
//Background and Video events
0,0,"hd-wallpaper-g7d63d5c29_1920.jpg",0,0
//Break Periods
//Storyboard Layer 0 (Background)
//Storyboard Layer 1 (Fail)
//Storyboard Layer 2 (Pass)
//Storyboard Layer 3 (Foreground)
//Storyboard Layer 4 (Overlay)
//Storyboard Sound Samples

[TimingPoints]
580,300,4,2,1,50,1,0
39280,-100,4,2,1,50,0,1
48580,-100,4,2,1,50,0,0
77680,-100,4,2,1,50,0,1
86980,-100,4,2,1,50,0,1
106180,-100,4,2,1,50,0,0

[HitObjects]
475,192,580,128,0,1030:0:0:0:0:
182,192,1030,1,0,0:0:0:0:
402,192,1780,128,0,2230:0:0:0:0:
109,192,2230,1,0,0:0:0:0:
329,192,2980,128,0,3430:0:0:0:0:
36,192,3430,1,0,0:0:0:0:
256,192,4180,128,0,4480:0:0:0:0:
36,192,4480,128,0,4780:0:0:0:0:
256,192,4780,128,0,5080:0:0:0:0:
475,192,5080,128,0,5380:0:0:0:0:
36,192,5380,128,0,5830:0:0:0:0:
329,192,5830,1,0,0:0:0:0:
109,192,6580,128,0,7030:0:0:0:0:
402,192,7030,1,0,0:0:0:0:
182,192,7780,128,0,8230:0:0:0:0:
475,192,8230,1,0,0:0:0:0:
256,192,8980,128,0,9280:0:0:0:0:
475,192,9280,128,0,9580:0:0:0:0:
36,192,9580,128,0,9880:0:0:0:0:
256,192,9880,128,0,10180:0:0:0:0:
36,192,10180,1,0,0:0:0:0:
475,192,10180,1,0,0:0:0:0:
402,192,10330,1,0,0:0:0:0:
329,192,10480,1,0,0:0:0:0:
36,192,10630,1,0,0:0:0:0:
109,192,10780,1,0,0:0:0:0:
182,192,10930,1,0,0:0:0:0:
475,192,11080,1,0,0:0:0:0:
402,192,11230,1,0,0:0:0:0:
329,192,11380,1,0,0:0:0:0:
36,192,11530,1,0,0:0:0:0:
109,192,11680,1,0,0:0:0:0:
182,192,11830,1,0,0:0:0:0:
475,192,11980,1,0,0:0:0:0:
402,192,12130,1,0,0:0:0:0:
329,192,12280,1,0,0:0:0:0:
36,192,12280,1,0,0:0:0:0:
475,192,12580,1,0,0:0:0:0:
182,192,12580,1,0,0:0:0:0:
109,192,12730,1,0,0:0:0:0:
36,192,12880,1,0,0:0:0:0:
329,192,13030,1,0,0:0:0:0:
402,192,13180,1,0,0:0:0:0:
475,192,13330,1,0,0:0:0:0:
182,192,13480,1,0,0:0:0:0:
256,192,13630,1,0,0:0:0:0:
475,192,13780,1,0,0:0:0:0:
36,192,13780,1,0,0:0:0:0:
109,192,14380,1,0,0:0:0:0:
402,192,14380,1,0,0:0:0:0:
402,192,14680,1,0,0:0:0:0:
109,192,14680,1,0,0:0:0:0:
256,192,14980,1,0,0:0:0:0:
36,192,14980,1,0,0:0:0:0:
475,192,15130,1,0,0:0:0:0:
182,192,15280,1,0,0:0:0:0:
402,192,15430,1,0,0:0:0:0:
109,192,15580,1,0,0:0:0:0:
256,192,15580,1,0,0:0:0:0:
329,192,15730,1,0,0:0:0:0:
36,192,15880,1,0,0:0:0:0:
182,192,16030,1,0,0:0:0:0:
475,192,16180,1,0,0:0:0:0:
329,192,16180,1,0,0:0:0:0:
109,192,16330,1,0,0:0:0:0:
256,192,16480,1,0,0:0:0:0:
36,192,16630,1,0,0:0:0:0:
182,192,16780,1,0,0:0:0:0:
329,192,16780,1,0,0:0:0:0:
475,192,16930,1,0,0:0:0:0:
256,192,17080,1,0,0:0:0:0:
109,192,17080,1,0,0:0:0:0:
402,192,17230,1,0,0:0:0:0:
36,192,17380,1,0,0:0:0:0:
329,192,17380,1,0,0:0:0:0:
329,192,17680,1,0,0:0:0:0:
36,192,17680,1,0,0:0:0:0:
182,192,17980,1,0,0:0:0:0:
475,192,17980,1,0,0:0:0:0:
475,192,18280,1,0,0:0:0:0:
182,192,18280,1,0,0:0:0:0:
402,192,18580,1,0,0:0:0:0:
109,192,18580,1,0,0:0:0:0:
109,192,18880,1,0,0:0:0:0:
402,192,18880,1,0,0:0:0:0:
36,192,19180,1,0,0:0:0:0:
329,192,19180,1,0,0:0:0:0:
329,192,19480,1,0,0:0:0:0:
36,192,19480,1,0,0:0:0:0:
109,192,19780,1,0,0:0:0:0:
475,192,19780,1,0,0:0:0:0:
256,192,19930,1,0,0:0:0:0:
402,192,20080,1,0,0:0:0:0:
329,192,20380,1,0,0:0:0:0:
182,192,20530,1,0,0:0:0:0:
36,192,20680,1,0,0:0:0:0:
109,192,20980,1,0,0:0:0:0:
256,192,21130,1,0,0:0:0:0:
402,192,21280,1,0,0:0:0:0:
475,192,21580,1,0,0:0:0:0:
329,192,21730,1,0,0:0:0:0:
182,192,21880,1,0,0:0:0:0:
36,192,22180,1,0,0:0:0:0:
329,192,22330,1,0,0:0:0:0:
109,192,22480,1,0,0:0:0:0:
182,192,22780,1,0,0:0:0:0:
329,192,22930,1,0,0:0:0:0:
36,192,23080,1,0,0:0:0:0:
109,192,23380,1,0,0:0:0:0:
329,192,23530,1,0,0:0:0:0:
182,192,23680,1,0,0:0:0:0:
109,192,23980,1,0,0:0:0:0:
329,192,24130,1,0,0:0:0:0:
402,192,24280,1,0,0:0:0:0:
36,192,24280,1,0,0:0:0:0:
109,192,24580,1,0,0:0:0:0:
475,192,24580,1,0,0:0:0:0:
182,192,24730,1,0,0:0:0:0:
402,192,24880,1,0,0:0:0:0:
329,192,25180,1,0,0:0:0:0:
182,192,25330,1,0,0:0:0:0:
402,192,25480,1,0,0:0:0:0:
475,192,25780,1,0,0:0:0:0:
182,192,25930,1,0,0:0:0:0:
329,192,26080,1,0,0:0:0:0:
402,192,26380,1,0,0:0:0:0:
182,192,26530,1,0,0:0:0:0:
475,192,26680,1,0,0:0:0:0:
256,192,26980,1,0,0:0:0:0:
475,192,27130,1,0,0:0:0:0:
182,192,27280,1,0,0:0:0:0:
402,192,27430,1,0,0:0:0:0:
109,192,27580,1,0,0:0:0:0:
329,192,27730,1,0,0:0:0:0:
36,192,27880,1,0,0:0:0:0:
256,192,28030,1,0,0:0:0:0:
109,192,28180,1,0,0:0:0:0:
402,192,28330,1,0,0:0:0:0:
109,192,28480,1,0,0:0:0:0:
402,192,28630,1,0,0:0:0:0:
182,192,28780,1,0,0:0:0:0:
329,192,28930,1,0,0:0:0:0:
109,192,29080,1,0,0:0:0:0:
256,192,29230,1,0,0:0:0:0:
36,192,29380,1,0,0:0:0:0:
475,192,29380,1,0,0:0:0:0:
402,192,29530,1,0,0:0:0:0:
329,192,29680,1,0,0:0:0:0:
256,192,29830,1,0,0:0:0:0:
182,192,29980,1,0,0:0:0:0:
109,192,30130,1,0,0:0:0:0:
475,192,30280,128,0,30580:0:0:0:0:
36,192,30580,1,0,0:0:0:0:
109,192,30730,1,0,0:0:0:0:
182,192,30880,1,0,0:0:0:0:
256,192,31030,1,0,0:0:0:0:
329,192,31180,1,0,0:0:0:0:
402,192,31330,1,0,0:0:0:0:
36,192,31480,128,0,31780:0:0:0:0:
329,192,31780,1,0,0:0:0:0:
402,192,31930,1,0,0:0:0:0:
475,192,32080,1,0,0:0:0:0:
36,192,32230,1,0,0:0:0:0:
109,192,32380,1,0,0:0:0:0:
182,192,32530,1,0,0:0:0:0:
256,192,32680,128,0,32980:0:0:0:0:
475,192,32980,1,0,0:0:0:0:
329,192,33205,1,0,0:0:0:0:
182,192,33430,1,0,0:0:0:0:
36,192,33655,1,0,0:0:0:0:
256,192,33880,128,0,34180:0:0:0:0:
36,192,34180,1,0,0:0:0:0:
475,192,34180,1,0,0:0:0:0:
402,192,34330,1,0,0:0:0:0:
329,192,34480,1,0,0:0:0:0:
256,192,34630,1,0,0:0:0:0:
182,192,34780,1,0,0:0:0:0:
109,192,34930,1,0,0:0:0:0:
475,192,35080,128,0,35380:0:0:0:0:
36,192,35380,1,0,0:0:0:0:
109,192,35530,1,0,0:0:0:0:
182,192,35680,1,0,0:0:0:0:
256,192,35830,1,0,0:0:0:0:
329,192,35980,1,0,0:0:0:0:
402,192,36130,1,0,0:0:0:0:
36,192,36280,128,0,36580:0:0:0:0:
329,192,36580,1,0,0:0:0:0:
475,192,36580,1,0,0:0:0:0:
109,192,36730,1,0,0:0:0:0:
256,192,36880,1,0,0:0:0:0:
402,192,37030,1,0,0:0:0:0:
182,192,37180,1,0,0:0:0:0:
36,192,37180,1,0,0:0:0:0:
329,192,37330,1,0,0:0:0:0:
475,192,37480,128,0,37780:0:0:0:0:
329,192,37780,1,0,0:0:0:0:
36,192,37780,1,0,0:0:0:0:
109,192,37930,1,0,0:0:0:0:
402,192,37930,1,0,0:0:0:0:
182,192,38230,1,0,0:0:0:0:
475,192,38230,1,0,0:0:0:0:
402,192,38530,1,0,0:0:0:0:
109,192,38530,1,0,0:0:0:0:
329,192,38680,1,0,0:0:0:0:
36,192,38680,1,0,0:0:0:0:
256,192,38830,1,0,0:0:0:0:
475,192,39280,1,0,0:0:0:0:
36,192,39280,1,0,0:0:0:0:
256,192,39430,1,0,0:0:0:0:
329,192,39580,1,0,0:0:0:0:
182,192,39730,1,0,0:0:0:0:
402,192,39880,1,0,0:0:0:0:
109,192,40030,1,0,0:0:0:0:
329,192,40180,1,0,0:0:0:0:
182,192,40480,1,0,0:0:0:0:
475,192,40780,1,0,0:0:0:0:
36,192,40930,1,0,0:0:0:0:
329,192,41080,1,0,0:0:0:0:
182,192,41230,1,0,0:0:0:0:
402,192,41380,1,0,0:0:0:0:
109,192,41680,1,0,0:0:0:0:
329,192,41980,1,0,0:0:0:0:
182,192,42130,1,0,0:0:0:0:
475,192,42280,1,0,0:0:0:0:
36,192,42430,1,0,0:0:0:0:
402,192,42580,1,0,0:0:0:0:
109,192,42880,1,0,0:0:0:0:
475,192,43180,1,0,0:0:0:0:
36,192,43330,1,0,0:0:0:0:
329,192,43480,1,0,0:0:0:0:
182,192,43630,1,0,0:0:0:0:
402,192,43780,1,0,0:0:0:0:
256,192,43780,1,0,0:0:0:0:
109,192,43930,1,0,0:0:0:0:
402,192,44080,1,0,0:0:0:0:
109,192,44230,1,0,0:0:0:0:
329,192,44380,1,0,0:0:0:0:
182,192,44530,1,0,0:0:0:0:
329,192,44680,128,0,44980:0:0:0:0:
36,192,44980,1,0,0:0:0:0:
256,192,44980,1,0,0:0:0:0:
475,192,45130,1,0,0:0:0:0:
36,192,45280,1,0,0:0:0:0:
475,192,45430,1,0,0:0:0:0:
256,192,45580,1,0,0:0:0:0:
36,192,45730,1,0,0:0:0:0:
256,192,45880,1,0,0:0:0:0:
475,192,46030,1,0,0:0:0:0:
182,192,46180,1,0,0:0:0:0:
109,192,46255,1,0,0:0:0:0:
36,192,46330,1,0,0:0:0:0:
402,192,46480,1,0,0:0:0:0:
329,192,46555,1,0,0:0:0:0:
256,192,46630,1,0,0:0:0:0:
36,192,46780,1,0,0:0:0:0:
475,192,46780,1,0,0:0:0:0:
329,192,46930,1,0,0:0:0:0:
109,192,47080,1,0,0:0:0:0:
402,192,47230,1,0,0:0:0:0:
256,192,47380,1,0,0:0:0:0:
36,192,47380,1,0,0:0:0:0:
109,192,47680,1,0,0:0:0:0:
329,192,47680,1,0,0:0:0:0:
182,192,47980,1,0,0:0:0:0:
402,192,47980,1,0,0:0:0:0:
256,192,48280,1,0,0:0:0:0:
475,192,48280,1,0,0:0:0:0:
36,192,48580,128,0,49030:0:0:0:0:
182,192,48580,1,0,0:0:0:0:
329,192,49030,1,0,0:0:0:0:
109,192,49780,128,0,50230:0:0:0:0:
402,192,50230,1,0,0:0:0:0:
182,192,50980,128,0,51430:0:0:0:0:
475,192,51430,1,0,0:0:0:0:
329,192,52180,128,0,52480:0:0:0:0:
475,192,52480,128,0,52780:0:0:0:0:
182,192,52780,128,0,53080:0:0:0:0:
36,192,53080,128,0,53380:0:0:0:0:
475,192,53380,128,0,53830:0:0:0:0:
182,192,53830,1,0,0:0:0:0:
402,192,54580,128,0,55030:0:0:0:0:
109,192,55030,1,0,0:0:0:0:
329,192,55780,128,0,56230:0:0:0:0:
36,192,56230,1,0,0:0:0:0:
256,192,56980,128,0,57280:0:0:0:0:
109,192,57280,128,0,57580:0:0:0:0:
402,192,57580,128,0,57880:0:0:0:0:
256,192,57880,128,0,58180:0:0:0:0:
182,192,58180,1,0,0:0:0:0:
475,192,58180,1,0,0:0:0:0:
402,192,58330,1,0,0:0:0:0:
329,192,58480,1,0,0:0:0:0:
36,192,58630,1,0,0:0:0:0:
109,192,58780,1,0,0:0:0:0:
182,192,58930,1,0,0:0:0:0:
475,192,59080,1,0,0:0:0:0:
402,192,59230,1,0,0:0:0:0:
256,192,59380,128,0,59680:0:0:0:0:
109,192,59680,128,0,59980:0:0:0:0:
329,192,59980,1,0,0:0:0:0:
402,192,60130,1,0,0:0:0:0:
475,192,60280,1,0,0:0:0:0:
182,192,60280,1,0,0:0:0:0:
256,192,60430,1,0,0:0:0:0:
36,192,60580,1,0,0:0:0:0:
329,192,60580,1,0,0:0:0:0:
182,192,60880,1,0,0:0:0:0:
109,192,61030,1,0,0:0:0:0:
329,192,61180,1,0,0:0:0:0:
36,192,61180,1,0,0:0:0:0:
475,192,61480,1,0,0:0:0:0:
182,192,61480,1,0,0:0:0:0:
36,192,61780,1,0,0:0:0:0:
256,192,61780,1,0,0:0:0:0:
329,192,62005,1,0,0:0:0:0:
109,192,62005,1,0,0:0:0:0:
182,192,62230,1,0,0:0:0:0:
402,192,62230,1,0,0:0:0:0:
329,192,62380,1,0,0:0:0:0:
109,192,62380,1,0,0:0:0:0:
256,192,62605,1,0,0:0:0:0:
475,192,62605,1,0,0:0:0:0:
329,192,62830,1,0,0:0:0:0:
109,192,62830,1,0,0:0:0:0:
402,192,62980,1,0,0:0:0:0:
36,192,62980,1,0,0:0:0:0:
182,192,63130,1,0,0:0:0:0:
329,192,63280,1,0,0:0:0:0:
109,192,63430,1,0,0:0:0:0:
256,192,63580,1,0,0:0:0:0:
475,192,63580,1,0,0:0:0:0:
402,192,63730,1,0,0:0:0:0:
36,192,63880,1,0,0:0:0:0:
329,192,63880,1,0,0:0:0:0:
109,192,64030,1,0,0:0:0:0:
475,192,64180,1,0,0:0:0:0:
182,192,64180,1,0,0:0:0:0:
329,192,64330,1,0,0:0:0:0:
109,192,64480,1,0,0:0:0:0:
402,192,64630,1,0,0:0:0:0:
256,192,64780,1,0,0:0:0:0:
475,192,64780,1,0,0:0:0:0:
36,192,64930,1,0,0:0:0:0:
329,192,65080,1,0,0:0:0:0:
109,192,65080,1,0,0:0:0:0:
182,192,65230,1,0,0:0:0:0:
36,192,65380,1,0,0:0:0:0:
402,192,65380,1,0,0:0:0:0:
329,192,65680,1,0,0:0:0:0:
36,192,65680,1,0,0:0:0:0:
109,192,65980,1,0,0:0:0:0:
475,192,65980,1,0,0:0:0:0:
475,192,66280,1,0,0:0:0:0:
182,192,66280,1,0,0:0:0:0:
402,192,66580,1,0,0:0:0:0:
109,192,66580,1,0,0:0:0:0:
256,192,66730,1,0,0:0:0:0:
475,192,66880,1,0,0:0:0:0:
36,192,66880,1,0,0:0:0:0:
256,192,67030,1,0,0:0:0:0:
182,192,67180,1,0,0:0:0:0:
329,192,67180,1,0,0:0:0:0:
256,192,67330,1,0,0:0:0:0:
109,192,67480,1,0,0:0:0:0:
402,192,67480,1,0,0:0:0:0:
329,192,67780,1,0,0:0:0:0:
36,192,67780,1,0,0:0:0:0:
109,192,67930,1,0,0:0:0:0:
475,192,68080,1,0,0:0:0:0:
182,192,68080,1,0,0:0:0:0:
402,192,68380,1,0,0:0:0:0:
329,192,68530,1,0,0:0:0:0:
36,192,68680,1,0,0:0:0:0:
256,192,68680,128,0,68980:0:0:0:0:
475,192,68980,1,0,0:0:0:0:
402,192,69130,1,0,0:0:0:0:
329,192,69280,1,0,0:0:0:0:
36,192,69280,1,0,0:0:0:0:
109,192,69580,1,0,0:0:0:0:
182,192,69730,1,0,0:0:0:0:
256,192,69880,128,0,70180:0:0:0:0:
475,192,69880,1,0,0:0:0:0:
36,192,70180,1,0,0:0:0:0:
109,192,70330,1,0,0:0:0:0:
182,192,70480,1,0,0:0:0:0:
475,192,70480,1,0,0:0:0:0:
402,192,70780,1,0,0:0:0:0:
329,192,70930,1,0,0:0:0:0:
256,192,71080,128,0,71380:0:0:0:0:
36,192,71080,1,0,0:0:0:0:
109,192,71380,1,0,0:0:0:0:
256,192,71530,1,0,0:0:0:0:
402,192,71680,1,0,0:0:0:0:
36,192,71680,1,0,0:0:0:0:
182,192,71830,1,0,0:0:0:0:
329,192,71980,1,0,0:0:0:0:
475,192,72130,1,0,0:0:0:0:
109,192,72280,1,0,0:0:0:0:
256,192,72280,1,0,0:0:0:0:
36,192,72580,1,0,0:0:0:0:
329,192,72580,1,0,0:0:0:0:
109,192,72730,1,0,0:0:0:0:
182,192,72880,1,0,0:0:0:0:
475,192,72880,1,0,0:0:0:0:
402,192,73180,1,0,0:0:0:0:
329,192,73330,1,0,0:0:0:0:
256,192,73480,128,0,73780:0:0:0:0:
36,192,73480,1,0,0:0:0:0:
475,192,73780,1,0,0:0:0:0:
402,192,73930,1,0,0:0:0:0:
36,192,74080,1,0,0:0:0:0:
329,192,74080,1,0,0:0:0:0:
109,192,74380,1,0,0:0:0:0:
182,192,74530,1,0,0:0:0:0:
475,192,74680,1,0,0:0:0:0:
256,192,74680,128,0,74980:0:0:0:0:
36,192,74980,1,0,0:0:0:0:
109,192,75130,1,0,0:0:0:0:
475,192,75280,1,0,0:0:0:0:
182,192,75280,1,0,0:0:0:0:
402,192,75580,1,0,0:0:0:0:
329,192,75730,1,0,0:0:0:0:
36,192,75880,1,0,0:0:0:0:
256,192,75880,128,0,76180:0:0:0:0:
109,192,76180,1,0,0:0:0:0:
256,192,76330,1,0,0:0:0:0:
36,192,76480,1,0,0:0:0:0:
402,192,76480,1,0,0:0:0:0:
182,192,76630,1,0,0:0:0:0:
329,192,76780,1,0,0:0:0:0:
475,192,76930,1,0,0:0:0:0:
109,192,77080,1,0,0:0:0:0:
256,192,77080,1,0,0:0:0:0:
402,192,77230,1,0,0:0:0:0:
329,192,77680,1,0,0:0:0:0:
109,192,77680,1,0,0:0:0:0:
402,192,77980,1,0,0:0:0:0:
182,192,77980,1,0,0:0:0:0:
36,192,78130,1,0,0:0:0:0:
256,192,78280,1,0,0:0:0:0:
475,192,78280,1,0,0:0:0:0:
109,192,78430,1,0,0:0:0:0:
402,192,78580,1,0,0:0:0:0:
329,192,78580,1,0,0:0:0:0:
182,192,78880,1,0,0:0:0:0:
36,192,78880,1,0,0:0:0:0:
475,192,79180,1,0,0:0:0:0:
256,192,79180,1,0,0:0:0:0:
36,192,79330,1,0,0:0:0:0:
182,192,79480,1,0,0:0:0:0:
402,192,79480,1,0,0:0:0:0:
256,192,79630,1,0,0:0:0:0:
329,192,79780,1,0,0:0:0:0:
109,192,79780,1,0,0:0:0:0:
475,192,80080,1,0,0:0:0:0:
182,192,80080,1,0,0:0:0:0:
402,192,80380,1,0,0:0:0:0:
36,192,80380,1,0,0:0:0:0:
256,192,80530,1,0,0:0:0:0:
109,192,80680,1,0,0:0:0:0:
475,192,80680,1,0,0:0:0:0:
329,192,80830,1,0,0:0:0:0:
402,192,80980,1,0,0:0:0:0:
182,192,80980,1,0,0:0:0:0:
109,192,81280,1,0,0:0:0:0:
475,192,81280,1,0,0:0:0:0:
182,192,81580,1,0,0:0:0:0:
402,192,81580,1,0,0:0:0:0:
329,192,81730,1,0,0:0:0:0:
256,192,81880,1,0,0:0:0:0:
36,192,81880,1,0,0:0:0:0:
109,192,82030,1,0,0:0:0:0:
182,192,82180,1,0,0:0:0:0:
475,192,82180,1,0,0:0:0:0:
402,192,82330,1,0,0:0:0:0:
329,192,82480,1,0,0:0:0:0:
256,192,82630,1,0,0:0:0:0:
36,192,82780,1,0,0:0:0:0:
109,192,82930,1,0,0:0:0:0:
182,192,83080,128,0,83380:0:0:0:0:
36,192,83380,1,0,0:0:0:0:
475,192,83380,1,0,0:0:0:0:
329,192,83530,1,0,0:0:0:0:
182,192,83680,1,0,0:0:0:0:
36,192,83830,1,0,0:0:0:0:
475,192,83980,1,0,0:0:0:0:
402,192,84130,1,0,0:0:0:0:
329,192,84280,128,0,84580:0:0:0:0:
475,192,84580,1,0,0:0:0:0:
36,192,84580,1,0,0:0:0:0:
182,192,84730,1,0,0:0:0:0:
256,192,84880,1,0,0:0:0:0:
329,192,85030,1,0,0:0:0:0:
402,192,85180,1,0,0:0:0:0:
109,192,85180,1,0,0:0:0:0:
329,192,85330,1,0,0:0:0:0:
256,192,85480,1,0,0:0:0:0:
182,192,85630,1,0,0:0:0:0:
36,192,85780,1,0,0:0:0:0:
475,192,85780,1,0,0:0:0:0:
329,192,86005,1,0,0:0:0:0:
182,192,86005,1,0,0:0:0:0:
109,192,86230,1,0,0:0:0:0:
402,192,86230,1,0,0:0:0:0:
36,192,86380,1,0,0:0:0:0:
475,192,86380,1,0,0:0:0:0:
182,192,86680,1,0,0:0:0:0:
329,192,86680,1,0,0:0:0:0:
109,192,86980,1,0,0:0:0:0:
475,192,86980,1,0,0:0:0:0:
402,192,87130,1,0,0:0:0:0:
329,192,87280,1,0,0:0:0:0:
36,192,87280,1,0,0:0:0:0:
109,192,87430,1,0,0:0:0:0:
182,192,87580,1,0,0:0:0:0:
402,192,87580,1,0,0:0:0:0:
256,192,87730,1,0,0:0:0:0:
329,192,87880,1,0,0:0:0:0:
109,192,87880,1,0,0:0:0:0:
475,192,88180,1,0,0:0:0:0:
256,192,88180,1,0,0:0:0:0:
182,192,88330,1,0,0:0:0:0:
109,192,88480,1,0,0:0:0:0:
402,192,88480,1,0,0:0:0:0:
36,192,88630,1,0,0:0:0:0:
256,192,88780,1,0,0:0:0:0:
475,192,88780,1,0,0:0:0:0:
329,192,88930,1,0,0:0:0:0:
109,192,89080,1,0,0:0:0:0:
402,192,89080,1,0,0:0:0:0:
256,192,89380,1,0,0:0:0:0:
36,192,89380,1,0,0:0:0:0:
109,192,89530,1,0,0:0:0:0:
182,192,89680,1,0,0:0:0:0:
402,192,89680,1,0,0:0:0:0:
256,192,89830,1,0,0:0:0:0:
329,192,89980,1,0,0:0:0:0:
109,192,89980,1,0,0:0:0:0:
36,192,90130,1,0,0:0:0:0:
256,192,90280,1,0,0:0:0:0:
475,192,90280,1,0,0:0:0:0:
402,192,90580,1,0,0:0:0:0:
182,192,90580,1,0,0:0:0:0:
256,192,90730,1,0,0:0:0:0:
329,192,90880,1,0,0:0:0:0:
36,192,90880,1,0,0:0:0:0:
402,192,91030,1,0,0:0:0:0:
182,192,91180,1,0,0:0:0:0:
475,192,91180,1,0,0:0:0:0:
256,192,91330,1,0,0:0:0:0:
109,192,91480,1,0,0:0:0:0:
329,192,91480,1,0,0:0:0:0:
256,192,91780,1,0,0:0:0:0:
36,192,91780,1,0,0:0:0:0:
182,192,91930,1,0,0:0:0:0:
109,192,92080,1,0,0:0:0:0:
329,192,92080,1,0,0:0:0:0:
256,192,92230,1,0,0:0:0:0:
402,192,92380,1,0,0:0:0:0:
182,192,92380,1,0,0:0:0:0:
329,192,92530,1,0,0:0:0:0:
256,192,92680,1,0,0:0:0:0:
475,192,92680,1,0,0:0:0:0:
329,192,92980,1,0,0:0:0:0:
109,192,92980,1,0,0:0:0:0:
182,192,93130,1,0,0:0:0:0:
256,192,93280,1,0,0:0:0:0:
36,192,93280,1,0,0:0:0:0:
329,192,93430,1,0,0:0:0:0:
402,192,93580,1,0,0:0:0:0:
182,192,93580,1,0,0:0:0:0:
109,192,93655,1,0,0:0:0:0:
256,192,93805,1,0,0:0:0:0:
475,192,93805,1,0,0:0:0:0:
182,192,94030,1,0,0:0:0:0:
402,192,94030,1,0,0:0:0:0:
36,192,94180,1,0,0:0:0:0:
256,192,94180,1,0,0:0:0:0:
109,192,94405,1,0,0:0:0:0:
329,192,94405,1,0,0:0:0:0:
182,192,94630,1,0,0:0:0:0:
402,192,94630,1,0,0:0:0:0:
329,192,94780,1,0,0:0:0:0:
109,192,94780,1,0,0:0:0:0:
475,192,95005,1,0,0:0:0:0:
256,192,95005,1,0,0:0:0:0:
402,192,95230,1,0,0:0:0:0:
182,192,95230,1,0,0:0:0:0:
109,192,95380,1,0,0:0:0:0:
329,192,95380,1,0,0:0:0:0:
475,192,95680,1,0,0:0:0:0:
182,192,95680,1,0,0:0:0:0:
36,192,95980,1,0,0:0:0:0:
329,192,95980,1,0,0:0:0:0:
109,192,96280,1,0,0:0:0:0:
402,192,96280,1,0,0:0:0:0:
256,192,96580,1,0,0:0:0:0:
475,192,96580,1,0,0:0:0:0:
182,192,96730,1,0,0:0:0:0:
109,192,96880,1,0,0:0:0:0:
402,192,96880,1,0,0:0:0:0:
329,192,97030,1,0,0:0:0:0:
256,192,97180,1,0,0:0:0:0:
36,192,97180,1,0,0:0:0:0:
109,192,97330,1,0,0:0:0:0:
182,192,97480,1,0,0:0:0:0:
402,192,97480,1,0,0:0:0:0:
329,192,97630,1,0,0:0:0:0:
256,192,97780,1,0,0:0:0:0:
475,192,97780,1,0,0:0:0:0:
182,192,97930,1,0,0:0:0:0:
109,192,98080,1,0,0:0:0:0:
402,192,98080,1,0,0:0:0:0:
329,192,98230,1,0,0:0:0:0:
256,192,98380,1,0,0:0:0:0:
36,192,98380,1,0,0:0:0:0:
109,192,98530,1,0,0:0:0:0:
182,192,98680,1,0,0:0:0:0:
402,192,98680,1,0,0:0:0:0:
256,192,98980,1,0,0:0:0:0:
475,192,98980,1,0,0:0:0:0:
402,192,99130,1,0,0:0:0:0:
329,192,99280,1,0,0:0:0:0:
109,192,99280,1,0,0:0:0:0:
182,192,99430,1,0,0:0:0:0:
256,192,99580,1,0,0:0:0:0:
36,192,99580,1,0,0:0:0:0:
109,192,99730,1,0,0:0:0:0:
182,192,99880,1,0,0:0:0:0:
402,192,99880,1,0,0:0:0:0:
329,192,100030,1,0,0:0:0:0:
256,192,100180,1,0,0:0:0:0:
475,192,100180,1,0,0:0:0:0:
36,192,100330,1,0,0:0:0:0:
329,192,100480,1,0,0:0:0:0:
109,192,100480,1,0,0:0:0:0:
256,192,100630,1,0,0:0:0:0:
182,192,100780,1,0,0:0:0:0:
475,192,100780,1,0,0:0:0:0:
402,192,100930,1,0,0:0:0:0:
329,192,101080,1,0,0:0:0:0:
109,192,101080,1,0,0:0:0:0:
182,192,101380,1,0,0:0:0:0:
402,192,101380,1,0,0:0:0:0:
109,192,101530,1,0,0:0:0:0:
329,192,101680,1,0,0:0:0:0:
36,192,101680,1,0,0:0:0:0:
256,192,101830,1,0,0:0:0:0:
109,192,101980,1,0,0:0:0:0:
402,192,101980,1,0,0:0:0:0:
182,192,102130,1,0,0:0:0:0:
256,192,102280,1,0,0:0:0:0:
475,192,102280,1,0,0:0:0:0:
402,192,102430,1,0,0:0:0:0:
329,192,102580,1,0,0:0:0:0:
109,192,102580,1,0,0:0:0:0:
182,192,102730,1,0,0:0:0:0:
256,192,102880,1,0,0:0:0:0:
475,192,102880,1,0,0:0:0:0:
329,192,103030,1,0,0:0:0:0:
402,192,103180,1,0,0:0:0:0:
36,192,103180,1,0,0:0:0:0:
182,192,103330,1,0,0:0:0:0:
329,192,103480,1,0,0:0:0:0:
109,192,103480,1,0,0:0:0:0:
256,192,103630,1,0,0:0:0:0:
182,192,103780,1,0,0:0:0:0:
402,192,103780,1,0,0:0:0:0:
329,192,103930,1,0,0:0:0:0:
256,192,104080,1,0,0:0:0:0:
36,192,104080,1,0,0:0:0:0:
109,192,104230,1,0,0:0:0:0:
182,192,104380,1,0,0:0:0:0:
402,192,104380,1,0,0:0:0:0:
329,192,104530,1,0,0:0:0:0:
256,192,104680,1,0,0:0:0:0:
475,192,104680,1,0,0:0:0:0:
402,192,104830,1,0,0:0:0:0:
36,192,104980,1,0,0:0:0:0:
329,192,104980,1,0,0:0:0:0:
256,192,105130,1,0,0:0:0:0:
182,192,105280,1,0,0:0:0:0:
475,192,105280,1,0,0:0:0:0:
256,192,105430,1,0,0:0:0:0:
36,192,105580,1,0,0:0:0:0:
329,192,105580,1,0,0:0:0:0:
256,192,105730,1,0,0:0:0:0:
475,192,105880,128,0,106180:0:0:0:0:
182,192,105880,128,0,106180:0:0:0:0:
109,192,106180,1,0,0:0:0:0:
