osu file format v14

[General]
AudioFilename: audio.mp3
AudioLeadIn: 0
PreviewTime: 29380
Countdown: 0
SampleSet: Soft
StackLeniency: 0.7
Mode: 3
LetterboxInBreaks: 0
SpecialStyle: 0
WidescreenStoryboard: 0

[Editor]
Bookmarks: 29375,34175,43325,47605,47755,47980,48055,48205,48355,48505,58175,67775,72575,81725,94175,94775
DistanceSpacing: 1
BeatDivisor: 4
GridSize: 32
TimelineZoom: 2.1

[Metadata]
Title:White Aura
TitleUnicode:White Aura
Artist:HyuN
ArtistUnicode:HyuN
Creator:Niks
Version:Extreme
Source:
Tags:INFX KRUX electronic instrumental FA featured artist stream BMS STAGE 2 taba2 blue happy hardcore piano mappers' guild mpg
BeatmapID:4184221
BeatmapSetID:2010834

[Difficulty]
HPDrainRate:8
CircleSize:7
OverallDifficulty:8
ApproachRate:5
SliderMultiplier:1.4
SliderTickRate:1

[Events]
//Background and Video events
0,0,"hd-wallpaper-g7d63d5c29_1920.jpg",0,0
//Break Periods
//Storyboard Layer 0 (Background)
//Storyboard Layer 1 (Fail)
//Storyboard Layer 2 (Pass)
//Storyboard Layer 3 (Foreground)
//Storyboard Layer 4 (Overlay)
//Storyboard Sound Samples

[TimingPoints]
580,300,4,2,1,50,1,0
38980,-200,4,2,1,50,0,0
39129,-66.6666666666667,4,2,1,50,0,0
39280,-100,4,2,1,50,0,1
48580,-100,4,2,1,50,0,0
77380,-200,4,2,1,50,0,0
77529,-66.6666666666667,4,2,1,50,0,0
77680,-100,4,2,1,50,0,1
106180,-100,4,2,1,50,0,0

[HitObjects]
329,192,580,128,0,730:0:0:0:0:
109,192,730,128,0,880:0:0:0:0:
256,192,880,128,0,1030:0:0:0:0:
402,192,1030,128,0,1180:0:0:0:0:
109,192,1330,128,0,1480:0:0:0:0:
256,192,1480,128,0,1630:0:0:0:0:
402,192,1630,128,0,1780:0:0:0:0:
109,192,1930,128,0,2080:0:0:0:0:
256,192,2080,128,0,2230:0:0:0:0:
402,192,2230,128,0,2380:0:0:0:0:
109,192,2530,128,0,2680:0:0:0:0:
256,192,2680,128,0,2830:0:0:0:0:
402,192,2830,128,0,2980:0:0:0:0:
109,192,3130,128,0,3280:0:0:0:0:
256,192,3280,128,0,3430:0:0:0:0:
402,192,3430,128,0,3580:0:0:0:0:
109,192,3730,128,0,3880:0:0:0:0:
256,192,3880,128,0,4030:0:0:0:0:
402,192,4030,128,0,4180:0:0:0:0:
182,192,4180,128,0,4330:0:0:0:0:
36,192,4330,128,0,4480:0:0:0:0:
182,192,4480,128,0,4630:0:0:0:0:
402,192,4630,128,0,4780:0:0:0:0:
256,192,4780,128,0,4930:0:0:0:0:
475,192,4930,128,0,5080:0:0:0:0:
329,192,5080,128,0,5230:0:0:0:0:
182,192,5230,128,0,5380:0:0:0:0:
36,192,5380,128,0,5530:0:0:0:0:
402,192,5530,128,0,5680:0:0:0:0:
256,192,5680,128,0,5830:0:0:0:0:
109,192,5830,128,0,5980:0:0:0:0:
402,192,6130,128,0,6280:0:0:0:0:
256,192,6280,128,0,6430:0:0:0:0:
109,192,6430,128,0,6580:0:0:0:0:
402,192,6730,128,0,6880:0:0:0:0:
256,192,6880,128,0,7030:0:0:0:0:
109,192,7030,128,0,7180:0:0:0:0:
402,192,7330,128,0,7480:0:0:0:0:
256,192,7480,128,0,7630:0:0:0:0:
109,192,7630,128,0,7780:0:0:0:0:
402,192,7930,128,0,8080:0:0:0:0:
256,192,8080,128,0,8230:0:0:0:0:
109,192,8230,128,0,8380:0:0:0:0:
402,192,8530,128,0,8680:0:0:0:0:
256,192,8680,128,0,8830:0:0:0:0:
109,192,8830,128,0,8980:0:0:0:0:
402,192,8980,128,0,9130:0:0:0:0:
256,192,9130,128,0,9280:0:0:0:0:
182,192,9280,128,0,9430:0:0:0:0:
36,192,9430,128,0,9580:0:0:0:0:
329,192,9580,128,0,9730:0:0:0:0:
109,192,9730,128,0,9880:0:0:0:0:
256,192,9880,128,0,10030:0:0:0:0:
402,192,10030,128,0,10180:0:0:0:0:
182,192,10180,128,0,10330:0:0:0:0:
329,192,10180,128,0,10330:0:0:0:0:
36,192,10180,1,0,0:0:0:0:
256,192,10180,1,0,0:0:0:0:
109,192,10330,128,0,10480:0:0:0:0:
402,192,10330,128,0,10480:0:0:0:0:
36,192,10480,128,0,10630:0:0:0:0:
475,192,10480,128,0,10630:0:0:0:0:
182,192,10630,128,0,10780:0:0:0:0:
329,192,10630,128,0,11380:0:0:0:0:
109,192,10780,128,0,10930:0:0:0:0:
36,192,10930,128,0,11080:0:0:0:0:
475,192,11080,1,0,0:0:0:0:
256,192,11080,1,0,0:0:0:0:
182,192,11080,128,0,11230:0:0:0:0:
109,192,11230,128,0,11380:0:0:0:0:
36,192,11380,128,0,11530:0:0:0:0:
402,192,11380,128,0,11530:0:0:0:0:
182,192,11530,128,0,11680:0:0:0:0:
329,192,11530,128,0,11680:0:0:0:0:
109,192,11680,128,0,11830:0:0:0:0:
475,192,11680,128,0,11830:0:0:0:0:
256,192,11680,1,0,0:0:0:0:
36,192,11830,128,0,11980:0:0:0:0:
402,192,11830,128,0,12280:0:0:0:0:
182,192,11980,128,0,12130:0:0:0:0:
109,192,12130,128,0,12280:0:0:0:0:
182,192,12280,1,0,0:0:0:0:
256,192,12280,1,0,0:0:0:0:
329,192,12280,1,0,0:0:0:0:
36,192,12280,1,0,0:0:0:0:
256,192,12580,128,0,12730:0:0:0:0:
475,192,12580,128,0,12730:0:0:0:0:
36,192,12580,1,0,0:0:0:0:
329,192,12580,1,0,0:0:0:0:
182,192,12730,128,0,12880:0:0:0:0:
402,192,12730,128,0,12880:0:0:0:0:
109,192,12880,128,0,13030:0:0:0:0:
329,192,12880,128,0,13030:0:0:0:0:
475,192,12880,1,0,0:0:0:0:
256,192,13030,128,0,13180:0:0:0:0:
402,192,13030,128,0,13480:0:0:0:0:
182,192,13180,128,0,13330:0:0:0:0:
109,192,13330,128,0,13480:0:0:0:0:
36,192,13480,128,0,13630:0:0:0:0:
256,192,13480,1,0,0:0:0:0:
329,192,13480,1,0,0:0:0:0:
182,192,13630,128,0,13780:0:0:0:0:
329,192,13780,1,0,0:0:0:0:
402,192,13780,1,0,0:0:0:0:
475,192,13780,1,0,0:0:0:0:
36,192,13780,128,0,13930:0:0:0:0:
256,192,13930,128,0,14080:0:0:0:0:
109,192,13930,128,0,14080:0:0:0:0:
475,192,14080,1,0,0:0:0:0:
329,192,14080,128,0,14230:0:0:0:0:
36,192,14080,1,0,0:0:0:0:
182,192,14230,1,0,0:0:0:0:
402,192,14230,128,0,14380:0:0:0:0:
109,192,14305,1,0,0:0:0:0:
256,192,14380,128,0,14530:0:0:0:0:
36,192,14380,1,0,0:0:0:0:
475,192,14380,1,0,0:0:0:0:
329,192,14380,1,0,0:0:0:0:
402,192,14530,128,0,14680:0:0:0:0:
182,192,14680,128,0,14830:0:0:0:0:
109,192,14680,1,0,0:0:0:0:
36,192,14680,1,0,0:0:0:0:
475,192,14680,1,0,0:0:0:0:
329,192,14830,128,0,14980:0:0:0:0:
36,192,14980,1,0,0:0:0:0:
402,192,14980,1,0,0:0:0:0:
475,192,14980,1,0,0:0:0:0:
256,192,14980,128,0,15080:0:0:0:0:
182,192,15080,128,0,15180:0:0:0:0:
475,192,15130,1,0,0:0:0:0:
109,192,15180,128,0,15280:0:0:0:0:
329,192,15280,128,0,15380:0:0:0:0:
36,192,15280,1,0,0:0:0:0:
256,192,15380,128,0,15480:0:0:0:0:
36,192,15430,1,0,0:0:0:0:
182,192,15480,128,0,15580:0:0:0:0:
402,192,15580,128,0,15680:0:0:0:0:
256,192,15580,1,0,0:0:0:0:
109,192,15580,1,0,0:0:0:0:
475,192,15580,1,0,0:0:0:0:
329,192,15680,128,0,15780:0:0:0:0:
109,192,15730,1,0,0:0:0:0:
256,192,15780,128,0,15880:0:0:0:0:
182,192,15880,1,0,0:0:0:0:
402,192,15880,1,0,0:0:0:0:
109,192,15955,1,0,0:0:0:0:
329,192,15955,1,0,0:0:0:0:
256,192,16030,1,0,0:0:0:0:
475,192,16030,1,0,0:0:0:0:
182,192,16105,1,0,0:0:0:0:
402,192,16105,1,0,0:0:0:0:
109,192,16180,1,0,0:0:0:0:
36,192,16180,1,0,0:0:0:0:
329,192,16180,1,0,0:0:0:0:
109,192,16330,1,0,0:0:0:0:
329,192,16330,1,0,0:0:0:0:
402,192,16405,1,0,0:0:0:0:
182,192,16405,1,0,0:0:0:0:
256,192,16480,1,0,0:0:0:0:
475,192,16480,1,0,0:0:0:0:
256,192,16630,1,0,0:0:0:0:
36,192,16630,1,0,0:0:0:0:
109,192,16705,1,0,0:0:0:0:
329,192,16705,1,0,0:0:0:0:
402,192,16780,1,0,0:0:0:0:
182,192,16780,1,0,0:0:0:0:
475,192,16780,1,0,0:0:0:0:
36,192,16780,1,0,0:0:0:0:
182,192,16930,1,0,0:0:0:0:
402,192,16930,1,0,0:0:0:0:
36,192,17080,1,0,0:0:0:0:
256,192,17080,1,0,0:0:0:0:
475,192,17080,1,0,0:0:0:0:
402,192,17155,1,0,0:0:0:0:
182,192,17155,1,0,0:0:0:0:
36,192,17230,1,0,0:0:0:0:
256,192,17230,1,0,0:0:0:0:
329,192,17305,1,0,0:0:0:0:
109,192,17305,1,0,0:0:0:0:
182,192,17380,1,0,0:0:0:0:
256,192,17380,1,0,0:0:0:0:
475,192,17380,1,0,0:0:0:0:
402,192,17455,1,0,0:0:0:0:
329,192,17455,1,0,0:0:0:0:
109,192,17530,1,0,0:0:0:0:
182,192,17530,1,0,0:0:0:0:
475,192,17605,1,0,0:0:0:0:
402,192,17605,1,0,0:0:0:0:
109,192,17680,1,0,0:0:0:0:
36,192,17680,1,0,0:0:0:0:
182,192,17717,1,0,0:0:0:0:
256,192,17755,1,0,0:0:0:0:
329,192,17792,1,0,0:0:0:0:
36,192,17830,1,0,0:0:0:0:
109,192,17867,1,0,0:0:0:0:
182,192,17905,1,0,0:0:0:0:
256,192,17942,1,0,0:0:0:0:
329,192,17980,1,0,0:0:0:0:
402,192,17980,1,0,0:0:0:0:
475,192,17980,1,0,0:0:0:0:
36,192,18055,1,0,0:0:0:0:
109,192,18055,1,0,0:0:0:0:
182,192,18130,1,0,0:0:0:0:
256,192,18130,1,0,0:0:0:0:
109,192,18205,1,0,0:0:0:0:
36,192,18205,1,0,0:0:0:0:
402,192,18280,1,0,0:0:0:0:
475,192,18280,1,0,0:0:0:0:
329,192,18317,1,0,0:0:0:0:
256,192,18355,1,0,0:0:0:0:
182,192,18392,1,0,0:0:0:0:
475,192,18430,1,0,0:0:0:0:
402,192,18467,1,0,0:0:0:0:
329,192,18505,1,0,0:0:0:0:
256,192,18542,1,0,0:0:0:0:
182,192,18580,1,0,0:0:0:0:
109,192,18580,1,0,0:0:0:0:
36,192,18580,1,0,0:0:0:0:
36,192,18730,1,0,0:0:0:0:
109,192,18767,1,0,0:0:0:0:
182,192,18805,1,0,0:0:0:0:
256,192,18842,1,0,0:0:0:0:
329,192,18880,1,0,0:0:0:0:
402,192,18880,1,0,0:0:0:0:
475,192,18880,1,0,0:0:0:0:
475,192,19030,1,0,0:0:0:0:
402,192,19067,1,0,0:0:0:0:
329,192,19105,1,0,0:0:0:0:
256,192,19142,1,0,0:0:0:0:
36,192,19180,1,0,0:0:0:0:
109,192,19180,1,0,0:0:0:0:
182,192,19180,1,0,0:0:0:0:
475,192,19255,1,0,0:0:0:0:
402,192,19255,1,0,0:0:0:0:
109,192,19330,1,0,0:0:0:0:
256,192,19330,1,0,0:0:0:0:
475,192,19405,1,0,0:0:0:0:
329,192,19405,1,0,0:0:0:0:
182,192,19480,1,0,0:0:0:0:
36,192,19480,1,0,0:0:0:0:
256,192,19517,1,0,0:0:0:0:
329,192,19555,1,0,0:0:0:0:
402,192,19592,1,0,0:0:0:0:
109,192,19630,1,0,0:0:0:0:
182,192,19667,1,0,0:0:0:0:
256,192,19705,1,0,0:0:0:0:
329,192,19742,1,0,0:0:0:0:
402,192,19780,1,0,0:0:0:0:
475,192,19780,1,0,0:0:0:0:
36,192,19780,1,0,0:0:0:0:
109,192,19780,1,0,0:0:0:0:
256,192,19930,128,0,20080:0:0:0:0:
329,192,19930,128,0,20080:0:0:0:0:
109,192,20080,1,0,0:0:0:0:
402,192,20080,1,0,0:0:0:0:
475,192,20080,1,0,0:0:0:0:
109,192,20230,128,0,20380:0:0:0:0:
182,192,20230,128,0,20380:0:0:0:0:
36,192,20380,1,0,0:0:0:0:
256,192,20380,1,0,0:0:0:0:
402,192,20380,1,0,0:0:0:0:
402,192,20530,128,0,20680:0:0:0:0:
329,192,20530,128,0,20680:0:0:0:0:
182,192,20680,1,0,0:0:0:0:
475,192,20680,1,0,0:0:0:0:
109,192,20680,1,0,0:0:0:0:
182,192,20830,128,0,20980:0:0:0:0:
256,192,20830,128,0,20980:0:0:0:0:
36,192,20980,1,0,0:0:0:0:
402,192,20980,1,0,0:0:0:0:
475,192,20980,1,0,0:0:0:0:
402,192,21130,128,0,21280:0:0:0:0:
256,192,21130,128,0,21280:0:0:0:0:
182,192,21280,1,0,0:0:0:0:
329,192,21280,1,0,0:0:0:0:
109,192,21280,1,0,0:0:0:0:
36,192,21430,128,0,21580:0:0:0:0:
182,192,21430,128,0,21580:0:0:0:0:
256,192,21580,1,0,0:0:0:0:
402,192,21580,1,0,0:0:0:0:
475,192,21580,1,0,0:0:0:0:
109,192,21730,128,0,21880:0:0:0:0:
256,192,21730,128,0,21880:0:0:0:0:
329,192,21880,1,0,0:0:0:0:
182,192,21880,1,0,0:0:0:0:
36,192,21880,1,0,0:0:0:0:
329,192,22030,128,0,22180:0:0:0:0:
475,192,22030,128,0,22180:0:0:0:0:
36,192,22180,1,0,0:0:0:0:
402,192,22180,1,0,0:0:0:0:
256,192,22180,1,0,0:0:0:0:
329,192,22255,1,0,0:0:0:0:
109,192,22255,1,0,0:0:0:0:
182,192,22330,1,0,0:0:0:0:
256,192,22405,1,0,0:0:0:0:
109,192,22480,1,0,0:0:0:0:
475,192,22480,1,0,0:0:0:0:
36,192,22480,1,0,0:0:0:0:
402,192,22555,1,0,0:0:0:0:
182,192,22555,1,0,0:0:0:0:
329,192,22630,1,0,0:0:0:0:
256,192,22705,1,0,0:0:0:0:
402,192,22780,1,0,0:0:0:0:
182,192,22780,1,0,0:0:0:0:
475,192,22780,1,0,0:0:0:0:
109,192,22855,1,0,0:0:0:0:
329,192,22855,1,0,0:0:0:0:
36,192,22930,1,0,0:0:0:0:
256,192,23005,1,0,0:0:0:0:
109,192,23080,1,0,0:0:0:0:
329,192,23080,1,0,0:0:0:0:
475,192,23080,1,0,0:0:0:0:
182,192,23155,1,0,0:0:0:0:
402,192,23155,1,0,0:0:0:0:
329,192,23230,1,0,0:0:0:0:
256,192,23305,1,0,0:0:0:0:
329,192,23380,1,0,0:0:0:0:
109,192,23380,1,0,0:0:0:0:
36,192,23380,1,0,0:0:0:0:
182,192,23455,1,0,0:0:0:0:
402,192,23455,1,0,0:0:0:0:
256,192,23530,1,0,0:0:0:0:
329,192,23605,1,0,0:0:0:0:
402,192,23680,1,0,0:0:0:0:
182,192,23680,1,0,0:0:0:0:
36,192,23680,1,0,0:0:0:0:
109,192,23755,1,0,0:0:0:0:
329,192,23755,1,0,0:0:0:0:
256,192,23830,1,0,0:0:0:0:
182,192,23905,1,0,0:0:0:0:
109,192,23980,1,0,0:0:0:0:
36,192,23980,1,0,0:0:0:0:
329,192,23980,1,0,0:0:0:0:
402,192,24055,1,0,0:0:0:0:
475,192,24055,1,0,0:0:0:0:
329,192,24130,1,0,0:0:0:0:
256,192,24205,1,0,0:0:0:0:
402,192,24280,1,0,0:0:0:0:
475,192,24280,1,0,0:0:0:0:
182,192,24280,1,0,0:0:0:0:
36,192,24355,1,0,0:0:0:0:
109,192,24355,1,0,0:0:0:0:
182,192,24430,1,0,0:0:0:0:
256,192,24505,1,0,0:0:0:0:
402,192,24580,1,0,0:0:0:0:
475,192,24580,1,0,0:0:0:0:
329,192,24580,1,0,0:0:0:0:
109,192,24655,1,0,0:0:0:0:
182,192,24655,1,0,0:0:0:0:
256,192,24730,1,0,0:0:0:0:
329,192,24730,1,0,0:0:0:0:
109,192,24805,1,0,0:0:0:0:
182,192,24805,1,0,0:0:0:0:
475,192,24880,1,0,0:0:0:0:
36,192,24880,1,0,0:0:0:0:
402,192,24880,1,0,0:0:0:0:
256,192,24955,1,0,0:0:0:0:
475,192,25030,1,0,0:0:0:0:
256,192,25105,1,0,0:0:0:0:
36,192,25180,1,0,0:0:0:0:
182,192,25180,1,0,0:0:0:0:
109,192,25180,1,0,0:0:0:0:
402,192,25255,1,0,0:0:0:0:
329,192,25255,1,0,0:0:0:0:
256,192,25330,1,0,0:0:0:0:
182,192,25330,1,0,0:0:0:0:
329,192,25405,1,0,0:0:0:0:
402,192,25405,1,0,0:0:0:0:
36,192,25480,1,0,0:0:0:0:
109,192,25480,1,0,0:0:0:0:
475,192,25480,1,0,0:0:0:0:
256,192,25555,1,0,0:0:0:0:
36,192,25630,1,0,0:0:0:0:
256,192,25705,1,0,0:0:0:0:
402,192,25780,1,0,0:0:0:0:
475,192,25780,1,0,0:0:0:0:
329,192,25780,1,0,0:0:0:0:
109,192,25855,1,0,0:0:0:0:
182,192,25855,1,0,0:0:0:0:
256,192,25930,1,0,0:0:0:0:
329,192,25930,1,0,0:0:0:0:
109,192,26005,1,0,0:0:0:0:
182,192,26005,1,0,0:0:0:0:
475,192,26080,1,0,0:0:0:0:
36,192,26080,1,0,0:0:0:0:
402,192,26080,1,0,0:0:0:0:
256,192,26155,1,0,0:0:0:0:
475,192,26230,1,0,0:0:0:0:
256,192,26305,1,0,0:0:0:0:
36,192,26380,1,0,0:0:0:0:
182,192,26380,1,0,0:0:0:0:
109,192,26380,1,0,0:0:0:0:
402,192,26455,1,0,0:0:0:0:
329,192,26455,1,0,0:0:0:0:
256,192,26530,1,0,0:0:0:0:
182,192,26530,1,0,0:0:0:0:
329,192,26605,1,0,0:0:0:0:
402,192,26605,1,0,0:0:0:0:
36,192,26680,1,0,0:0:0:0:
109,192,26680,1,0,0:0:0:0:
475,192,26680,1,0,0:0:0:0:
256,192,26755,1,0,0:0:0:0:
36,192,26830,1,0,0:0:0:0:
256,192,26905,1,0,0:0:0:0:
182,192,26980,1,0,0:0:0:0:
475,192,26980,1,0,0:0:0:0:
402,192,27130,1,0,0:0:0:0:
182,192,27130,1,0,0:0:0:0:
36,192,27280,1,0,0:0:0:0:
329,192,27280,1,0,0:0:0:0:
256,192,27280,1,0,0:0:0:0:
329,192,27430,1,0,0:0:0:0:
182,192,27430,1,0,0:0:0:0:
109,192,27580,1,0,0:0:0:0:
402,192,27580,1,0,0:0:0:0:
475,192,27730,1,0,0:0:0:0:
109,192,27730,1,0,0:0:0:0:
182,192,27880,1,0,0:0:0:0:
329,192,27880,1,0,0:0:0:0:
256,192,27880,1,0,0:0:0:0:
182,192,28030,1,0,0:0:0:0:
402,192,28030,1,0,0:0:0:0:
329,192,28105,1,0,0:0:0:0:
109,192,28105,1,0,0:0:0:0:
36,192,28180,1,0,0:0:0:0:
182,192,28180,1,0,0:0:0:0:
329,192,28255,1,0,0:0:0:0:
475,192,28255,1,0,0:0:0:0:
182,192,28330,1,0,0:0:0:0:
36,192,28330,1,0,0:0:0:0:
329,192,28405,1,0,0:0:0:0:
475,192,28405,1,0,0:0:0:0:
182,192,28480,1,0,0:0:0:0:
109,192,28480,1,0,0:0:0:0:
329,192,28555,1,0,0:0:0:0:
402,192,28555,1,0,0:0:0:0:
182,192,28630,1,0,0:0:0:0:
109,192,28630,1,0,0:0:0:0:
329,192,28705,1,0,0:0:0:0:
402,192,28705,1,0,0:0:0:0:
475,192,28780,1,0,0:0:0:0:
36,192,28780,1,0,0:0:0:0:
256,192,28780,1,0,0:0:0:0:
475,192,28930,1,0,0:0:0:0:
402,192,28967,1,0,0:0:0:0:
329,192,29005,1,0,0:0:0:0:
256,192,29042,1,0,0:0:0:0:
182,192,29080,1,0,0:0:0:0:
36,192,29080,1,0,0:0:0:0:
109,192,29080,1,0,0:0:0:0:
475,192,29230,1,0,0:0:0:0:
402,192,29267,1,0,0:0:0:0:
329,192,29305,1,0,0:0:0:0:
256,192,29342,1,0,0:0:0:0:
182,192,29380,128,0,29530:0:0:0:0:
109,192,29380,128,0,29605:0:0:0:0:
36,192,29380,128,0,29680:0:0:0:0:
475,192,29380,1,0,0:0:0:0:
402,192,29530,128,0,29680:0:0:0:0:
329,192,29605,128,0,29755:0:0:0:0:
256,192,29680,128,0,29830:0:0:0:0:
182,192,29755,128,0,29905:0:0:0:0:
475,192,29830,128,0,30130:0:0:0:0:
402,192,29830,128,0,30055:0:0:0:0:
329,192,29830,128,0,29980:0:0:0:0:
109,192,29980,128,0,30130:0:0:0:0:
182,192,30055,128,0,30205:0:0:0:0:
256,192,30130,128,0,30280:0:0:0:0:
329,192,30205,128,0,30355:0:0:0:0:
402,192,30280,128,0,30430:0:0:0:0:
475,192,30280,128,0,30430:0:0:0:0:
36,192,30280,128,0,30580:0:0:0:0:
182,192,30430,128,0,30580:0:0:0:0:
109,192,30430,128,0,30580:0:0:0:0:
402,192,30580,128,0,30805:0:0:0:0:
329,192,30580,128,0,30730:0:0:0:0:
475,192,30580,128,0,30880:0:0:0:0:
109,192,30730,128,0,30880:0:0:0:0:
182,192,30805,128,0,30955:0:0:0:0:
256,192,30880,128,0,31030:0:0:0:0:
329,192,30955,128,0,31105:0:0:0:0:
36,192,31030,128,0,31330:0:0:0:0:
109,192,31030,128,0,31255:0:0:0:0:
182,192,31030,128,0,31180:0:0:0:0:
402,192,31180,128,0,31330:0:0:0:0:
329,192,31255,128,0,31405:0:0:0:0:
256,192,31330,128,0,31480:0:0:0:0:
182,192,31405,128,0,31555:0:0:0:0:
109,192,31480,128,0,31630:0:0:0:0:
36,192,31480,128,0,31630:0:0:0:0:
475,192,31480,128,0,31780:0:0:0:0:
402,192,31630,128,0,31780:0:0:0:0:
329,192,31630,128,0,31780:0:0:0:0:
36,192,31780,128,0,32080:0:0:0:0:
109,192,31780,128,0,32005:0:0:0:0:
182,192,31780,128,0,31930:0:0:0:0:
402,192,31930,128,0,32080:0:0:0:0:
329,192,32005,128,0,32155:0:0:0:0:
256,192,32080,128,0,32230:0:0:0:0:
182,192,32155,128,0,32305:0:0:0:0:
329,192,32230,128,0,32380:0:0:0:0:
402,192,32230,128,0,32455:0:0:0:0:
475,192,32230,128,0,32530:0:0:0:0:
109,192,32380,128,0,32530:0:0:0:0:
182,192,32455,128,0,32605:0:0:0:0:
256,192,32530,128,0,32680:0:0:0:0:
329,192,32605,128,0,32755:0:0:0:0:
402,192,32680,128,0,32830:0:0:0:0:
475,192,32680,128,0,32830:0:0:0:0:
36,192,32680,128,0,32980:0:0:0:0:
182,192,32830,128,0,32980:0:0:0:0:
109,192,32830,128,0,32980:0:0:0:0:
402,192,32980,1,0,0:0:0:0:
475,192,32980,1,0,0:0:0:0:
329,192,32980,1,0,0:0:0:0:
256,192,33055,1,0,0:0:0:0:
329,192,33130,1,0,0:0:0:0:
109,192,33130,1,0,0:0:0:0:
256,192,33205,1,0,0:0:0:0:
36,192,33205,1,0,0:0:0:0:
182,192,33280,1,0,0:0:0:0:
402,192,33280,1,0,0:0:0:0:
475,192,33280,1,0,0:0:0:0:
329,192,33355,1,0,0:0:0:0:
109,192,33355,1,0,0:0:0:0:
475,192,33430,1,0,0:0:0:0:
256,192,33430,1,0,0:0:0:0:
182,192,33505,1,0,0:0:0:0:
109,192,33580,1,0,0:0:0:0:
329,192,33580,1,0,0:0:0:0:
36,192,33580,1,0,0:0:0:0:
182,192,33655,1,0,0:0:0:0:
402,192,33655,1,0,0:0:0:0:
256,192,33730,1,0,0:0:0:0:
475,192,33730,1,0,0:0:0:0:
329,192,33805,1,0,0:0:0:0:
109,192,33805,1,0,0:0:0:0:
475,192,33880,1,0,0:0:0:0:
402,192,33880,1,0,0:0:0:0:
182,192,33880,1,0,0:0:0:0:
109,192,34030,1,0,0:0:0:0:
329,192,34030,1,0,0:0:0:0:
402,192,34030,1,0,0:0:0:0:
475,192,34180,128,0,34480:0:0:0:0:
329,192,34180,128,0,34330:0:0:0:0:
402,192,34180,128,0,34405:0:0:0:0:
256,192,34180,128,0,34255:0:0:0:0:
109,192,34330,128,0,34480:0:0:0:0:
182,192,34405,128,0,34555:0:0:0:0:
256,192,34480,128,0,34630:0:0:0:0:
329,192,34555,128,0,34705:0:0:0:0:
182,192,34630,128,0,34780:0:0:0:0:
109,192,34630,128,0,34855:0:0:0:0:
36,192,34630,128,0,34930:0:0:0:0:
402,192,34780,128,0,34930:0:0:0:0:
329,192,34855,128,0,35005:0:0:0:0:
256,192,34930,128,0,35080:0:0:0:0:
182,192,35005,128,0,35155:0:0:0:0:
475,192,35080,128,0,35380:0:0:0:0:
36,192,35080,128,0,35230:0:0:0:0:
109,192,35080,128,0,35230:0:0:0:0:
402,192,35230,128,0,35380:0:0:0:0:
329,192,35230,128,0,35380:0:0:0:0:
36,192,35380,128,0,35680:0:0:0:0:
182,192,35380,128,0,35530:0:0:0:0:
109,192,35380,128,0,35605:0:0:0:0:
402,192,35530,128,0,35680:0:0:0:0:
329,192,35605,128,0,35755:0:0:0:0:
256,192,35680,128,0,35830:0:0:0:0:
182,192,35755,128,0,35905:0:0:0:0:
329,192,35830,128,0,35980:0:0:0:0:
402,192,35830,128,0,36055:0:0:0:0:
475,192,35830,128,0,36130:0:0:0:0:
109,192,35980,128,0,36130:0:0:0:0:
182,192,36055,128,0,36205:0:0:0:0:
256,192,36130,128,0,36280:0:0:0:0:
329,192,36205,128,0,36355:0:0:0:0:
36,192,36280,128,0,36580:0:0:0:0:
475,192,36280,128,0,36430:0:0:0:0:
402,192,36280,128,0,36430:0:0:0:0:
182,192,36430,128,0,36580:0:0:0:0:
109,192,36430,128,0,36580:0:0:0:0:
329,192,36580,128,0,36730:0:0:0:0:
402,192,36580,128,0,36805:0:0:0:0:
475,192,36580,128,0,36880:0:0:0:0:
256,192,36580,128,0,36655:0:0:0:0:
109,192,36730,128,0,36880:0:0:0:0:
182,192,36805,128,0,36955:0:0:0:0:
256,192,36880,128,0,37030:0:0:0:0:
329,192,36955,128,0,37105:0:0:0:0:
36,192,37030,128,0,37330:0:0:0:0:
109,192,37030,128,0,37255:0:0:0:0:
182,192,37030,128,0,37180:0:0:0:0:
402,192,37180,128,0,37330:0:0:0:0:
475,192,37180,128,0,37255:0:0:0:0:
329,192,37255,128,0,37405:0:0:0:0:
256,192,37330,128,0,37480:0:0:0:0:
182,192,37405,128,0,37555:0:0:0:0:
475,192,37480,128,0,37780:0:0:0:0:
36,192,37480,128,0,37630:0:0:0:0:
109,192,37480,128,0,37630:0:0:0:0:
402,192,37630,128,0,37780:0:0:0:0:
329,192,37630,128,0,37780:0:0:0:0:
36,192,37780,1,0,0:0:0:0:
182,192,37780,1,0,0:0:0:0:
256,192,37780,1,0,0:0:0:0:
109,192,37780,1,0,0:0:0:0:
475,192,37930,1,0,0:0:0:0:
256,192,37930,1,0,0:0:0:0:
329,192,37930,1,0,0:0:0:0:
36,192,37930,1,0,0:0:0:0:
109,192,38005,1,0,0:0:0:0:
182,192,38080,1,0,0:0:0:0:
109,192,38155,1,0,0:0:0:0:
36,192,38230,1,0,0:0:0:0:
182,192,38230,1,0,0:0:0:0:
256,192,38230,1,0,0:0:0:0:
475,192,38230,1,0,0:0:0:0:
402,192,38380,1,0,0:0:0:0:
329,192,38455,1,0,0:0:0:0:
182,192,38530,1,0,0:0:0:0:
256,192,38530,1,0,0:0:0:0:
36,192,38530,1,0,0:0:0:0:
475,192,38530,1,0,0:0:0:0:
109,192,38605,1,0,0:0:0:0:
36,192,38680,1,0,0:0:0:0:
182,192,38680,1,0,0:0:0:0:
329,192,38680,1,0,0:0:0:0:
475,192,38680,1,0,0:0:0:0:
402,192,38755,1,0,0:0:0:0:
329,192,38830,1,0,0:0:0:0:
36,192,38830,1,0,0:0:0:0:
475,192,38830,1,0,0:0:0:0:
109,192,38867,1,0,0:0:0:0:
182,192,38905,1,0,0:0:0:0:
256,192,38942,1,0,0:0:0:0:
36,192,39280,1,0,0:0:0:0:
256,192,39280,1,0,0:0:0:0:
475,192,39280,1,0,0:0:0:0:
402,192,39280,1,0,0:0:0:0:
256,192,39430,1,0,0:0:0:0:
475,192,39430,1,0,0:0:0:0:
182,192,39580,1,0,0:0:0:0:
402,192,39580,1,0,0:0:0:0:
36,192,39580,1,0,0:0:0:0:
109,192,39655,1,0,0:0:0:0:
329,192,39655,1,0,0:0:0:0:
182,192,39730,1,0,0:0:0:0:
402,192,39730,1,0,0:0:0:0:
256,192,39805,1,0,0:0:0:0:
475,192,39805,1,0,0:0:0:0:
36,192,39880,1,0,0:0:0:0:
329,192,39880,1,0,0:0:0:0:
109,192,39880,1,0,0:0:0:0:
182,192,40030,1,0,0:0:0:0:
402,192,40030,1,0,0:0:0:0:
109,192,40030,1,0,0:0:0:0:
475,192,40180,1,0,0:0:0:0:
256,192,40180,1,0,0:0:0:0:
36,192,40180,1,0,0:0:0:0:
329,192,40330,1,0,0:0:0:0:
182,192,40330,1,0,0:0:0:0:
109,192,40405,1,0,0:0:0:0:
402,192,40405,1,0,0:0:0:0:
36,192,40480,1,0,0:0:0:0:
182,192,40480,1,0,0:0:0:0:
256,192,40480,1,0,0:0:0:0:
475,192,40555,1,0,0:0:0:0:
402,192,40555,1,0,0:0:0:0:
256,192,40630,1,0,0:0:0:0:
109,192,40630,1,0,0:0:0:0:
329,192,40780,1,0,0:0:0:0:
402,192,40780,1,0,0:0:0:0:
36,192,40780,1,0,0:0:0:0:
256,192,40855,1,0,0:0:0:0:
182,192,40855,1,0,0:0:0:0:
109,192,40930,1,0,0:0:0:0:
475,192,40930,1,0,0:0:0:0:
256,192,41005,1,0,0:0:0:0:
329,192,41005,1,0,0:0:0:0:
402,192,41080,1,0,0:0:0:0:
182,192,41080,1,0,0:0:0:0:
475,192,41080,1,0,0:0:0:0:
109,192,41230,1,0,0:0:0:0:
329,192,41230,1,0,0:0:0:0:
402,192,41230,1,0,0:0:0:0:
256,192,41380,1,0,0:0:0:0:
475,192,41380,1,0,0:0:0:0:
36,192,41380,1,0,0:0:0:0:
402,192,41530,1,0,0:0:0:0:
182,192,41530,1,0,0:0:0:0:
109,192,41605,1,0,0:0:0:0:
329,192,41605,1,0,0:0:0:0:
402,192,41680,1,0,0:0:0:0:
182,192,41680,1,0,0:0:0:0:
475,192,41680,1,0,0:0:0:0:
256,192,41755,1,0,0:0:0:0:
36,192,41755,1,0,0:0:0:0:
109,192,41830,1,0,0:0:0:0:
329,192,41830,1,0,0:0:0:0:
182,192,41980,1,0,0:0:0:0:
475,192,41980,1,0,0:0:0:0:
402,192,41980,1,0,0:0:0:0:
36,192,42055,1,0,0:0:0:0:
256,192,42055,1,0,0:0:0:0:
109,192,42130,1,0,0:0:0:0:
329,192,42130,1,0,0:0:0:0:
402,192,42205,1,0,0:0:0:0:
182,192,42205,1,0,0:0:0:0:
109,192,42280,1,0,0:0:0:0:
329,192,42280,1,0,0:0:0:0:
256,192,42280,1,0,0:0:0:0:
329,192,42430,1,0,0:0:0:0:
402,192,42430,1,0,0:0:0:0:
182,192,42430,1,0,0:0:0:0:
475,192,42580,1,0,0:0:0:0:
256,192,42580,1,0,0:0:0:0:
36,192,42580,1,0,0:0:0:0:
182,192,42730,1,0,0:0:0:0:
402,192,42730,1,0,0:0:0:0:
109,192,42805,1,0,0:0:0:0:
329,192,42805,1,0,0:0:0:0:
36,192,42880,1,0,0:0:0:0:
256,192,42880,1,0,0:0:0:0:
475,192,42880,1,0,0:0:0:0:
402,192,42955,1,0,0:0:0:0:
182,192,42955,1,0,0:0:0:0:
109,192,43030,1,0,0:0:0:0:
329,192,43030,1,0,0:0:0:0:
256,192,43180,1,0,0:0:0:0:
36,192,43180,1,0,0:0:0:0:
475,192,43180,1,0,0:0:0:0:
182,192,43255,1,0,0:0:0:0:
402,192,43255,1,0,0:0:0:0:
109,192,43330,1,0,0:0:0:0:
329,192,43330,1,0,0:0:0:0:
36,192,43405,1,0,0:0:0:0:
402,192,43405,1,0,0:0:0:0:
182,192,43480,1,0,0:0:0:0:
256,192,43480,1,0,0:0:0:0:
475,192,43480,1,0,0:0:0:0:
109,192,43630,1,0,0:0:0:0:
402,192,43630,1,0,0:0:0:0:
182,192,43630,1,0,0:0:0:0:
109,192,43780,1,0,0:0:0:0:
329,192,43780,1,0,0:0:0:0:
256,192,43780,1,0,0:0:0:0:
36,192,43780,1,0,0:0:0:0:
475,192,43930,1,0,0:0:0:0:
402,192,43930,1,0,0:0:0:0:
256,192,44005,1,0,0:0:0:0:
109,192,44080,1,0,0:0:0:0:
36,192,44080,1,0,0:0:0:0:
329,192,44080,1,0,0:0:0:0:
36,192,44230,1,0,0:0:0:0:
182,192,44230,1,0,0:0:0:0:
402,192,44380,1,0,0:0:0:0:
329,192,44380,1,0,0:0:0:0:
109,192,44380,1,0,0:0:0:0:
256,192,44455,1,0,0:0:0:0:
329,192,44530,1,0,0:0:0:0:
475,192,44530,1,0,0:0:0:0:
109,192,44680,1,0,0:0:0:0:
182,192,44680,1,0,0:0:0:0:
329,192,44755,1,0,0:0:0:0:
402,192,44755,1,0,0:0:0:0:
182,192,44830,1,0,0:0:0:0:
109,192,44830,1,0,0:0:0:0:
402,192,44905,1,0,0:0:0:0:
329,192,44905,1,0,0:0:0:0:
256,192,44980,1,0,0:0:0:0:
36,192,44980,1,0,0:0:0:0:
109,192,44980,1,0,0:0:0:0:
475,192,44980,1,0,0:0:0:0:
402,192,45130,1,0,0:0:0:0:
329,192,45130,1,0,0:0:0:0:
256,192,45205,1,0,0:0:0:0:
182,192,45280,1,0,0:0:0:0:
109,192,45280,1,0,0:0:0:0:
475,192,45280,1,0,0:0:0:0:
36,192,45430,1,0,0:0:0:0:
109,192,45467,1,0,0:0:0:0:
182,192,45505,1,0,0:0:0:0:
256,192,45542,1,0,0:0:0:0:
329,192,45580,1,0,0:0:0:0:
402,192,45580,1,0,0:0:0:0:
256,192,45655,1,0,0:0:0:0:
109,192,45730,1,0,0:0:0:0:
182,192,45730,1,0,0:0:0:0:
402,192,45880,1,0,0:0:0:0:
475,192,45880,1,0,0:0:0:0:
109,192,45955,1,0,0:0:0:0:
36,192,45955,1,0,0:0:0:0:
329,192,46030,1,0,0:0:0:0:
256,192,46067,1,0,0:0:0:0:
182,192,46105,1,0,0:0:0:0:
109,192,46142,1,0,0:0:0:0:
475,192,46180,1,0,0:0:0:0:
402,192,46180,1,0,0:0:0:0:
36,192,46180,1,0,0:0:0:0:
329,192,46217,1,0,0:0:0:0:
256,192,46255,1,0,0:0:0:0:
182,192,46292,1,0,0:0:0:0:
109,192,46330,1,0,0:0:0:0:
36,192,46330,1,0,0:0:0:0:
402,192,46405,1,0,0:0:0:0:
475,192,46405,1,0,0:0:0:0:
182,192,46480,1,0,0:0:0:0:
256,192,46517,1,0,0:0:0:0:
329,192,46555,1,0,0:0:0:0:
402,192,46592,1,0,0:0:0:0:
36,192,46630,1,0,0:0:0:0:
475,192,46630,1,0,0:0:0:0:
109,192,46705,1,0,0:0:0:0:
182,192,46705,1,0,0:0:0:0:
329,192,46780,1,0,0:0:0:0:
36,192,46780,1,0,0:0:0:0:
256,192,46780,1,0,0:0:0:0:
402,192,46817,1,0,0:0:0:0:
475,192,46855,1,0,0:0:0:0:
182,192,46930,1,0,0:0:0:0:
256,192,46967,1,0,0:0:0:0:
329,192,47005,1,0,0:0:0:0:
36,192,47080,1,0,0:0:0:0:
182,192,47080,1,0,0:0:0:0:
329,192,47155,1,0,0:0:0:0:
475,192,47155,1,0,0:0:0:0:
256,192,47230,1,0,0:0:0:0:
182,192,47267,1,0,0:0:0:0:
329,192,47305,1,0,0:0:0:0:
256,192,47342,1,0,0:0:0:0:
475,192,47380,1,0,0:0:0:0:
109,192,47380,1,0,0:0:0:0:
36,192,47380,1,0,0:0:0:0:
402,192,47380,1,0,0:0:0:0:
329,192,47455,1,0,0:0:0:0:
256,192,47530,1,0,0:0:0:0:
182,192,47605,1,0,0:0:0:0:
109,192,47680,1,0,0:0:0:0:
36,192,47680,1,0,0:0:0:0:
402,192,47680,1,0,0:0:0:0:
475,192,47680,1,0,0:0:0:0:
182,192,47755,1,0,0:0:0:0:
256,192,47830,1,0,0:0:0:0:
329,192,47867,1,0,0:0:0:0:
182,192,47905,1,0,0:0:0:0:
256,192,47942,1,0,0:0:0:0:
402,192,47980,1,0,0:0:0:0:
475,192,47980,1,0,0:0:0:0:
109,192,47980,1,0,0:0:0:0:
36,192,47980,1,0,0:0:0:0:
329,192,48055,1,0,0:0:0:0:
256,192,48130,1,0,0:0:0:0:
182,192,48205,1,0,0:0:0:0:
109,192,48280,1,0,0:0:0:0:
36,192,48280,1,0,0:0:0:0:
475,192,48280,1,0,0:0:0:0:
402,192,48317,1,0,0:0:0:0:
329,192,48355,1,0,0:0:0:0:
256,192,48392,1,0,0:0:0:0:
475,192,48430,1,0,0:0:0:0:
36,192,48430,1,0,0:0:0:0:
109,192,48467,1,0,0:0:0:0:
182,192,48505,1,0,0:0:0:0:
256,192,48542,1,0,0:0:0:0:
329,192,48580,128,0,48730:0:0:0:0:
402,192,48580,1,0,0:0:0:0:
475,192,48580,1,0,0:0:0:0:
109,192,48730,128,0,48880:0:0:0:0:
256,192,48880,128,0,49030:0:0:0:0:
402,192,49030,128,0,49180:0:0:0:0:
109,192,49330,128,0,49480:0:0:0:0:
256,192,49480,128,0,49630:0:0:0:0:
402,192,49630,128,0,49780:0:0:0:0:
109,192,49930,128,0,50080:0:0:0:0:
256,192,50080,128,0,50230:0:0:0:0:
402,192,50230,128,0,50380:0:0:0:0:
109,192,50530,128,0,50680:0:0:0:0:
256,192,50680,128,0,50830:0:0:0:0:
402,192,50830,128,0,50980:0:0:0:0:
109,192,51130,128,0,51280:0:0:0:0:
256,192,51280,128,0,51430:0:0:0:0:
402,192,51430,128,0,51580:0:0:0:0:
109,192,51730,128,0,51880:0:0:0:0:
256,192,51880,128,0,52030:0:0:0:0:
402,192,52030,128,0,52180:0:0:0:0:
182,192,52180,128,0,52330:0:0:0:0:
36,192,52330,128,0,52480:0:0:0:0:
182,192,52480,128,0,52630:0:0:0:0:
402,192,52630,128,0,52780:0:0:0:0:
256,192,52780,128,0,52930:0:0:0:0:
475,192,52930,128,0,53080:0:0:0:0:
329,192,53080,128,0,53230:0:0:0:0:
182,192,53230,128,0,53380:0:0:0:0:
36,192,53380,128,0,53530:0:0:0:0:
402,192,53530,128,0,53680:0:0:0:0:
256,192,53680,128,0,53830:0:0:0:0:
109,192,53830,128,0,53980:0:0:0:0:
402,192,54130,128,0,54280:0:0:0:0:
256,192,54280,128,0,54430:0:0:0:0:
109,192,54430,128,0,54580:0:0:0:0:
402,192,54730,128,0,54880:0:0:0:0:
256,192,54880,128,0,55030:0:0:0:0:
109,192,55030,128,0,55180:0:0:0:0:
402,192,55330,128,0,55480:0:0:0:0:
256,192,55480,128,0,55630:0:0:0:0:
109,192,55630,128,0,55780:0:0:0:0:
402,192,55930,128,0,56080:0:0:0:0:
256,192,56080,128,0,56230:0:0:0:0:
109,192,56230,128,0,56380:0:0:0:0:
402,192,56530,128,0,56680:0:0:0:0:
256,192,56680,128,0,56830:0:0:0:0:
109,192,56830,128,0,56980:0:0:0:0:
402,192,56980,128,0,57130:0:0:0:0:
256,192,57130,128,0,57280:0:0:0:0:
182,192,57280,128,0,57430:0:0:0:0:
36,192,57430,128,0,57580:0:0:0:0:
329,192,57580,128,0,57730:0:0:0:0:
109,192,57730,128,0,57880:0:0:0:0:
475,192,57880,128,0,57955:0:0:0:0:
402,192,57955,128,0,58030:0:0:0:0:
329,192,58030,128,0,58105:0:0:0:0:
256,192,58105,128,0,58180:0:0:0:0:
182,192,58180,128,0,58480:0:0:0:0:
36,192,58180,1,0,0:0:0:0:
475,192,58180,1,0,0:0:0:0:
402,192,58180,1,0,0:0:0:0:
109,192,58330,128,0,58630:0:0:0:0:
36,192,58480,128,0,58780:0:0:0:0:
402,192,58480,1,0,0:0:0:0:
475,192,58480,1,0,0:0:0:0:
329,192,58630,128,0,58930:0:0:0:0:
256,192,58780,128,0,59080:0:0:0:0:
182,192,58930,128,0,59080:0:0:0:0:
36,192,59080,1,0,0:0:0:0:
109,192,59080,1,0,0:0:0:0:
475,192,59080,128,0,59380:0:0:0:0:
402,192,59230,128,0,59380:0:0:0:0:
329,192,59380,128,0,59455:0:0:0:0:
256,192,59455,128,0,59530:0:0:0:0:
182,192,59530,128,0,59605:0:0:0:0:
109,192,59605,128,0,59680:0:0:0:0:
402,192,59680,1,0,0:0:0:0:
475,192,59680,1,0,0:0:0:0:
36,192,59680,128,0,59755:0:0:0:0:
109,192,59755,128,0,59830:0:0:0:0:
182,192,59830,128,0,59905:0:0:0:0:
256,192,59905,128,0,59980:0:0:0:0:
329,192,59980,128,0,60055:0:0:0:0:
256,192,60055,128,0,60130:0:0:0:0:
182,192,60130,128,0,60205:0:0:0:0:
109,192,60205,128,0,60280:0:0:0:0:
402,192,60280,1,0,0:0:0:0:
475,192,60280,1,0,0:0:0:0:
329,192,60280,1,0,0:0:0:0:
36,192,60280,128,0,60355:0:0:0:0:
109,192,60355,128,0,60430:0:0:0:0:
182,192,60430,128,0,60505:0:0:0:0:
256,192,60505,128,0,60580:0:0:0:0:
475,192,60580,1,0,0:0:0:0:
36,192,60580,1,0,0:0:0:0:
109,192,60580,1,0,0:0:0:0:
329,192,60580,128,0,60655:0:0:0:0:
256,192,60655,128,0,60730:0:0:0:0:
182,192,60730,128,0,60805:0:0:0:0:
256,192,60805,128,0,60880:0:0:0:0:
329,192,60880,128,0,60955:0:0:0:0:
256,192,60955,128,0,61030:0:0:0:0:
182,192,61030,128,0,61105:0:0:0:0:
109,192,61105,128,0,61180:0:0:0:0:
182,192,61180,1,0,0:0:0:0:
256,192,61180,1,0,0:0:0:0:
36,192,61180,1,0,0:0:0:0:
475,192,61180,128,0,61255:0:0:0:0:
402,192,61255,128,0,61330:0:0:0:0:
329,192,61330,128,0,61405:0:0:0:0:
256,192,61405,128,0,61480:0:0:0:0:
36,192,61480,1,0,0:0:0:0:
475,192,61480,1,0,0:0:0:0:
402,192,61480,1,0,0:0:0:0:
182,192,61480,128,0,61555:0:0:0:0:
256,192,61555,128,0,61630:0:0:0:0:
329,192,61630,128,0,61705:0:0:0:0:
402,192,61705,128,0,61780:0:0:0:0:
109,192,61780,1,0,0:0:0:0:
182,192,61780,1,0,0:0:0:0:
36,192,61780,1,0,0:0:0:0:
475,192,61780,128,0,61855:0:0:0:0:
402,192,61855,128,0,61930:0:0:0:0:
329,192,61930,128,0,62005:0:0:0:0:
36,192,62005,1,0,0:0:0:0:
109,192,62005,1,0,0:0:0:0:
475,192,62005,1,0,0:0:0:0:
256,192,62005,128,0,62080:0:0:0:0:
329,192,62080,128,0,62155:0:0:0:0:
256,192,62155,128,0,62230:0:0:0:0:
475,192,62230,1,0,0:0:0:0:
402,192,62230,1,0,0:0:0:0:
182,192,62230,128,0,62305:0:0:0:0:
109,192,62305,128,0,62380:0:0:0:0:
329,192,62380,1,0,0:0:0:0:
402,192,62380,1,0,0:0:0:0:
475,192,62380,1,0,0:0:0:0:
36,192,62380,128,0,62455:0:0:0:0:
109,192,62455,128,0,62530:0:0:0:0:
182,192,62530,128,0,62605:0:0:0:0:
36,192,62605,1,0,0:0:0:0:
475,192,62605,1,0,0:0:0:0:
402,192,62605,1,0,0:0:0:0:
256,192,62605,128,0,62680:0:0:0:0:
182,192,62680,128,0,62755:0:0:0:0:
256,192,62755,128,0,62830:0:0:0:0:
109,192,62830,1,0,0:0:0:0:
36,192,62830,1,0,0:0:0:0:
329,192,62830,128,0,62905:0:0:0:0:
402,192,62905,128,0,62980:0:0:0:0:
256,192,62980,1,0,0:0:0:0:
182,192,62980,1,0,0:0:0:0:
36,192,62980,1,0,0:0:0:0:
475,192,62980,128,0,63080:0:0:0:0:
402,192,63080,128,0,63180:0:0:0:0:
329,192,63180,128,0,63280:0:0:0:0:
475,192,63280,1,0,0:0:0:0:
109,192,63280,128,0,63380:0:0:0:0:
182,192,63380,128,0,63480:0:0:0:0:
256,192,63480,128,0,63580:0:0:0:0:
36,192,63580,1,0,0:0:0:0:
475,192,63580,1,0,0:0:0:0:
402,192,63580,1,0,0:0:0:0:
329,192,63580,128,0,63680:0:0:0:0:
256,192,63680,128,0,63780:0:0:0:0:
182,192,63780,128,0,63880:0:0:0:0:
36,192,63880,1,0,0:0:0:0:
475,192,63880,1,0,0:0:0:0:
402,192,63880,1,0,0:0:0:0:
109,192,63917,1,0,0:0:0:0:
182,192,63955,1,0,0:0:0:0:
256,192,63992,1,0,0:0:0:0:
329,192,64030,1,0,0:0:0:0:
402,192,64067,1,0,0:0:0:0:
475,192,64105,1,0,0:0:0:0:
36,192,64142,1,0,0:0:0:0:
109,192,64180,1,0,0:0:0:0:
329,192,64180,1,0,0:0:0:0:
182,192,64180,128,0,64280:0:0:0:0:
256,192,64280,128,0,64380:0:0:0:0:
329,192,64380,128,0,64480:0:0:0:0:
36,192,64480,1,0,0:0:0:0:
402,192,64480,128,0,64580:0:0:0:0:
329,192,64580,128,0,64680:0:0:0:0:
256,192,64680,128,0,64780:0:0:0:0:
182,192,64780,1,0,0:0:0:0:
36,192,64780,1,0,0:0:0:0:
109,192,64780,1,0,0:0:0:0:
475,192,64780,128,0,64880:0:0:0:0:
402,192,64880,128,0,64980:0:0:0:0:
329,192,64980,128,0,65080:0:0:0:0:
109,192,65080,1,0,0:0:0:0:
256,192,65080,1,0,0:0:0:0:
182,192,65080,1,0,0:0:0:0:
329,192,65117,1,0,0:0:0:0:
402,192,65155,1,0,0:0:0:0:
475,192,65192,1,0,0:0:0:0:
36,192,65230,1,0,0:0:0:0:
109,192,65230,1,0,0:0:0:0:
182,192,65267,1,0,0:0:0:0:
256,192,65305,1,0,0:0:0:0:
329,192,65342,1,0,0:0:0:0:
475,192,65380,1,0,0:0:0:0:
402,192,65380,1,0,0:0:0:0:
36,192,65380,128,0,65480:0:0:0:0:
109,192,65480,128,0,65580:0:0:0:0:
329,192,65530,1,0,0:0:0:0:
402,192,65530,1,0,0:0:0:0:
182,192,65580,128,0,65680:0:0:0:0:
36,192,65680,1,0,0:0:0:0:
256,192,65680,128,0,65780:0:0:0:0:
182,192,65780,128,0,65880:0:0:0:0:
475,192,65830,1,0,0:0:0:0:
329,192,65830,1,0,0:0:0:0:
109,192,65880,128,0,65980:0:0:0:0:
36,192,65980,128,0,66080:0:0:0:0:
402,192,65980,128,0,66080:0:0:0:0:
329,192,66080,128,0,66180:0:0:0:0:
109,192,66130,1,0,0:0:0:0:
182,192,66130,1,0,0:0:0:0:
256,192,66180,128,0,66280:0:0:0:0:
402,192,66280,1,0,0:0:0:0:
36,192,66280,1,0,0:0:0:0:
475,192,66280,1,0,0:0:0:0:
329,192,66317,1,0,0:0:0:0:
256,192,66355,1,0,0:0:0:0:
182,192,66392,1,0,0:0:0:0:
109,192,66430,1,0,0:0:0:0:
36,192,66467,1,0,0:0:0:0:
475,192,66505,1,0,0:0:0:0:
402,192,66542,1,0,0:0:0:0:
329,192,66580,1,0,0:0:0:0:
256,192,66580,1,0,0:0:0:0:
182,192,66580,1,0,0:0:0:0:
109,192,66655,1,0,0:0:0:0:
36,192,66655,1,0,0:0:0:0:
475,192,66730,1,0,0:0:0:0:
402,192,66730,1,0,0:0:0:0:
329,192,66805,1,0,0:0:0:0:
256,192,66805,1,0,0:0:0:0:
182,192,66880,1,0,0:0:0:0:
36,192,66880,1,0,0:0:0:0:
109,192,66880,1,0,0:0:0:0:
329,192,66955,1,0,0:0:0:0:
475,192,66955,1,0,0:0:0:0:
109,192,67030,1,0,0:0:0:0:
36,192,67030,1,0,0:0:0:0:
182,192,67105,1,0,0:0:0:0:
256,192,67105,1,0,0:0:0:0:
329,192,67180,1,0,0:0:0:0:
402,192,67180,1,0,0:0:0:0:
475,192,67180,1,0,0:0:0:0:
36,192,67217,1,0,0:0:0:0:
109,192,67255,1,0,0:0:0:0:
182,192,67292,1,0,0:0:0:0:
256,192,67330,1,0,0:0:0:0:
475,192,67367,1,0,0:0:0:0:
402,192,67405,1,0,0:0:0:0:
329,192,67442,1,0,0:0:0:0:
36,192,67480,1,0,0:0:0:0:
182,192,67480,1,0,0:0:0:0:
109,192,67480,1,0,0:0:0:0:
256,192,67517,1,0,0:0:0:0:
402,192,67555,1,0,0:0:0:0:
475,192,67592,1,0,0:0:0:0:
109,192,67630,1,0,0:0:0:0:
256,192,67667,1,0,0:0:0:0:
329,192,67705,1,0,0:0:0:0:
402,192,67742,1,0,0:0:0:0:
182,192,67780,128,0,67930:0:0:0:0:
109,192,67780,128,0,68005:0:0:0:0:
36,192,67780,128,0,68080:0:0:0:0:
475,192,67780,1,0,0:0:0:0:
402,192,67930,128,0,68080:0:0:0:0:
329,192,68005,128,0,68155:0:0:0:0:
256,192,68080,128,0,68230:0:0:0:0:
182,192,68155,128,0,68305:0:0:0:0:
475,192,68230,128,0,68530:0:0:0:0:
402,192,68230,128,0,68455:0:0:0:0:
329,192,68230,128,0,68380:0:0:0:0:
109,192,68380,128,0,68530:0:0:0:0:
182,192,68455,128,0,68605:0:0:0:0:
256,192,68530,128,0,68680:0:0:0:0:
329,192,68605,128,0,68755:0:0:0:0:
402,192,68680,128,0,68830:0:0:0:0:
475,192,68680,128,0,68830:0:0:0:0:
36,192,68680,128,0,68980:0:0:0:0:
182,192,68830,128,0,68980:0:0:0:0:
109,192,68830,128,0,68980:0:0:0:0:
402,192,68980,128,0,69205:0:0:0:0:
329,192,68980,128,0,69130:0:0:0:0:
475,192,68980,128,0,69280:0:0:0:0:
109,192,69130,128,0,69280:0:0:0:0:
182,192,69205,128,0,69355:0:0:0:0:
256,192,69280,128,0,69430:0:0:0:0:
329,192,69355,128,0,69505:0:0:0:0:
36,192,69430,128,0,69730:0:0:0:0:
109,192,69430,128,0,69655:0:0:0:0:
182,192,69430,128,0,69580:0:0:0:0:
402,192,69580,128,0,69730:0:0:0:0:
329,192,69655,128,0,69805:0:0:0:0:
256,192,69730,128,0,69880:0:0:0:0:
182,192,69805,128,0,69955:0:0:0:0:
109,192,69880,128,0,70030:0:0:0:0:
36,192,69880,128,0,70030:0:0:0:0:
475,192,69880,128,0,70180:0:0:0:0:
402,192,70030,128,0,70180:0:0:0:0:
329,192,70030,128,0,70180:0:0:0:0:
36,192,70180,128,0,70480:0:0:0:0:
109,192,70180,128,0,70405:0:0:0:0:
182,192,70180,128,0,70330:0:0:0:0:
402,192,70330,128,0,70480:0:0:0:0:
329,192,70405,128,0,70555:0:0:0:0:
256,192,70480,128,0,70630:0:0:0:0:
182,192,70555,128,0,70705:0:0:0:0:
329,192,70630,128,0,70780:0:0:0:0:
402,192,70630,128,0,70855:0:0:0:0:
475,192,70630,128,0,70930:0:0:0:0:
109,192,70780,128,0,70930:0:0:0:0:
182,192,70855,128,0,71005:0:0:0:0:
256,192,70930,128,0,71080:0:0:0:0:
329,192,71005,128,0,71155:0:0:0:0:
402,192,71080,128,0,71230:0:0:0:0:
475,192,71080,128,0,71230:0:0:0:0:
36,192,71080,128,0,71380:0:0:0:0:
182,192,71230,128,0,71380:0:0:0:0:
109,192,71230,128,0,71380:0:0:0:0:
475,192,71380,1,0,0:0:0:0:
329,192,71380,1,0,0:0:0:0:
402,192,71380,1,0,0:0:0:0:
256,192,71455,1,0,0:0:0:0:
329,192,71530,1,0,0:0:0:0:
109,192,71530,1,0,0:0:0:0:
256,192,71605,1,0,0:0:0:0:
36,192,71605,1,0,0:0:0:0:
182,192,71680,1,0,0:0:0:0:
402,192,71680,1,0,0:0:0:0:
475,192,71680,1,0,0:0:0:0:
329,192,71755,1,0,0:0:0:0:
109,192,71755,1,0,0:0:0:0:
475,192,71830,1,0,0:0:0:0:
256,192,71830,1,0,0:0:0:0:
182,192,71905,1,0,0:0:0:0:
329,192,71980,1,0,0:0:0:0:
36,192,71980,1,0,0:0:0:0:
109,192,71980,1,0,0:0:0:0:
182,192,72055,1,0,0:0:0:0:
402,192,72055,1,0,0:0:0:0:
256,192,72130,1,0,0:0:0:0:
475,192,72130,1,0,0:0:0:0:
109,192,72205,1,0,0:0:0:0:
329,192,72205,1,0,0:0:0:0:
475,192,72280,1,0,0:0:0:0:
182,192,72280,1,0,0:0:0:0:
402,192,72280,1,0,0:0:0:0:
109,192,72430,1,0,0:0:0:0:
402,192,72430,1,0,0:0:0:0:
329,192,72430,1,0,0:0:0:0:
475,192,72580,128,0,72880:0:0:0:0:
36,192,72580,1,0,0:0:0:0:
329,192,72580,128,0,72730:0:0:0:0:
402,192,72580,128,0,72805:0:0:0:0:
109,192,72730,128,0,72880:0:0:0:0:
182,192,72805,128,0,72955:0:0:0:0:
256,192,72880,128,0,73030:0:0:0:0:
329,192,72955,128,0,73105:0:0:0:0:
182,192,73030,128,0,73180:0:0:0:0:
109,192,73030,128,0,73255:0:0:0:0:
36,192,73030,128,0,73330:0:0:0:0:
402,192,73180,128,0,73330:0:0:0:0:
329,192,73255,128,0,73405:0:0:0:0:
256,192,73330,128,0,73480:0:0:0:0:
182,192,73405,128,0,73555:0:0:0:0:
475,192,73480,128,0,73780:0:0:0:0:
36,192,73480,128,0,73630:0:0:0:0:
109,192,73480,128,0,73630:0:0:0:0:
402,192,73630,128,0,73780:0:0:0:0:
329,192,73630,128,0,73780:0:0:0:0:
36,192,73780,128,0,74080:0:0:0:0:
182,192,73780,128,0,73930:0:0:0:0:
109,192,73780,128,0,74005:0:0:0:0:
402,192,73930,128,0,74080:0:0:0:0:
329,192,74005,128,0,74155:0:0:0:0:
256,192,74080,128,0,74230:0:0:0:0:
182,192,74155,128,0,74305:0:0:0:0:
329,192,74230,128,0,74380:0:0:0:0:
402,192,74230,128,0,74455:0:0:0:0:
475,192,74230,128,0,74530:0:0:0:0:
109,192,74380,128,0,74530:0:0:0:0:
182,192,74455,128,0,74605:0:0:0:0:
256,192,74530,128,0,74680:0:0:0:0:
329,192,74605,128,0,74755:0:0:0:0:
36,192,74680,128,0,74980:0:0:0:0:
475,192,74680,128,0,74830:0:0:0:0:
402,192,74680,128,0,74830:0:0:0:0:
182,192,74830,128,0,74980:0:0:0:0:
109,192,74830,128,0,74980:0:0:0:0:
329,192,74980,128,0,75130:0:0:0:0:
402,192,74980,128,0,75205:0:0:0:0:
475,192,74980,128,0,75280:0:0:0:0:
109,192,75130,128,0,75280:0:0:0:0:
182,192,75205,128,0,75355:0:0:0:0:
256,192,75280,128,0,75430:0:0:0:0:
329,192,75355,128,0,75505:0:0:0:0:
36,192,75430,128,0,75730:0:0:0:0:
109,192,75430,128,0,75655:0:0:0:0:
182,192,75430,128,0,75580:0:0:0:0:
402,192,75580,128,0,75730:0:0:0:0:
329,192,75655,128,0,75805:0:0:0:0:
256,192,75730,128,0,75880:0:0:0:0:
182,192,75805,128,0,75955:0:0:0:0:
475,192,75880,128,0,76180:0:0:0:0:
36,192,75880,128,0,76030:0:0:0:0:
109,192,75880,128,0,76030:0:0:0:0:
402,192,76030,128,0,76180:0:0:0:0:
329,192,76030,128,0,76180:0:0:0:0:
36,192,76180,128,0,76480:0:0:0:0:
182,192,76180,128,0,76330:0:0:0:0:
109,192,76180,128,0,76405:0:0:0:0:
402,192,76330,128,0,76480:0:0:0:0:
329,192,76405,128,0,76555:0:0:0:0:
256,192,76480,128,0,76630:0:0:0:0:
182,192,76555,128,0,76705:0:0:0:0:
329,192,76630,128,0,76780:0:0:0:0:
402,192,76630,128,0,76855:0:0:0:0:
475,192,76630,128,0,76930:0:0:0:0:
109,192,76780,128,0,76930:0:0:0:0:
182,192,76855,128,0,77005:0:0:0:0:
256,192,76930,128,0,77080:0:0:0:0:
329,192,77005,128,0,77155:0:0:0:0:
36,192,77080,128,0,77380:0:0:0:0:
475,192,77080,128,0,77230:0:0:0:0:
402,192,77080,128,0,77230:0:0:0:0:
182,192,77230,128,0,77380:0:0:0:0:
109,192,77230,128,0,77380:0:0:0:0:
475,192,77680,5,0,0:0:0:0:
256,192,77680,1,0,0:0:0:0:
402,192,77680,1,0,0:0:0:0:
36,192,77680,1,0,0:0:0:0:
256,192,77830,1,0,0:0:0:0:
36,192,77830,1,0,0:0:0:0:
329,192,77980,1,0,0:0:0:0:
109,192,77980,1,0,0:0:0:0:
475,192,77980,1,0,0:0:0:0:
402,192,78055,1,0,0:0:0:0:
182,192,78055,1,0,0:0:0:0:
329,192,78130,1,0,0:0:0:0:
109,192,78130,1,0,0:0:0:0:
256,192,78205,1,0,0:0:0:0:
36,192,78205,1,0,0:0:0:0:
475,192,78280,1,0,0:0:0:0:
402,192,78280,1,0,0:0:0:0:
182,192,78280,1,0,0:0:0:0:
329,192,78430,1,0,0:0:0:0:
402,192,78430,1,0,0:0:0:0:
109,192,78430,1,0,0:0:0:0:
256,192,78580,1,0,0:0:0:0:
475,192,78580,1,0,0:0:0:0:
36,192,78580,1,0,0:0:0:0:
182,192,78730,1,0,0:0:0:0:
329,192,78730,1,0,0:0:0:0:
402,192,78805,1,0,0:0:0:0:
109,192,78805,1,0,0:0:0:0:
256,192,78880,1,0,0:0:0:0:
475,192,78880,1,0,0:0:0:0:
182,192,78955,1,0,0:0:0:0:
36,192,78955,1,0,0:0:0:0:
256,192,79030,1,0,0:0:0:0:
329,192,79030,1,0,0:0:0:0:
182,192,79180,1,0,0:0:0:0:
109,192,79180,1,0,0:0:0:0:
402,192,79180,1,0,0:0:0:0:
256,192,79255,1,0,0:0:0:0:
329,192,79255,1,0,0:0:0:0:
36,192,79330,1,0,0:0:0:0:
475,192,79330,1,0,0:0:0:0:
256,192,79405,1,0,0:0:0:0:
182,192,79405,1,0,0:0:0:0:
109,192,79480,1,0,0:0:0:0:
329,192,79480,1,0,0:0:0:0:
402,192,79480,1,0,0:0:0:0:
182,192,79630,1,0,0:0:0:0:
402,192,79630,1,0,0:0:0:0:
475,192,79630,1,0,0:0:0:0:
36,192,79780,1,0,0:0:0:0:
109,192,79780,1,0,0:0:0:0:
329,192,79780,1,0,0:0:0:0:
256,192,79930,1,0,0:0:0:0:
475,192,79930,1,0,0:0:0:0:
402,192,80005,1,0,0:0:0:0:
182,192,80005,1,0,0:0:0:0:
109,192,80080,1,0,0:0:0:0:
329,192,80080,1,0,0:0:0:0:
256,192,80155,1,0,0:0:0:0:
475,192,80155,1,0,0:0:0:0:
182,192,80230,1,0,0:0:0:0:
402,192,80230,1,0,0:0:0:0:
329,192,80380,1,0,0:0:0:0:
36,192,80380,1,0,0:0:0:0:
109,192,80380,1,0,0:0:0:0:
256,192,80455,1,0,0:0:0:0:
475,192,80455,1,0,0:0:0:0:
402,192,80530,1,0,0:0:0:0:
182,192,80530,1,0,0:0:0:0:
109,192,80605,1,0,0:0:0:0:
329,192,80605,1,0,0:0:0:0:
36,192,80680,1,0,0:0:0:0:
182,192,80680,1,0,0:0:0:0:
256,192,80680,1,0,0:0:0:0:
109,192,80830,1,0,0:0:0:0:
329,192,80830,1,0,0:0:0:0:
256,192,80830,1,0,0:0:0:0:
402,192,80980,1,0,0:0:0:0:
182,192,80980,1,0,0:0:0:0:
36,192,80980,1,0,0:0:0:0:
475,192,81130,1,0,0:0:0:0:
256,192,81130,1,0,0:0:0:0:
402,192,81205,1,0,0:0:0:0:
182,192,81205,1,0,0:0:0:0:
256,192,81280,1,0,0:0:0:0:
36,192,81280,1,0,0:0:0:0:
475,192,81280,1,0,0:0:0:0:
329,192,81355,1,0,0:0:0:0:
109,192,81355,1,0,0:0:0:0:
402,192,81430,1,0,0:0:0:0:
182,192,81430,1,0,0:0:0:0:
256,192,81580,1,0,0:0:0:0:
475,192,81580,1,0,0:0:0:0:
36,192,81580,1,0,0:0:0:0:
109,192,81655,1,0,0:0:0:0:
329,192,81655,1,0,0:0:0:0:
256,192,81730,1,0,0:0:0:0:
475,192,81730,1,0,0:0:0:0:
182,192,81805,1,0,0:0:0:0:
402,192,81805,1,0,0:0:0:0:
329,192,81880,1,0,0:0:0:0:
36,192,81880,1,0,0:0:0:0:
256,192,81880,1,0,0:0:0:0:
475,192,82030,1,0,0:0:0:0:
109,192,82030,1,0,0:0:0:0:
329,192,82030,1,0,0:0:0:0:
36,192,82180,1,0,0:0:0:0:
182,192,82180,1,0,0:0:0:0:
256,192,82180,1,0,0:0:0:0:
402,192,82180,1,0,0:0:0:0:
36,192,82330,1,0,0:0:0:0:
402,192,82330,1,0,0:0:0:0:
182,192,82330,1,0,0:0:0:0:
109,192,82480,1,0,0:0:0:0:
329,192,82480,1,0,0:0:0:0:
475,192,82480,1,0,0:0:0:0:
109,192,82630,1,0,0:0:0:0:
475,192,82630,1,0,0:0:0:0:
329,192,82630,1,0,0:0:0:0:
256,192,82780,1,0,0:0:0:0:
36,192,82780,1,0,0:0:0:0:
402,192,82780,1,0,0:0:0:0:
402,192,82930,1,0,0:0:0:0:
256,192,82930,1,0,0:0:0:0:
36,192,82930,1,0,0:0:0:0:
475,192,83080,1,0,0:0:0:0:
329,192,83080,1,0,0:0:0:0:
109,192,83080,1,0,0:0:0:0:
402,192,83155,1,0,0:0:0:0:
256,192,83155,1,0,0:0:0:0:
329,192,83230,1,0,0:0:0:0:
182,192,83230,1,0,0:0:0:0:
402,192,83305,1,0,0:0:0:0:
256,192,83305,1,0,0:0:0:0:
36,192,83380,1,0,0:0:0:0:
109,192,83380,1,0,0:0:0:0:
475,192,83380,1,0,0:0:0:0:
329,192,83380,1,0,0:0:0:0:
475,192,83530,1,0,0:0:0:0:
109,192,83530,1,0,0:0:0:0:
329,192,83530,1,0,0:0:0:0:
402,192,83680,1,0,0:0:0:0:
36,192,83680,1,0,0:0:0:0:
182,192,83680,1,0,0:0:0:0:
402,192,83830,1,0,0:0:0:0:
36,192,83830,1,0,0:0:0:0:
182,192,83830,1,0,0:0:0:0:
256,192,83980,1,0,0:0:0:0:
109,192,83980,1,0,0:0:0:0:
475,192,83980,1,0,0:0:0:0:
256,192,84130,1,0,0:0:0:0:
109,192,84130,1,0,0:0:0:0:
475,192,84130,1,0,0:0:0:0:
36,192,84280,1,0,0:0:0:0:
182,192,84280,1,0,0:0:0:0:
402,192,84280,1,0,0:0:0:0:
256,192,84355,1,0,0:0:0:0:
109,192,84355,1,0,0:0:0:0:
329,192,84430,1,0,0:0:0:0:
182,192,84430,1,0,0:0:0:0:
109,192,84505,1,0,0:0:0:0:
256,192,84505,1,0,0:0:0:0:
182,192,84580,1,0,0:0:0:0:
36,192,84580,1,0,0:0:0:0:
402,192,84580,1,0,0:0:0:0:
329,192,84655,1,0,0:0:0:0:
475,192,84655,1,0,0:0:0:0:
182,192,84730,1,0,0:0:0:0:
36,192,84730,1,0,0:0:0:0:
475,192,84805,1,0,0:0:0:0:
329,192,84805,1,0,0:0:0:0:
36,192,84880,1,0,0:0:0:0:
109,192,84917,1,0,0:0:0:0:
182,192,84955,1,0,0:0:0:0:
256,192,84992,1,0,0:0:0:0:
475,192,85030,1,0,0:0:0:0:
402,192,85067,1,0,0:0:0:0:
329,192,85105,1,0,0:0:0:0:
256,192,85142,1,0,0:0:0:0:
36,192,85180,1,0,0:0:0:0:
182,192,85180,1,0,0:0:0:0:
109,192,85180,1,0,0:0:0:0:
329,192,85255,1,0,0:0:0:0:
475,192,85255,1,0,0:0:0:0:
182,192,85330,1,0,0:0:0:0:
36,192,85330,1,0,0:0:0:0:
475,192,85405,1,0,0:0:0:0:
329,192,85405,1,0,0:0:0:0:
36,192,85480,1,0,0:0:0:0:
109,192,85517,1,0,0:0:0:0:
182,192,85555,1,0,0:0:0:0:
256,192,85592,1,0,0:0:0:0:
475,192,85630,1,0,0:0:0:0:
402,192,85667,1,0,0:0:0:0:
329,192,85705,1,0,0:0:0:0:
256,192,85742,1,0,0:0:0:0:
36,192,85780,1,0,0:0:0:0:
109,192,85780,1,0,0:0:0:0:
475,192,85780,1,0,0:0:0:0:
182,192,85780,1,0,0:0:0:0:
329,192,85930,1,0,0:0:0:0:
36,192,86005,1,0,0:0:0:0:
109,192,86005,1,0,0:0:0:0:
256,192,86005,1,0,0:0:0:0:
475,192,86005,1,0,0:0:0:0:
182,192,86155,1,0,0:0:0:0:
36,192,86230,1,0,0:0:0:0:
475,192,86230,1,0,0:0:0:0:
402,192,86230,1,0,0:0:0:0:
256,192,86230,1,0,0:0:0:0:
109,192,86380,1,0,0:0:0:0:
182,192,86380,1,0,0:0:0:0:
329,192,86380,1,0,0:0:0:0:
402,192,86380,1,0,0:0:0:0:
256,192,86380,1,0,0:0:0:0:
475,192,86530,1,0,0:0:0:0:
402,192,86567,1,0,0:0:0:0:
329,192,86605,1,0,0:0:0:0:
256,192,86642,1,0,0:0:0:0:
36,192,86680,1,0,0:0:0:0:
182,192,86680,1,0,0:0:0:0:
109,192,86680,1,0,0:0:0:0:
475,192,86680,1,0,0:0:0:0:
36,192,86830,1,0,0:0:0:0:
109,192,86867,1,0,0:0:0:0:
182,192,86905,1,0,0:0:0:0:
256,192,86942,1,0,0:0:0:0:
329,192,86980,1,0,0:0:0:0:
402,192,86980,1,0,0:0:0:0:
475,192,86980,1,0,0:0:0:0:
36,192,86980,1,0,0:0:0:0:
109,192,87055,1,0,0:0:0:0:
182,192,87055,1,0,0:0:0:0:
402,192,87130,1,0,0:0:0:0:
256,192,87130,1,0,0:0:0:0:
329,192,87205,1,0,0:0:0:0:
475,192,87205,1,0,0:0:0:0:
36,192,87280,1,0,0:0:0:0:
109,192,87280,1,0,0:0:0:0:
256,192,87280,1,0,0:0:0:0:
402,192,87355,1,0,0:0:0:0:
182,192,87355,1,0,0:0:0:0:
329,192,87430,1,0,0:0:0:0:
475,192,87430,1,0,0:0:0:0:
256,192,87505,1,0,0:0:0:0:
109,192,87505,1,0,0:0:0:0:
36,192,87580,1,0,0:0:0:0:
402,192,87580,1,0,0:0:0:0:
329,192,87580,1,0,0:0:0:0:
182,192,87655,1,0,0:0:0:0:
256,192,87655,1,0,0:0:0:0:
109,192,87730,1,0,0:0:0:0:
475,192,87730,1,0,0:0:0:0:
402,192,87805,1,0,0:0:0:0:
329,192,87805,1,0,0:0:0:0:
256,192,87880,1,0,0:0:0:0:
182,192,87880,1,0,0:0:0:0:
36,192,87880,1,0,0:0:0:0:
402,192,87955,1,0,0:0:0:0:
475,192,87955,1,0,0:0:0:0:
109,192,88030,1,0,0:0:0:0:
329,192,88030,1,0,0:0:0:0:
182,192,88105,1,0,0:0:0:0:
256,192,88105,1,0,0:0:0:0:
36,192,88180,1,0,0:0:0:0:
475,192,88180,1,0,0:0:0:0:
109,192,88180,1,0,0:0:0:0:
402,192,88255,1,0,0:0:0:0:
329,192,88255,1,0,0:0:0:0:
182,192,88330,1,0,0:0:0:0:
109,192,88330,1,0,0:0:0:0:
256,192,88405,1,0,0:0:0:0:
475,192,88405,1,0,0:0:0:0:
402,192,88480,1,0,0:0:0:0:
329,192,88480,1,0,0:0:0:0:
36,192,88480,1,0,0:0:0:0:
109,192,88555,1,0,0:0:0:0:
182,192,88555,1,0,0:0:0:0:
256,192,88630,1,0,0:0:0:0:
402,192,88630,1,0,0:0:0:0:
329,192,88705,1,0,0:0:0:0:
182,192,88705,1,0,0:0:0:0:
256,192,88780,1,0,0:0:0:0:
475,192,88780,1,0,0:0:0:0:
36,192,88780,1,0,0:0:0:0:
402,192,88855,1,0,0:0:0:0:
109,192,88855,1,0,0:0:0:0:
329,192,88930,1,0,0:0:0:0:
256,192,88930,1,0,0:0:0:0:
182,192,89005,1,0,0:0:0:0:
109,192,89005,1,0,0:0:0:0:
36,192,89080,1,0,0:0:0:0:
475,192,89080,1,0,0:0:0:0:
402,192,89080,1,0,0:0:0:0:
182,192,89155,1,0,0:0:0:0:
329,192,89155,1,0,0:0:0:0:
256,192,89230,1,0,0:0:0:0:
109,192,89230,1,0,0:0:0:0:
402,192,89305,1,0,0:0:0:0:
329,192,89305,1,0,0:0:0:0:
256,192,89380,1,0,0:0:0:0:
182,192,89380,1,0,0:0:0:0:
36,192,89380,1,0,0:0:0:0:
475,192,89455,1,0,0:0:0:0:
109,192,89455,1,0,0:0:0:0:
402,192,89530,1,0,0:0:0:0:
329,192,89530,1,0,0:0:0:0:
182,192,89605,1,0,0:0:0:0:
109,192,89605,1,0,0:0:0:0:
256,192,89680,1,0,0:0:0:0:
36,192,89680,1,0,0:0:0:0:
475,192,89680,1,0,0:0:0:0:
402,192,89755,1,0,0:0:0:0:
182,192,89755,1,0,0:0:0:0:
329,192,89830,1,0,0:0:0:0:
36,192,89830,1,0,0:0:0:0:
109,192,89905,1,0,0:0:0:0:
182,192,89905,1,0,0:0:0:0:
475,192,89980,1,0,0:0:0:0:
256,192,89980,1,0,0:0:0:0:
402,192,89980,1,0,0:0:0:0:
329,192,90055,1,0,0:0:0:0:
36,192,90055,1,0,0:0:0:0:
182,192,90130,1,0,0:0:0:0:
402,192,90130,1,0,0:0:0:0:
256,192,90205,1,0,0:0:0:0:
109,192,90205,1,0,0:0:0:0:
329,192,90280,1,0,0:0:0:0:
475,192,90280,1,0,0:0:0:0:
182,192,90280,1,0,0:0:0:0:
36,192,90355,1,0,0:0:0:0:
402,192,90355,1,0,0:0:0:0:
109,192,90430,1,0,0:0:0:0:
256,192,90430,1,0,0:0:0:0:
182,192,90505,1,0,0:0:0:0:
329,192,90505,1,0,0:0:0:0:
256,192,90580,1,0,0:0:0:0:
475,192,90580,1,0,0:0:0:0:
36,192,90580,1,0,0:0:0:0:
402,192,90655,1,0,0:0:0:0:
329,192,90655,1,0,0:0:0:0:
109,192,90730,1,0,0:0:0:0:
256,192,90730,1,0,0:0:0:0:
182,192,90805,1,0,0:0:0:0:
36,192,90805,1,0,0:0:0:0:
109,192,90880,1,0,0:0:0:0:
329,192,90880,1,0,0:0:0:0:
475,192,90880,1,0,0:0:0:0:
256,192,90955,1,0,0:0:0:0:
402,192,90955,1,0,0:0:0:0:
182,192,91030,1,0,0:0:0:0:
36,192,91030,1,0,0:0:0:0:
109,192,91105,1,0,0:0:0:0:
329,192,91105,1,0,0:0:0:0:
256,192,91180,1,0,0:0:0:0:
475,192,91180,1,0,0:0:0:0:
182,192,91180,1,0,0:0:0:0:
402,192,91255,1,0,0:0:0:0:
329,192,91255,1,0,0:0:0:0:
36,192,91330,1,0,0:0:0:0:
182,192,91330,1,0,0:0:0:0:
256,192,91405,1,0,0:0:0:0:
109,192,91405,1,0,0:0:0:0:
182,192,91480,1,0,0:0:0:0:
402,192,91480,1,0,0:0:0:0:
475,192,91480,1,0,0:0:0:0:
36,192,91480,1,0,0:0:0:0:
329,192,91555,1,0,0:0:0:0:
256,192,91555,1,0,0:0:0:0:
182,192,91630,1,0,0:0:0:0:
475,192,91630,1,0,0:0:0:0:
402,192,91705,1,0,0:0:0:0:
109,192,91705,1,0,0:0:0:0:
36,192,91780,1,0,0:0:0:0:
182,192,91780,1,0,0:0:0:0:
329,192,91780,1,0,0:0:0:0:
475,192,91780,1,0,0:0:0:0:
256,192,91855,1,0,0:0:0:0:
109,192,91855,1,0,0:0:0:0:
402,192,91930,1,0,0:0:0:0:
329,192,91930,1,0,0:0:0:0:
182,192,92005,1,0,0:0:0:0:
256,192,92005,1,0,0:0:0:0:
109,192,92080,1,0,0:0:0:0:
36,192,92080,1,0,0:0:0:0:
475,192,92080,1,0,0:0:0:0:
329,192,92155,1,0,0:0:0:0:
182,192,92155,1,0,0:0:0:0:
256,192,92230,1,0,0:0:0:0:
402,192,92230,1,0,0:0:0:0:
109,192,92305,1,0,0:0:0:0:
182,192,92305,1,0,0:0:0:0:
36,192,92380,1,0,0:0:0:0:
329,192,92380,1,0,0:0:0:0:
475,192,92380,1,0,0:0:0:0:
256,192,92455,1,0,0:0:0:0:
182,192,92455,1,0,0:0:0:0:
109,192,92530,1,0,0:0:0:0:
329,192,92530,1,0,0:0:0:0:
402,192,92605,1,0,0:0:0:0:
36,192,92605,1,0,0:0:0:0:
182,192,92680,1,0,0:0:0:0:
475,192,92680,1,0,0:0:0:0:
256,192,92680,1,0,0:0:0:0:
402,192,92755,1,0,0:0:0:0:
329,192,92755,1,0,0:0:0:0:
109,192,92830,1,0,0:0:0:0:
182,192,92830,1,0,0:0:0:0:
256,192,92905,1,0,0:0:0:0:
329,192,92905,1,0,0:0:0:0:
36,192,92980,1,0,0:0:0:0:
402,192,92980,1,0,0:0:0:0:
475,192,92980,1,0,0:0:0:0:
182,192,92980,1,0,0:0:0:0:
109,192,93055,1,0,0:0:0:0:
329,192,93055,1,0,0:0:0:0:
256,192,93130,1,0,0:0:0:0:
182,192,93130,1,0,0:0:0:0:
402,192,93205,1,0,0:0:0:0:
109,192,93205,1,0,0:0:0:0:
182,192,93280,1,0,0:0:0:0:
475,192,93280,1,0,0:0:0:0:
36,192,93280,1,0,0:0:0:0:
329,192,93355,1,0,0:0:0:0:
256,192,93355,1,0,0:0:0:0:
402,192,93430,1,0,0:0:0:0:
109,192,93430,1,0,0:0:0:0:
256,192,93505,1,0,0:0:0:0:
182,192,93505,1,0,0:0:0:0:
475,192,93580,1,0,0:0:0:0:
36,192,93580,1,0,0:0:0:0:
329,192,93580,1,0,0:0:0:0:
402,192,93580,1,0,0:0:0:0:
475,192,93655,1,0,0:0:0:0:
329,192,93655,1,0,0:0:0:0:
402,192,93655,1,0,0:0:0:0:
109,192,93655,1,0,0:0:0:0:
256,192,93730,1,0,0:0:0:0:
329,192,93805,1,0,0:0:0:0:
475,192,93805,1,0,0:0:0:0:
402,192,93805,1,0,0:0:0:0:
182,192,93805,1,0,0:0:0:0:
36,192,93880,1,0,0:0:0:0:
182,192,93955,1,0,0:0:0:0:
329,192,94030,1,0,0:0:0:0:
109,192,94030,1,0,0:0:0:0:
475,192,94030,1,0,0:0:0:0:
402,192,94030,1,0,0:0:0:0:
256,192,94105,1,0,0:0:0:0:
36,192,94180,1,0,0:0:0:0:
182,192,94180,1,0,0:0:0:0:
109,192,94180,1,0,0:0:0:0:
475,192,94180,1,0,0:0:0:0:
402,192,94255,1,0,0:0:0:0:
329,192,94330,1,0,0:0:0:0:
36,192,94405,1,0,0:0:0:0:
109,192,94405,1,0,0:0:0:0:
182,192,94405,1,0,0:0:0:0:
475,192,94405,1,0,0:0:0:0:
329,192,94480,1,0,0:0:0:0:
402,192,94555,1,0,0:0:0:0:
475,192,94630,1,0,0:0:0:0:
109,192,94630,1,0,0:0:0:0:
182,192,94630,1,0,0:0:0:0:
36,192,94630,1,0,0:0:0:0:
256,192,94705,1,0,0:0:0:0:
36,192,94780,1,0,0:0:0:0:
109,192,94780,1,0,0:0:0:0:
182,192,94780,1,0,0:0:0:0:
475,192,94780,1,0,0:0:0:0:
329,192,94855,1,0,0:0:0:0:
402,192,94930,1,0,0:0:0:0:
36,192,95005,1,0,0:0:0:0:
109,192,95005,1,0,0:0:0:0:
182,192,95005,1,0,0:0:0:0:
475,192,95005,1,0,0:0:0:0:
329,192,95080,1,0,0:0:0:0:
256,192,95155,1,0,0:0:0:0:
475,192,95230,1,0,0:0:0:0:
182,192,95230,1,0,0:0:0:0:
109,192,95230,1,0,0:0:0:0:
36,192,95230,1,0,0:0:0:0:
256,192,95305,1,0,0:0:0:0:
36,192,95380,1,0,0:0:0:0:
475,192,95380,1,0,0:0:0:0:
329,192,95380,1,0,0:0:0:0:
402,192,95380,1,0,0:0:0:0:
109,192,95455,1,0,0:0:0:0:
182,192,95530,1,0,0:0:0:0:
402,192,95530,1,0,0:0:0:0:
256,192,95605,1,0,0:0:0:0:
36,192,95680,1,0,0:0:0:0:
475,192,95680,1,0,0:0:0:0:
329,192,95680,1,0,0:0:0:0:
109,192,95680,1,0,0:0:0:0:
402,192,95755,1,0,0:0:0:0:
329,192,95830,1,0,0:0:0:0:
109,192,95830,1,0,0:0:0:0:
256,192,95905,1,0,0:0:0:0:
182,192,95980,1,0,0:0:0:0:
36,192,95980,1,0,0:0:0:0:
475,192,95980,1,0,0:0:0:0:
329,192,95980,1,0,0:0:0:0:
109,192,96055,1,0,0:0:0:0:
402,192,96055,1,0,0:0:0:0:
182,192,96130,1,0,0:0:0:0:
329,192,96130,1,0,0:0:0:0:
256,192,96205,1,0,0:0:0:0:
109,192,96280,1,0,0:0:0:0:
36,192,96280,1,0,0:0:0:0:
402,192,96280,1,0,0:0:0:0:
329,192,96280,1,0,0:0:0:0:
256,192,96355,1,0,0:0:0:0:
182,192,96430,1,0,0:0:0:0:
475,192,96430,1,0,0:0:0:0:
402,192,96430,1,0,0:0:0:0:
109,192,96505,1,0,0:0:0:0:
329,192,96580,1,0,0:0:0:0:
182,192,96580,1,0,0:0:0:0:
402,192,96655,1,0,0:0:0:0:
256,192,96655,1,0,0:0:0:0:
109,192,96730,1,0,0:0:0:0:
329,192,96730,1,0,0:0:0:0:
182,192,96805,1,0,0:0:0:0:
402,192,96805,1,0,0:0:0:0:
256,192,96880,1,0,0:0:0:0:
109,192,96880,1,0,0:0:0:0:
36,192,96880,1,0,0:0:0:0:
475,192,96880,1,0,0:0:0:0:
182,192,96955,1,0,0:0:0:0:
329,192,96955,1,0,0:0:0:0:
402,192,97030,1,0,0:0:0:0:
256,192,97030,1,0,0:0:0:0:
182,192,97105,1,0,0:0:0:0:
36,192,97105,1,0,0:0:0:0:
475,192,97180,1,0,0:0:0:0:
402,192,97180,1,0,0:0:0:0:
256,192,97180,1,0,0:0:0:0:
109,192,97255,1,0,0:0:0:0:
329,192,97255,1,0,0:0:0:0:
182,192,97330,1,0,0:0:0:0:
36,192,97330,1,0,0:0:0:0:
256,192,97405,1,0,0:0:0:0:
402,192,97405,1,0,0:0:0:0:
475,192,97480,1,0,0:0:0:0:
109,192,97480,1,0,0:0:0:0:
182,192,97480,1,0,0:0:0:0:
329,192,97555,1,0,0:0:0:0:
256,192,97555,1,0,0:0:0:0:
402,192,97630,1,0,0:0:0:0:
36,192,97630,1,0,0:0:0:0:
109,192,97705,1,0,0:0:0:0:
182,192,97705,1,0,0:0:0:0:
256,192,97780,1,0,0:0:0:0:
329,192,97780,1,0,0:0:0:0:
475,192,97780,1,0,0:0:0:0:
109,192,97855,1,0,0:0:0:0:
36,192,97855,1,0,0:0:0:0:
402,192,97930,1,0,0:0:0:0:
182,192,97930,1,0,0:0:0:0:
329,192,98005,1,0,0:0:0:0:
256,192,98005,1,0,0:0:0:0:
475,192,98080,1,0,0:0:0:0:
36,192,98080,1,0,0:0:0:0:
402,192,98080,1,0,0:0:0:0:
109,192,98155,1,0,0:0:0:0:
182,192,98155,1,0,0:0:0:0:
329,192,98230,1,0,0:0:0:0:
402,192,98230,1,0,0:0:0:0:
256,192,98305,1,0,0:0:0:0:
36,192,98305,1,0,0:0:0:0:
109,192,98380,1,0,0:0:0:0:
182,192,98380,1,0,0:0:0:0:
475,192,98380,1,0,0:0:0:0:
402,192,98455,1,0,0:0:0:0:
329,192,98455,1,0,0:0:0:0:
256,192,98530,1,0,0:0:0:0:
109,192,98530,1,0,0:0:0:0:
182,192,98605,1,0,0:0:0:0:
329,192,98605,1,0,0:0:0:0:
256,192,98680,1,0,0:0:0:0:
36,192,98680,1,0,0:0:0:0:
475,192,98680,1,0,0:0:0:0:
109,192,98755,1,0,0:0:0:0:
402,192,98755,1,0,0:0:0:0:
182,192,98830,1,0,0:0:0:0:
256,192,98830,1,0,0:0:0:0:
329,192,98905,1,0,0:0:0:0:
402,192,98905,1,0,0:0:0:0:
475,192,98980,1,0,0:0:0:0:
36,192,98980,1,0,0:0:0:0:
109,192,98980,1,0,0:0:0:0:
329,192,99055,1,0,0:0:0:0:
182,192,99055,1,0,0:0:0:0:
256,192,99130,1,0,0:0:0:0:
402,192,99130,1,0,0:0:0:0:
109,192,99205,1,0,0:0:0:0:
182,192,99205,1,0,0:0:0:0:
256,192,99280,1,0,0:0:0:0:
329,192,99280,1,0,0:0:0:0:
475,192,99280,1,0,0:0:0:0:
36,192,99355,1,0,0:0:0:0:
402,192,99355,1,0,0:0:0:0:
109,192,99430,1,0,0:0:0:0:
182,192,99430,1,0,0:0:0:0:
329,192,99505,1,0,0:0:0:0:
475,192,99505,1,0,0:0:0:0:
256,192,99580,1,0,0:0:0:0:
402,192,99580,1,0,0:0:0:0:
36,192,99580,1,0,0:0:0:0:
109,192,99655,1,0,0:0:0:0:
329,192,99655,1,0,0:0:0:0:
182,192,99730,1,0,0:0:0:0:
475,192,99730,1,0,0:0:0:0:
402,192,99805,1,0,0:0:0:0:
329,192,99805,1,0,0:0:0:0:
36,192,99880,1,0,0:0:0:0:
256,192,99880,1,0,0:0:0:0:
109,192,99880,1,0,0:0:0:0:
182,192,99955,1,0,0:0:0:0:
475,192,99955,1,0,0:0:0:0:
329,192,100030,1,0,0:0:0:0:
109,192,100030,1,0,0:0:0:0:
256,192,100105,1,0,0:0:0:0:
402,192,100105,1,0,0:0:0:0:
182,192,100180,1,0,0:0:0:0:
36,192,100180,1,0,0:0:0:0:
329,192,100180,1,0,0:0:0:0:
475,192,100255,1,0,0:0:0:0:
109,192,100255,1,0,0:0:0:0:
402,192,100330,1,0,0:0:0:0:
256,192,100330,1,0,0:0:0:0:
329,192,100405,1,0,0:0:0:0:
182,192,100405,1,0,0:0:0:0:
256,192,100480,1,0,0:0:0:0:
36,192,100480,1,0,0:0:0:0:
475,192,100480,1,0,0:0:0:0:
109,192,100555,1,0,0:0:0:0:
182,192,100555,1,0,0:0:0:0:
402,192,100630,1,0,0:0:0:0:
256,192,100630,1,0,0:0:0:0:
329,192,100705,1,0,0:0:0:0:
475,192,100705,1,0,0:0:0:0:
402,192,100780,1,0,0:0:0:0:
182,192,100780,1,0,0:0:0:0:
36,192,100780,1,0,0:0:0:0:
256,192,100855,1,0,0:0:0:0:
109,192,100855,1,0,0:0:0:0:
182,192,100930,1,0,0:0:0:0:
475,192,100930,1,0,0:0:0:0:
402,192,101005,1,0,0:0:0:0:
109,192,101005,1,0,0:0:0:0:
256,192,101080,1,0,0:0:0:0:
36,192,101080,1,0,0:0:0:0:
329,192,101080,1,0,0:0:0:0:
109,192,101155,1,0,0:0:0:0:
182,192,101155,1,0,0:0:0:0:
475,192,101230,1,0,0:0:0:0:
329,192,101230,1,0,0:0:0:0:
256,192,101305,1,0,0:0:0:0:
402,192,101305,1,0,0:0:0:0:
329,192,101380,1,0,0:0:0:0:
109,192,101380,1,0,0:0:0:0:
36,192,101380,1,0,0:0:0:0:
475,192,101380,1,0,0:0:0:0:
182,192,101455,1,0,0:0:0:0:
256,192,101455,1,0,0:0:0:0:
402,192,101530,1,0,0:0:0:0:
36,192,101530,1,0,0:0:0:0:
109,192,101605,1,0,0:0:0:0:
329,192,101605,1,0,0:0:0:0:
475,192,101680,1,0,0:0:0:0:
402,192,101680,1,0,0:0:0:0:
182,192,101680,1,0,0:0:0:0:
256,192,101755,1,0,0:0:0:0:
36,192,101755,1,0,0:0:0:0:
109,192,101830,1,0,0:0:0:0:
329,192,101830,1,0,0:0:0:0:
402,192,101905,1,0,0:0:0:0:
256,192,101905,1,0,0:0:0:0:
182,192,101980,1,0,0:0:0:0:
475,192,101980,1,0,0:0:0:0:
36,192,101980,1,0,0:0:0:0:
109,192,102055,1,0,0:0:0:0:
329,192,102055,1,0,0:0:0:0:
402,192,102130,1,0,0:0:0:0:
182,192,102130,1,0,0:0:0:0:
475,192,102205,1,0,0:0:0:0:
256,192,102205,1,0,0:0:0:0:
402,192,102280,1,0,0:0:0:0:
109,192,102280,1,0,0:0:0:0:
36,192,102280,1,0,0:0:0:0:
256,192,102355,1,0,0:0:0:0:
329,192,102355,1,0,0:0:0:0:
109,192,102430,1,0,0:0:0:0:
182,192,102430,1,0,0:0:0:0:
329,192,102505,1,0,0:0:0:0:
402,192,102505,1,0,0:0:0:0:
475,192,102580,1,0,0:0:0:0:
36,192,102580,1,0,0:0:0:0:
256,192,102580,1,0,0:0:0:0:
109,192,102580,1,0,0:0:0:0:
402,192,102655,1,0,0:0:0:0:
182,192,102655,1,0,0:0:0:0:
329,192,102730,1,0,0:0:0:0:
109,192,102730,1,0,0:0:0:0:
256,192,102805,1,0,0:0:0:0:
475,192,102805,1,0,0:0:0:0:
402,192,102880,1,0,0:0:0:0:
182,192,102880,1,0,0:0:0:0:
109,192,102880,1,0,0:0:0:0:
329,192,102955,1,0,0:0:0:0:
36,192,102955,1,0,0:0:0:0:
256,192,103030,1,0,0:0:0:0:
475,192,103030,1,0,0:0:0:0:
109,192,103105,1,0,0:0:0:0:
329,192,103105,1,0,0:0:0:0:
402,192,103180,1,0,0:0:0:0:
182,192,103180,1,0,0:0:0:0:
475,192,103180,1,0,0:0:0:0:
256,192,103255,1,0,0:0:0:0:
36,192,103255,1,0,0:0:0:0:
109,192,103330,1,0,0:0:0:0:
402,192,103330,1,0,0:0:0:0:
182,192,103405,1,0,0:0:0:0:
329,192,103405,1,0,0:0:0:0:
109,192,103480,1,0,0:0:0:0:
475,192,103480,1,0,0:0:0:0:
36,192,103480,1,0,0:0:0:0:
402,192,103555,1,0,0:0:0:0:
329,192,103555,1,0,0:0:0:0:
182,192,103630,1,0,0:0:0:0:
109,192,103630,1,0,0:0:0:0:
329,192,103705,1,0,0:0:0:0:
256,192,103705,1,0,0:0:0:0:
109,192,103780,1,0,0:0:0:0:
36,192,103780,1,0,0:0:0:0:
475,192,103780,1,0,0:0:0:0:
402,192,103780,1,0,0:0:0:0:
182,192,103855,1,0,0:0:0:0:
329,192,103855,1,0,0:0:0:0:
109,192,103930,1,0,0:0:0:0:
36,192,103930,1,0,0:0:0:0:
182,192,104005,1,0,0:0:0:0:
329,192,104005,1,0,0:0:0:0:
475,192,104080,1,0,0:0:0:0:
402,192,104117,1,0,0:0:0:0:
329,192,104155,1,0,0:0:0:0:
256,192,104192,1,0,0:0:0:0:
36,192,104230,1,0,0:0:0:0:
109,192,104267,1,0,0:0:0:0:
182,192,104305,1,0,0:0:0:0:
256,192,104342,1,0,0:0:0:0:
402,192,104380,1,0,0:0:0:0:
475,192,104380,1,0,0:0:0:0:
109,192,104380,1,0,0:0:0:0:
36,192,104380,1,0,0:0:0:0:
329,192,104455,1,0,0:0:0:0:
182,192,104455,1,0,0:0:0:0:
402,192,104530,1,0,0:0:0:0:
475,192,104530,1,0,0:0:0:0:
329,192,104605,1,0,0:0:0:0:
182,192,104605,1,0,0:0:0:0:
36,192,104680,1,0,0:0:0:0:
109,192,104717,1,0,0:0:0:0:
182,192,104755,1,0,0:0:0:0:
256,192,104792,1,0,0:0:0:0:
475,192,104830,1,0,0:0:0:0:
402,192,104867,1,0,0:0:0:0:
329,192,104905,1,0,0:0:0:0:
256,192,104942,1,0,0:0:0:0:
475,192,104980,1,0,0:0:0:0:
182,192,104980,1,0,0:0:0:0:
109,192,104980,1,0,0:0:0:0:
36,192,104980,1,0,0:0:0:0:
256,192,105055,1,0,0:0:0:0:
256,192,105130,1,0,0:0:0:0:
36,192,105205,1,0,0:0:0:0:
475,192,105205,1,0,0:0:0:0:
402,192,105205,1,0,0:0:0:0:
329,192,105205,1,0,0:0:0:0:
182,192,105280,1,0,0:0:0:0:
182,192,105355,1,0,0:0:0:0:
109,192,105430,1,0,0:0:0:0:
36,192,105430,1,0,0:0:0:0:
475,192,105430,1,0,0:0:0:0:
256,192,105430,1,0,0:0:0:0:
329,192,105505,1,0,0:0:0:0:
109,192,105580,1,0,0:0:0:0:
182,192,105580,1,0,0:0:0:0:
256,192,105580,1,0,0:0:0:0:
402,192,105580,1,0,0:0:0:0:
36,192,105655,1,0,0:0:0:0:
475,192,105655,1,0,0:0:0:0:
329,192,105730,1,0,0:0:0:0:
402,192,105730,1,0,0:0:0:0:
256,192,105767,1,0,0:0:0:0:
182,192,105805,1,0,0:0:0:0:
109,192,105842,1,0,0:0:0:0:
36,192,105880,1,0,0:0:0:0:
402,192,105880,1,0,0:0:0:0:
475,192,105880,1,0,0:0:0:0:
329,192,105917,1,0,0:0:0:0:
256,192,105955,1,0,0:0:0:0:
182,192,105992,1,0,0:0:0:0:
109,192,106030,1,0,0:0:0:0:
475,192,106030,1,0,0:0:0:0:
402,192,106067,1,0,0:0:0:0:
329,192,106105,1,0,0:0:0:0:
36,192,106105,1,0,0:0:0:0:
256,192,106142,1,0,0:0:0:0:
182,192,106180,1,0,0:0:0:0:
109,192,106180,1,0,0:0:0:0:
