osu file format v14

[General]
AudioFilename: audio.mp3
AudioLeadIn: 0
PreviewTime: 29300
Countdown: 0
SampleSet: Soft
StackLeniency: 0.7
Mode: 0
LetterboxInBreaks: 0
WidescreenStoryboard: 1

[Editor]
Bookmarks: 84275,108875
DistanceSpacing: 1.3
BeatDivisor: 4
GridSize: 32
TimelineZoom: 2.899999

[Metadata]
Title:White Aura
TitleUnicode:White Aura
Artist:HyuN
ArtistUnicode:HyuN
Creator:[ L u k a s ]
Version:Walao's Extra
Source:osu!
Tags:blue happy hardcore stum electronic instrumental fa featured artist mappers' guild walaowey rvmathew hazu- lukas High Tempo Beatmap Pack MG Gremio
BeatmapID:2088216
BeatmapSetID:996898

[Difficulty]
HPDrainRate:6
CircleSize:3.6
OverallDifficulty:8.5
ApproachRate:9.2
SliderMultiplier:1.8
SliderTickRate:1

[Events]
//Background and Video events
0,0,"light-1282314_1920.jpg",0,0
//Break Periods
//Storyboard Layer 0 (Background)
//Storyboard Layer 1 (Fail)
//Storyboard Layer 2 (Pass)
//Storyboard Layer 3 (Foreground)
//Storyboard Layer 4 (Overlay)
//Storyboard Sound Samples

[TimingPoints]
575,300,4,2,1,40,1,0
575,-142.857142857143,4,2,1,40,0,0
10175,-125,4,2,1,60,0,0
14975,-100,4,2,1,60,0,0
19775,-125,4,2,1,40,0,0
24275,-83.3333333333333,4,2,1,40,0,0
24575,-125,4,2,1,40,0,0
29375,-83.3333333333333,4,2,1,75,0,1
38825,-200,4,2,1,75,0,0
39275,-83.3333333333333,4,2,1,75,0,1
48575,-142.857142857143,4,2,1,40,0,0
58175,-125,4,2,1,60,0,0
61775,-90.9090909090909,4,2,1,60,0,0
62975,-100,4,2,1,60,0,0
67775,-83.3333333333333,4,2,1,75,0,0
77225,-200,4,2,1,75,0,0
77675,-83.3333333333333,4,2,1,75,0,1
86675,-83.3333333333333,4,2,1,75,0,0
86975,-83.3333333333333,4,2,1,75,0,1
96575,-142.857142857143,4,2,1,75,0,0
96875,-83.3333333333333,4,2,1,75,0,1
106175,-142.857142857143,4,2,1,40,0,0
114575,-142.857142857143,4,2,1,35,0,0
115175,-142.857142857143,4,2,1,30,0,0
115775,-142.857142857143,4,2,1,25,0,0
116375,-142.857142857143,4,2,1,20,0,0
116975,-142.857142857143,4,2,1,15,0,0
117575,-142.857142857143,4,2,1,5,0,0
118175,-142.857142857143,4,2,1,5,0,0

[Colours]
Combo1 : 202,240,236
Combo2 : 206,206,206

[HitObjects]
133,143,575,6,0,L|74:120,2,62.9999980773926,2|0|0,2:0|2:0|2:0,0:0:0:0:
205,170,1025,2,0,L|339:118,1,125.999996154785,2|0,2:0|2:0,0:0:0:0:
393,97,1475,1,2,2:0:0:0:
393,97,1625,6,0,P|346:140|355:213,1,125.999996154785,0|0,2:0|2:0,0:0:0:0:
416,170,2075,1,0,2:0:0:0:
422,170,2225,2,0,P|476:204|483:271,1,125.999996154785,2|0,2:0|2:0,0:0:0:0:
412,246,2675,1,2,2:0:0:0:
406,246,2825,6,0,P|347:227|273:249,1,125.999996154785,0|0,2:0|2:0,0:0:0:0:
228,289,3275,1,0,2:0:0:0:
228,289,3425,2,0,P|169:308|95:286,1,125.999996154785,2|0,2:0|2:0,0:0:0:0:
49,245,3875,1,2,2:0:0:0:
49,245,4025,1,0,2:0:0:0:
165,179,4175,6,0,L|227:185,2,62.9999980773926,2|0|2,2:0|2:0|2:0,0:0:0:0:
89,171,4625,1,0,2:0:0:0:
89,171,4775,1,2,2:0:0:0:
108,294,4925,1,0,2:0:0:0:
174,254,5075,1,2,2:0:0:0:
165,179,5225,1,0,2:0:0:0:
49,245,5375,6,0,P|34:278|35:320,2,62.9999980773926,2|0|0,2:0|2:0|2:0,0:0:0:0:
108,294,5825,2,0,P|172:284|245:322,1,125.999996154785,2|0,2:0|2:0,0:0:0:0:
299,331,6275,1,2,2:0:0:0:
296,337,6425,6,0,P|360:347|433:309,1,125.999996154785,0|0,2:0|2:0,0:0:0:0:
465,267,6875,1,0,2:0:0:0:
465,267,7025,2,0,B|448:231|448:231|430:128,1,125.999996154785,2|0,2:0|2:0,0:0:0:0:
442,71,7475,1,2,2:0:0:0:
442,71,7625,6,0,L|314:53,1,125.999996154785,0|0,2:0|2:0,0:0:0:0:
249,87,8075,1,0,2:0:0:0:
249,87,8225,2,0,L|124:104,1,125.999996154785,2|0,2:0|2:0,0:0:0:0:
48,108,8675,1,2,2:0:0:0:
48,108,8825,1,0,2:0:0:0:
163,172,8975,6,0,L|253:160,2,62.9999980773926,2|0|2,2:0|2:0|2:0,0:0:0:0:
87,172,9425,1,0,2:0:0:0:
87,172,9575,1,2,2:0:0:0:
164,302,9725,1,0,2:0:0:0:
125,238,9875,1,2,2:0:0:0:
88,304,10025,1,0,2:0:0:0:
243,297,10175,6,0,L|342:284,1,72,6|0,2:0|2:0,0:0:0:0:
399,275,10475,1,8,2:0:0:0:
292,131,10625,6,0,L|305:230,1,72,2|0,2:0|2:0,0:0:0:0:
314,287,10925,1,0,2:0:0:0:
457,180,11075,6,0,L|358:193,1,72,10|0,2:0|2:0,0:0:0:0:
301,202,11375,1,0,2:0:0:0:
408,346,11525,6,0,L|395:247,1,72,2|8,2:0|2:0,0:0:0:0:
386,190,11825,1,0,2:0:0:0:
240,77,11975,6,0,L|232:148,1,72,2|0,2:0|2:0,0:0:0:0:
318,353,12275,2,0,L|303:229,1,108,14|0,2:0|0:0,0:0:0:0:
301,202,12575,5,6,2:0:0:0:
220,234,12725,1,0,2:0:0:0:
232,148,12875,1,8,2:0:0:0:
208,321,13025,5,2,2:0:0:0:
139,266,13175,1,0,2:0:0:0:
220,234,13325,1,0,2:0:0:0:
126,352,13475,5,10,2:0:0:0:
77,211,13625,1,0,2:0:0:0:
208,321,13775,5,6,2:0:0:0:
220,234,13926,2,0,L|233:146,1,72,2|8,2:0|2:0,0:0:0:0:
324,65,14225,1,2,2:0:0:0:
324,65,14300,1,2,2:0:0:0:
324,65,14375,2,0,L|329:100,1,36,6|0,0:0|0:0,0:0:0:0:
419,98,14525,2,0,L|413:133,1,36,0|0,0:0|0:0,0:0:0:0:
330,183,14675,2,0,L|335:218,1,36,14|0,0:0|0:0,0:0:0:0:
425,216,14825,2,0,L|419:251,1,36,0|0,0:0|0:0,0:0:0:0:
335,299,14975,6,0,L|344:361,2,60,6|0|0,3:2|0:0|0:0,0:0:0:0:
256,253,15275,2,0,L|248:193,2,60,2|0|0,3:2|2:0|2:0,0:0:0:0:
196,314,15575,2,0,L|205:376,2,60,6|0|0,3:2|2:0|2:0,0:0:0:0:
117,268,15875,2,0,L|109:208,2,60,2|0|0,3:2|0:0|0:0,0:0:0:0:
39,357,16175,6,0,L|27:251,1,90,6|0,3:2|3:2,0:0:0:0:
27,245,16400,1,0,0:0:0:0:
24,222,16475,1,2,3:2:0:0:
120,78,16625,1,0,3:2:0:0:
120,78,16700,1,0,0:0:0:0:
120,78,16775,2,0,L|109:167,1,90,6|0,3:2|3:2,0:0:0:0:
196,212,17000,1,0,0:0:0:0:
216,201,17075,2,0,L|211:156,1,45,6|0,3:2|3:2,0:0:0:0:
218,30,17225,2,0,L|213:74,1,45,0|0,3:2|2:0,0:0:0:0:
307,194,17375,6,0,L|369:201,3,45,6|0|0|0,2:0|3:0|3:0|3:0,0:0:0:0:
435,155,17675,2,0,L|479:149,3,45,4|0|0|0,3:2|3:2|3:2|3:2,0:0:0:0:
506,272,17975,5,6,2:0:0:0:
470,267,18050,1,0,3:0:0:0:
434,272,18125,1,0,3:0:0:0:
399,283,18200,1,0,3:0:0:0:
369,302,18275,2,0,L|324:307,1,45,4|0,2:0|2:0,0:0:0:0:
240,351,18425,2,0,L|195:345,1,45,2|0,2:0|2:0,0:0:0:0:
126,289,18575,6,0,B|139:260|139:260|133:201,1,90,6|0,2:0|3:2,0:0:0:0:
65,140,18800,1,0,3:2:0:0:
83,125,18875,2,0,P|125:111|186:124,1,90,6|0,2:0|3:2,0:0:0:0:
224,187,19100,1,0,3:2:0:0:
246,193,19175,6,0,L|304:186,1,45,6|0,3:2|3:2,0:0:0:0:
387,157,19325,2,0,L|351:110,1,45,0|0,3:2|3:2,0:0:0:0:
362,17,19475,1,6,3:2:0:0:
326,20,19550,1,0,3:2:0:0:
294,35,19625,1,0,3:2:0:0:
268,60,19700,1,0,3:2:0:0:
265,100,19775,5,6,3:2:0:0:
265,100,20075,1,2,3:2:0:0:
265,100,20375,1,2,3:2:0:0:
265,100,20675,1,2,3:2:0:0:
357,291,20975,5,2,3:2:0:0:
357,291,21275,1,2,3:2:0:0:
357,291,21575,1,2,3:2:0:0:
357,291,21875,1,2,3:2:0:0:
380,102,22175,6,0,L|362:192,1,72,2|0,3:2|2:0,0:0:0:0:
265,100,22475,2,0,L|279:170,1,72,2|0,3:2|2:0,0:0:0:0:
180,96,22775,2,0,L|162:186,1,72,2|0,3:2|2:0,0:0:0:0:
65,94,23075,2,0,L|79:164,1,72,2|0,3:2|2:0,0:0:0:0:
60,325,23375,6,0,L|78:235,1,72,2|0,3:2|2:0,0:0:0:0:
175,327,23675,2,0,L|160:256,1,72,2|0,3:2|2:0,0:0:0:0:
260,331,23975,2,0,L|278:241,1,72,2|0,3:2|2:0,0:0:0:0:
369,332,24275,6,0,B|355:260|355:260|338:349,1,161.999995056153,6|0,3:2|0:0,0:0:0:0:
444,282,24575,6,0,L|476:267,2,36,6|0|0,3:2|0:0|2:0,0:0:0:0:
370,188,24875,2,0,L|328:169,2,36,10|0|0,3:2|2:0|2:0,0:0:0:0:
463,124,25175,2,0,L|495:109,2,36,2|0|0,3:2|2:0|2:0,0:0:0:0:
395,36,25475,2,0,L|353:17,2,36,10|0|0,3:2|2:0|2:0,0:0:0:0:
257,88,25775,6,0,L|215:69,2,36,2|0|0,3:2|2:0|2:0,0:0:0:0:
337,173,26075,2,0,L|369:158,2,36,10|0|0,3:2|2:0|2:0,0:0:0:0:
249,258,26375,2,0,L|207:239,2,36,2|0|0,3:2|2:0|2:0,0:0:0:0:
338,347,26675,2,0,L|370:332,2,36,10|0|0,3:2|2:0|2:0,0:0:0:0:
147,332,26975,5,2,3:2:0:0:
162,247,27125,1,0,3:2:0:0:
234,344,27275,1,10,3:2:0:0:
249,259,27425,1,0,3:2:0:0:
123,347,27575,5,2,3:2:0:0:
141,228,27725,1,0,3:2:0:0:
256,367,27875,1,10,3:2:0:0:
274,248,28025,1,0,3:2:0:0:
274,248,28100,1,0,3:2:0:0:
274,248,28175,5,0,3:2:0:0:
274,219,28250,1,0,3:2:0:0:
269,190,28325,1,0,3:2:0:0:
258,163,28400,1,0,3:2:0:0:
241,139,28475,2,0,L|196:100,1,36,8|0,3:2|3:2,0:0:0:0:
103,149,28625,2,0,L|75:172,1,36,0|0,3:2|3:2,0:0:0:0:
58,44,28775,2,0,B|92:33|92:33|128:40,1,72,0|0,3:2|3:2,0:0:0:0:
196,96,29000,1,0,3:2:0:0:
213,115,29075,2,0,B|246:125|246:125|282:119,1,72,8|0,3:2|3:2,0:0:0:0:
358,78,29300,1,0,3:2:0:0:
385,56,29375,6,0,P|372:127|412:172,1,107.999996704102,6|0,3:2|2:0,0:0:0:0:
487,132,29600,1,2,2:0:0:0:
504,111,29675,2,0,L|451:103,1,53.9999983520508,0|0,3:2|2:0,0:0:0:0:
341,220,29825,2,0,P|391:236|440:216,1,107.999996704102,2|0,2:0|3:2,0:0:0:0:
388,154,30050,1,2,2:0:0:0:
365,139,30125,2,0,L|311:142,1,53.9999983520508,0|0,2:0|2:0,0:0:0:0:
200,257,30275,1,2,3:2:0:0:
230,125,30425,1,0,2:0:0:0:
341,220,30575,6,0,L|332:342,1,107.999996704102,2|0,3:2|2:0,0:0:0:0:
248,355,30800,1,2,2:0:0:0:
228,336,30875,2,0,L|222:275,1,53.9999983520508,0|0,3:2|2:0,0:0:0:0:
120,199,31025,2,0,L|111:321,1,107.999996704102,2|0,2:0|3:2,0:0:0:0:
27,334,31250,1,2,2:0:0:0:
7,315,31325,2,0,L|1:254,1,53.9999983520508,0|0,2:0|2:0,0:0:0:0:
112,98,31475,1,2,3:2:0:0:
219,204,31625,1,0,2:0:0:0:
29,155,31775,6,0,P|13:108|26:44,1,107.999996704102,2|0,3:2|2:0,0:0:0:0:
112,98,32000,1,2,2:0:0:0:
137,109,32075,2,0,L|199:96,1,53.9999983520508,0|0,3:2|2:0,0:0:0:0:
303,30,32225,2,0,P|350:14|414:27,1,107.999996704102,2|0,2:0|3:2,0:0:0:0:
393,153,32450,1,2,2:0:0:0:
372,168,32525,2,0,L|360:115,1,53.9999983520508,0|0,2:0|2:0,0:0:0:0:
505,92,32675,1,2,3:2:0:0:
435,222,32825,1,0,2:0:0:0:
270,123,32975,6,0,L|291:232,1,107.999996704102,2|0,3:2|2:0,0:0:0:0:
256,148,33200,2,0,L|248:258,1,107.999996704102,2|0,0:0|2:0,0:0:0:0:
240,167,33425,2,0,L|203:271,1,107.999996704102,2|0,2:0|3:2,0:0:0:0:
220,189,33650,2,0,L|157:280,1,107.999996704102,2|0,2:0|2:0,0:0:0:0:
109,345,33875,1,2,3:2:0:0:
119,175,34025,1,0,2:0:0:0:
274,354,34175,6,0,L|410:330,1,107.999996704102,6|0,3:2|2:0,0:0:0:0:
470,271,34400,1,2,2:0:0:0:
454,250,34475,2,0,L|400:240,1,53.9999983520508,0|0,3:2|2:0,0:0:0:0:
220,189,34625,2,0,L|356:165,1,107.999996704102,2|0,2:0|3:2,0:0:0:0:
416,106,34850,1,2,2:0:0:0:
400,85,34925,2,0,L|346:75,1,53.9999983520508,0|0,2:0|2:0,0:0:0:0:
182,104,35075,1,2,3:2:0:0:
298,11,35225,1,0,2:0:0:0:
104,43,35375,6,0,P|85:93|95:145,1,107.999996704102,2|0,3:2|2:0,0:0:0:0:
140,227,35600,1,2,2:0:0:0:
159,208,35675,2,0,P|188:200|221:206,1,53.9999983520508,0|0,3:2|2:0,0:0:0:0:
184,380,35825,2,0,P|174:327|193:277,1,107.999996704102,2|0,2:0|3:2,0:0:0:0:
306,228,36050,1,2,2:0:0:0:
323,249,36125,2,0,P|294:257|261:251,1,53.9999983520508,0|0,2:0|2:0,0:0:0:0:
356,134,36275,1,2,3:2:0:0:
455,277,36425,1,0,2:0:0:0:
465,87,36575,6,0,B|447:72|447:72|448:155,1,107.999996704102,6|0,3:2|2:0,0:0:0:0:
374,52,36800,1,2,2:0:0:0:
350,39,36875,2,0,L|293:26,1,53.9999983520508,0|0,3:2|2:0,0:0:0:0:
179,108,37025,2,0,L|231:95,1,53.9999983520508,2|0,2:0|0:0,0:0:0:0:
93,47,37175,1,4,3:2:0:0:
86,89,37250,1,2,2:0:0:0:
78,131,37325,2,0,L|91:183,1,53.9999983520508,0|0,2:0|2:0,0:0:0:0:
195,306,37475,1,2,3:2:0:0:
204,191,37625,1,0,2:0:0:0:
39,351,37775,5,6,3:2:0:0:
0,179,37925,1,6,3:2:0:0:
0,179,38225,2,0,L|171:189,1,161.999995056153,6|0,3:2|2:0,0:0:0:0:
204,191,38525,1,6,3:2:0:0:
316,298,38675,1,2,3:2:0:0:
153,313,38825,6,0,B|112:271|112:271|167:274,1,112.5,2|0,3:2|0:0,0:0:0:0:
195,306,39275,5,6,3:2:0:0:
330,271,39425,2,0,P|356:266|378:251,1,53.9999983520508,0|0,2:0|2:0,0:0:0:0:
444,60,39575,1,2,3:2:0:0:
430,36,39650,2,0,P|421:89|423:143,1,107.999996704102,0|0,2:0|2:0,0:0:0:0:
436,196,39875,1,2,3:2:0:0:
512,98,40025,1,0,2:0:0:0:
319,181,40175,6,0,B|276:170|276:170|218:123,1,107.999996704102,2|0,3:2|2:0,0:0:0:0:
138,65,40400,1,2,2:0:0:0:
151,41,40475,2,0,L|149:101,1,53.9999983520508,0|0,3:2|2:0,0:0:0:0:
80,159,40625,2,0,L|82:219,1,53.9999983520508,2|0,2:0|2:0,0:0:0:0:
163,339,40775,1,0,3:2:0:0:
180,358,40850,2,0,L|183:245,1,107.999996704102,2|0,2:0|2:0,0:0:0:0:
186,195,41075,1,2,3:2:0:0:
70,304,41225,1,0,2:0:0:0:
325,336,41375,6,0,L|446:314,1,107.999996704102,2|0,3:2|2:0,0:0:0:0:
368,210,41600,1,2,2:0:0:0:
351,188,41675,2,0,L|363:253,1,53.9999983520508,0|0,3:2|2:0,0:0:0:0:
458,199,41825,2,0,L|468:146,1,53.9999983520508,2|0,2:0|2:0,0:0:0:0:
333,85,41975,1,0,3:2:0:0:
292,99,42050,1,2,2:0:0:0:
259,127,42125,2,0,L|205:137,1,53.9999983520508,0|0,0:0|2:0,0:0:0:0:
58,48,42275,1,2,3:2:0:0:
216,55,42425,1,0,2:0:0:0:
21,148,42575,6,0,P|69:125|121:133,1,107.999996704102,2|0,3:2|2:0,0:0:0:0:
108,249,42800,1,2,2:0:0:0:
96,274,42875,2,0,L|84:221,1,53.9999983520508,0|0,3:2|2:0,0:0:0:0:
188,296,43025,2,0,L|176:349,1,53.9999983520508,2|0,2:0|2:0,0:0:0:0:
45,366,43175,1,0,3:2:0:0:
22,350,43250,2,0,L|-6:216,1,107.999996704102,2|0,2:0|2:0,0:0:0:0:
84,221,43475,2,0,L|136:232,1,53.9999983520508,2|0,3:2|0:0,0:0:0:0:
259,260,43625,2,0,L|326:246,1,53.9999983520508,0|0,3:0|0:0,0:0:0:0:
451,144,43775,5,6,3:2:0:0:
477,236,43925,1,0,3:2:0:0:
386,92,44075,1,2,3:2:0:0:
355,218,44225,1,0,3:2:0:0:
462,55,44375,1,2,3:2:0:0:
499,223,44525,1,0,3:2:0:0:
316,48,44675,1,2,3:2:0:0:
303,89,44750,1,0,3:2:0:0:
290,130,44825,1,0,3:2:0:0:
277,171,44900,1,0,3:2:0:0:
265,212,44975,6,0,L|288:334,1,107.999996704102,6|0,3:2|3:2,0:0:0:0:
301,339,45200,1,0,0:0:0:0:
319,358,45275,1,2,3:2:0:0:
512,272,45425,2,0,L|397:232,1,107.999996704102,0|2,3:2|3:2,0:0:0:0:
379,243,45650,1,0,0:0:0:0:
352,248,45725,1,0,3:2:0:0:
142,256,45875,2,0,L|131:191,1,53.9999983520508,2|0,3:2|3:2,0:0:0:0:
205,84,46025,2,0,L|195:137,1,53.9999983520508,0|0,3:2|3:2,0:0:0:0:
49,243,46175,6,0,B|20:206|20:206|9:145,1,107.999996704102,6|0,3:2|3:2,0:0:0:0:
41,27,46400,1,0,3:2:0:0:
56,50,46475,2,0,L|123:60,1,53.9999983520508,0|0,3:2|3:2,0:0:0:0:
205,84,46625,2,0,L|258:76,1,53.9999983520508,0|0,3:2|3:2,0:0:0:0:
415,43,46775,5,6,3:2:0:0:
433,63,46850,2,0,L|416:187,1,107.999996704102,0|0,3:2|0:0,0:0:0:0:
347,237,47075,2,0,L|337:169,1,53.9999983520508,2|0,2:0|0:0,0:0:0:0:
474,227,47225,2,0,L|467:281,1,53.9999983520508,2|0,3:2|3:2,0:0:0:0:
361,335,47375,6,0,B|326:326|326:326|241:343,1,107.999996704102,4|0,3:2|3:2,0:0:0:0:
108,343,47600,1,0,2:0:0:0:
80,376,47675,2,0,L|158:361,1,53.9999983520508,4|0,3:2|3:2,0:0:0:0:
185,252,47825,2,0,L|131:241,1,53.9999983520508,0|0,3:2|2:0,0:0:0:0:
29,134,47975,5,4,3:2:0:0:
71,127,48050,1,0,3:2:0:0:
113,120,48125,2,0,L|176:107,1,53.9999983520508,0|0,3:2|3:2,0:0:0:0:
273,226,48275,2,0,L|237:185,1,53.9999983520508,4|0,3:2|3:2,0:0:0:0:
280,35,48425,2,0,L|262:86,1,53.9999983520508,0|0,3:2|3:2,0:0:0:0:
123,43,48575,6,0,L|190:30,2,62.9999980773926,6|0|0,2:0|2:0|2:0,0:0:0:0:
113,120,49025,2,0,P|126:181|117:256,1,125.999996154785,2|0,2:0|2:0,0:0:0:0:
70,300,49475,1,2,2:0:0:0:
70,300,49625,6,0,L|196:273,1,125.999996154785,0|0,2:0|2:0,0:0:0:0:
255,231,50075,1,0,2:0:0:0:
255,231,50225,2,0,L|378:257,1,125.999996154785,2|0,2:0|2:0,0:0:0:0:
415,324,50675,1,2,2:0:0:0:
420,320,50825,6,0,P|454:258|423:198,1,125.999996154785,0|0,2:0|2:0,0:0:0:0:
365,182,51275,1,0,2:0:0:0:
365,182,51425,2,0,B|414:188|414:188|511:147,1,125.999996154785,2|0,2:0|2:0,0:0:0:0:
500,84,51875,1,2,2:0:0:0:
500,84,52025,1,0,2:0:0:0:
350,84,52175,6,0,L|292:110,2,62.9999980773926,2|0|2,2:0|2:0|2:0,0:0:0:0:
425,84,52625,1,0,2:0:0:0:
359,198,52775,1,2,2:0:0:0:
284,188,52925,1,0,2:0:0:0:
208,178,53075,1,2,2:0:0:0:
133,168,53225,1,0,2:0:0:0:
131,307,53375,6,0,L|193:307,2,62.9999980773926,2|0|0,2:0|2:0|2:0,0:0:0:0:
61,276,53825,2,0,B|69:248|69:248|45:131,1,125.999996154785,2|0,2:0|2:0,0:0:0:0:
32,79,54275,1,2,2:0:0:0:
32,79,54425,6,0,P|62:121|146:137,1,125.999996154785,0|0,2:0|2:0,0:0:0:0:
201,107,54875,1,0,2:0:0:0:
200,108,55025,2,0,P|230:66|314:50,1,125.999996154785,2|0,2:0|2:0,0:0:0:0:
375,48,55475,1,2,2:0:0:0:
374,54,55625,6,0,L|360:195,1,125.999996154785,0|0,2:0|2:0,0:0:0:0:
416,232,56075,1,0,2:0:0:0:
411,236,56225,2,0,L|263:195,1,125.999996154785,2|0,2:0|2:0,0:0:0:0:
217,180,56675,1,2,2:0:0:0:
217,180,56825,1,0,2:0:0:0:
214,318,56975,6,0,L|237:232,2,62.9999980773926,2|0|2,2:0|2:0|2:0,0:0:0:0:
153,363,57425,1,0,2:0:0:0:
88,323,57575,1,2,2:0:0:0:
24,281,57725,1,0,2:0:0:0:
42,207,57875,2,0,L|55:156,1,31.4999990386963,2|2,2:0|2:0,0:0:0:0:
134,163,58025,2,0,L|119:103,1,31.4999990386963,2|2,2:0|2:0,0:0:0:0:
212,115,58175,6,0,L|231:31,1,72,6|0,0:0|2:0,0:0:0:0:
141,52,58475,1,0,2:0:0:0:
283,178,58625,6,0,L|302:94,1,72,2|0,2:0|2:0,0:0:0:0:
212,115,58925,1,0,2:0:0:0:
354,241,59075,6,0,L|373:157,1,72,10|0,2:0|2:0,0:0:0:0:
267,265,59375,6,0,L|258:312,3,36,2|2|2|2,2:0|2:0|2:0|2:0,0:0:0:0:
343,331,59675,2,0,L|351:381,3,36,10|2|2|2,2:0|2:0|2:0|2:0,0:0:0:0:
430,307,59975,2,0,L|437:254,3,36,2|2|2|2,2:0|2:0|2:0|2:0,0:0:0:0:
448,184,60275,2,0,L|455:125,1,36,14|2,2:0|2:0,0:0:0:0:
336,108,60425,2,0,L|340:143,1,36,2|2,2:0|2:0,0:0:0:0:
422,16,60575,5,6,2:0:0:0:
386,21,60650,1,2,2:0:0:0:
350,26,60725,1,2,2:0:0:0:
314,32,60800,1,2,2:0:0:0:
282,50,60875,1,10,2:0:0:0:
260,47,60950,1,2,2:0:0:0:
238,43,61025,1,2,2:0:0:0:
216,40,61100,1,2,2:0:0:0:
194,36,61175,6,0,L|145:44,1,36,6|2,2:0|2:0,0:0:0:0:
67,61,61325,2,0,L|75:110,1,36,2|2,2:0|2:0,0:0:0:0:
88,183,61475,2,0,L|137:175,1,36,14|2,2:0|2:0,0:0:0:0:
215,158,61625,2,0,L|207:109,1,36,2|2,2:0|2:0,0:0:0:0:
10,153,61775,6,0,P|6:197|46:258,1,99.0000030212403,6|2,2:0|2:0,0:0:0:0:
32,168,62000,2,0,P|16:209|39:278,1,99.0000030212403,6|2,2:0|2:0,0:0:0:0:
110,307,62225,2,0,P|134:299|168:297,1,49.5000015106202,6|2,2:0|2:0,0:0:0:0:
299,210,62375,6,0,B|338:200|338:200|416:221,1,99.0000030212403,6|2,2:0|2:0,0:0:0:0:
318,180,62600,2,0,B|358:180|358:180|428:220,1,99.0000030212403,6|2,2:0|2:0,0:0:0:0:
391,305,62825,2,0,L|335:290,1,49.5000015106202,6|2,2:0|2:0,0:0:0:0:
217,238,62975,6,0,P|212:208|223:168,2,60,6|0|0,2:0|2:0|2:0,0:0:0:0:
166,114,63275,2,0,P|192:100|234:98,2,60,10|0|0,2:0|2:0|2:0,0:0:0:0:
268,27,63575,2,0,P|289:48|302:76,2,60,6|0|0,2:0|2:0|2:0,0:0:0:0:
381,100,63875,2,0,P|367:126|346:147,2,60,14|0|0,2:0|2:0|2:0,0:0:0:0:
297,207,64175,6,0,L|305:287,2,60,6|0|0,2:0|2:0|2:0,0:0:0:0:
182,262,64475,2,0,L|176:321,2,60,10|0|0,2:0|2:0|2:0,0:0:0:0:
62,195,64775,2,0,L|54:274,2,60,6|0|0,2:0|2:0|2:0,0:0:0:0:
168,97,65075,2,0,L|163:149,1,45,14|0,2:0|0:0,0:0:0:0:
75,50,65225,2,0,L|80:94,1,45,0|0,0:0|0:0,0:0:0:0:
263,59,65375,5,6,3:2:0:0:
304,50,65475,1,0,2:0:0:0:
345,42,65575,1,0,2:0:0:0:
405,121,65675,5,6,3:2:0:0:
364,129,65775,1,0,2:0:0:0:
323,138,65875,1,0,2:0:0:0:
311,230,65975,2,0,L|372:217,2,60,6|0|0,3:2|2:0|2:0,0:0:0:0:
236,164,66275,2,0,L|238:134,4,30,6|0|0|0|0,3:2|0:0|2:0|0:0|2:0,0:0:0:0:
143,130,66575,6,0,L|136:206,1,45,6|0,3:2|3:2,0:0:0:0:
176,261,66725,2,0,L|131:256,1,45,0|0,3:2|3:2,0:0:0:0:
53,292,66875,2,0,L|47:247,1,45,6|0,3:2|3:2,0:0:0:0:
14,171,67025,2,0,L|59:165,1,45,0|0,3:2|3:2,0:0:0:0:
155,114,67175,6,0,L|150:158,1,45,6|0,3:2|3:2,0:0:0:0:
192,275,67325,2,0,L|147:270,1,45,0|0,3:2|0:0,0:0:0:0:
41,307,67475,2,0,L|35:262,1,45,6|0,3:2|3:2,0:0:0:0:
0,158,67625,2,0,L|45:152,1,45,0|0,3:2|3:2,0:0:0:0:
228,193,67775,6,0,B|297:183|297:183|330:164,1,107.999996704102,6|0,2:0|2:0,0:0:0:0:
378,87,68000,2,0,B|447:97|447:97|480:116,1,107.999996704102,2|0,0:0|2:0,0:0:0:0:
500,200,68225,2,0,B|431:210|431:210|397:228,1,107.999996704102,2|0,2:0|2:0,0:0:0:0:
307,277,68450,1,2,2:0:0:0:
326,298,68525,2,0,L|312:239,1,53.9999983520508,0|0,2:0|2:0,0:0:0:0:
295,81,68675,1,10,2:0:0:0:
209,234,68825,1,0,2:0:0:0:
188,35,68975,6,0,P|206:81|205:158,1,107.999996704102,2|0,2:0|2:0,0:0:0:0:
120,187,69200,2,0,P|74:169|-3:170,1,107.999996704102,2|0,0:0|2:0,0:0:0:0:
13,307,69425,2,0,P|59:289|136:290,1,107.999996704102,2|0,2:0|2:0,0:0:0:0:
201,336,69650,1,2,2:0:0:0:
225,348,69725,2,0,P|254:348|278:344,1,53.9999983520508,0|0,2:0|2:0,0:0:0:0:
415,264,69875,1,10,2:0:0:0:
245,261,70025,1,0,2:0:0:0:
431,135,70175,6,0,L|417:242,1,107.999996704102,2|0,2:0|2:0,0:0:0:0:
331,250,70400,2,0,L|349:123,1,107.999996704102,2|0,0:0|2:0,0:0:0:0:
469,45,70625,2,0,L|361:58,1,107.999996704102,2|0,2:0|2:0,0:0:0:0:
279,86,70850,1,2,2:0:0:0:
251,90,70925,2,0,L|191:82,1,53.9999983520508,0|0,2:0|2:0,0:0:0:0:
81,16,71075,1,10,2:0:0:0:
238,11,71225,1,0,2:0:0:0:
75,127,71375,6,0,B|72:166|72:166|100:244,1,107.999996704102,2|0,2:0|2:0,0:0:0:0:
150,164,71600,2,0,B|120:189|120:189|84:264,1,107.999996704102,2|0,0:0|2:0,0:0:0:0:
175,243,71825,2,0,B|136:240|136:240|58:268,1,107.999996704102,2|0,2:0|0:0,0:0:0:0:
138,318,72050,2,0,B|112:288|112:288|37:252,1,107.999996704102,2|0,2:0|0:0,0:0:0:0:
51,354,72275,1,10,2:0:0:0:
21,187,72425,1,0,2:0:0:0:
222,315,72575,6,0,L|358:291,1,107.999996704102,6|0,2:0|2:0,0:0:0:0:
419,348,72800,2,0,L|401:241,1,107.999996704102,2|0,0:0|2:0,0:0:0:0:
474,170,73025,2,0,L|367:152,1,107.999996704102,2|0,2:0|2:0,0:0:0:0:
260,141,73250,1,2,2:0:0:0:
276,162,73325,2,0,L|286:108,1,53.9999983520508,0|0,2:0|2:0,0:0:0:0:
111,55,73475,1,10,2:0:0:0:
195,211,73625,1,0,2:0:0:0:
223,26,73775,6,0,P|190:69|187:122,1,107.999996704102,2|0,2:0|2:0,0:0:0:0:
285,108,74000,2,0,P|325:66|387:55,1,107.999996704102,2|0,0:0|2:0,0:0:0:0:
471,184,74225,2,0,P|417:180|375:148,1,107.999996704102,2|0,2:0|2:0,0:0:0:0:
450,20,74450,1,2,2:0:0:0:
457,46,74525,2,0,L|447:100,1,53.9999983520508,0|0,2:0|2:0,0:0:0:0:
294,203,74675,1,10,2:0:0:0:
372,53,74825,1,0,2:0:0:0:
471,184,74975,6,0,L|467:292,1,107.999996704102,2|0,2:0|2:0,0:0:0:0:
365,369,75200,2,0,L|359:261,1,107.999996704102,2|0,0:0|2:0,0:0:0:0:
256,176,75425,2,0,L|253:284,1,107.999996704102,2|0,2:0|2:0,0:0:0:0:
160,359,75650,1,2,2:0:0:0:
149,335,75725,2,0,L|145:265,1,53.9999983520508,0|0,2:0|2:0,0:0:0:0:
226,150,75875,1,10,2:0:0:0:
67,202,76025,1,0,2:0:0:0:
190,65,76175,6,0,B|223:55|223:55|319:78,1,107.999996704102,2|0,2:0|0:0,0:0:0:0:
320,170,76400,2,0,B|353:180|353:180|449:157,1,107.999996704102,2|0,2:0|0:0,0:0:0:0:
495,20,76625,2,0,B|485:53|485:53|508:149,1,107.999996704102,2|0,2:0|0:0,0:0:0:0:
509,262,76850,2,0,B|519:234|519:234|442:246,1,107.999996704102,2|0,2:0|0:0,0:0:0:0:
355,317,77075,2,0,L|301:310,1,53.9999983520508,10|0,2:0|0:0,0:0:0:0:
153,259,77225,6,0,P|106:261|134:298,1,112.5,2|0,2:0|0:0,0:0:0:0:
177,293,77675,5,6,3:2:0:0:
143,169,77825,2,0,P|117:169|90:176,1,53.9999983520508,2|0,2:0|2:0,0:0:0:0:
0,298,77975,1,0,3:2:0:0:
11,322,78050,2,0,P|28:275|2:196,1,107.999996704102,2|0,2:0|2:0,0:0:0:0:
0,60,78275,1,2,3:2:0:0:
10,191,78425,1,0,2:0:0:0:
111,51,78575,6,0,B|157:44|157:44|250:78,1,107.999996704102,2|0,3:2|2:0,0:0:0:0:
254,172,78800,1,2,2:0:0:0:
280,177,78875,2,0,L|330:157,1,53.9999983520508,0|0,3:2|2:0,0:0:0:0:
383,32,79025,2,0,L|375:85,1,53.9999983520508,2|0,2:0|2:0,0:0:0:0:
468,230,79175,1,0,3:2:0:0:
486,210,79250,2,0,L|469:103,1,107.999996704102,2|0,2:0|2:0,0:0:0:0:
462,49,79475,1,2,3:2:0:0:
330,156,79625,1,0,2:0:0:0:
443,251,79775,6,0,B|416:232|416:232|341:244,1,107.999996704102,2|0,3:2|2:0,0:0:0:0:
251,327,80000,1,2,2:0:0:0:
271,346,80075,2,0,L|259:268,1,53.9999983520508,0|0,3:2|2:0,0:0:0:0:
169,203,80225,2,0,L|160:256,1,53.9999983520508,2|0,2:0|2:0,0:0:0:0:
44,347,80375,1,0,3:2:0:0:
36,304,80450,1,2,2:0:0:0:
26,261,80525,2,0,L|12:192,1,53.9999983520508,0|0,0:0|2:0,0:0:0:0:
87,41,80675,1,2,3:2:0:0:
169,203,80825,1,0,2:0:0:0:
0,122,80975,6,0,P|48:124|96:170,1,107.999996704102,2|0,3:2|2:0,0:0:0:0:
210,121,81200,1,2,2:0:0:0:
218,95,81275,2,0,L|166:111,1,53.9999983520508,0|0,3:2|2:0,0:0:0:0:
260,203,81425,2,0,L|311:219,1,53.9999983520508,2|0,2:0|2:0,0:0:0:0:
390,113,81575,1,0,3:2:0:0:
406,90,81650,2,0,L|303:124,1,107.999996704102,2|0,2:0|2:0,0:0:0:0:
260,203,81875,2,0,L|277:255,1,53.9999983520508,2|0,3:2|0:0,0:0:0:0:
389,300,82025,2,0,L|406:249,1,53.9999983520508,0|0,2:0|0:0,0:0:0:0:
229,320,82175,5,6,3:2:0:0:
309,331,82325,1,0,3:2:0:0:
250,176,82475,1,2,3:2:0:0:
149,304,82625,1,0,3:2:0:0:
276,254,82775,1,2,3:2:0:0:
171,160,82925,1,0,3:2:0:0:
309,331,83075,1,2,3:2:0:0:
343,304,83150,1,0,3:2:0:0:
360,264,83225,1,0,3:2:0:0:
354,221,83300,1,0,3:2:0:0:
329,185,83375,6,0,P|294:157|276:93,1,107.999996704102,6|0,3:2|3:2,0:0:0:0:
283,72,83600,1,0,0:0:0:0:
298,49,83675,1,2,3:2:0:0:
461,10,83825,2,0,P|454:54|407:101,1,107.999996704102,0|2,3:2|3:2,0:0:0:0:
386,106,84050,1,0,0:0:0:0:
358,104,84125,1,0,3:2:0:0:
205,24,84275,2,0,L|195:89,1,53.9999983520508,2|0,3:2|3:2,0:0:0:0:
84,146,84425,2,0,L|76:93,1,53.9999983520508,0|0,3:2|3:2,0:0:0:0:
186,227,84575,6,0,B|160:244|160:244|172:168,1,107.999996704102,6|0,3:2|3:2,0:0:0:0:
272,153,84800,1,0,3:2:0:0:
285,177,84875,2,0,L|275:242,1,53.9999983520508,2|0,3:2|3:2,0:0:0:0:
238,361,85025,2,0,L|230:308,1,53.9999983520508,0|0,3:2|3:0,0:0:0:0:
348,336,85175,5,6,3:2:0:0:
367,354,85250,2,0,P|428:364|478:329,1,107.999996704102,0|0,3:2|3:2,0:0:0:0:
414,231,85475,2,0,P|410:258|409:285,1,53.9999983520508,2|0,3:2|3:2,0:0:0:0:
492,190,85625,2,0,P|496:216|496:243,1,53.9999983520508,0|0,3:2|3:2,0:0:0:0:
416,145,85775,6,0,B|374:134|374:134|295:149,1,107.999996704102,6|0,3:2|2:0,0:0:0:0:
418,122,86000,2,0,B|376:111|376:111|297:126,1,107.999996704102,6|0,3:2|2:0,0:0:0:0:
345,37,86225,2,0,L|292:47,1,53.9999983520508,6|0,3:2|2:0,0:0:0:0:
174,134,86375,5,6,3:2:0:0:
158,156,86450,2,0,B|145:180|145:180|224:165,1,107.999996704102,0|0,0:0|0:0,0:0:0:0:
189,53,86675,2,0,L|135:62,1,53.9999983520508,2|0,3:2|2:0,0:0:0:0:
13,184,86825,2,0,L|66:193,1,53.9999983520508,2|0,3:2|2:0,0:0:0:0:
194,293,86975,6,0,B|142:300|142:300|82:347,1,107.999996704102,6|0,3:2|2:0,0:0:0:0:
266,353,87200,1,2,2:0:0:0:
280,329,87275,2,0,L|343:315,1,53.9999983520508,0|0,3:2|0:0,0:0:0:0:
493,336,87425,2,0,P|449:366|396:374,1,107.999996704102,2|0,2:0|3:2,0:0:0:0:
462,255,87650,1,2,2:0:0:0:
480,235,87725,2,0,L|487:293,1,53.9999983520508,0|0,2:0|2:0,0:0:0:0:
342,234,87875,1,2,3:2:0:0:
470,147,88025,1,0,2:0:0:0:
318,131,88175,6,0,L|211:149,1,107.999996704102,2|0,3:2|2:0,0:0:0:0:
149,254,88400,1,2,2:0:0:0:
172,268,88475,2,0,L|242:254,1,53.9999983520508,0|0,3:2|0:0,0:0:0:0:
226,64,88625,2,0,L|119:82,1,107.999996704102,2|0,2:0|3:2,0:0:0:0:
67,198,88850,1,2,2:0:0:0:
89,211,88925,2,0,P|89:184|79:159,1,53.9999983520508,0|0,2:0|2:0,0:0:0:0:
27,18,89075,1,2,3:2:0:0:
0,153,89225,1,0,2:0:0:0:
130,60,89375,6,0,L|265:38,1,107.999996704102,2|0,3:2|2:0,0:0:0:0:
328,77,89600,1,2,2:0:0:0:
351,90,89675,2,0,L|404:99,1,53.9999983520508,0|0,3:2|0:0,0:0:0:0:
506,11,89825,2,0,L|487:125,1,107.999996704102,2|0,2:0|3:2,0:0:0:0:
427,191,90050,1,2,2:0:0:0:
411,213,90125,2,0,L|421:266,1,53.9999983520508,0|0,2:0|2:0,0:0:0:0:
512,372,90275,1,2,3:2:0:0:
499,236,90425,1,0,2:0:0:0:
373,355,90575,6,0,P|317:360|255:343,1,107.999996704102,2|0,3:2|2:0,0:0:0:0:
353,355,90800,2,0,P|297:345|242:312,1,107.999996704102,2|0,2:0|0:0,0:0:0:0:
330,345,91025,2,0,P|279:321|233:275,1,107.999996704102,2|0,2:0|3:2,0:0:0:0:
312,335,91250,2,0,P|268:298|237:243,1,107.999996704102,2|0,2:0|2:0,0:0:0:0:
258,171,91475,1,6,3:2:0:0:
367,269,91625,1,0,2:0:0:0:
178,200,91775,6,0,B|136:197|136:197|71:218,1,107.999996704102,6|0,3:2|2:0,0:0:0:0:
142,313,92000,1,2,2:0:0:0:
164,328,92075,2,0,L|141:266,1,53.9999983520508,0|0,3:2|0:0,0:0:0:0:
64,138,92225,2,0,B|126:116|126:116|168:119,1,107.999996704102,2|0,2:0|3:2,0:0:0:0:
258,171,92450,1,2,2:0:0:0:
284,179,92525,2,0,L|340:163,1,53.9999983520508,0|0,2:0|2:0,0:0:0:0:
427,66,92675,1,2,3:2:0:0:
291,94,92825,1,0,2:0:0:0:
370,239,92975,6,0,P|409:203|418:151,1,107.999996704102,6|0,3:2|2:0,0:0:0:0:
348,30,93200,1,2,2:0:0:0:
326,15,93275,2,0,L|256:12,1,53.9999983520508,0|0,3:2|0:0,0:0:0:0:
197,110,93425,2,0,L|143:112,1,53.9999983520508,2|0,2:0|2:0,0:0:0:0:
42,54,93575,5,4,3:2:0:0:
56,31,93650,2,0,L|59:87,1,53.9999983520508,2|0,2:0|2:0,0:0:0:0:
92,194,93800,1,4,3:2:0:0:
78,171,93875,2,0,L|75:227,1,53.9999983520508,2|0,0:0|0:0,0:0:0:0:
186,286,94025,2,0,L|183:232,1,53.9999983520508,4|0,3:2|0:0,0:0:0:0:
33,355,94175,6,0,B|89:363|89:363|139:349,1,107.999996704102,6|0,3:2|2:0,0:0:0:0:
244,341,94400,2,0,B|189:334|189:334|139:348,1,107.999996704102,6|0,3:2|2:0,0:0:0:0:
244,341,94625,2,0,L|307:325,1,53.9999983520508,6|0,3:2|2:0,0:0:0:0:
393,242,94775,5,6,3:2:0:0:
376,222,94850,2,0,L|362:274,1,53.9999983520508,0|0,0:0|2:0,0:0:0:0:
254,178,95000,1,6,3:2:0:0:
271,158,95075,2,0,L|284:210,1,53.9999983520508,0|0,0:0|2:0,0:0:0:0:
369,122,95225,2,0,L|383:70,1,53.9999983520508,6|0,3:2|2:0,0:0:0:0:
238,85,95375,6,0,P|182:110|157:163,1,107.999996704102,6|0,3:2|2:0,0:0:0:0:
122,303,95600,1,0,2:0:0:0:
140,282,95675,2,0,L|124:221,1,53.9999983520508,6|0,3:2|2:0,0:0:0:0:
86,105,95825,2,0,L|72:157,1,53.9999983520508,0|0,2:0|0:0,0:0:0:0:
223,260,95975,5,6,3:2:0:0:
244,243,96050,2,0,B|269:224|269:224|360:214,1,107.999996704102,0|0,2:0|0:0,0:0:0:0:
357,297,96275,2,0,L|292:306,1,53.9999983520508,6|0,3:2|2:0,0:0:0:0:
275,144,96425,2,0,L|328:136,1,53.9999983520508,2|0,3:2|2:0,0:0:0:0:
459,247,96575,6,0,B|429:208|429:208|474:200,1,94.499997116089,6|2,3:2|2:0,0:0:0:0:
493,326,96875,6,0,L|439:332,1,53.9999983520508,4|0,3:2|2:0,0:0:0:0:
357,297,97025,2,0,L|293:305,1,53.9999983520508,2|0,2:0|0:0,0:0:0:0:
99,337,97175,1,0,3:2:0:0:
80,356,97250,2,0,P|141:365|190:345,1,107.999996704102,2|0,2:2|2:0,0:0:0:0:
226,317,97475,1,2,3:2:0:0:
55,259,97625,1,0,2:0:0:0:
169,133,97775,6,0,B|180:169|180:169|168:257,1,107.999996704102,2|0,3:2|2:0,0:0:0:0:
95,168,98000,1,2,2:0:0:0:
88,142,98075,2,0,P|92:106|112:76,1,53.9999983520508,0|0,3:2|0:0,0:0:0:0:
241,30,98225,2,0,P|251:54|252:81,1,53.9999983520508,2|0,2:0|2:0,0:0:0:0:
170,238,98375,1,0,3:2:0:0:
186,216,98450,2,0,P|231:191|295:189,1,107.999996704102,2|0,2:0|2:0,0:0:0:0:
341,192,98675,1,2,3:2:0:0:
268,318,98825,1,0,2:0:0:0:
436,261,98975,6,0,B|457:208|457:208|451:139,1,107.999996704102,2|0,3:2|2:0,0:0:0:0:
366,86,99200,1,2,2:0:0:0:
352,109,99275,2,0,L|357:172,1,53.9999983520508,0|0,3:2|2:0,0:0:0:0:
452,78,99425,2,0,L|456:24,1,53.9999983520508,2|0,2:0|0:0,0:0:0:0:
257,48,99575,1,2,3:2:0:0:
260,91,99650,1,0,2:0:0:0:
263,134,99725,2,0,L|269:208,1,53.9999983520508,0|0,2:0|2:0,0:0:0:0:
348,311,99875,1,2,3:2:0:0:
356,162,100025,1,0,2:0:0:0:
193,288,100175,6,0,B|178:255|178:255|172:184,1,107.999996704102,2|0,3:2|0:0,0:0:0:0:
154,25,100400,1,2,2:0:0:0:
168,48,100475,2,0,L|164:109,1,53.9999983520508,0|0,3:2|0:0,0:0:0:0:
89,249,100625,2,0,L|84:187,1,53.9999983520508,2|0,2:0|2:0,0:0:0:0:
40,37,100775,1,0,3:2:0:0:
54,14,100850,2,0,P|79:59|66:128,1,107.999996704102,2|0,2:0|2:0,0:0:0:0:
30,198,101075,2,0,L|87:194,1,53.9999983520508,2|0,3:2|2:0,0:0:0:0:
221,264,101225,2,0,L|167:259,1,53.9999983520508,0|0,3:2|2:0,0:0:0:0:
334,129,101375,5,6,3:2:0:0:
360,211,101525,1,0,3:2:0:0:
308,47,101675,1,2,3:2:0:0:
197,184,101825,1,0,3:2:0:0:
392,62,101975,1,2,3:2:0:0:
441,231,102125,1,0,3:2:0:0:
308,47,102275,1,2,3:2:0:0:
263,44,102350,1,0,3:2:0:0:
248,85,102425,1,0,3:2:0:0:
282,112,102500,1,0,3:2:0:0:
317,87,102575,6,0,P|373:63|455:78,1,107.999996704102,6|0,3:2|3:2,0:0:0:0:
445,71,102800,1,0,0:0:0:0:
469,82,102875,1,2,3:2:0:0:
404,219,103025,2,0,P|348:195|266:210,1,107.999996704102,0|2,3:2|3:2,0:0:0:0:
276,203,103250,1,2,2:0:0:0:
252,214,103325,1,0,0:0:0:0:
341,346,103475,2,0,L|334:288,1,53.9999983520508,2|0,3:2|2:0,0:0:0:0:
174,186,103625,2,0,L|167:239,1,53.9999983520508,0|0,3:2|2:0,0:0:0:0:
37,339,103775,6,0,B|24:359|24:359|15:276,1,107.999996704102,6|0,3:2|3:2,0:0:0:0:
77,171,104000,1,0,3:2:0:0:
93,150,104075,2,0,L|84:219,1,53.9999983520508,0|0,3:2|3:2,0:0:0:0:
6,109,104225,2,0,L|0:55,1,53.9999983520508,0|0,3:2|3:2,0:0:0:0:
125,47,104375,6,0,B|161:58|161:58|247:44,1,107.999996704102,6|0,3:2|3:2,0:0:0:0:
351,44,104600,1,0,3:2:0:0:
326,35,104675,2,0,L|337:94,1,53.9999983520508,0|0,3:2|3:2,0:0:0:0:
446,177,104825,2,0,L|456:117,1,53.9999983520508,0|0,3:2|3:2,0:0:0:0:
290,254,104975,6,0,L|172:278,1,107.999996704102,6|0,3:2|2:0,0:0:0:0:
297,281,105200,2,0,L|402:302,1,107.999996704102,6|0,3:2|2:0,0:0:0:0:
248,348,105425,2,0,L|195:358,1,53.9999983520508,6|0,3:2|2:0,0:0:0:0:
39,257,105575,6,0,L|91:267,1,53.9999983520508,6|0,3:2|2:0,0:0:0:0:
229,178,105725,2,0,L|175:188,1,53.9999983520508,0|0,2:0|2:0,0:0:0:0:
39,52,105875,1,6,3:2:0:0:
81,60,105950,1,0,2:0:0:0:
123,68,106025,1,2,2:0:0:0:
165,75,106100,1,0,2:0:0:0:
205,80,106175,6,0,L|280:67,2,62.9999980773926,6|0|0,2:0|2:0|2:0,0:0:0:0:
249,149,106625,2,0,L|311:138,2,62.9999980773926,2|0|0,2:0|2:0|2:0,0:0:0:0:
291,219,107075,6,0,L|357:207,2,62.9999980773926,2|0|0,2:0|2:0|2:0,0:0:0:0:
335,288,107525,2,0,L|407:275,2,62.9999980773926,2|0|0,2:0|2:0|2:0,0:0:0:0:
267,335,107975,6,0,L|204:325,1,62.9999980773926,2|0,2:0|2:0,0:0:0:0:
123,312,108275,1,2,2:0:0:0:
214,111,108575,6,0,L|204:173,2,62.9999980773926,2|0|0,2:0|2:0|2:0,0:0:0:0:
132,98,109025,2,0,L|122:160,2,62.9999980773926,2|0|0,2:0|2:0|2:0,0:0:0:0:
103,20,109475,1,2,2:0:0:0:
53,85,109625,2,0,B|39:174|39:174|53:206,1,125.999996154785,2|2,2:0|2:0,0:0:0:0:
266,278,110225,5,2,2:0:0:0:
266,278,110300,1,2,2:0:0:0:
266,278,110375,1,2,2:0:0:0:
218,211,110525,1,2,2:0:0:0:
139,235,110675,1,2,2:0:0:0:
137,317,110825,1,2,2:0:0:0:
215,341,110975,6,0,L|265:364,2,41.9999987182618,2|0|0,2:0|2:0|2:0,0:0:0:0:
137,317,111275,2,0,L|130:371,2,41.9999987182618,2|0|0,2:0|2:0|2:0,0:0:0:0:
139,235,111575,2,0,L|85:245,2,41.9999987182618,2|0|0,2:0|2:0|2:0,0:0:0:0:
218,211,111875,2,0,L|191:163,2,41.9999987182618,2|0|0,2:0|2:0|2:0,0:0:0:0:
266,278,112175,6,0,P|297:279|326:268,1,62.9999980773926,2|0,2:0|0:0,0:0:0:0:
356,239,112400,1,2,2:0:0:0:
356,239,112475,2,0,P|384:228|422:231,1,62.9999980773926,0|2,0:0|2:0,0:0:0:0:
453,248,112700,1,0,2:0:0:0:
453,248,112775,2,0,P|475:201|467:148,2,94.499997116089,2|2|2,2:0|2:0|2:0,0:0:0:0:
266,278,113375,5,2,2:0:0:0:
189,248,113525,1,0,2:0:0:0:
114,212,113675,1,2,2:0:0:0:
181,164,113825,1,0,2:0:0:0:
257,198,113975,1,2,2:0:0:0:
266,278,114125,1,0,2:0:0:0:
201,326,114275,1,2,2:0:0:0:
126,293,114425,2,0,L|117:236,1,31.4999990386963,2|0,2:0|0:0,0:0:0:0:
257,198,114575,5,2,2:0:0:0:
256,192,114650,12,0,117575,2:0:0:0:
