osu file format v14

[General]
AudioFilename: audio.mp3
AudioLeadIn: 0
PreviewTime: 29300
Countdown: 0
SampleSet: Soft
StackLeniency: 0.7
Mode: 0
LetterboxInBreaks: 0
WidescreenStoryboard: 0

[Editor]
Bookmarks: 108875
DistanceSpacing: 1
BeatDivisor: 4
GridSize: 8
TimelineZoom: 2.899999

[Metadata]
Title:White Aura
TitleUnicode:White Aura
Artist:HyuN
ArtistUnicode:HyuN
Creator:[ L u k a s ]
Version:Angelic
Source:osu!
Tags:blue happy hardcore stum electronic instrumental fa featured artist mappers' guild walaowey rvmathew hazu- lukas High Tempo Beatmap Pack MG Gremio
BeatmapID:2085384
BeatmapSetID:996898

[Difficulty]
HPDrainRate:6
CircleSize:4
OverallDifficulty:9
ApproachRate:9.3
SliderMultiplier:2
SliderTickRate:1

[Events]
//Background and Video events
0,0,"light-1282314_1920.jpg",0,0
//Break Periods
//Storyboard Layer 0 (Background)
//Storyboard Layer 1 (Fail)
//Storyboard Layer 2 (Pass)
//Storyboard Layer 3 (Foreground)
//Storyboard Layer 4 (Overlay)
//Storyboard Sound Samples

[TimingPoints]
575,300,4,2,1,40,1,0
1025,-133.333333333333,4,2,1,40,0,0
10175,-117.647058823529,4,2,1,60,0,0
14975,-100,4,2,1,60,0,0
19775,-125,4,2,1,40,0,0
29375,-83.3333333333333,4,2,1,75,0,1
48575,-133.333333333333,4,2,1,40,0,0
58175,-117.647058823529,4,2,1,60,0,0
62975,-100,4,2,1,60,0,0
67775,-90.9090909090909,4,2,1,75,0,0
77675,-83.3333333333333,4,2,1,75,0,1
106175,-117.647058823529,4,2,1,40,0,0
114575,-117.647058823529,4,2,1,35,0,0
115175,-117.647058823529,4,2,1,30,0,0
115775,-117.647058823529,4,2,1,25,0,0
116375,-117.647058823529,4,2,1,20,0,0
116975,-117.647058823529,4,2,1,15,0,0
117575,-117.647058823529,4,2,1,5,0,0
118175,-117.647058823529,4,2,1,5,0,0

[Colours]
Combo1 : 202,240,236
Combo2 : 206,206,206

[HitObjects]
77,302,575,5,2,2:0:0:0:
180,295,725,1,0,2:0:0:0:
65,323,875,1,0,2:0:0:0:
141,203,1025,2,0,P|151:136|139:34,1,150.000005722046,2|0,2:0|2:0,0:0:0:0:
256,7,1475,2,0,P|237:48|235:99,1,75.0000028610231,2|0,2:0|2:0,0:0:0:0:
299,171,1775,5,2,2:0:0:0:
362,96,1925,1,0,2:0:0:0:
307,183,2075,1,0,2:0:0:0:
396,236,2225,2,0,P|380:329|394:385,1,150.000005722046,2|0,2:0|2:0,0:0:0:0:
308,384,2675,2,0,P|270:358|214:354,1,75.0000028610231,2|0,2:0|2:0,0:0:0:0:
128,378,2975,5,2,2:0:0:0:
92,284,3125,1,0,2:0:0:0:
141,383,3275,1,0,2:0:0:0:
192,260,3425,2,0,L|193:90,1,150.000005722046,2|0,2:0|2:0,0:0:0:0:
272,37,3875,1,2,2:0:0:0:
176,95,4025,1,0,2:0:0:0:
294,151,4175,6,0,P|329:140|366:132,2,75.0000028610231,2|0|2,2:0|2:0|2:0,0:0:0:0:
261,258,4625,1,0,2:0:0:0:
276,146,4775,1,2,2:0:0:0:
350,280,4925,1,0,2:0:0:0:
216,330,5075,1,2,2:0:0:0:
352,261,5225,1,0,2:0:0:0:
154,229,5375,5,2,2:0:0:0:
120,349,5525,1,0,2:0:0:0:
140,210,5675,1,0,2:0:0:0:
20,289,5825,2,0,P|21:221|21:119,1,150.000005722046,2|0,2:0|2:0,0:0:0:0:
103,22,6275,2,0,L|103:97,1,75.0000028610231,2|0,2:0|2:0,0:0:0:0:
166,158,6575,5,2,2:0:0:0:
283,158,6725,1,0,2:0:0:0:
149,175,6875,1,0,2:0:0:0:
249,83,7025,2,0,P|257:163|247:232,1,150.000005722046,2|0,2:0|2:0,0:0:0:0:
303,305,7475,2,0,P|337:293|377:297,1,75.0000028610231,2|0,2:0|2:0,0:0:0:0:
445,352,7775,5,2,2:0:0:0:
478,237,7925,1,0,2:0:0:0:
453,377,8075,1,0,2:0:0:0:
376,199,8225,2,0,P|338:196|301:197,1,75.0000028610231,2|0,2:0|2:0,0:0:0:0:
203,234,8525,1,0,2:0:0:0:
132,169,8675,2,0,P|134:138|130:94,1,75.0000028610231,2|0,2:0|2:0,0:0:0:0:
38,39,8975,5,2,2:0:0:0:
175,9,9125,1,0,2:0:0:0:
25,59,9275,1,2,2:0:0:0:
132,169,9425,1,0,2:0:0:0:
10,209,9575,1,2,2:0:0:0:
127,161,9725,1,0,2:0:0:0:
100,301,9875,1,2,2:0:0:0:
230,245,10025,1,0,2:0:0:0:
181,383,10175,6,0,P|219:366|262:363,1,85.0000016212464,6|0,2:0|2:0,0:0:0:0:
354,384,10475,1,8,2:0:0:0:
259,352,10625,6,0,P|213:356|162:384,1,85.0000016212464,2|0,2:0|2:0,0:0:0:0:
67,384,10925,1,0,2:0:0:0:
173,358,11075,6,0,P|212:342|255:339,1,85.0000016212464,10|0,2:0|2:0,0:0:0:0:
354,383,11375,1,0,2:0:0:0:
377,258,11525,5,2,2:0:0:0:
254,338,11675,2,0,P|212:336|173:320,1,85.0000016212464,8|0,2:0|2:0,0:0:0:0:
24,228,11975,5,2,2:0:0:0:
88,311,12125,1,0,2:0:0:0:
133,175,12275,2,0,L|124:82,1,85.0000016212464,14|0,2:0|2:0,0:0:0:0:
286,13,12575,5,6,2:0:0:0:
310,117,12725,1,0,2:0:0:0:
413,99,12875,1,8,2:0:0:0:
277,27,13025,5,2,2:0:0:0:
301,131,13175,1,0,2:0:0:0:
404,113,13325,1,0,2:0:0:0:
262,30,13475,5,10,2:0:0:0:
286,134,13625,1,0,2:0:0:0:
185,252,13775,5,6,2:0:0:0:
301,300,13925,2,0,L|385:291,1,85.0000016212464,2|8,2:0|2:0,0:0:0:0:
504,192,14225,1,2,2:0:0:0:
504,192,14300,1,2,2:0:0:0:
504,192,14375,2,0,L|510:138,1,42.5000008106232,6|0,0:0|0:0,0:0:0:0:
444,37,14525,2,0,L|450:91,1,42.5000008106232,0|0,0:0|0:0,0:0:0:0:
368,233,14675,2,0,L|363:190,1,42.5000008106232,14|0,0:0|0:0,0:0:0:0:
278,34,14825,2,0,L|284:88,1,42.5000008106232,0|0,0:0|0:0,0:0:0:0:
167,208,14975,6,0,L|158:128,2,66.6666666666667,6|0|0,3:2|0:0|0:0,0:0:0:0:
108,313,15275,2,0,L|43:360,2,66.6666666666667,2|0|0,3:2|2:0|2:0,0:0:0:0:
219,315,15575,2,8,L|293:347,2,66.6666666666667,6|0|0,3:2|2:0|2:0,0:0:0:0:
300,247,15875,5,2,3:2:0:0:
317,247,15950,1,0,2:0:0:0:
333,248,16025,1,0,3:2:0:0:
347,249,16100,1,0,2:0:0:0:
377,227,16175,5,6,3:2:0:0:
331,361,16325,1,0,3:2:0:0:
367,203,16475,1,2,3:2:0:0:
447,358,16625,1,0,3:2:0:0:
359,185,16775,6,0,L|259:195,1,100,6|0,3:2|3:2,0:0:0:0:
79,69,17075,1,6,3:2:0:0:
79,69,17150,1,0,3:2:0:0:
79,69,17225,1,0,3:2:0:0:
79,69,17300,1,0,2:0:0:0:
94,57,17375,6,0,L|92:2,3,50,6|0|0|0,2:0|3:0|3:0|3:0,0:0:0:0:
189,13,17675,5,4,3:2:0:0:
192,62,17750,1,0,3:2:0:0:
195,112,17825,1,0,3:2:0:0:
198,162,17900,1,0,3:2:0:0:
150,190,17975,6,0,P|117:201|84:210,1,50,6|0,2:0|3:0,0:0:0:0:
210,340,18125,2,0,P|217:316|225:292,1,50,0|0,3:0|2:0,0:0:0:0:
16,246,18275,2,0,P|27:279|36:312,1,50,4|0,2:0|2:0,0:0:0:0:
101,384,18425,2,0,P|108:360|116:336,1,50,2|0,2:0|2:0,0:0:0:0:
41,145,18575,5,6,2:0:0:0:
244,216,18725,2,0,L|268:212,2,25,0|0|0,3:2|3:2|3:2,0:0:0:0:
33,165,18875,5,6,2:0:0:0:
236,236,19025,2,0,L|260:232,2,25,0|0|0,3:2|3:2|3:2,0:0:0:0:
336,173,19175,5,6,3:2:0:0:
362,214,19250,1,0,3:2:0:0:
360,264,19325,1,0,3:2:0:0:
332,304,19400,1,0,3:2:0:0:
299,328,19475,2,0,L|304:361,6,25,6|0|0|0|0|0|0,3:2|3:2|3:2|3:2|3:2|3:2|3:2,0:0:0:0:
204,311,19775,5,6,3:2:0:0:
204,311,20075,2,0,L|164:317,2,40,2|0|0,3:2|2:0|2:0,0:0:0:0:
147,237,20375,2,0,L|188:230,2,40,2|0|0,3:2|2:0|2:0,0:0:0:0:
167,148,20675,2,0,L|127:154,2,40,2|0|0,3:2|2:0|2:0,0:0:0:0:
266,24,20975,5,2,3:2:0:0:
266,24,21050,1,0,2:0:0:0:
266,24,21125,1,0,2:0:0:0:
364,52,21275,1,2,3:2:0:0:
364,52,21350,1,0,2:0:0:0:
364,52,21425,1,0,2:0:0:0:
425,133,21575,1,2,3:2:0:0:
425,133,21650,1,0,2:0:0:0:
425,133,21725,1,0,2:0:0:0:
438,232,21875,1,2,3:2:0:0:
438,232,21950,1,0,2:0:0:0:
438,232,22025,1,0,2:0:0:0:
326,346,22175,6,0,L|286:352,2,40,2|0|0,3:2|2:0|2:0,0:0:0:0:
231,296,22475,2,0,L|191:302,2,40,2|0|0,3:2|2:0|2:0,0:0:0:0:
136,250,22775,2,0,L|96:256,2,40,2|0|0,3:2|2:0|2:0,0:0:0:0:
38,207,23075,2,0,L|0:217,2,40,2|0|0,3:2|2:0|2:0,0:0:0:0:
113,82,23375,5,2,3:2:0:0:
113,82,23450,1,0,2:0:0:0:
113,82,23525,1,0,2:0:0:0:
187,205,23675,1,2,3:2:0:0:
187,205,23750,1,0,2:0:0:0:
187,205,23825,1,0,2:0:0:0:
254,85,23975,1,2,3:2:0:0:
254,85,24050,1,0,2:0:0:0:
254,85,24125,1,0,2:0:0:0:
329,318,24275,1,6,3:2:0:0:
403,10,24575,6,0,P|423:87|427:124,1,80,6|0,3:2|2:0,0:0:0:0:
329,318,24875,2,0,P|290:323|270:332,2,40,10|0|0,3:2|2:0|2:0,0:0:0:0:
413,238,25175,2,0,P|408:199|399:179,2,40,2|0|0,3:2|2:0|2:0,0:0:0:0:
327,306,25475,2,0,P|288:311|268:320,2,40,10|0|0,3:2|2:0|2:0,0:0:0:0:
125,384,25775,5,2,3:2:0:0:
125,384,25850,1,0,2:0:0:0:
125,384,25925,1,0,2:0:0:0:
106,265,26075,1,10,3:2:0:0:
106,265,26150,1,0,2:0:0:0:
106,265,26225,1,0,2:0:0:0:
87,138,26375,1,2,3:2:0:0:
87,138,26450,1,0,2:0:0:0:
87,138,26525,1,0,2:0:0:0:
70,22,26675,1,10,3:2:0:0:
70,22,26750,1,0,2:0:0:0:
70,22,26825,1,0,2:0:0:0:
218,124,26975,5,2,3:2:0:0:
326,106,27125,1,0,3:2:0:0:
207,139,27275,1,10,3:2:0:0:
281,24,27425,1,0,3:2:0:0:
231,218,27575,1,2,3:2:0:0:
178,56,27725,1,0,3:2:0:0:
235,245,27875,1,10,3:2:0:0:
364,80,28025,1,0,3:2:0:0:
364,80,28100,1,0,3:2:0:0:
364,80,28175,5,0,3:2:0:0:
375,103,28250,1,0,3:2:0:0:
388,136,28325,1,0,3:2:0:0:
394,168,28400,1,0,3:2:0:0:
392,201,28475,1,8,3:2:0:0:
377,240,28550,1,0,3:2:0:0:
347,289,28625,1,0,3:2:0:0:
288,310,28700,1,0,3:2:0:0:
225,290,28775,1,0,3:2:0:0:
82,143,28925,6,0,L|63:147,4,20,0|0|0|0|8,3:2|3:2|3:2|3:2|3:2,0:0:0:0:
249,34,29225,2,0,L|256:-3,2,20,0|0|0,3:2|3:2|3:2,0:0:0:0:
184,90,29375,6,0,P|260:90|301:121,1,119.999996337891,6|0,3:2|2:0,0:0:0:0:
378,84,29600,1,2,2:0:0:0:
388,75,29675,2,0,L|387:6,1,59.9999981689454,0|0,3:2|2:0,0:0:0:0:
294,113,29825,2,0,L|293:172,1,59.9999981689454,2|0,2:0|2:0,0:0:0:0:
455,260,29975,1,0,3:2:0:0:
441,239,30050,1,2,2:0:0:0:
427,221,30125,2,0,L|361:230,1,59.9999981689454,0|0,2:0|2:0,0:0:0:0:
227,235,30275,1,2,3:2:0:0:
390,148,30425,1,0,2:0:0:0:
209,257,30575,6,0,P|146:230|79:227,1,119.999996337891,2|0,3:2|2:0,0:0:0:0:
20,167,30800,1,2,2:0:0:0:
30,158,30875,2,0,L|29:89,1,59.9999981689454,0|0,3:2|2:0,0:0:0:0:
95,225,31025,2,0,L|94:284,1,59.9999981689454,2|0,2:0|2:0,0:0:0:0:
201,384,31175,1,0,3:2:0:0:
213,363,31250,1,2,2:0:0:0:
225,344,31325,2,0,L|159:353,1,59.9999981689454,0|0,2:0|2:0,0:0:0:0:
67,370,31475,1,2,3:2:0:0:
300,300,31625,1,0,2:0:0:0:
46,372,31775,6,0,B|57:318|57:318|31:227,1,119.999996337891,2|0,3:2|2:0,0:0:0:0:
64,127,32000,1,2,2:0:0:0:
73,137,32075,2,0,L|142:136,1,59.9999981689454,0|0,3:2|2:0,0:0:0:0:
190,56,32225,2,0,L|249:57,1,59.9999981689454,2|0,2:0|2:0,0:0:0:0:
381,153,32375,1,0,3:2:0:0:
395,121,32450,1,2,2:0:0:0:
408,87,32525,2,0,L|399:21,1,59.9999981689454,0|0,2:0|2:0,0:0:0:0:
275,172,32675,1,2,3:2:0:0:
512,117,32825,1,0,2:0:0:0:
251,174,32975,6,0,L|263:313,1,119.999996337891,2|0,3:2|2:0,0:0:0:0:
318,349,33200,2,0,P|377:327|455:352,1,119.999996337891,2|0,0:0|2:0,0:0:0:0:
246,375,33425,2,0,L|187:374,1,59.9999981689454,2|0,2:0|2:0,0:0:0:0:
60,374,33575,1,0,3:2:0:0:
70,339,33650,1,2,2:0:0:0:
84,311,33725,2,0,L|75:245,1,59.9999981689454,0|0,2:0|2:0,0:0:0:0:
127,89,33875,2,0,L|137:149,1,59.9999981689454,2|0,3:2|2:0,0:0:0:0:
231,271,34025,1,0,2:0:0:0:
252,77,34175,6,0,B|292:63|292:63|378:79,1,119.999996337891,6|0,3:2|2:0,0:0:0:0:
448,80,34400,1,2,2:0:0:0:
458,71,34475,2,0,L|457:2,1,59.9999981689454,0|0,3:2|2:0,0:0:0:0:
401,159,34625,2,0,L|409:226,1,59.9999981689454,2|0,2:0|2:0,0:0:0:0:
315,321,34775,1,0,3:2:0:0:
318,288,34850,1,2,2:0:0:0:
320,251,34925,2,0,L|254:260,1,59.9999981689454,0|0,2:0|2:0,0:0:0:0:
220,336,35075,1,2,3:2:0:0:
419,313,35225,1,0,2:0:0:0:
193,350,35375,6,0,P|147:298|82:274,1,119.999996337891,2|0,3:2|2:0,0:0:0:0:
41,206,35600,1,2,2:0:0:0:
45,185,35675,2,0,L|44:116,1,59.9999981689454,0|0,3:2|2:0,0:0:0:0:
134,0,35825,2,0,L|133:59,1,59.9999981689454,2|0,2:0|2:0,0:0:0:0:
253,227,35975,1,0,3:2:0:0:
255,201,36050,1,2,2:0:0:0:
253,174,36125,2,0,L|244:108,1,59.9999981689454,0|0,2:0|2:0,0:0:0:0:
295,43,36275,1,2,3:2:0:0:
383,204,36425,1,0,2:0:0:0:
293,13,36575,6,0,P|351:23|376:32,1,59.9999981689454,6|0,3:2|2:0,0:0:0:0:
505,115,36725,1,0,2:0:0:0:
505,115,36800,1,2,2:0:0:0:
505,115,36875,2,0,P|475:108|446:104,1,59.9999981689454,0|0,3:2|2:0,0:0:0:0:
304,165,37025,1,2,2:0:0:0:
451,320,37175,5,4,3:2:0:0:
451,320,37250,1,2,2:0:0:0:
451,320,37325,2,0,P|445:284|434:251,1,59.9999981689454,0|0,2:0|2:0,0:0:0:0:
304,165,37475,1,2,3:2:0:0:
255,373,37625,1,0,2:0:0:0:
106,148,37775,5,6,3:2:0:0:
109,169,37850,1,0,2:0:0:0:
113,191,37925,2,0,L|134:369,1,179.999994506836,6|0,3:2|2:0,0:0:0:0:
59,384,38225,2,0,L|36:191,1,179.999994506836,6|0,3:2|2:0,0:0:0:0:
113,191,38525,2,0,L|198:197,1,59.9999981689454,6|0,3:2|2:0,0:0:0:0:
258,48,38675,2,0,L|262:107,1,59.9999981689454,2|0,3:2|2:0,0:0:0:0:
340,255,38825,2,0,L|342:205,2,29.9999990844727,2|0|0,3:2|3:2|3:2,0:0:0:0:
340,255,39275,6,0,L|423:244,1,59.9999981689454,6|0,3:2|2:0,0:0:0:0:
464,138,39425,2,0,L|405:131,1,59.9999981689454,0|0,2:0|2:0,0:0:0:0:
493,373,39575,1,2,3:2:0:0:
507,349,39650,2,0,L|486:216,1,119.999996337891,0|0,2:0|2:0,0:0:0:0:
464,138,39875,1,2,3:2:0:0:
364,334,40025,1,0,2:0:0:0:
276,173,40175,6,0,P|217:167|164:193,1,119.999996337891,2|0,3:2|2:0,0:0:0:0:
137,276,40400,1,2,2:0:0:0:
137,276,40475,2,0,L|148:359,1,59.9999981689454,0|0,3:2|2:0,0:0:0:0:
37,193,40625,2,0,L|44:134,1,59.9999981689454,2|0,2:0|2:0,0:0:0:0:
134,38,40775,1,0,3:2:0:0:
134,38,40850,2,0,P|192:44|246:18,1,119.999996337891,2|0,2:0|2:0,0:0:0:0:
321,0,41075,1,2,3:2:0:0:
261,181,41225,1,0,2:0:0:0:
336,12,41375,6,0,L|470:4,1,119.999996337891,2|0,3:2|2:0,0:0:0:0:
497,88,41600,1,2,2:0:0:0:
481,100,41675,2,0,L|421:107,1,59.9999981689454,0|0,3:2|2:0,0:0:0:0:
305,173,41825,2,0,L|364:180,1,59.9999981689454,2|0,2:0|2:0,0:0:0:0:
512,374,41975,1,0,3:2:0:0:
506,350,42050,2,0,L|485:217,1,119.999996337891,2|0,2:0|2:0,0:0:0:0:
423,189,42275,2,0,L|346:177,1,59.9999981689454,2|0,3:2|2:0,0:0:0:0:
289,332,42425,1,0,2:0:0:0:
99,157,42575,6,0,P|115:203|106:276,1,119.999996337891,2|0,3:2|2:0,0:0:0:0:
72,359,42800,1,2,2:0:0:0:
72,359,42875,2,0,L|131:352,1,59.9999981689454,0|0,3:2|2:0,0:0:0:0:
206,256,43100,2,0,L|274:263,1,59.9999981689454,0|0,2:0|3:2,0:0:0:0:
378,375,43250,2,0,P|357:327|357:242,1,119.999996337891,2|0,2:0|2:0,0:0:0:0:
400,187,43475,1,2,3:2:0:0:
264,348,43625,1,0,3:0:0:0:
183,137,43775,5,6,3:2:0:0:
200,48,43925,1,0,3:2:0:0:
181,153,44075,1,2,3:2:0:0:
127,32,44225,1,0,3:2:0:0:
102,208,44375,1,2,3:2:0:0:
125,15,44525,1,0,3:2:0:0:
10,199,44675,5,2,3:2:0:0:
20,251,44750,1,0,3:2:0:0:
28,297,44825,1,0,3:2:0:0:
39,344,44900,1,0,3:2:0:0:
86,370,44975,5,6,3:2:0:0:
277,328,45125,1,0,3:2:0:0:
102,376,45275,1,2,3:2:0:0:
206,216,45425,2,0,L|252:198,2,29.9999990844727,0|0|0,3:2|3:2|3:2,0:0:0:0:
120,381,45575,1,2,3:2:0:0:
196,197,45725,2,0,L|242:179,2,29.9999990844727,0|0|0,3:2|3:2|3:2,0:0:0:0:
94,89,45875,5,2,3:2:0:0:
144,69,45950,1,0,3:2:0:0:
193,51,46025,1,0,3:2:0:0:
240,31,46100,1,0,3:2:0:0:
288,24,46175,6,0,L|288:54,6,29.9999990844727,6|0|0|0|0|0|0,3:2|3:2|3:2|3:2|3:2|3:2|3:2,0:0:0:0:
354,106,46475,2,0,L|354:136,6,29.9999990844727,0|0|0|0|0|0|0,3:2|3:2|3:2|3:2|3:2|3:2|3:2,0:0:0:0:
421,198,46775,2,0,L|421:228,6,29.9999990844727,6|0|0|0|0|0|0,3:2|3:2|3:2|3:2|3:2|0:0|0:0,0:0:0:0:
392,300,47075,1,2,2:0:0:0:
257,196,47225,2,0,L|227:196,2,29.9999990844727,2|0|0,3:2|3:2|3:2,0:0:0:0:
286,311,47375,5,4,3:2:0:0:
286,311,47450,1,0,3:2:0:0:
286,311,47525,2,0,L|284:382,1,59.9999981689454,0|0,3:2|2:0,0:0:0:0:
155,252,47675,1,4,3:2:0:0:
155,252,47750,1,0,3:2:0:0:
155,252,47825,2,0,L|154:203,2,29.9999990844727,0|0|0,3:2|2:0|2:0,0:0:0:0:
24,340,47975,1,4,3:2:0:0:
26,291,48050,1,0,3:2:0:0:
28,243,48125,1,0,3:2:0:0:
26,193,48200,1,0,3:2:0:0:
29,147,48275,2,0,L|78:146,6,29.9999990844727,4|0|0|0|0|0|0,3:2|3:2|3:2|3:2|3:2|3:2|3:2,0:0:0:0:
118,85,48575,5,6,2:0:0:0:
198,54,48725,1,0,2:0:0:0:
277,100,48875,1,0,2:0:0:0:
292,188,49025,2,0,P|291:262|290:337,1,150.000005722046,2|0,2:0|2:0,0:0:0:0:
369,318,49475,2,0,L|369:243,1,75.0000028610231,2|0,2:0|2:0,0:0:0:0:
442,168,49775,5,2,2:0:0:0:
469,300,49925,1,0,2:0:0:0:
453,141,50075,1,0,2:0:0:0:
369,243,50225,2,0,P|291:239|221:259,1,150.000005722046,2|0,2:0|2:0,0:0:0:0:
150,219,50675,2,0,L|157:144,1,75.0000028610231,2|0,2:0|2:0,0:0:0:0:
36,113,50975,5,2,2:0:0:0:
57,238,51125,1,0,2:0:0:0:
46,88,51275,1,0,2:0:0:0:
150,218,51425,2,0,P|218:219|292:291,1,150.000005722046,2|0,2:0|2:0,0:0:0:0:
368,199,51875,1,2,2:0:0:0:
313,115,52025,1,0,2:0:0:0:
405,213,52175,6,0,P|459:198|494:193,2,75.0000028610231,2|0|2,2:0|2:0|2:0,0:0:0:0:
361,294,52625,1,0,2:0:0:0:
223,237,52775,1,2,2:0:0:0:
369,322,52925,1,0,2:0:0:0:
196,340,53075,1,2,2:0:0:0:
315,204,53225,1,0,2:0:0:0:
149,153,53375,5,2,2:0:0:0:
104,230,53525,1,0,2:0:0:0:
124,318,53675,1,0,2:0:0:0:
200,378,53825,2,0,P|126:368|50:376,1,150.000005722046,2|0,2:0|2:0,0:0:0:0:
1,319,54275,2,0,L|1:244,1,75.0000028610231,2|0,2:0|2:0,0:0:0:0:
32,93,54575,5,2,2:0:0:0:
100,238,54725,1,0,2:0:0:0:
40,64,54875,1,0,2:0:0:0:
179,142,55025,2,0,B|231:157|231:157|349:143,1,150.000005722046,2|0,2:0|2:0,0:0:0:0:
410,65,55475,2,0,P|400:105|401:156,1,75.0000028610231,2|0,2:0|2:0,0:0:0:0:
450,241,55775,5,2,2:0:0:0:
326,263,55925,1,0,2:0:0:0:
291,384,56075,1,0,2:0:0:0:
202,340,56225,2,0,P|201:272|196:240,1,75.0000028610231,2|0,2:0|2:0,0:0:0:0:
130,203,56525,1,0,2:0:0:0:
173,118,56675,2,0,L|257:116,1,75.0000028610231,2|0,2:0|2:0,0:0:0:0:
297,53,56975,5,2,2:0:0:0:
329,164,57125,1,0,2:0:0:0:
306,31,57275,1,2,2:0:0:0:
352,198,57425,1,0,2:0:0:0:
475,50,57575,1,2,2:0:0:0:
460,194,57725,1,0,2:0:0:0:
485,34,57875,5,2,2:0:0:0:
447,32,57950,1,2,2:0:0:0:
410,30,58025,1,2,2:0:0:0:
372,28,58100,1,2,2:0:0:0:
337,31,58175,6,0,P|353:69|356:112,1,85.0000016212464,6|0,0:0|2:0,0:0:0:0:
303,226,58475,1,0,2:0:0:0:
175,31,58625,6,0,P|158:69|155:112,1,85.0000016212464,2|0,2:0|2:0,0:0:0:0:
209,226,58925,1,0,2:0:0:0:
350,27,59075,6,0,P|366:65|369:108,1,85.0000016212464,10|0,2:0|2:0,0:0:0:0:
302,253,59375,5,2,2:0:0:0:
337,232,59450,1,2,2:0:0:0:
378,239,59525,1,2,2:0:0:0:
405,270,59600,1,2,2:0:0:0:
405,312,59675,1,10,2:0:0:0:
379,344,59750,1,2,2:0:0:0:
338,351,59825,1,2,2:0:0:0:
302,330,59900,1,2,2:0:0:0:
288,285,59975,5,2,2:0:0:0:
288,285,60050,1,2,2:0:0:0:
288,285,60125,2,0,L|245:281,1,42.5000008106232,2|2,2:0|2:0,0:0:0:0:
160,231,60275,1,14,2:0:0:0:
160,231,60350,1,2,2:0:0:0:
160,231,60425,2,0,L|108:227,1,42.5000008106232,2|2,2:0|2:0,0:0:0:0:
7,120,60575,5,6,2:0:0:0:
54,110,60650,1,2,2:0:0:0:
101,99,60725,1,2,2:0:0:0:
148,87,60800,1,2,2:0:0:0:
196,76,60875,2,0,L|200:16,1,42.5000008106232,10|2,2:0|2:0,0:0:0:0:
281,115,61025,2,0,L|279:158,1,42.5000008106232,2|2,2:0|2:0,0:0:0:0:
343,27,61175,2,0,L|403:31,1,42.5000008106232,6|2,2:0|2:0,0:0:0:0:
433,148,61325,2,0,L|390:145,1,42.5000008106232,2|2,2:0|2:0,0:0:0:0:
491,4,61475,1,14,2:0:0:0:
491,4,61550,1,2,2:0:0:0:
491,4,61625,2,0,L|493:46,1,42.5000008106232,2|2,2:0|2:0,0:0:0:0:
497,218,61775,5,6,2:0:0:0:
497,218,61850,2,0,L|454:215,1,42.5000008106232,2|2,2:0|2:0,0:0:0:0:
361,320,62000,1,6,2:0:0:0:
361,320,62075,2,0,L|318:322,1,42.5000008106232,10|2,2:0|2:0,0:0:0:0:
229,218,62225,2,0,L|186:215,1,42.5000008106232,6|2,2:0|2:0,0:0:0:0:
50,349,62375,5,6,2:0:0:0:
50,349,62450,2,0,L|54:289,1,42.5000008106232,2|2,2:0|2:0,0:0:0:0:
91,187,62600,1,6,2:0:0:0:
91,187,62675,2,0,L|87:127,1,42.5000008106232,10|2,2:0|2:0,0:0:0:0:
4,51,62825,2,0,L|8:-9,1,42.5000008106232,6|2,2:0|2:0,0:0:0:0:
141,13,62975,6,0,L|228:-2,2,66.6666666666667,6|0|0,2:0|2:0|2:0,0:0:0:0:
247,103,63275,2,0,L|312:114,2,66.6666666666667,10|0|0,2:0|2:0|2:0,0:0:0:0:
414,1,63575,6,0,L|425:67,1,66.6666666666667,6|0,2:0|2:0,0:0:0:0:
458,95,63775,1,0,2:0:0:0:
312,114,63875,5,14,2:0:0:0:
370,230,63975,2,0,L|427:221,2,33.3333333333333,0|0|0,2:0|0:0|2:0,0:0:0:0:
284,361,64175,5,6,2:0:0:0:
258,285,64275,1,0,2:0:0:0:
189,244,64375,1,0,2:0:0:0:
110,260,64475,1,10,2:0:0:0:
33,235,64575,1,0,2:0:0:0:
11,157,64675,1,0,2:0:0:0:
81,118,64775,5,6,2:0:0:0:
82,38,64875,1,0,2:0:0:0:
156,9,64975,1,0,2:0:0:0:
189,112,65075,5,14,2:0:0:0:
268,106,65175,2,0,L|263:55,2,33.3333333333333,0|0|0,2:0|0:0|2:0,0:0:0:0:
375,108,65375,6,0,L|377:174,1,66.6666666666667,6|0,3:2|2:0,0:0:0:0:
418,240,65575,1,0,2:0:0:0:
362,102,65675,2,0,L|365:169,1,66.6666666666667,6|0,3:2|2:0,0:0:0:0:
406,258,65875,1,0,2:0:0:0:
219,140,65975,6,0,L|221:206,1,66.6666666666667,6|0,3:2|2:0,0:0:0:0:
268,267,66175,1,0,2:0:0:0:
181,279,66275,1,6,3:2:0:0:
264,286,66375,2,0,L|311:284,2,33.3333333333333,0|0|0,2:0|0:0|2:0,0:0:0:0:
128,361,66575,5,6,3:2:0:0:
99,319,66650,1,0,3:2:0:0:
83,271,66725,1,0,3:2:0:0:
87,222,66800,1,0,3:2:0:0:
97,173,66875,1,6,3:2:0:0:
121,129,66950,1,0,3:2:0:0:
129,79,67025,1,0,3:2:0:0:
117,30,67100,1,0,3:2:0:0:
74,3,67175,2,0,L|32:-3,2,25,6|0|0,3:2|3:2|3:2,0:0:0:0:
192,49,67325,2,0,L|203:128,1,50,0|0,3:2|0:0,0:0:0:0:
272,118,67475,2,0,L|296:114,6,25,6|0|0|0|0|0|0,3:2|3:2|3:2|3:2|3:2|3:2|3:2,0:0:0:0:
409,23,67775,6,0,P|390:68|389:138,1,110.000003356934,6|0,2:0|2:0,0:0:0:0:
330,185,68000,2,0,P|359:223|419:259,1,110.000003356934,2|0,0:0|2:0,0:0:0:0:
488,256,68225,2,0,P|441:284|407:327,1,110.000003356934,2|0,2:0|2:0,0:0:0:0:
340,366,68450,1,2,2:0:0:0:
329,384,68525,2,0,L|265:375,1,55.0000016784668,0|0,2:0|2:0,0:0:0:0:
201,341,68675,2,0,P|212:287|205:233,1,110.000003356934,10|0,2:0|2:0,0:0:0:0:
14,130,68975,6,0,P|60:78|117:56,1,110.000003356934,2|0,2:0|2:0,0:0:0:0:
159,17,69200,2,0,P|192:59|240:86,1,110.000003356934,2|0,0:0|2:0,0:0:0:0:
317,64,69425,2,0,L|330:193,1,110.000003356934,2|0,2:0|2:0,0:0:0:0:
399,210,69650,1,2,2:0:0:0:
417,197,69725,2,0,L|425:137,1,55.0000016784668,0|0,2:0|2:0,0:0:0:0:
335,265,69875,2,0,P|281:276|227:269,1,110.000003356934,10|0,2:0|2:0,0:0:0:0:
33,365,70175,6,0,L|38:229,1,110.000003356934,2|0,2:0|2:0,0:0:0:0:
107,211,70400,2,0,L|102:75,1,110.000003356934,2|0,0:0|2:0,0:0:0:0:
37,51,70625,2,0,P|88:51|142:30,1,110.000003356934,2|0,2:0|2:0,0:0:0:0:
212,0,70850,1,2,2:0:0:0:
225,16,70925,2,0,L|233:73,1,55.0000016784668,0|0,2:0|2:0,0:0:0:0:
229,171,71075,2,0,P|290:158|338:176,1,110.000003356934,10|0,2:0|2:0,0:0:0:0:
506,11,71375,6,0,B|490:55|490:55|492:120,1,110.000003356934,2|0,2:0|2:0,0:0:0:0:
430,178,71600,2,0,B|445:222|445:222|443:287,1,110.000003356934,2|0,0:0|2:0,0:0:0:0:
347,321,71825,2,0,L|510:343,2,165.000005035401,2|2|10,2:0|2:0|2:0,0:0:0:0:
246,384,72425,1,0,2:0:0:0:
121,147,72575,6,0,P|173:193|195:250,1,110.000003356934,6|0,2:0|2:0,0:0:0:0:
127,279,72800,2,0,P|75:233|53:176,1,110.000003356934,2|0,0:0|2:0,0:0:0:0:
50,121,73025,2,0,P|103:106|152:52,1,110.000003356934,2|0,2:0|2:0,0:0:0:0:
201,4,73250,1,2,2:0:0:0:
218,19,73325,2,0,L|226:73,1,55.0000016784668,0|0,2:0|2:0,0:0:0:0:
289,138,73475,2,0,P|363:133|398:143,1,110.000003356934,10|0,2:0|2:0,0:0:0:0:
485,333,73775,6,0,L|365:342,1,110.000003356934,2|0,2:0|2:0,0:0:0:0:
330,285,74000,2,0,L|210:276,1,110.000003356934,2|0,0:0|2:0,0:0:0:0:
160,334,74225,2,0,P|170:285|148:224,1,110.000003356934,2|0,2:0|2:0,0:0:0:0:
97,183,74450,1,2,2:0:0:0:
84,194,74525,2,0,L|75:128,1,55.0000016784668,0|0,2:0|2:0,0:0:0:0:
24,63,74675,2,0,P|98:58|133:68,1,110.000003356934,10|0,2:0|2:0,0:0:0:0:
228,131,74975,6,0,L|353:120,1,110.000003356934,2|0,2:0|2:0,0:0:0:0:
321,33,75200,2,0,L|211:42,1,110.000003356934,2|0,0:0|2:0,0:0:0:0:
224,143,75425,2,0,L|349:132,1,110.000003356934,2|0,2:0|2:0,0:0:0:0:
406,155,75650,1,2,2:0:0:0:
412,170,75725,2,0,L|420:226,1,55.0000016784668,0|0,2:0|2:0,0:0:0:0:
472,292,75875,2,0,P|418:280|364:287,1,110.000003356934,10|0,2:0|2:0,0:0:0:0:
275,384,76175,6,0,P|193:342|114:335,1,165.000005035401,2|2,2:0|2:0,0:0:0:0:
0,174,76625,2,0,P|82:132|161:125,1,165.000005035401,2|2,2:0|2:0,0:0:0:0:
342,125,77075,1,10,2:0:0:0:
250,39,77225,1,2,2:0:0:0:
250,39,77675,6,0,L|261:122,1,59.9999981689454,6|0,3:2|2:0,0:0:0:0:
314,194,77825,2,0,L|307:253,1,59.9999981689454,2|0,2:0|2:0,0:0:0:0:
241,331,77975,1,0,3:2:0:0:
257,349,78050,2,0,L|390:328,1,119.999996337891,2|0,2:0|2:0,0:0:0:0:
452,379,78275,1,2,3:2:0:0:
481,182,78425,1,0,2:0:0:0:
463,384,78575,6,0,L|455:250,1,119.999996337891,2|0,3:2|2:0,0:0:0:0:
389,194,78800,1,2,2:0:0:0:
372,170,78875,2,0,L|364:110,1,59.9999981689454,0|0,3:2|2:0,0:0:0:0:
283,47,79025,2,0,L|276:106,1,59.9999981689454,2|0,2:0|2:0,0:0:0:0:
199,174,79175,1,0,3:2:0:0:
212,198,79250,2,0,L|93:216,1,119.999996337891,2|0,2:0|2:0,0:0:0:0:
23,164,79475,1,2,3:2:0:0:
110,335,79625,1,0,2:0:0:0:
7,146,79775,6,0,L|8:13,1,119.999996337891,2|0,3:2|2:0,0:0:0:0:
107,12,80000,1,2,2:0:0:0:
100,32,80075,2,0,L|111:115,1,59.9999981689454,0|0,3:2|2:0,0:0:0:0:
199,123,80225,2,0,L|206:64,1,59.9999981689454,2|0,2:0|2:0,0:0:0:0:
281,7,80375,1,0,3:2:0:0:
294,23,80450,2,0,L|312:141,1,119.999996337891,2|0,2:0|2:0,0:0:0:0:
340,231,80675,2,0,L|263:219,1,59.9999981689454,2|0,3:2|2:0,0:0:0:0:
237,318,80825,1,0,2:0:0:0:
428,293,80975,6,0,P|444:247|420:173,1,119.999996337891,2|0,3:2|2:0,0:0:0:0:
382,106,81200,1,2,2:0:0:0:
401,89,81275,2,0,L|469:82,1,59.9999981689454,0|0,3:2|2:0,0:0:0:0:
345,183,81425,1,2,2:0:0:0:
326,196,81500,2,0,L|266:202,1,59.9999981689454,0|0,2:0|3:2,0:0:0:0:
154,152,81650,2,0,P|173:202|172:270,1,119.999996337891,2|0,2:0|2:0,0:0:0:0:
133,336,81875,1,2,3:2:0:0:
75,165,82025,1,0,2:0:0:0:
114,362,82175,5,6,3:2:0:0:
262,362,82325,1,0,3:2:0:0:
133,336,82475,1,2,3:2:0:0:
302,287,82625,1,0,3:2:0:0:
105,384,82775,1,2,3:2:0:0:
240,203,82925,1,0,3:2:0:0:
399,339,83075,5,2,3:2:0:0:
405,307,83150,1,0,3:2:0:0:
411,276,83225,1,0,3:2:0:0:
420,239,83300,1,0,3:2:0:0:
401,195,83375,5,6,3:2:0:0:
489,365,83525,1,0,3:2:0:0:
378,164,83675,1,2,3:2:0:0:
299,368,83825,2,0,L|271:357,2,29.9999990844727,0|0|0,3:2|3:2|3:2,0:0:0:0:
180,193,83975,1,2,3:2:0:0:
71,364,84125,2,0,L|117:346,2,29.9999990844727,0|0|0,3:2|3:2|3:2,0:0:0:0:
10,313,84275,5,2,3:2:0:0:
19,273,84350,1,0,3:2:0:0:
21,231,84425,1,0,3:2:0:0:
25,186,84500,1,0,3:2:0:0:
63,159,84575,5,6,3:2:0:0:
73,109,84650,1,0,3:2:0:0:
75,62,84725,1,0,3:2:0:0:
77,9,84800,1,0,3:2:0:0:
123,0,84875,2,0,L|176:0,2,29.9999990844727,2|2|0,3:2|3:2|3:2,0:0:0:0:
180,120,85025,1,0,3:2:0:0:
364,5,85175,5,6,3:2:0:0:
362,48,85250,1,0,3:2:0:0:
359,91,85325,2,0,L|359:121,10,29.9999990844727,0|0|0|0|2|0|0|0|0|0|0,3:2|3:2|3:2|3:2|3:2|3:2|3:2|3:2|3:2|3:2|3:2,0:0:0:0:
405,204,85775,6,0,P|351:179|293:191,1,119.999996337891,6|0,3:2|2:0,0:0:0:0:
224,144,86000,2,0,P|170:169|112:157,1,119.999996337891,6|0,3:2|2:0,0:0:0:0:
54,100,86225,2,0,P|46:128|29:152,1,59.9999981689454,6|0,3:2|2:0,0:0:0:0:
0,293,86375,6,0,P|57:280|111:305,1,119.999996337891,6|0,3:2|2:0,0:0:0:0:
177,367,86600,1,0,0:0:0:0:
199,354,86675,2,0,L|272:342,1,59.9999981689454,2|0,3:2|2:0,0:0:0:0:
305,255,86825,2,0,L|364:264,1,59.9999981689454,2|0,3:2|2:0,0:0:0:0:
512,363,86975,6,0,P|485:324|486:239,1,119.999996337891,6|0,3:2|2:0,0:0:0:0:
512,175,87200,1,2,2:0:0:0:
512,145,87275,1,0,3:2:0:0:
364,264,87425,1,2,2:0:0:0:
288,109,87575,1,0,3:2:0:0:
270,127,87650,2,0,L|277:201,1,59.9999981689454,2|0,2:0|2:0,0:0:0:0:
170,285,87800,1,0,2:0:0:0:
151,264,87875,2,0,L|157:205,1,59.9999981689454,2|0,3:2|2:0,0:0:0:0:
42,112,88025,2,0,L|47:171,1,59.9999981689454,0|0,2:0|2:0,0:0:0:0:
0,40,88175,6,0,P|39:13|124:14,1,119.999996337891,2|0,3:2|2:0,0:0:0:0:
178,62,88400,1,2,2:0:0:0:
204,42,88475,1,0,3:2:0:0:
350,0,88625,2,0,P|350:59|381:109,1,119.999996337891,2|0,2:0|3:2,0:0:0:0:
466,163,88850,1,2,2:0:0:0:
448,198,88925,2,0,L|389:192,1,59.9999981689454,0|0,2:0|2:0,0:0:0:0:
343,272,89075,2,0,L|284:277,1,59.9999981689454,2|0,3:2|2:0,0:0:0:0:
231,209,89225,2,0,L|172:214,1,59.9999981689454,0|0,2:0|2:0,0:0:0:0:
83,344,89375,6,0,P|82:284|51:234,1,119.999996337891,2|0,3:2|2:0,0:0:0:0:
0,167,89600,1,2,2:0:0:0:
17,135,89675,1,0,3:2:0:0:
171,214,89825,1,2,2:0:0:0:
228,62,89975,1,0,3:2:0:0:
247,35,90050,2,0,L|306:29,1,59.9999981689454,2|0,2:0|2:0,0:0:0:0:
373,159,90200,1,0,2:0:0:0:
395,127,90275,2,0,L|454:133,1,59.9999981689454,2|0,3:2|2:0,0:0:0:0:
327,246,90425,2,0,L|268:252,1,59.9999981689454,0|0,2:0|2:0,0:0:0:0:
194,212,90575,6,0,P|221:251|220:336,1,119.999996337891,2|0,3:2|2:0,0:0:0:0:
143,378,90800,1,2,2:0:0:0:
112,370,90875,1,0,3:2:0:0:
206,208,91025,2,0,P|237:263|239:323,1,119.999996337891,2|0,2:0|3:2,0:0:0:0:
311,382,91250,1,2,2:0:0:0:
332,356,91325,2,0,L|391:362,1,59.9999981689454,0|0,2:0|2:0,0:0:0:0:
512,286,91475,2,0,L|453:291,1,59.9999981689454,6|0,3:2|2:0,0:0:0:0:
305,221,91625,2,0,L|364:216,1,59.9999981689454,0|0,2:0|2:0,0:0:0:0:
512,70,91775,6,0,P|452:70|402:101,1,119.999996337891,6|0,3:2|2:0,0:0:0:0:
323,74,92000,1,2,2:0:0:0:
306,43,92075,1,0,3:2:0:0:
227,206,92225,1,2,2:0:0:0:
112,21,92375,1,0,3:2:0:0:
140,46,92450,2,0,L|147:120,1,59.9999981689454,2|0,2:0|2:0,0:0:0:0:
67,237,92600,1,0,2:0:0:0:
43,212,92675,2,0,L|49:153,1,59.9999981689454,2|0,3:2|2:0,0:0:0:0:
167,236,92825,2,0,L|172:295,1,59.9999981689454,0|0,2:0|2:0,0:0:0:0:
62,353,92975,6,0,P|121:353|171:384,1,119.999996337891,6|0,3:2|2:0,0:0:0:0:
246,380,93200,1,2,2:0:0:0:
268,345,93275,1,0,3:2:0:0:
392,384,93425,2,0,P|382:352|388:300,1,59.9999981689454,2|0,2:0|2:0,0:0:0:0:
462,167,93575,1,4,3:2:0:0:
473,188,93650,2,0,L|467:247,1,59.9999981689454,2|0,2:0|2:0,0:0:0:0:
346,191,93800,1,4,3:2:0:0:
329,164,93875,2,0,L|343:16,1,119.999996337891,2|4,0:0|3:2,0:0:0:0:
28,60,94175,6,0,P|65:107|53:192,1,119.999996337891,6|0,3:2|2:0,0:0:0:0:
160,161,94400,2,0,P|137:216|58:248,1,119.999996337891,6|0,3:2|2:0,0:0:0:0:
120,319,94625,2,0,P|60:327|26:301,1,59.9999981689454,6|0,3:2|2:0,0:0:0:0:
200,280,94775,6,0,P|263:319|296:408,1,119.999996337891,6|0,3:2|2:0,0:0:0:0:
210,270,95000,2,0,P|273:309|306:398,1,119.999996337891,6|0,3:2|2:0,0:0:0:0:
376,384,95225,2,0,P|383:355|395:326,1,59.9999981689454,6|0,3:2|2:0,0:0:0:0:
489,194,95375,6,0,L|429:192,1,59.9999981689454,6|0,3:2|2:0,0:0:0:0:
365,65,95525,2,0,L|305:66,1,59.9999981689454,0|0,2:0|2:0,0:0:0:0:
180,262,95675,6,0,L|182:176,1,59.9999981689454,6|0,3:2|2:0,0:0:0:0:
109,68,95825,1,0,2:0:0:0:
201,274,95975,6,0,L|203:188,1,59.9999981689454,6|0,3:2|2:0,0:0:0:0:
87,45,96125,1,0,2:0:0:0:
34,350,96275,6,0,L|120:352,1,59.9999981689454,6|0,3:2|2:0,0:0:0:0:
83,209,96425,2,0,L|23:207,1,59.9999981689454,2|0,3:2|2:0,0:0:0:0:
201,274,96575,6,0,P|240:247|325:248,1,119.999996337891,6|0,3:2|2:0,0:0:0:0:
376,308,96800,1,2,2:0:0:0:
405,288,96875,2,0,L|422:190,1,59.9999981689454,4|0,3:2|2:0,0:0:0:0:
345,157,97025,1,2,2:0:0:0:
495,116,97175,1,0,3:2:0:0:
505,96,97250,2,0,L|499:36,1,59.9999981689454,2|0,2:2|2:2,0:0:0:0:
359,0,97400,1,0,2:0:0:0:
338,3,97475,2,0,L|332:62,1,59.9999981689454,2|0,3:2|2:0,0:0:0:0:
243,153,97625,2,0,L|238:94,1,59.9999981689454,0|0,2:0|2:0,0:0:0:0:
112,11,97775,6,0,P|53:12|3:43,1,119.999996337891,2|0,3:2|2:0,0:0:0:0:
0,88,98000,1,2,2:0:0:0:
4,125,98075,1,0,3:2:0:0:
118,254,98225,2,0,L|101:180,1,59.9999981689454,2|0,2:0|2:0,0:0:0:0:
83,98,98375,1,0,3:2:0:0:
108,115,98450,2,0,L|167:121,1,59.9999981689454,2|0,2:0|2:0,0:0:0:0:
250,228,98600,1,0,2:0:0:0:
265,195,98675,2,0,L|324:190,1,59.9999981689454,2|0,3:2|2:0,0:0:0:0:
409,146,98825,2,0,L|414:205,1,59.9999981689454,0|0,2:0|2:0,0:0:0:0:
512,333,98975,6,0,P|452:333|402:364,1,119.999996337891,2|0,3:2|2:0,0:0:0:0:
279,384,99200,1,2,2:0:0:0:
257,367,99275,2,0,L|269:274,1,59.9999981689454,0|0,3:2|2:0,0:0:0:0:
294,218,99425,1,2,2:0:0:0:
121,384,99575,1,2,3:2:0:0:
104,366,99650,2,0,L|98:306,1,59.9999981689454,0|0,2:0|2:0,0:0:0:0:
126,212,99800,1,0,2:0:0:0:
138,187,99875,2,0,L|144:128,1,59.9999981689454,2|0,3:2|2:0,0:0:0:0:
23,169,100025,2,0,L|18:110,1,59.9999981689454,0|0,2:0|2:0,0:0:0:0:
83,32,100175,6,0,P|122:5|207:6,1,119.999996337891,2|0,3:2|0:0,0:0:0:0:
273,57,100400,1,2,2:0:0:0:
299,20,100475,1,0,3:2:0:0:
231,150,100625,2,0,L|244:208,1,59.9999981689454,2|0,2:0|2:0,0:0:0:0:
345,248,100775,1,0,3:2:0:0:
361,266,100850,2,0,L|355:325,1,59.9999981689454,2|0,2:0|2:0,0:0:0:0:
478,249,101000,1,0,2:0:0:0:
497,218,101075,2,0,L|492:159,1,59.9999981689454,2|0,3:2|2:0,0:0:0:0:
441,325,101225,2,0,L|446:384,1,59.9999981689454,0|0,3:2|2:0,0:0:0:0:
373,171,101375,5,6,3:2:0:0:
289,151,101525,1,0,3:2:0:0:
389,164,101675,1,2,3:2:0:0:
233,238,101825,1,0,3:2:0:0:
331,82,101975,1,2,3:2:0:0:
230,261,102125,1,0,3:2:0:0:
166,78,102275,5,2,3:2:0:0:
175,119,102350,1,0,3:2:0:0:
165,160,102425,1,0,3:2:0:0:
141,197,102500,1,0,3:2:0:0:
95,216,102575,1,6,3:2:0:0:
66,326,102725,5,0,3:2:0:0:
23,135,102875,1,2,3:2:0:0:
72,355,103025,1,0,3:2:0:0:
251,225,103175,1,2,3:2:0:0:
262,248,103250,2,0,L|274:389,1,119.999996337891,2|0,2:0|2:0,0:0:0:0:
351,384,103475,2,0,L|354:317,1,59.9999981689454,2|0,3:2|2:0,0:0:0:0:
365,233,103625,2,0,L|368:166,1,59.9999981689454,0|0,3:2|2:0,0:0:0:0:
315,40,103775,5,6,3:2:0:0:
279,41,103850,1,0,3:2:0:0:
243,43,103925,1,0,3:2:0:0:
207,44,104000,1,0,3:2:0:0:
171,46,104075,1,0,3:2:0:0:
135,47,104150,1,0,3:2:0:0:
99,49,104225,2,0,L|117:141,1,59.9999981689454,0|0,3:2|3:2,0:0:0:0:
78,296,104375,5,6,3:2:0:0:
130,287,104450,1,0,3:2:0:0:
183,277,104525,1,0,3:2:0:0:
234,263,104600,1,0,3:2:0:0:
286,249,104675,2,0,L|288:203,6,29.9999990844727,0|0|0|0|0|0|0,3:2|3:2|3:2|3:2|3:2|3:2|3:2,0:0:0:0:
310,362,104975,6,0,P|334:308|383:273,1,119.999996337891,6|0,3:2|2:0,0:0:0:0:
475,266,105200,2,0,P|450:212|401:177,1,119.999996337891,6|0,3:2|2:0,0:0:0:0:
334,119,105425,2,0,L|338:41,1,59.9999981689454,6|0,3:2|2:0,0:0:0:0:
254,8,105575,5,6,3:2:0:0:
194,6,105650,1,0,2:0:0:0:
137,24,105725,1,0,2:0:0:0:
88,58,105800,1,0,2:0:0:0:
52,106,105875,1,6,3:2:0:0:
33,162,105950,1,0,2:0:0:0:
32,222,106025,1,2,2:0:0:0:
50,279,106100,1,0,2:0:0:0:
85,329,106175,6,0,P|123:312|166:309,1,85.0000016212464,6|0,2:0|2:0,0:0:0:0:
223,368,106475,1,0,2:0:0:0:
241,241,106625,6,0,P|280:225|323:222,1,85.0000016212464,2|0,2:0|2:0,0:0:0:0:
397,293,106925,1,0,2:0:0:0:
478,106,107075,6,0,P|435:109|396:125,1,85.0000016212464,2|0,2:0|2:0,0:0:0:0:
323,222,107375,1,0,2:0:0:0:
257,65,107525,6,0,P|214:68|175:84,1,85.0000016212464,2|0,2:0|2:0,0:0:0:0:
102,181,107825,1,0,2:0:0:0:
23,70,107975,5,2,2:0:0:0:
0,173,108125,1,0,2:0:0:0:
43,262,108275,1,2,2:0:0:0:
157,364,108575,5,2,2:0:0:0:
226,296,108725,1,0,2:0:0:0:
304,360,108875,1,0,2:0:0:0:
156,352,109025,5,2,2:0:0:0:
225,284,109175,1,0,2:0:0:0:
303,348,109325,1,0,2:0:0:0:
366,265,109475,5,2,2:0:0:0:
297,198,109625,2,0,L|288:113,1,85.0000016212464,2|0,2:0|2:0,0:0:0:0:
406,37,109925,2,0,L|414:121,1,85.0000016212464,2|0,2:0|2:0,0:0:0:0:
409,259,110225,1,2,2:0:0:0:
409,259,110300,1,2,2:0:0:0:
409,259,110375,2,0,P|366:266|318:287,1,85.0000016212464,2|2,2:0|2:0,0:0:0:0:
206,365,110675,2,0,P|163:358|115:337,1,85.0000016212464,2|2,2:0|2:0,0:0:0:0:
17,229,110975,6,0,L|26:153,2,56.6666677474976,2|0|0,2:0|2:0|2:0,0:0:0:0:
98,239,111275,2,0,L|107:163,2,56.6666677474976,2|0|0,2:0|2:0|2:0,0:0:0:0:
194,217,111575,5,2,2:0:0:0:
189,187,111675,2,0,P|233:153|257:148,1,56.6666677474976,0|0,2:0|2:0,0:0:0:0:
313,28,111875,5,2,2:0:0:0:
318,42,111975,2,0,P|274:76|250:81,1,56.6666677474976,0|0,2:0|2:0,0:0:0:0:
233,152,112175,6,0,P|275:174|344:224,2,127.50000243187,2|2|2,2:0|2:0|2:0,0:0:0:0:
185,144,112700,1,0,2:0:0:0:
185,144,112775,1,2,2:0:0:0:
237,356,113000,1,2,2:0:0:0:
174,111,113225,1,2,2:0:0:0:
62,245,113375,5,2,2:0:0:0:
38,166,113525,1,0,2:0:0:0:
63,262,113675,1,2,2:0:0:0:
28,144,113825,1,0,2:0:0:0:
153,272,113975,5,2,2:0:0:0:
175,127,114125,1,0,2:0:0:0:
290,295,114275,1,2,2:0:0:0:
354,96,114425,1,2,2:0:0:0:
427,325,114575,5,2,2:0:0:0:
256,192,114650,12,0,117575,2:0:0:0:
