osu file format v14

[General]
AudioFilename: audio.mp3
AudioLeadIn: 0
PreviewTime: 25984
Countdown: 0
SampleSet: Normal
StackLeniency: 0.7
Mode: 0
LetterboxInBreaks: 0
WidescreenStoryboard: 1

[Editor]
Bookmarks: 26176,50791,63099,75407,100022,124637
DistanceSpacing: 0.3
BeatDivisor: 4
GridSize: 32
TimelineZoom: 1

[Metadata]
Title:Tokyo's Starlight
TitleUnicode:Tokyo's Starlight
Artist:HyuN
ArtistUnicode:HyuN
Creator:Pho
Version:Zetera's Hard
Source:
Tags:Mirash PandaHero schoolboy komore Zetera osu! mappers guild featured artist
BeatmapID:1864179
BeatmapSetID:891712

[Difficulty]
HPDrainRate:6
CircleSize:3.5
OverallDifficulty:6
ApproachRate:7.8
SliderMultiplier:1.6
SliderTickRate:1

[Events]
//Background and Video events
0,0,"placeholder.jpg",0,0
//Break Periods
//Storyboard Layer 0 (Background)
//Storyboard Layer 1 (Fail)
//Storyboard Layer 2 (Pass)
//Storyboard Layer 3 (Foreground)
//Storyboard Sound Samples

[TimingPoints]
1561,384.615384615385,4,2,69,30,1,0
1561,-133.333333333333,4,2,69,30,0,0
6176,-200,4,2,69,30,0,0
7714,-133.333333333333,4,2,69,30,0,0
18484,-200,4,2,69,30,0,0
20022,-133.333333333333,4,2,69,30,0,0
25791,-100,4,2,69,40,0,0
25887,-100,4,2,69,45,0,0
25984,-100,4,2,69,50,0,0
26080,-100,4,2,69,55,0,0
26176,-68.9655172413793,4,1,69,60,0,1
37330,-68.9655172413793,4,1,69,60,0,1
37426,-68.9655172413793,4,1,69,60,0,1
38484,-68.9655172413793,4,1,69,60,0,0
44637,-68.9655172413793,4,1,69,60,0,1
50791,-100,4,2,69,50,0,0
56561,-100,4,2,69,51,0,0
56657,-100,4,2,69,52,0,0
56753,-100,4,2,69,53,0,0
56849,-100,4,2,69,54,0,0
56945,-100,4,2,69,55,0,0
62137,-100,4,2,69,60,0,0
63099,-81.9672131147541,4,2,69,60,0,0
75407,-68.9655172413793,4,1,69,60,0,1
87714,-68.9655172413793,4,1,69,60,0,0
93868,-68.9655172413793,4,1,69,60,0,1
99253,-68.9655172413793,4,1,69,60,0,0
100022,-68.9655172413793,4,1,69,60,0,1
100214,-68.9655172413793,4,1,69,60,0,1
124637,-68.9655172413793,4,1,69,60,0,0

[Colours]
Combo1 : 33,237,104
Combo2 : 32,160,238

[HitObjects]
98,176,1561,6,0,P|69:240|121:338,1,180.000006866455,6|0,0:0|0:0,0:0:0:0:
113,333,2714,2,0,L|193:322,1,60.0000022888184,2|0,0:0|0:0,0:0:0:0:
258,260,3099,6,0,L|250:393,1,120.000004577637,2|2,0:0|0:0,0:0:0:0:
205,186,3676,1,0,0:0:0:0:
348,226,3868,6,0,L|340:359,1,120.000004577637,2|2,0:0|0:0,0:0:0:0:
293,150,4445,1,0,0:0:0:0:
438,197,4637,6,0,L|428:396,2,180.000006866455,2|0|2,0:0|0:0|0:0,0:0:0:0:
494,133,5984,1,0,0:0:0:0:
364,143,6176,6,0,L|370:18,1,120,2|0,0:0|0:0,0:0:0:0:
286,193,6945,5,2,0:0:0:0:
201,217,7137,1,0,0:0:0:0:
123,171,7330,1,2,0:0:0:0:
95,88,7522,1,0,0:0:0:0:
136,14,7714,6,0,L|328:-2,1,180.000006866455,6|0,0:0|0:0,0:0:0:0:
315,0,8868,2,0,L|308:75,1,60.0000022888184,2|0,0:0|0:0,0:0:0:0:
365,129,9253,6,0,P|412:93|482:109,1,120.000004577637,2|2,0:0|0:0,0:0:0:0:
505,177,9830,1,0,0:0:0:0:
512,297,10022,6,0,P|453:304|407:268,1,120.000004577637,2|2,0:0|0:0,0:0:0:0:
344,215,10599,1,0,0:0:0:0:
425,189,10791,6,0,L|411:378,1,180.000006866455,2|0,0:0|0:0,0:0:0:0:
411,368,11753,2,0,L|345:376,2,60.0000022888184,0|2|0,0:0|0:0|0:0,0:0:0:0:
281,329,12330,5,2,0:0:0:0:
337,262,12522,1,0,0:0:0:0:
321,182,12714,1,0,0:0:0:0:
253,135,12907,1,0,0:0:0:0:
173,163,13099,2,0,P|132:171|96:164,3,60.0000022888184,2|0|0|0,0:0|0:0|0:0|0:0,0:0:0:0:
61,102,13868,6,0,L|82:297,1,180.000006866455,6|0,0:0|0:0,0:0:0:0:
347,367,14830,1,0,0:0:0:0:
347,367,15022,2,0,L|356:289,1,60.0000022888184,2|0,0:0|0:0,0:0:0:0:
269,258,15407,6,0,L|256:378,1,120.000004577637,2|2,0:0|0:0,0:0:0:0:
173,363,15984,1,0,0:0:0:0:
27,197,16176,6,0,L|42:323,1,120.000004577637,2|2,0:0|0:0,0:0:0:0:
121,293,16753,1,0,0:0:0:0:
213,188,16945,6,0,P|261:239|240:350,1,180.000006866455,2|0,0:0|0:0,0:0:0:0:
247,341,17907,2,0,L|176:333,2,60.0000022888184,0|2|0,0:0|0:0|0:0,0:0:0:0:
323,278,18484,6,0,P|371:283|414:342,1,120,2|0,0:0|0:0,0:0:0:0:
512,180,19253,1,2,0:0:0:0:
441,219,19445,1,0,0:0:0:0:
368,193,19637,1,2,0:0:0:0:
341,122,19830,1,0,0:0:0:0:
366,47,20022,6,0,L|177:32,1,180.000006866455,6|0,0:0|0:0,0:0:0:0:
21,104,20984,1,0,0:0:0:0:
21,104,21176,2,0,L|99:93,1,60.0000022888184,2|0,0:0|0:0,0:0:0:0:
168,123,21561,6,0,P|192:162|185:238,1,120.000004577637,2|2,0:0|0:0,0:0:0:0:
40,196,22137,1,0,0:0:0:0:
94,257,22330,6,0,P|70:296|77:372,1,120.000004577637,2|2,0:0|0:0,0:0:0:0:
229,309,22907,1,0,0:0:0:0:
149,329,23099,6,0,L|328:343,1,180.000006866455,6|0,0:0|0:0,0:0:0:0:
328,343,24061,2,0,L|322:274,2,60.0000022888184,0|2|0,0:0|0:0|0:0,0:0:0:0:
414,368,24637,5,2,0:3:0:0:
422,364,25022,1,2,0:3:0:0:
431,358,25407,1,6,0:3:0:0:
496,206,25791,6,0,L|491:246,3,40,4|0|0|0,3:0|3:0|3:0|3:0,3:0:0:0:
481,264,26176,6,0,P|407:268|365:204,1,116.000003540039,4|4,1:2|0:0,0:0:0:0:
270,352,26561,2,0,L|281:289,3,58.0000017700196,8|0|2|0,0:0|0:0|0:0|0:0,0:0:0:0:
242,370,26945,5,8,0:0:0:0:
157,346,27137,1,6,0:0:0:0:
199,235,27330,5,2,0:0:0:0:
117,257,27522,1,4,0:0:0:0:
117,157,27714,6,0,L|14:209,1,116.000003540039,4|6,0:2|0:0,0:0:0:0:
165,68,28099,2,0,L|171:9,3,58.0000017700196,8|0|2|0,0:0|0:0|0:0|0:0,0:0:0:0:
186,86,28484,5,8,0:0:0:0:
276,73,28676,1,6,0:0:0:0:
245,168,28868,5,2,0:0:0:0:
333,188,29060,1,4,0:0:0:0:
278,262,29253,6,0,L|303:390,1,116.000003540039,4|2,0:0|0:0,0:0:0:0:
428,301,29637,2,0,L|358:283,3,58.0000017700196,0|0|2|0,0:0|0:0|0:0|0:0,0:0:0:0:
451,326,30022,5,8,0:0:0:0:
467,222,30214,1,2,0:0:0:0:
376,163,30407,5,2,0:0:0:0:
395,53,30599,1,4,0:0:0:0:
293,91,30791,6,0,L|161:116,1,116.000003540039,4|2,0:0|0:0,0:0:0:0:
1,96,31176,2,0,L|77:119,3,58.0000017700196,8|0|2|0,0:0|0:0|0:0|0:0,0:0:0:0:
85,131,31561,5,8,0:0:0:0:
81,217,31753,1,2,0:0:0:0:
72,304,31945,2,0,L|66:365,3,58.0000017700196,6|0|4|0,0:0|0:0|0:0|0:0,0:0:0:0:
150,358,32330,6,0,P|191:372|260:318,1,116.000003540039,4|4,0:2|0:0,0:0:0:0:
293,202,32714,2,0,P|279:167|281:135,3,58.0000017700196,8|0|2|0,0:0|0:0|0:0|0:0,0:0:0:0:
294,121,33099,5,8,0:0:0:0:
393,103,33291,1,6,0:0:0:0:
389,195,33484,5,6,0:0:0:0:
481,211,33676,1,0,0:0:0:0:
421,288,33868,6,0,P|372:333|305:312,1,116.000003540039,12|2,0:0|0:0,0:0:0:0:
223,254,34253,2,0,P|177:263|151:291,3,58.0000017700196,8|0|2|0,0:0|0:0|0:0|0:0,0:0:0:0:
157,297,34637,5,0,0:0:0:0:
66,286,34830,1,2,0:0:0:0:
91,172,35022,5,2,0:0:0:0:
0,191,35214,1,4,0:0:0:0:
26,91,35407,6,0,P|71:41|126:41,1,116.000003540039,4|2,0:0|0:0,0:0:0:0:
210,154,35791,2,0,P|209:108|192:81,3,58.0000017700196,8|0|2|0,0:0|0:0|0:0|0:0,0:0:0:0:
192,80,36176,5,8,0:0:0:0:
263,20,36368,1,2,0:0:0:0:
308,110,36560,5,2,0:0:0:0:
402,100,36753,1,0,0:0:0:0:
420,199,36945,6,0,P|451:278|434:348,1,116.000003540039,8|2,0:0|0:0,0:0:0:0:
314,368,37330,2,0,P|309:327|322:288,3,58.0000017700196,4|0|2|0,0:0|0:0|0:0|0:0,0:0:0:0:
320,280,37714,6,0,P|335:198|311:131,1,116.000003540039,8|2,0:0|0:0,0:0:0:0:
246,83,38099,1,8,0:3:0:0:
246,83,38195,1,8,0:3:0:0:
246,83,38291,1,4,0:3:0:0:
246,83,38387,1,4,0:3:0:0:
246,83,38484,2,0,L|61:74,1,174.000005310059,4|0,0:2|2:0,0:0:0:0:
49,92,38868,2,0,P|34:145|57:206,1,116.000003540039,8|2,0:0|0:0,0:0:0:0:
90,184,39157,5,0,0:0:0:0:
125,195,39253,2,0,L|113:321,1,116.000003540039,0|2,0:0|0:0,0:0:0:0:
216,376,39637,2,0,L|205:260,1,116.000003540039,8|2,0:0|0:0,0:0:0:0:
318,218,40022,6,0,P|428:227|450:324,1,174.000005310059,4|0,0:2|2:0,0:0:0:0:
461,283,40407,2,0,P|480:209|517:191,1,116.000003540039,8|2,0:0|0:0,0:0:0:0:
495,158,40695,5,0,0:0:0:0:
511,125,40791,2,0,P|465:63|405:57,1,116.000003540039,0|2,0:0|0:0,0:0:0:0:
347,0,41176,2,0,P|273:24|249:79,1,116.000003540039,8|2,0:0|0:0,0:0:0:0:
185,122,41561,6,0,L|200:321,1,174.000005310059,4|0,0:2|2:0,0:0:0:0:
203,303,41945,2,0,P|154:343|80:320,1,116.000003540039,8|2,0:0|0:0,0:0:0:0:
66,323,42234,5,0,0:0:0:0:
27,344,42330,2,0,L|39:206,1,116.000003540039,0|2,0:0|0:0,0:0:0:0:
74,148,42714,2,0,L|87:33,1,116.000003540039,8|0,0:0|0:0,0:0:0:0:
158,185,43099,6,0,P|231:209|319:136,1,174.000005310059,4|0,0:2|2:0,0:0:0:0:
314,148,43484,2,0,L|303:18,1,116.000003540039,8|2,0:0|0:0,0:0:0:0:
337,12,43772,5,0,0:0:0:0:
370,31,43868,2,0,P|457:34|475:87,1,116.000003540039,0|2,0:0|0:0,0:0:0:0:
508,200,44253,2,0,P|471:219|423:210,3,58.0000017700196,4|0|0|0,0:0|0:0|0:0|0:0,0:0:0:0:
423,204,44637,6,0,L|434:370,1,116.000003540039,4|2,0:2|0:0,0:0:0:0:
298,353,45022,2,0,L|383:369,3,58.0000017700196,8|0|2|0,0:0|0:0|0:0|0:0,0:0:0:0:
273,362,45407,5,8,0:0:0:0:
290,262,45599,1,2,0:0:0:0:
197,298,45791,5,2,0:0:0:0:
191,194,45984,1,0,0:0:0:0:
110,248,46176,6,0,P|46:256|-5:212,1,116.000003540039,4|2,0:0|0:0,0:0:0:0:
20,55,46561,2,0,P|36:79|44:107,3,58.0000017700196,8|0|2|0,0:0|0:0|0:0|0:0,0:0:0:0:
36,124,46945,5,8,0:0:0:0:
135,100,47137,1,2,0:0:0:0:
210,35,47330,5,2,0:0:0:0:
296,98,47522,1,0,0:0:0:0:
388,123,47714,6,0,L|380:265,1,116.000003540039,12|2,0:0|0:0,0:0:0:0:
500,341,48099,2,0,L|441:350,3,58.0000017700196,8|0|2|0,0:0|0:0|0:0|0:0,0:0:0:0:
430,327,48484,5,8,0:0:0:0:
381,238,48676,1,2,0:0:0:0:
302,297,48868,5,2,0:0:0:0:
209,264,49061,1,2,0:0:0:0:
192,357,49253,6,0,P|125:310|119:267,1,116.000003540039,12|0,0:0|0:0,0:0:0:0:
32,158,49637,2,0,P|64:124|86:116,3,58.0000017700196,8|0|2|0,0:0|0:0|0:0|0:0,0:0:0:0:
96,111,50022,2,0,L|215:116,1,116.000003540039,6|0,0:0|0:0,0:0:0:0:
318,37,50407,5,8,0:3:0:0:
318,37,50503,1,8,0:3:0:0:
318,37,50599,1,4,0:3:0:0:
318,37,50695,1,4,0:3:0:0:
318,37,50791,2,0,L|308:127,1,80,4|2,0:0|0:0,0:0:0:0:
437,311,51368,5,2,0:0:0:0:
437,311,51561,2,0,L|431:222,1,80,0|2,0:0|0:0,0:0:0:0:
342,293,51945,2,2,L|350:385,1,80
473,52,52522,5,2,0:0:0:0:
473,52,52714,2,2,L|374:40,1,80
421,137,53099,2,2,L|501:147,1,80
305,30,53676,5,2,0:0:0:0:
293,32,54061,1,2,0:0:0:0:
282,33,54445,1,2,0:0:0:0:
105,51,54830,5,2,0:0:0:0:
105,51,55022,2,2,P|75:107|76:142,1,80
227,340,55599,5,2,0:0:0:0:
227,340,55791,2,2,P|242:290|244:258,1,80
97,329,56176,2,2,P|138:297|158:272,1,80
25,251,56561,5,4,3:0:0:0:
25,251,56657,1,0,3:0:0:0:
25,251,56753,1,0,3:0:0:0:
25,251,56849,1,0,3:0:0:0:
25,251,56945,2,0,L|9:153,1,80,4|0,0:0|0:0,0:0:0:0:
66,23,57330,2,0,L|82:121,1,80,4|0,0:0|0:0,0:0:0:0:
185,180,57714,2,0,L|87:196,1,80,4|0,0:0|0:0,0:0:0:0:
170,36,58099,5,2,0:0:0:0:
170,36,58291,1,2,0:0:0:0:
170,36,58484,2,0,P|223:36|250:57,1,80,4|0,0:0|0:0,0:0:0:0:
321,5,58868,2,0,P|337:55|325:87,1,80,4|2,0:0|0:0,0:0:0:0:
403,139,59253,2,0,P|360:170|325:169,1,80,4|2,0:0|0:0,0:0:0:0:
251,235,59637,1,2,0:0:0:0:
234,131,59830,1,2,0:0:0:0:
237,244,60022,6,0,P|184:244|157:265,1,80,4|0,0:0|0:0,0:0:0:0:
90,168,60406,2,0,P|74:218|86:250,1,80,2|0,0:0|0:0,0:0:0:0:
0,299,60791,2,0,P|43:330|78:329,1,80,2|0,0:0|0:0,0:0:0:0:
160,359,61176,1,2,3:0:0:0:
250,317,61368,1,2,0:0:0:0:
335,358,61561,6,0,L|427:344,1,80,0|0,3:0|3:0,0:0:0:0:
472,280,61945,1,0,3:0:0:0:
411,217,62137,2,0,L|416:170,9,40,0|0|0|0|0|0|0|0|0|0,3:0|3:0|3:0|3:0|3:0|3:0|3:0|3:0|3:0|3:0,3:0:0:0:
418,144,63099,6,0,P|355:138|302:104,1,97.5999959790041,4|0,1:2|0:0,0:0:0:0:
240,71,63484,2,0,L|250:186,1,97.5999959790041,0|0,1:0|0:0,0:0:0:0:
246,192,63772,1,0,1:0:0:0:
244,216,63868,6,0,P|114:221|97:168,1,195.199991958008,0|0,0:0|1:0,0:0:0:0:
98,182,64637,6,0,L|-21:202,1,97.5999959790041,4|0,0:3|0:0,0:0:0:0:
9,32,65022,1,2,1:2:0:0:
85,99,65214,1,0,0:0:0:0:
85,99,65311,1,0,1:0:0:0:
85,99,65407,6,0,L|239:114,1,146.399993968506,2|0,0:0|2:0,0:0:0:0:
248,100,65791,2,0,L|241:255,1,146.399993968506,0|0,1:0|2:0,0:0:0:0:
241,246,66176,6,0,P|294:249|334:277,1,97.5999959790041,2|0,0:0|2:0,0:0:0:0:
360,165,66561,2,0,P|398:212|407:260,1,97.5999959790041,0|0,1:0|0:0,1:0:0:0:
477,296,66849,1,0,1:0:0:0:
477,296,66945,6,0,L|253:340,1,195.199991958008,0|0,0:0|1:0,0:0:0:0:
285,333,67714,6,0,L|272:227,1,97.5999959790041,4|0,0:3|0:0,0:0:0:0:
195,371,68099,1,0,1:0:0:0:
122,252,68291,1,0,0:0:0:0:
122,252,68387,1,0,1:0:0:0:
122,252,68484,6,0,L|111:374,1,97.5999959790041,4|0,0:3|0:0,0:0:0:0:
48,162,68868,2,0,L|-7:153,3,48.799997989502,0|0|0|0,1:0|1:0|1:0|1:0,1:0:0:0:
78,154,69253,6,0,P|121:98|107:16,1,146.399993968506,4|0,0:0|2:0,0:0:0:0:
113,26,69637,2,0,L|211:12,1,97.5999959790041,0|0,1:0|0:0,0:0:0:0:
231,22,69926,1,0,1:0:0:0:
252,37,70022,6,0,P|292:123|266:215,1,195.199991958008,0|0,0:0|1:0,0:0:0:0:
266,215,70791,6,0,P|339:231|388:208,1,97.5999959790041,4|0,0:3|2:0,0:0:0:0:
397,138,71176,1,0,1:0:0:0:
495,151,71368,1,0,0:0:0:0:
495,151,71464,1,0,1:0:0:0:
495,151,71561,2,0,L|480:313,1,146.399993968506
488,313,71945,2,0,L|372:299,1,97.5999959790041,0|0,1:0|0:0,0:0:0:0:
266,215,72330,6,0,L|282:380,1,146.399993968506,4|0,0:0|0:0,0:0:0:0:
259,345,72714,2,0,P|214:318|154:329,1,97.5999959790041,4|0,1:0|0:0,0:0:0:0:
156,241,73003,1,4,1:0:0:0:
149,233,73099,2,0,P|73:271|47:392,1,195.199991958008,0|4,0:0|1:0,0:0:0:0:
61,0,73868,6,0,L|51:101,1,97.5999959790041,4|0,0:0|3:0,0:0:0:0:
133,146,74253,1,0,3:0:0:0:
219,103,74445,1,0,3:0:0:0:
219,103,74541,1,0,3:0:0:0:
219,103,74637,2,0,L|284:118,3,48.799997989502,0|0|0|0,1:0|1:0|1:0|1:0,1:0:0:0:
279,34,75022,2,0,L|344:49,3,48.799997989502,0|0|0|0,1:0|1:0|1:0|1:0,1:0:0:0:
371,114,75407,6,0,P|409:54|375:-14,1,116.000003540039,12|2,0:1|0:0,0:0:0:0:
437,165,75791,2,0,P|458:179|475:229,3,58.0000017700196,8|0|10|0,0:0|0:0|0:0|0:0,0:0:0:0:
401,237,76176,5,8,0:0:0:0:
496,303,76368,1,6,0:0:0:0:
331,304,76561,5,6,0:0:0:0:
411,337,76753,1,0,0:0:0:0:
274,369,76945,6,0,L|129:384,1,116.000003540039,8|2,0:0|0:0,0:0:0:0:
83,308,77330,2,0,L|14:315,3,58.0000017700196,8|0|2|0,0:0|0:0|0:0|0:0,0:0:0:0:
7,286,77714,5,8,0:0:0:0:
0,168,77907,1,6,0:0:0:0:
113,190,78099,5,6,0:0:0:0:
71,106,78291,1,0,0:0:0:0:
161,113,78484,6,0,L|32:28,1,116.000003540039,12|2,0:0|0:0,0:0:0:0:
235,44,78868,2,0,L|304:11,3,58.0000017700196,8|0|2|0,0:0|0:0|0:0|0:0,0:0:0:0:
248,80,79253,5,8,0:0:0:0:
239,181,79445,1,6,0:0:0:0:
331,115,79637,5,6,0:0:0:0:
345,230,79830,1,0,0:0:0:0:
423,142,80022,6,0,L|476:257,1,116.000003540039,12|2,0:0|0:0,0:0:0:0:
333,340,80407,2,0,L|399:350,3,58.0000017700196,8|0|2|0,0:0|0:0|0:0|0:0,0:0:0:0:
423,352,80791,6,0,L|471:246,1,116.000003540039,12|4,0:0|0:0,0:0:0:0:
354,108,81176,1,4,0:0:0:0:
336,109,81272,1,0,0:0:0:0:
318,110,81368,1,4,0:0:0:0:
300,112,81464,1,0,0:0:0:0:
282,113,81561,6,0,P|241:55|243:-4,1,116.000003540039,4|2,0:2|0:0,0:0:0:0:
110,74,81945,2,0,P|139:98|165:107,3,58.0000017700196,8|0|2|0,0:0|0:0|0:0|0:0,0:0:0:0:
182,127,82330,5,8,0:0:0:0:
62,167,82522,1,6,0:0:0:0:
218,232,82714,5,2,0:0:0:0:
130,224,82907,1,4,0:0:0:0:
213,344,83099,6,0,L|82:299,1,116.000003540039,8|2,0:0|0:0,0:0:0:0:
218,232,83484,2,0,L|287:217,3,58.0000017700196,8|0|2|0,0:0|0:0|0:0|0:0,0:0:0:0:
301,236,83868,5,12,0:0:0:0:
340,339,84061,1,2,0:0:0:0:
390,252,84253,5,6,0:0:0:0:
461,305,84445,1,0,0:0:0:0:
474,217,84637,6,0,L|461:78,1,116.000003540039,12|2,0:0|0:0,0:0:0:0:
291,34,85022,2,0,L|361:52,3,58.0000017700196,8|0|2|0,0:0|0:0|0:0|0:0,0:0:0:0:
368,70,85407,5,8,0:0:0:0:
357,172,85599,1,6,0:0:0:0:
264,121,85791,5,2,0:0:0:0:
278,240,85984,1,4,0:0:0:0:
171,193,86176,6,0,L|202:347,1,116.000003540039,12|2,0:0|0:0,0:0:0:0:
30,373,86561,2,0,L|90:358,3,58.0000017700196,4|0|2|0,0:2|0:0|0:0|0:0,0:0:0:0:
107,362,86945,6,0,L|84:248,1,116.000003540039,8|8,0:3|0:3,0:0:0:0:
55,67,87330,5,4,0:3:0:0:
55,67,87426,1,4,0:3:0:0:
55,67,87522,1,4,0:3:0:0:
55,67,87618,1,0,0:0:0:0:
55,67,87714,2,0,P|136:97|193:37,1,174.000005310059,4|0,0:2|2:0,0:0:0:0:
212,48,88099,2,0,P|267:71|273:154,1,116.000003540039,8|2,0:0|0:0,0:0:0:0:
278,155,88387,5,0,0:0:0:0:
300,186,88484,2,0,L|432:172,1,116.000003540039,8|2,0:0|0:0,0:0:0:0:
362,263,88868,2,0,P|339:325|337:406,1,116.000003540039,2|0,0:0|0:0,0:0:0:0:
258,276,89253,6,0,P|170:277|133:361,1,174.000005310059,4|0,0:0|2:0,0:0:0:0:
120,353,89637,2,0,P|56:355|28:278,1,116.000003540039,8|2,0:0|0:0,0:0:0:0:
45,279,89926,5,0,0:0:0:0:
21,243,90022,2,0,L|10:110,1,116.000003540039,8|2,0:0|0:0,0:0:0:0:
119,69,90407,2,0,P|50:32|-18:68,1,116.000003540039,2|0,0:0|0:0,0:0:0:0:
116,186,90791,6,0,L|309:157,1,174.000005310059,4|0,0:3|2:0,0:0:0:0:
299,174,91176,2,0,P|278:230|288:318,1,116.000003540039,8|2,0:0|0:0,0:0:0:0:
312,288,91464,5,0,0:0:0:0:
333,318,91561,2,0,L|477:333,1,116.000003540039,8|2,0:0|0:0,0:0:0:0:
480,223,91945,2,0,P|464:140|426:94,1,116.000003540039,2|0,0:0|0:0,0:0:0:0:
346,27,92330,6,0,L|155:46,1,174.000005310059,4|0,0:0|2:0,0:0:0:0:
160,64,92714,2,0,P|189:116|186:193,1,116.000003540039,8|2,0:0|0:0,0:0:0:0:
153,194,93003,5,0,0:0:0:0:
117,175,93099,2,0,P|93:240|108:336,1,116.000003540039,8|2,0:0|0:0,0:0:0:0:
197,345,93484,2,0,L|279:333,3,58.0000017700196,0|0|0|0,3:3|3:3|3:3|3:3,3:3:0:0:
289,347,93868,6,0,P|276:264|324:219,1,116.000003540039,4|2,0:2|0:0,0:0:0:0:
439,259,94253,2,0,L|504:268,3,58.0000017700196,8|0|2|0,0:0|0:0|0:0|0:0,0:0:0:0:
415,276,94637,5,8,0:0:0:0:
437,173,94830,1,6,0:0:0:0:
340,188,95022,5,6,0:0:0:0:
331,89,95214,1,0,0:0:0:0:
235,156,95407,6,0,P|165:163|115:197,1,116.000003540039,12|2,0:0|0:0,0:0:0:0:
62,77,95791,2,0,P|41:31|37:4,3,58.0000017700196,8|0|2|0,0:0|0:0|0:0|0:0,0:0:0:0:
81,101,96176,5,12,0:0:0:0:
24,205,96368,1,2,0:0:0:0:
126,185,96561,5,6,0:0:0:0:
125,297,96753,1,0,0:0:0:0:
215,236,96945,6,0,P|274:256|333:251,1,116.000003540039,12|2,0:0|0:0,0:0:0:0:
448,156,97330,2,0,L|437:229,3,58.0000017700196,8|0|2|0,0:0|0:0|0:0|0:0,0:0:0:0:
477,137,97714,5,8,0:0:0:0:
458,52,97907,1,6,0:0:0:0:
366,140,98099,5,2,0:0:0:0:
360,25,98291,1,4,0:0:0:0:
252,131,98484,6,0,L|269:1,1,116.000003540039,8|0,0:0|0:0,0:0:0:0:
171,75,98868,2,0,L|159:147,3,58.0000017700196,4|0|0|0,0:2|0:0|0:0|0:0,0:0:0:0:
173,214,99253,6,8,P|109:193|101:180,3,58.0000017700196,8|8|8|8,0:3|0:3|0:3|0:3,0:3:0:0:
80,130,99637,2,4,P|16:150|8:163,3,58.0000017700196,4|4|4|4,0:3|0:3|0:3|0:3,0:3:0:0:
2,223,100022,5,4,1:0:0:0:
19,310,100214,1,2,0:0:0:0:
102,341,100407,2,0,L|169:331,3,58.0000017700196,8|0|2|0,0:0|0:0|0:0|0:0,0:0:0:0:
188,343,100791,6,0,L|201:216,1,116.000003540039,8|6,0:0|0:0,0:0:0:0:
388,244,101176,2,0,L|268:300,1,116.000003540039,2|4,0:0|0:0,0:0:0:0:
211,122,101561,5,8,0:0:0:0:
301,188,101753,1,2,0:0:0:0:
397,132,101945,2,0,L|389:66,3,58.0000017700196,8|0|2|0,0:0|0:0|0:0|0:0,0:0:0:0:
407,45,102330,6,0,P|480:36|516:78,1,116.000003540039,12|2,0:0|0:0,0:0:0:0:
436,200,102714,2,0,P|363:209|327:167,1,116.000003540039,12|2,0:0|0:0,0:0:0:0:
297,109,103003,5,0,0:0:0:0:
297,109,103099,2,0,P|214:116|190:170,1,116.000003540039,4|2,0:2|0:0,0:0:0:0:
139,239,103484,2,0,P|106:237|71:209,3,58.0000017700196,8|0|2|0,0:0|0:0|0:0|0:0,0:0:0:0:
51,184,103868,6,0,L|61:331,1,116.000003540039,8|6,0:0|0:0,0:0:0:0:
146,354,104253,2,0,L|136:207,1,116.000003540039,2|4,0:0|0:0,0:0:0:0:
197,137,104637,5,8,0:0:0:0:
298,197,104830,1,2,0:0:0:0:
230,264,105022,2,0,L|225:339,3,58.0000017700196,8|0|2|0,0:0|0:0|0:0|0:0,0:0:0:0:
253,345,105407,5,12,0:0:0:0:
363,313,105599,1,2,0:0:0:0:
477,352,105791,2,0,L|463:282,3,58.0000017700196,4|0|0|0,3:1|3:0|3:0|3:0,3:0:0:0:
479,271,106176,5,4,0:2:0:0:
394,213,106368,1,2,0:0:0:0:
426,117,106561,2,0,L|411:57,3,58.0000017700196,8|0|2|0,0:0|0:0|0:0|0:0,0:0:0:0:
430,43,106945,6,0,L|293:25,1,116.000003540039,8|6,0:0|0:0,0:0:0:0:
210,108,107330,2,0,L|330:125,1,116.000003540039,2|4,0:0|0:0,0:0:0:0:
220,212,107714,5,8,0:0:0:0:
237,314,107907,1,2,0:0:0:0:
143,325,108099,2,0,L|73:331,3,58.0000017700196,8|0|2|0,0:0|0:0|0:0|0:0,0:0:0:0:
62,343,108484,6,0,P|32:275|61:214,1,116.000003540039,12|2,0:0|0:0,0:0:0:0:
99,84,108868,2,0,P|129:152|100:213,1,116.000003540039,12|2,0:0|0:0,0:0:0:0:
150,216,109157,5,0,0:0:0:0:
180,242,109253,2,0,L|332:265,1,116.000003540039,4|2,0:0|0:0,0:0:0:0:
378,117,109637,2,0,L|368:188,3,58.0000017700196,8|0|2|0,0:0|0:0|0:0|0:0,0:0:0:0:
400,194,110022,6,0,P|463:163|525:178,1,116.000003540039,8|6,0:0|0:0,0:0:0:0:
401,284,110407,2,0,P|343:287|294:258,1,116.000003540039,2|4,0:0|0:0,0:0:0:0:
275,102,110791,5,6,0:0:0:0:
242,185,110984,1,8,0:0:0:0:
250,90,111176,2,0,L|241:29,3,58.0000017700196,2|0|8|0,0:0|0:0|0:0|0:0,0:0:0:0:
170,126,111561,2,8,L|159:52,3,58.0000017700196,8|8|8|8,3:0|3:0|3:0|3:0,3:0:0:0:
84,119,111945,2,4,L|73:45,3,58.0000017700196,4|4|4|4,0:3|0:3|0:3|0:3,0:3:0:0:
20,172,112330,5,14,0:0:0:0:
40,288,112522,1,0,2:0:0:0:
122,210,112714,2,0,L|179:216,3,58.0000017700196,10|0|0|0,1:0|2:0|2:0|2:0,2:0:0:0:
209,248,113099,5,10,0:0:0:0:
235,148,113291,1,0,2:0:0:0:
334,159,113484,2,0,L|311:25,1,116.000003540039,10|0,0:0|2:0,0:0:0:0:
409,7,113868,5,10,0:0:0:0:
493,53,114061,1,0,2:0:0:0:
448,140,114253,2,0,L|459:229,3,58.0000017700196,10|0|0|0,1:0|2:0|2:0|2:0,2:0:0:0:
499,224,114637,5,10,0:0:0:0:
464,321,114830,1,0,2:0:0:0:
366,284,115022,2,0,L|356:213,3,58.0000017700196,10|0|0|0,0:0|0:0|0:0|0:0,0:0:0:0:
334,209,115407,5,14,0:0:0:0:
261,147,115599,1,0,2:0:0:0:
197,230,115791,2,0,L|132:216,3,58.0000017700196,10|0|0|0,1:0|2:0|2:0|2:0,2:0:0:0:
103,243,116176,5,10,0:0:0:0:
150,130,116368,1,0,2:0:0:0:
37,143,116561,2,0,L|29:12,1,116.000003540039,10|0,0:0|2:0,0:0:0:0:
145,33,116945,5,10,0:0:0:0:
150,130,117137,1,0,2:0:0:0:
260,157,117330,2,0,L|248:89,3,58.0000017700196,10|0|0|0,1:0|2:0|2:0|2:0,2:0:0:0:
277,85,117714,5,10,0:0:0:0:
364,63,117907,1,0,2:0:0:0:
403,145,118099,2,0,L|397:268,1,116.000003540039,10|0,0:0|0:0,0:0:0:0:
398,261,118387,1,0,0:0:0:0:
398,261,118484,1,14,0:0:0:0:
496,280,118676,1,0,2:2:0:0:
510,174,118868,5,10,0:0:0:0:
510,174,118964,1,0,0:0:0:0:
510,174,119061,1,0,0:0:0:0:
423,59,119253,5,10,0:0:0:0:
403,145,119445,1,0,2:2:0:0:
306,102,119637,2,0,L|329:236,1,116.000003540039,10|0,0:0|2:0,0:0:0:0:
260,281,120022,5,10,0:0:0:0:
208,206,120214,1,0,2:0:0:0:
137,264,120407,1,10,0:0:0:0:
137,264,120503,1,0,0:0:0:0:
137,264,120599,1,0,0:0:0:0:
36,227,120791,5,10,0:0:0:0:
108,153,120984,1,0,2:0:0:0:
87,60,121176,2,0,L|167:38,3,58.0000017700196,10|0|0|0,0:0|0:0|0:0|0:0,0:0:0:0:
171,34,121561,5,14,0:0:0:0:
205,134,121753,1,0,2:0:0:0:
281,54,121945,1,14,0:0:0:0:
281,54,122041,1,0,0:0:0:0:
281,54,122137,1,0,0:0:0:0:
321,160,122330,5,14,0:0:0:0:
416,145,122522,1,0,0:0:0:0:
512,131,122714,2,0,L|501:201,3,58.0000017700196,14|0|0|0,3:1|1:0|1:0|1:0,1:0:0:0:
512,223,123099,6,0,P|460:265|350:237,1,174.000005310059,2|0,0:0|0:0,0:0:0:0:
319,241,123484,2,0,L|301:356,1,116.000003540039,8|2,0:0|0:0,0:0:0:0:
259,359,123772,5,8,0:0:0:0:
223,342,123868,2,8,L|149:353,3,58.0000017700196,2|8|8|8,0:1|0:3|0:3|0:3,0:3:0:0:
110,283,124253,2,4,L|52:275,3,58.0000017700196,4|4|4|4,0:3|0:3|0:3|0:3,0:3:0:0:
0,344,124637,5,4,0:2:0:0:
