osu file format v14

[General]
AudioFilename: audio.mp3
AudioLeadIn: 0
PreviewTime: 25984
Countdown: 0
SampleSet: Soft
StackLeniency: 0.7
Mode: 0
LetterboxInBreaks: 0
WidescreenStoryboard: 0

[Editor]
Bookmarks: 13868,26176,38484,50791,63099,75407,99061,100022,107907,126176
DistanceSpacing: 0.1
BeatDivisor: 4
GridSize: 4
TimelineZoom: 1.8

[Metadata]
Title:Tokyo's Starlight
TitleUnicode:Tokyo's Starlight
Artist:HyuN
ArtistUnicode:HyuN
Creator:Pho
Version:Collab Extra
Source:
Tags:Mirash PandaHero schoolboy komore Zetera osu! mappers guild featured artist
BeatmapID:1864175
BeatmapSetID:891712

[Difficulty]
HPDrainRate:4.5
CircleSize:3
OverallDifficulty:8.5
ApproachRate:9.7
SliderMultiplier:2.4
SliderTickRate:1

[Events]
//Background and Video events
0,0,"placeholder.jpg",0,0
//Break Periods
//Storyboard Layer 0 (Background)
//Storyboard Layer 1 (Fail)
//Storyboard Layer 2 (Pass)
//Storyboard Layer 3 (Foreground)
//Storyboard Sound Samples

[TimingPoints]
1561,384.615384615385,4,2,1,30,1,0
1561,-133.333333333333,4,2,1,30,0,0
25791,-133.333333333333,4,2,1,40,0,0
25984,-133.333333333333,4,2,1,50,0,0
26176,-55.5555555555556,4,2,1,60,0,0
50791,-100,4,2,1,60,0,0
50984,-100,4,2,1,50,0,0
56945,-71.4285714285714,4,2,1,60,0,0
57137,-100,4,2,1,50,0,0
62330,-100,4,2,1,55,0,0
63099,-100,4,2,1,60,0,0
75407,-55.5555555555556,4,2,1,70,0,0
111561,-55.5555555555556,4,2,1,50,0,0
111945,-55.5555555555556,4,2,1,60,0,0
112330,-55.5555555555556,4,2,1,70,0,0
122330,-55.5555555555556,4,2,1,50,0,0
122714,-55.5555555555556,4,2,1,60,0,0
123099,-55.5555555555556,4,2,1,70,0,0
124637,-133.333333333333,4,2,1,70,0,0
125311,-133.333333333333,4,2,1,5,0,0
125407,-133.333333333333,4,2,1,40,0,0

[Colours]
Combo1 : 33,237,104
Combo2 : 32,160,238

[HitObjects]
371,226,1561,6,0,P|273:187|264:176,1,90.0000034332277,10|0,0:0|0:0,0:0:0:0:
177,50,1945,1,0,0:0:0:0:
177,50,2137,2,0,B|204:73|204:73|227:145|184:243,1,180.000006866455
32,350,2714,2,0,B|20:338|20:338|21:283|61:233,1,90.0000034332277,2|0,0:0|0:0,0:0:0:0:
99,127,3099,5,10,0:0:0:0:
106,151,3291,1,0,0:0:0:0:
87,149,3484,1,2,0:0:0:0:
329,45,3868,5,2,0:0:0:0:
351,54,4061,1,0,0:0:0:0:
349,27,4253,1,2,0:0:0:0:
238,71,4445,1,0,0:0:0:0:
320,166,4637,6,0,P|364:163|407:177,1,90.0000034332277,10|0,0:0|0:0,0:0:0:0:
386,330,5022,1,0,0:0:0:0:
485,281,5214,2,0,B|514:234|506:146|506:146|468:106,1,180.000006866455
383,66,5791,1,2,0:0:0:0:
353,250,5984,1,0,0:0:0:0:
189,132,6176,6,0,P|139:118|101:82,2,90.0000034332277,10|0|0,0:0|0:0|0:0,0:0:0:0:
257,208,6753,1,0,0:0:0:0:
310,114,6945,2,0,P|360:106|407:95,1,90.0000034332277
278,215,7330,2,0,P|271:257|263:309,1,90.0000034332277,2|0,0:0|0:0,0:0:0:0:
97,374,7714,6,0,P|87:323|73:263,1,90.0000034332277,10|0,0:0|0:0,0:0:0:0:
19,173,8099,1,0,0:0:0:0:
19,173,8291,2,0,B|-2:127|-2:127|75:111|122:160,1,180.000006866455
202,21,8868,2,0,P|227:79|213:128,1,90.0000034332277,2|0,0:0|0:0,0:0:0:0:
180,296,9253,5,10,0:0:0:0:
161,275,9445,1,0,0:0:0:0:
168,249,9637,1,2,0:0:0:0:
333,45,10022,1,10,0:0:0:0:
356,83,10214,1,0,0:0:0:0:
347,122,10407,2,0,P|286:152|248:150,1,90.0000034332277,2|0,0:0|0:0,0:0:0:0:
121,126,10791,5,10,0:0:0:0:
251,63,10984,1,0,0:0:0:0:
95,116,11176,1,0,0:0:0:0:
251,260,11368,1,0,0:0:0:0:
251,260,11753,1,0,0:0:0:0:
106,258,11945,1,0,0:0:0:0:
256,288,12137,1,0,0:0:0:0:
362,145,12330,6,0,B|419:139|419:139|461:153,1,90.0000034332277,10|0,0:0|0:0,0:0:0:0:
390,308,12714,2,0,P|353:273|339:231,1,90.0000034332277,0|2,0:0|0:0,0:0:0:0:
262,80,13099,1,8,0:0:0:0:
253,109,13291,1,2,0:0:0:0:
436,44,13484,1,0,0:0:0:0:
421,14,13676,1,0,0:0:0:0:
339,237,13868,6,0,P|318:274|317:340,1,90.0000034332277,10|0,0:0|0:0,0:0:0:0:
418,306,14253,1,0,0:0:0:0:
216,225,14445,2,0,P|126:245|32:263,1,180.000006866455
65,132,15022,1,2,0:0:0:0:
192,100,15214,1,0,0:0:0:0:
271,319,15407,5,10,0:0:0:0:
265,349,15599,1,0,0:0:0:0:
259,379,15791,1,2,0:0:0:0:
448,155,16176,5,2,0:0:0:0:
454,185,16368,1,0,0:0:0:0:
460,215,16560,1,2,0:0:0:0:
332,145,16753,1,0,0:0:0:0:
498,44,16945,6,0,P|450:53|405:29,1,90.0000034332277,10|0,0:0|0:0,0:0:0:0:
249,227,17330,1,0,0:0:0:0:
153,171,17522,2,0,P|241:158|331:145,1,180.000006866455
442,243,18099,1,2,0:0:0:0:
331,350,18291,1,0,0:0:0:0:
119,277,18484,5,10,0:0:0:0:
101,302,18676,1,0,0:0:0:0:
73,314,18868,1,0,0:0:0:0:
388,190,19253,5,2,0:0:0:0:
424,217,19445,1,0,0:3:0:0:
443,270,19637,1,0,0:3:0:0:
271,148,19830,1,2,0:0:0:0:
385,66,20022,6,0,P|458:44|498:37,1,90.0000034332277,10|0,0:0|0:0,0:0:0:0:
271,148,20407,1,0,0:0:0:0:
512,273,20599,2,0,P|424:268|356:325,1,180.000006866455
252,234,21176,2,0,P|256:190|270:147,1,90.0000034332277,2|0,0:0|0:0,0:0:0:0:
68,55,21561,5,10,0:0:0:0:
92,136,21753,1,0,0:0:0:0:
225,323,21945,5,2,0:0:0:0:
252,234,22137,1,0,0:0:0:0:
36,264,22330,5,10,0:0:0:0:
56,362,22522,1,0,0:0:0:0:
280,135,22714,5,2,0:0:0:0:
254,28,22906,1,0,0:0:0:0:
481,119,23099,6,0,P|457:158|449:202,1,90.0000034332277,10|0,0:0|0:0,0:0:0:0:
512,376,23484,1,0,0:0:0:0:
412,315,23676,2,0,B|373:297|373:297|290:312|263:374,1,180.000006866455
166,304,24253,1,0,0:0:0:0:
244,196,24445,1,0,0:0:0:0:
106,46,24637,6,0,P|116:91|121:135,1,90.0000034332277,2|0,0:3|0:0,0:0:0:0:
375,349,25022,2,0,P|379:304|389:260,1,90.0000034332277,2|0,0:3|0:0,0:0:0:0:
496,63,25407,5,0,3:0:0:0:
254,330,25599,2,0,L|185:319,1,45.0000017166138
105,377,25791,5,8,0:1:0:0:
79,344,25887,5,8,0:1:0:0:
104,302,25984,5,8,0:1:0:0:
67,255,26080,5,8,0:1:0:0:
110,195,26176,6,0,P|151:149|311:107,1,215.999993408203,6|0,3:1|0:0,0:0:0:0:
294,104,26464,1,0,0:0:0:0:
294,104,26561,2,0,P|262:167|264:236,1,107.999996704102,8|0,0:1|0:0,0:0:0:0:
480,344,26753,2,0,P|483:296|455:228,1,107.999996704102,0|8,3:0|0:1,0:0:0:0:
434,98,26945,1,0,0:0:0:0:
74,267,27137,1,0,3:0:0:0:
360,368,27330,1,10,0:1:0:0:
79,136,27522,1,0,3:0:0:0:
409,12,27714,6,0,B|368:43|368:43|338:126|374:215,1,215.999993408203,0|0,3:0|0:0,0:0:0:0:
370,205,28003,1,0,0:0:0:0:
370,205,28099,2,0,P|425:199|492:139,1,107.999996704102,8|0,0:1|0:0,0:0:0:0:
259,73,28291,2,0,P|220:37|119:21,1,107.999996704102,0|8,3:0|0:1,0:0:0:0:
38,117,28484,1,2,0:0:0:0:
297,294,28676,1,0,3:0:0:0:
80,333,28868,2,0,P|64:273|80:207,1,107.999996704102,10|0,0:1|0:0,0:0:0:0:
165,56,29061,2,0,P|177:124|165:182,1,107.999996704102,0|0,3:0|3:0,0:0:0:0:
280,219,29253,6,0,P|369:212|479:289,1,215.999993408203,0|0,3:0|0:0,0:0:0:0:
472,278,29541,1,0,0:0:0:0:
472,278,29637,2,0,P|406:268|348:297,1,107.999996704102,8|0,0:1|0:0,0:0:0:0:
90,338,29830,2,0,P|138:361|191:369,1,107.999996704102,0|8,3:0|0:1,0:0:0:0:
331,125,30022,1,2,0:0:0:0:
15,191,30214,1,0,3:0:0:0:
337,28,30407,1,10,0:1:0:0:
282,330,30599,1,0,0:0:0:0:
68,17,30791,6,0,B|43:74|43:74|108:251,1,215.999993408203,0|0,3:0|0:0,0:0:0:0:
96,218,31080,1,0,0:0:0:0:
96,218,31176,2,0,P|194:206|231:228,1,107.999996704102,8|0,0:1|0:0,0:0:0:0:
385,194,31368,2,0,P|343:241|303:258,1,107.999996704102,0|8,3:0|0:1,0:0:0:0:
302,348,31561,2,0,P|247:222|272:89,1,215.999993408203,2|0,0:0|3:0,0:0:0:0:
502,0,31945,5,10,0:1:0:0:
427,65,32041,1,8,0:1:0:0:
361,22,32137,1,8,0:1:0:0:
308,59,32234,1,8,0:1:0:0:
231,26,32330,6,0,P|180:31|126:84,1,107.999996704102,6|0,3:2|0:0,0:0:0:0:
35,106,32522,2,0,P|29:155|64:213,1,107.999996704102
207,323,32714,1,8,0:1:0:0:
245,247,32811,1,0,0:0:0:0:
243,160,32907,1,0,3:0:0:0:
199,85,33003,1,8,0:1:0:0:
128,26,33099,5,2,0:0:0:0:
117,35,33291,1,0,3:0:0:0:
128,42,33484,1,10,0:1:0:0:
136,32,33676,1,0,3:0:0:0:
320,195,33868,6,0,P|372:220|471:201,1,107.999996704102,0|0,3:0|0:0,0:0:0:0:
504,49,34061,2,0,P|450:93|450:164,1,107.999996704102
503,307,34253,1,8,0:1:0:0:
439,362,34349,1,0,0:0:0:0:
352,358,34445,1,0,3:0:0:0:
284,304,34541,1,8,0:1:0:0:
199,322,34637,5,2,0:0:0:0:
185,326,34830,1,0,3:0:0:0:
187,340,35022,1,10,0:1:0:0:
202,335,35214,1,0,3:0:0:0:
0,263,35407,6,0,B|50:278|84:271|84:271|135:224,1,107.999996704102,0|0,3:0|0:0,0:0:0:0:
329,192,35599,2,0,B|289:209|250:194|250:194|224:169,1,107.999996704102
48,43,35791,1,8,0:1:0:0:
128,11,35887,1,0,0:0:0:0:
186,75,35984,1,0,3:0:0:0:
144,150,36080,1,8,0:1:0:0:
59,130,36176,5,2,0:0:0:0:
72,117,36368,1,0,3:0:0:0:
255,251,36561,5,10,0:1:0:0:
264,269,36753,1,0,3:0:0:0:
278,377,36945,6,0,P|217:356|175:314,1,107.999996704102,2|0,3:1|0:0,0:0:0:0:
53,114,37137,2,0,P|100:71|159:56,1,107.999996704102
424,64,37330,2,0,P|436:126|420:184,1,107.999996704102,12|0,0:0|0:0,0:0:0:0:
255,286,37522,5,0,3:0:0:0:
192,226,37618,1,8,0:3:0:0:
173,140,37714,1,8,0:3:0:0:
224,68,37811,1,8,0:3:0:0:
306,77,37907,1,4,0:3:0:0:
336,133,38003,1,4,0:3:0:0:
308,179,38099,1,4,0:3:0:0:
278,192,38195,1,4,0:3:0:0:
248,177,38291,1,0,0:0:0:0:
248,166,38387,1,0,0:0:0:0:
256,157,38484,6,0,P|240:263|224:370,1,215.999993408203,4|0,3:1|0:0,0:0:0:0:
320,329,38772,1,0,0:0:0:0:
410,369,38868,2,0,P|461:382|512:366,1,107.999996704102,10|0,0:1|0:0,0:0:0:0:
107,252,39061,2,0,P|55:238|4:254,1,107.999996704102,0|8,3:0|0:1,0:0:0:0:
376,64,39253,5,2,0:0:0:0:
224,369,39445,1,0,3:0:0:0:
66,104,39637,1,10,0:1:0:0:
419,233,39830,1,0,3:0:0:0:
4,352,40022,6,0,P|46:256|182:277,1,215.999993408203,0|0,3:0|0:0,0:0:0:0:
232,180,40311,1,0,0:0:0:0:
172,88,40407,2,0,P|118:97|65:103,1,107.999996704102,10|0,0:1|0:0,0:0:0:0:
372,316,40599,2,0,P|425:306|478:300,1,107.999996704102,0|10,3:0|0:1,0:0:0:0:
102,337,40791,5,0,0:0:0:0:
420,144,40984,1,0,3:0:0:0:
243,0,41176,6,0,B|268:25|268:25|285:60|262:136,1,107.999996704102,10|0,0:1|0:0,0:0:0:0:
146,248,41368,2,0,B|121:223|121:223|104:188|127:112,1,107.999996704102,0|0,3:0|3:0,0:0:0:0:
299,268,41561,6,0,B|404:245|398:334|501:317,1,215.999993408203,0|0,3:0|0:0,0:0:0:0:
473,213,41849,1,0,0:0:0:0:
331,376,41945,2,0,P|277:384|223:383,1,107.999996704102,10|0,0:1|0:0,0:0:0:0:
215,160,42137,2,0,P|268:151|322:152,1,107.999996704102,0|10,3:0|0:1,0:0:0:0:
278,265,42330,5,0,0:0:0:0:
148,46,42522,1,0,3:0:0:0:
430,117,42714,1,10,0:1:0:0:
116,280,42907,1,0,3:0:0:0:
495,363,43099,6,0,B|459:307|399:293|399:293|341:305|335:351,1,215.999993408203,0|0,3:0|0:0,0:0:0:0:
334,352,43484,2,0,P|343:274|359:203,1,107.999996704102,8|0,0:1|0:0,0:0:0:0:
174,24,43676,2,0,P|183:77|188:130,1,107.999996704102,0|10,3:0|0:1,0:0:0:0:
0,333,43868,2,0,P|56:251|186:265,1,215.999993408203,0|2,0:0|3:1,0:0:0:0:
488,68,44253,5,8,0:1:0:0:
442,93,44349,1,8,0:1:0:0:
361,50,44445,1,8,0:1:0:0:
272,97,44541,1,8,0:1:0:0:
179,43,44637,6,0,P|127:32|62:50,1,107.999996704102,4|0,3:2|0:0,0:0:0:0:
361,243,44830,2,0,P|413:254|478:236,1,107.999996704102
252,150,45022,1,10,0:1:0:0:
168,162,45118,1,0,0:0:0:0:
110,224,45214,1,0,3:0:0:0:
104,308,45310,1,10,0:1:0:0:
161,370,45407,5,0,0:0:0:0:
194,290,45599,1,0,3:0:0:0:
163,209,45791,1,10,0:1:0:0:
78,188,45984,1,0,3:0:0:0:
17,249,46176,6,0,P|25:300|34:377,1,107.999996704102,0|0,3:0|0:0,0:0:0:0:
278,125,46368,2,0,P|270:74|261:-3,1,107.999996704102
512,278,46561,1,10,0:1:0:0:
441,230,46657,1,0,0:0:0:0:
356,228,46753,1,0,3:0:0:0:
284,274,46849,1,10,0:1:0:0:
250,355,46945,6,0,B|216:316|216:316|121:295|66:370,1,215.999993408203,0|0,0:0|3:0,0:0:0:0:
0,123,47234,1,0,0:0:0:0:
78,188,47330,2,0,B|129:174|167:183|167:183|192:162|192:162|232:186|288:177,1,215.999993408203,10|0,0:1|3:0,0:0:0:0:
380,207,47618,1,0,3:0:0:0:
451,134,47714,6,0,P|460:63|447:5,1,107.999996704102,0|0,3:0|0:0,0:0:0:0:
296,274,47907,2,0,P|287:345|300:403,1,107.999996704102
10,163,48099,1,10,0:1:0:0:
91,132,48195,1,0,0:0:0:0:
122,213,48291,1,0,3:0:0:0:
40,244,48387,1,10,0:1:0:0:
178,139,48484,6,0,B|216:161|252:158|252:158|290:125,1,107.999996704102,0|0,0:0|3:0,0:0:0:0:
512,275,48676,2,0,B|489:255|489:255|453:252|415:274,1,107.999996704102,0|0,3:0|0:0,0:0:0:0:
180,372,48868,6,0,P|199:325|259:319,1,107.999996704102,10|0,0:1|0:0,0:0:0:0:
483,83,49061,2,0,P|464:130|404:136,1,107.999996704102,0|0,3:0|0:0,0:0:0:0:
199,0,49253,6,0,P|221:49|235:106,1,107.999996704102,2|0,3:1|0:0,0:0:0:0:
465,275,49445,2,0,P|411:269|355:253,1,107.999996704102
79,358,49637,2,0,P|110:314|152:273,1,107.999996704102,12|0,0:0|0:0,0:0:0:0:
249,209,49830,5,0,3:0:0:0:
238,209,49926,1,8,0:3:0:0:
222,193,50022,1,8,0:3:0:0:
219,160,50118,1,8,0:3:0:0:
246,126,50214,1,4,0:3:0:0:
299,137,50311,1,4,0:3:0:0:
327,194,50407,1,4,0:3:0:0:
293,261,50503,1,4,0:3:0:0:
331,338,50599,1,4,0:3:0:0:
425,360,50695,1,4,0:3:0:0:
496,291,50791,5,4,3:2:0:0:
496,291,50984,2,0,P|479:252|474:221,1,60,2|0,0:3|0:0,0:0:0:0:
504,131,51176,1,0,3:0:0:0:
364,192,51368,2,0,P|387:173|414:159,1,60,2|0,0:3|0:0,0:0:0:0:
512,139,51561,1,0,3:0:0:0:
373,38,51753,2,0,P|428:59|457:90,1,60,2|0,0:3|0:0,0:0:0:0:
504,148,51945,2,0,P|472:192|436:207,1,60,2|0,3:3|0:0,0:0:0:0:
349,193,52137,2,0,P|336:137|345:104,1,60,2|0,0:3|0:0,0:0:0:0:
254,31,52330,5,0,3:0:0:0:
162,193,52522,2,0,P|174:165|175:135,1,60,2|0,0:3|0:0,0:0:0:0:
133,42,52714,2,0,P|103:49|77:64,1,60,2|0,3:3|0:0,0:0:0:0:
9,146,52907,2,0,P|41:190|77:205,1,60,2|0,0:3|0:0,0:0:0:0:
160,231,53099,6,0,P|79:246|50:287,1,120,2|2,3:3|0:3,0:0:0:0:
105,346,53387,1,0,0:0:0:0:
112,360,53484,2,0,L|252:378,1,120,0|2,3:0|0:3,0:0:0:0:
340,351,53772,1,0,0:0:0:0:
366,355,53868,1,0,3:0:0:0:
463,102,54061,6,0,P|464:146|475:182,1,60,2|0,0:3|0:0,0:0:0:0:
509,245,54253,1,0,3:0:0:0:
349,107,54445,2,0,P|325:136|305:179,1,60,2|0,0:3|0:0,0:0:0:0:
283,245,54637,1,0,3:0:0:0:
271,35,54830,2,0,P|225:33|181:56,1,60,2|0,0:3|0:0,0:0:0:0:
126,17,55022,2,0,P|109:52|113:111,1,60,2|0,3:3|0:0,0:0:0:0:
42,133,55214,2,0,P|54:178|84:210,1,60,2|0,0:3|0:0,0:0:0:0:
111,262,55407,5,0,3:3:0:0:
358,185,55599,1,2,0:3:0:0:
363,191,55695,1,0,0:0:0:0:
368,186,55791,2,0,P|355:231|348:294,1,60,2|0,3:3|0:0,0:0:0:0:
223,137,55984,2,0,P|258:125|290:110,1,60,2|0,0:3|0:0,0:0:0:0:
247,282,56176,2,0,P|221:262|186:241,1,60,2|0,3:3|0:0,0:0:0:0:
294,98,56368,2,0,P|318:136|324:192,1,60,2|0,0:3|0:0,0:0:0:0:
369,333,56561,1,0,3:0:0:0:
377,345,56657,1,8,0:1:0:0:
386,358,56753,5,8,0:1:0:0:
421,283,56849,1,8,0:1:0:0:
502,261,56945,2,0,P|496:208|517:89,1,167.999994873047,4|2,3:2|0:3,0:0:0:0:
287,4,57330,6,0,P|265:39|207:71,1,60,0|0,3:0|0:0,0:0:0:0:
96,40,57522,2,0,P|136:53|181:88,1,60,2|0,0:3|0:0,0:0:0:0:
205,146,57714,1,0,3:0:0:0:
206,157,57906,2,0,P|179:170|150:178,1,60,2|0,0:3|0:0,0:0:0:0:
327,156,58099,2,0,P|310:187|268:221,1,60,2|0,3:0|0:0,0:0:0:0:
407,62,58291,2,0,P|421:113|406:172,1,60,2|0,0:3|0:0,0:0:0:0:
338,340,58484,6,0,B|322:306|322:306|282:273|198:292,1,120,0|2,3:0|0:3,0:0:0:0:
174,347,58772,1,0,0:0:0:0:
174,347,58868,2,0,L|101:380,1,60,2|0,3:3|0:0,0:0:0:0:
39,315,59061,2,0,P|37:284|52:255,1,60,2|0,0:3|0:0,0:0:0:0:
32,111,59253,2,0,P|48:173|88:201,1,60,2|0,3:3|0:0,0:0:0:0:
122,128,59445,2,0,P|150:157|180:174,1,60,2|0,0:3|0:0,0:0:0:0:
222,97,59637,2,0,P|260:112|292:111,1,60,0|0,3:3|0:0,0:0:0:0:
311,35,59830,2,0,P|358:25|396:-2,1,60,0|0,0:3|0:0,0:0:0:0:
509,154,60022,6,0,P|426:186|386:236,1,120,0|2,3:0|0:3,0:0:0:0:
378,302,60311,1,0,0:0:0:0:
378,302,60407,2,0,P|313:272|271:190,1,120,0|2,3:0|0:3,0:0:0:0:
215,147,60695,1,0,0:0:0:0:
215,147,60791,2,0,P|171:206|161:254,1,120,0|2,3:0|0:3,0:0:0:0:
102,346,61080,1,0,0:0:0:0:
12,258,61176,2,0,P|52:255|78:305,1,60,0|0,3:0|0:0,0:0:0:0:
166,260,61368,2,0,P|204:309|178:347,1,60
277,370,61561,5,0,0:0:0:0:
68,319,61753,1,8,0:1:0:0:
161,86,61945,1,8,0:1:0:0:
436,136,62137,1,8,0:1:0:0:
436,164,62234,1,8,0:1:0:0:
424,189,62330,5,8,0:1:0:0:
381,157,62426,1,8,0:1:0:0:
366,105,62522,1,8,0:1:0:0:
378,52,62618,1,8,0:1:0:0:
420,19,62714,5,8,0:1:0:0:
448,98,62811,1,8,0:1:0:0:
408,172,62907,1,8,0:1:0:0:
328,199,63003,1,8,0:1:0:0:
249,173,63099,6,0,L|86:145,1,120,4|0,3:2|0:0,0:0:0:0:
4,332,63484,2,0,P|58:328|110:279,1,120,10|8,0:1|0:1,0:0:0:0:
37,158,63772,1,0,0:0:0:0:
32,175,63868,2,0,L|23:247,1,60
205,306,64061,2,0,L|214:378,1,60
383,232,64253,1,8,0:1:0:0:
286,138,64445,2,0,P|291:108|297:74,1,60
491,265,64637,6,0,P|441:232|382:231,1,120,2|0,0:0|0:0,0:0:0:0:
106,357,65022,2,0,P|165:348|208:295,1,120,10|0,0:1|0:1,0:0:0:0:
201,208,65311,1,8,0:1:0:0:
120,163,65407,2,0,P|87:163|36:177,1,60
182,80,65599,2,0,P|158:56|112:30,1,60
330,79,65791,2,0,P|350:58|375:41,1,60,10|0,0:1|0:0,0:0:0:0:
391,163,65983,2,0,P|421:162|451:168,1,60
512,316,66176,6,0,P|453:328|396:347,1,120,2|0,0:0|0:0,0:0:0:0:
113,211,66561,2,0,P|171:203|224:229,1,120,8|0,0:1|0:0,0:0:0:0:
315,97,66849,1,8,0:1:0:0:
297,112,66945,2,0,L|308:177,1,60
170,370,67137,2,0,L|159:305,1,60
12,269,67330,6,0,P|-12:274|10:288,1,60,8|0,0:1|0:0,0:0:0:0:
297,112,67522,2,0,P|321:107|299:93,1,60
77,0,67714,6,0,P|87:59|98:119,1,120,2|0,0:1|0:0,0:0:0:0:
98,119,68099,1,8,0:1:0:0:
238,310,68291,1,0,0:0:0:0:
292,225,68387,2,0,P|309:176|311:150,1,60,8|0,0:1|0:0,0:0:0:0:
238,310,68580,1,0,0:0:0:0:
338,317,68676,2,0,P|379:307|407:293,1,60
205,41,68868,5,8,0:1:0:0:
127,47,68964,1,8,0:1:0:0:
83,111,69060,1,10,0:1:0:0:
105,185,69156,1,8,0:1:0:0:
174,238,69253,6,0,P|264:224|304:227,1,120,6|0,0:0|0:0,0:0:0:0:
500,22,69637,2,0,P|431:41|426:110,1,120,8|0,0:1|0:0,0:0:0:0:
478,161,69926,1,8,0:1:0:0:
417,247,70022,2,0,P|407:287|410:333,1,60
264,83,70214,2,0,P|274:43|271:-3,1,60
164,158,70407,2,0,P|124:169|86:194,1,60,8|0,0:1|0:0,0:0:0:0:
283,210,70599,2,0,P|312:238|353:259,1,60
109,316,70791,6,0,P|48:342|-9:316,1,120,2|0,0:1|0:0,0:0:0:0:
206,370,71080,1,0,0:0:0:0:
188,384,71176,2,0,P|198:325|211:254,1,120,10|0,0:1|0:0,0:0:0:0:
91,166,71464,1,8,0:1:0:0:
128,24,71561,2,0,L|143:121,1,60,2|0,0:0|0:0,0:0:0:0:
10,230,71753,2,0,P|0:171|-5:133,1,60
240,59,71945,2,0,P|290:90|353:82,1,120,10|0,0:1|0:0,0:0:0:0:
441,42,72234,1,0,0:0:0:0:
481,138,72330,6,0,P|458:225|442:313,1,180,2|0,0:0|0:0,0:0:0:0:
316,216,72714,2,0,L|326:281,1,60,8|0,0:1|0:0,0:0:0:0:
181,362,72907,2,0,L|192:303,1,60,0|8,0:0|0:1,0:0:0:0:
0,179,73099,1,0,0:0:0:0:
60,110,73195,1,0,0:0:0:0:
92,196,73291,2,0,P|96:226|99:271,1,60
259,67,73484,2,0,L|252:142,1,60,8|0,0:1|0:0,0:0:0:0:
441,313,73676,2,0,P|434:281|434:238,1,60
464,37,73868,5,2,0:0:0:0:
458,17,74061,1,8,0:1:0:0:
88,349,74253,5,8,0:1:0:0:
94,369,74445,1,8,0:1:0:0:
37,350,74541,1,8,0:1:0:0:
2,303,74637,1,8,0:1:0:0:
0,244,74733,1,8,0:1:0:0:
33,195,74829,1,8,0:1:0:0:
88,173,74925,1,8,0:1:0:0:
145,188,75021,5,8,0:1:0:0:
229,179,75118,1,8,0:1:0:0:
312,170,75214,1,8,0:1:0:0:
396,159,75311,1,8,0:1:0:0:
479,149,75407,6,0,P|364:147|256:111,1,215.999993408203,4|0,0:1|0:0,0:0:0:0:
202,31,75695,1,0,0:0:0:0:
202,31,75791,2,0,B|166:51|166:51|148:82|188:156,1,107.999996704102,8|0,0:1|0:0,0:0:0:0:
319,321,75984,2,0,B|350:310|350:310|373:266|356:195,1,107.999996704102,0|8,3:0|0:1,0:0:0:0:
317,40,76176,1,0,0:0:0:0:
178,264,76368,1,0,3:0:0:0:
194,252,76561,1,8,0:1:0:0:
193,278,76753,2,0,P|121:289|63:260,1,107.999996704102,0|0,3:0|0:0,0:0:0:0:
20,182,76945,6,0,B|-23:89|70:34|70:34|82:73,1,215.999993408203,0|0,3:0|0:0,0:0:0:0:
144,166,77234,1,0,0:0:0:0:
144,166,77330,2,0,P|210:168|276:152,1,107.999996704102,8|0,0:1|0:0,0:0:0:0:
484,283,77522,2,0,P|419:278|339:246,1,107.999996704102,0|8,3:0|0:1,0:0:0:0:
274,335,77714,1,0,0:0:0:0:
264,318,77907,1,0,3:0:0:0:
349,19,78099,1,8,0:1:0:0:
352,34,78291,1,0,3:0:0:0:
456,153,78484,6,0,B|403:213|340:214|340:214|238:152,1,215.999993408203,0|0,3:0|0:0,0:0:0:0:
251,50,78772,1,0,0:0:0:0:
251,50,78868,2,0,P|221:90|137:100,1,107.999996704102,8|0,0:1|0:0,0:0:0:0:
64,268,79061,2,0,B|97:238|97:238|77:126,1,107.999996704102,0|8,3:0|0:1,0:0:0:0:
29,36,79253,1,0,0:0:0:0:
50,46,79445,1,0,3:0:0:0:
242,302,79637,1,8,0:1:0:0:
221,315,79830,1,0,3:0:0:0:
12,159,80022,6,0,B|165:196|165:196|232:161,1,215.999993408203,0|0,3:0|0:0,0:0:0:0:
288,305,80311,1,0,0:0:0:0:
288,305,80407,2,0,B|317:262|319:235|319:235|299:184,1,107.999996704102,8|0,0:1|0:0,0:0:0:0:
399,23,80599,2,0,B|370:66|368:93|368:93|388:144,1,107.999996704102,0|8,3:0|0:1,0:0:0:0:
480,156,80791,6,0,B|504:267|437:323|437:323|405:267,1,215.999993408203,0|0,0:0|3:0,0:0:0:0:
337,239,81080,1,0,0:0:0:0:
272,328,81176,1,8,0:1:0:0:
165,343,81272,1,8,0:1:0:0:
80,302,81368,1,8,0:1:0:0:
41,233,81464,1,8,0:1:0:0:
60,172,81561,6,0,P|118:207|144:266,1,107.999996704102,4|0,3:2|0:0,0:0:0:0:
229,96,81753,2,0,P|241:146|201:224,1,107.999996704102
84,332,81945,5,8,0:1:0:0:
148,262,82041,1,0,0:0:0:0:
238,227,82137,1,0,3:0:0:0:
335,218,82234,1,8,0:1:0:0:
428,243,82330,5,0,0:0:0:0:
443,258,82522,1,0,3:0:0:0:
431,276,82714,1,8,0:1:0:0:
413,262,82907,1,0,3:0:0:0:
434,35,83099,6,0,P|502:90|509:164,1,107.999996704102,0|0,3:0|0:0,0:0:0:0:
370,160,83291,2,0,P|352:226|283:272,1,107.999996704102
141,360,83484,1,8,0:1:0:0:
58,309,83580,1,0,0:0:0:0:
24,218,83676,1,0,3:0:0:0:
8,122,83772,1,8,0:1:0:0:
54,26,83868,5,0,0:0:0:0:
72,15,84061,1,0,3:0:0:0:
88,28,84253,1,8,0:1:0:0:
72,43,84445,1,0,3:0:0:0:
116,194,84637,6,0,B|73:205|54:237|54:237|44:325,1,107.999996704102,0|0,3:0|0:0,0:0:0:0:
211,279,84829,2,0,B|194:309|228:360|228:360|298:391,1,107.999996704102
441,313,85022,1,8,0:1:0:0:
486,237,85118,1,0,0:0:0:0:
432,169,85214,1,0,3:0:0:0:
352,202,85311,1,8,0:1:0:0:
362,288,85407,5,0,0:0:0:0:
380,277,85599,1,0,3:0:0:0:
198,84,85791,1,8,0:1:0:0:
183,99,85984,1,0,3:0:0:0:
82,366,86176,6,0,P|139:327|198:321,1,107.999996704102,2|0,3:1|0:0,0:0:0:0:
436,247,86368,2,0,P|379:208|320:202,1,107.999996704102
89,145,86561,2,0,P|146:106|205:100,1,107.999996704102,12|0,0:1|0:0,0:0:0:0:
383,11,86753,1,0,3:0:0:0:
458,55,86849,1,8,0:3:0:0:
491,136,86945,5,8,0:3:0:0:
415,163,87041,1,8,0:3:0:0:
341,131,87137,1,4,0:3:0:0:
301,61,87234,1,4,0:3:0:0:
233,18,87330,1,4,0:3:0:0:
180,9,87426,1,4,0:3:0:0:
129,27,87522,1,4,0:3:0:0:
108,77,87618,1,4,0:3:0:0:
127,111,87714,6,0,B|119:202|176:251|176:251|211:222|222:164,1,215.999993408203,4|0,3:1|0:0,0:0:0:0:
42,198,88099,1,8,0:1:0:0:
32,278,88195,1,0,0:0:0:0:
74,346,88291,1,0,3:0:0:0:
155,369,88387,1,8,0:1:0:0:
233,340,88483,5,0,0:0:0:0:
276,321,88676,1,0,3:0:0:0:
295,298,88868,1,8,0:1:0:0:
316,297,89061,1,0,3:0:0:0:
325,304,89253,6,0,B|332:264|309:225|309:225|256:188,1,107.999996704102,0|0,3:0|0:0,0:0:0:0:
238,85,89445,2,0,B|251:47|291:25|291:25|355:19,1,107.999996704102
472,48,89637,1,8,0:1:0:0:
416,106,89734,1,0,0:0:0:0:
338,135,89830,1,0,3:0:0:0:
253,127,89926,1,8,0:1:0:0:
185,81,90022,5,0,0:0:0:0:
137,50,90214,1,0,3:0:0:0:
95,53,90407,1,8,0:1:0:0:
70,66,90599,2,0,P|73:139|103:196,1,107.999996704102,0|0,3:0|3:0,0:0:0:0:
179,359,90791,6,0,P|194:296|212:257,1,107.999996704102,0|0,3:0|0:0,0:0:0:0:
296,41,90984,2,0,P|321:89|332:176,1,107.999996704102
374,366,91176,1,8,0:1:0:0:
308,318,91272,1,0,0:0:0:0:
297,233,91368,1,0,3:0:0:0:
363,172,91464,1,8,0:1:0:0:
457,186,91561,5,0,0:0:0:0:
464,204,91753,1,0,3:0:0:0:
480,203,91945,1,8,0:1:0:0:
481,187,92137,1,0,3:0:0:0:
471,177,92330,6,0,P|408:180|308:151,1,107.999996704102,0|0,3:0|0:0,0:0:0:0:
296,263,92522,2,0,P|219:230|188:199,1,107.999996704102
131,19,92714,1,8,0:1:0:0:
197,75,92811,1,0,0:0:0:0:
152,148,92907,1,0,3:0:0:0:
68,133,93003,1,8,0:1:0:0:
53,48,93099,6,0,P|79:105|87:212,1,107.999996704102,0|0,0:0|3:0,0:0:0:0:
165,289,93291,2,0,P|133:366|93:402,1,107.999996704102,0|0,3:0|0:0,0:0:0:0:
33,236,93484,1,8,0:1:0:0:
111,176,93580,1,8,0:1:0:0:
199,216,93676,1,8,0:1:0:0:
285,172,93772,1,8,0:1:0:0:
385,196,93868,6,0,B|454:210|493:171|493:171|435:17,1,215.999993408203,4|0,3:2|0:0,0:0:0:0:
182,137,94253,1,8,0:1:0:0:
134,64,94349,1,0,0:0:0:0:
51,89,94445,1,0,3:0:0:0:
54,175,94541,1,8,0:1:0:0:
132,207,94637,5,0,0:0:0:0:
150,213,94830,1,0,3:0:0:0:
165,228,95022,1,8,0:1:0:0:
170,243,95214,1,0,3:0:0:0:
172,255,95407,6,0,P|111:289|19:277,1,107.999996704102,0|0,3:0|0:0,0:0:0:0:
345,286,95599,2,0,P|423:311|470:293,1,107.999996704102
274,381,95791,1,8,0:1:0:0:
241,307,95887,1,0,0:0:0:0:
267,229,95984,1,0,3:0:0:0:
304,157,96080,1,8,0:1:0:0:
282,77,96176,6,0,B|263:28|263:28|204:109|255:191,1,215.999993408203,0|0,0:0|3:0,0:0:0:0:
329,238,96464,1,0,0:0:0:0:
329,238,96561,2,0,B|252:174|214:309|99:210,1,215.999993408203,8|0,0:1|3:0,0:0:0:0:
106,218,96849,1,0,3:0:0:0:
27,149,96945,6,0,B|55:118|55:118|105:99|194:156,1,107.999996704102,0|0,3:0|0:0,0:0:0:0:
94,308,97137,2,0,B|64:309|64:309|15:290|8:211,1,107.999996704102
211,147,97330,1,8,0:1:0:0:
261,211,97426,1,0,0:0:0:0:
237,288,97522,1,0,3:0:0:0:
265,364,97618,1,8,0:1:0:0:
345,376,97714,6,0,P|418:354|461:315,1,107.999996704102,0|0,0:0|3:0,0:0:0:0:
410,120,97907,2,0,B|384:148|384:148|399:283,1,107.999996704102,0|0,3:0|0:0,0:0:0:0:
197,295,98099,6,0,P|250:239|267:184,1,107.999996704102,8|0,0:1|0:0,0:0:0:0:
126,40,98292,2,0,B|118:77|118:77|198:186,1,107.999996704102,0|0,3:0|0:0,0:0:0:0:
385,34,98484,6,0,P|320:12|245:34,1,107.999996704102,2|0,3:1|0:0,0:0:0:0:
55,159,98676,2,0,P|69:226|125:280,1,107.999996704102
329,382,98868,2,0,P|380:337|399:261,1,107.999996704102,12|0,0:1|0:0,0:0:0:0:
254,188,99061,5,0,3:0:0:0:
261,199,99157,1,8,0:3:0:0:
288,209,99253,1,8,0:3:0:0:
317,194,99349,1,8,0:3:0:0:
339,144,99445,1,4,0:3:0:0:
325,80,99541,1,4,0:3:0:0:
252,55,99637,1,4,0:3:0:0:
189,104,99734,1,4,0:3:0:0:
177,189,99830,1,4,0:3:0:0:
216,265,99926,1,4,0:3:0:0:
303,301,100022,6,0,P|381:294|441:345,1,161.999995056153,6|0,3:1|0:0,0:0:0:0:
458,365,100214,2,0,P|479:303|469:234,1,107.999996704102
366,130,100407,1,8,0:1:0:0:
303,189,100503,1,0,0:0:0:0:
240,130,100599,1,0,0:0:0:0:
177,189,100695,1,0,0:0:0:0:
112,132,100791,5,0,3:0:0:0:
101,107,100984,1,0,0:0:0:0:
400,132,101176,5,10,0:1:0:0:
411,107,101369,1,0,0:0:0:0:
455,311,101561,6,0,B|404:323|366:293|366:293|321:295|306:325,1,161.999995056153,2|0,3:1|0:0,0:0:0:0:
288,339,101753,2,0,P|237:329|161:324,1,107.999996704102
7,185,101945,1,10,0:1:0:0:
83,208,102041,1,0,0:0:0:0:
159,185,102137,1,0,0:0:0:0:
208,122,102233,1,0,0:0:0:0:
213,42,102329,5,2,3:1:0:0:
96,98,102522,1,0,0:0:0:0:
406,284,102714,1,10,0:1:0:0:
288,339,102907,1,0,0:0:0:0:
211,290,103003,1,8,0:1:0:0:
134,361,103099,6,2,P|57:368|2:311,1,161.999995056153,6|0,3:2|0:0,0:0:0:0:
75,168,103291,2,0,P|81:221|88:275,1,107.999996704102
316,373,103484,1,8,0:1:0:0:
396,342,103580,1,0,0:0:0:0:
365,261,103676,1,0,0:0:0:0:
285,292,103772,1,0,0:0:0:0:
413,352,103868,5,0,3:0:0:0:
445,343,104061,1,0,0:0:0:0:
75,168,104253,5,10,0:1:0:0:
43,177,104446,1,0,0:0:0:0:
256,16,104637,5,2,3:1:0:0:
224,368,104830,1,0,0:0:0:0:
512,206,105022,1,8,0:1:0:0:
463,142,105118,1,0,0:0:0:0:
389,111,105214,1,0,0:0:0:0:
310,121,105310,1,0,0:0:0:0:
246,169,105407,6,0,B|183:227|83:230|42:163|42:163|102:148|152:193,1,323.999990112305,0|0,3:0|0:0,0:0:0:0:
296,334,105791,5,8,0:1:0:0:
271,297,105887,1,8,0:1:0:0:
308,235,105984,1,8,0:1:0:0:
246,169,106080,1,8,0:1:0:0:
321,101,106176,6,0,P|242:125|174:69,1,161.999995056153,6|0,3:2|0:0,0:0:0:0:
23,190,106368,2,0,P|75:177|129:176,1,107.999996704102
442,315,106561,1,8,0:1:0:0:
377,361,106657,1,0,0:0:0:0:
297,361,106753,1,0,0:0:0:0:
234,313,106849,1,0,0:0:0:0:
210,237,106945,5,0,3:0:0:0:
222,210,107137,1,0,0:0:0:0:
16,36,107330,5,10,0:1:0:0:
28,63,107522,1,0,0:0:0:0:
487,168,107714,6,0,B|510:198|510:198|495:283,1,107.999996704102,2|0,3:1|0:0,0:0:0:0:
287,370,107907,2,0,B|264:340|264:340|279:255,1,107.999996704102
58,148,108099,5,10,0:1:0:0:
63,162,108195,1,0,0:0:0:0:
118,226,108291,5,0,0:0:0:0:
113,240,108387,1,0,0:0:0:0:
52,298,108484,6,0,P|130:229|234:240,1,215.999993408203,2|0,3:1|0:0,0:0:0:0:
398,75,108772,1,0,0:0:0:0:
304,40,108868,2,0,L|315:162,1,107.999996704102,10|0,0:1|0:0,0:0:0:0:
493,296,109061,1,0,0:0:0:0:
404,360,109157,1,8,0:1:0:0:
319,293,109253,6,0,B|268:271|268:271|218:305|161:293,1,161.999995056153,6|0,3:2|0:0,0:0:0:0:
73,215,109445,2,0,P|118:187|171:183,1,107.999996704102
303,42,109637,1,8,0:1:0:0:
381,22,109733,1,0,0:0:0:0:
455,52,109829,1,0,0:0:0:0:
497,119,109925,1,0,0:0:0:0:
491,199,110022,5,0,3:0:0:0:
382,134,110214,1,0,0:0:0:0:
201,6,110407,6,0,P|196:57|185:138,1,107.999996704102,8|0,0:1|0:0,0:0:0:0:
405,361,110599,2,0,P|410:310|421:229,1,107.999996704102
232,359,110791,6,0,B|185:321|185:321|136:323|91:359,1,161.999995056153,2|0,3:1|0:0,0:0:0:0:
68,374,110984,2,0,P|55:320|65:261,1,107.999996704102
250,74,111176,1,8,0:1:0:0:
288,147,111272,1,0,0:0:0:0:
243,216,111368,1,0,0:0:0:0:
287,286,111464,1,0,0:0:0:0:
232,359,111561,5,8,3:1:0:0:
263,329,111657,1,8,0:1:0:0:
305,319,111753,1,8,0:1:0:0:
347,325,111849,1,8,0:1:0:0:
426,345,111945,5,8,0:1:0:0:
349,384,112041,1,8,0:1:0:0:
263,369,112137,1,8,0:1:0:0:
210,299,112234,1,8,0:1:0:0:
192,208,112330,5,12,3:1:0:0:
492,103,112522,1,0,0:0:0:0:
194,10,112714,5,8,3:1:0:0:
200,33,112811,1,0,0:0:0:0:
270,101,112907,5,0,0:0:0:0:
264,124,113004,1,0,0:0:0:0:
192,209,113099,5,8,3:1:0:0:
232,368,113291,1,2,0:0:0:0:
365,167,113484,1,8,3:1:0:0:
405,326,113676,1,2,0:0:0:0:
104,295,113868,5,8,3:1:0:0:
171,57,114061,1,0,0:0:0:0:
443,146,114253,5,8,3:1:0:0:
374,127,114350,1,0,0:0:0:0:
397,183,114445,5,0,0:0:0:0:
416,114,114542,1,0,0:0:0:0:
403,149,114637,6,0,B|341:88|243:124|243:124|221:188|122:207|71:153,1,323.999990112305,8|0,3:1|0:0,0:0:0:0:
0,40,115022,1,10,0:1:0:0:
29,27,115118,1,8,0:1:0:0:
61,28,115214,1,8,0:1:0:0:
91,40,115311,1,8,0:1:0:0:
47,110,115407,5,8,3:1:0:0:
392,231,115599,1,0,0:0:0:0:
124,342,115791,5,8,3:1:0:0:
102,338,115887,1,0,0:0:0:0:
0,287,115984,5,0,0:0:0:0:
22,283,116080,1,0,0:0:0:0:
91,217,116176,5,8,3:1:0:0:
312,344,116368,1,2,0:0:0:0:
276,140,116561,1,8,3:1:0:0:
55,13,116753,1,2,0:0:0:0:
204,214,116945,5,8,3:1:0:0:
482,72,117137,1,0,0:0:0:0:
375,319,117330,5,8,3:1:0:0:
361,261,117426,1,0,0:0:0:0:
420,247,117522,1,0,0:0:0:0:
434,305,117618,1,0,0:0:0:0:
399,285,117714,6,0,B|354:267|354:267|256:296|247:385,1,215.999993408203,8|0,3:1|0:0,0:0:0:0:
135,205,118003,1,0,0:0:0:0:
215,137,118099,2,0,L|227:266,1,107.999996704102,8|0,0:1|0:0,0:0:0:0:
37,360,118291,1,8,0:1:0:0:
5,256,118387,1,8,0:1:0:0:
46,154,118484,5,8,3:1:0:0:
313,266,118676,1,0,0:0:0:0:
198,28,118868,5,8,3:1:0:0:
180,41,118964,1,0,0:0:0:0:
262,106,119061,5,0,0:0:0:0:
280,119,119157,1,0,0:0:0:0:
189,178,119253,5,8,3:1:0:0:
338,40,119445,1,2,0:0:0:0:
86,182,119637,1,8,3:1:0:0:
334,315,119830,1,2,0:0:0:0:
171,85,120022,5,8,3:1:0:0:
222,366,120214,1,0,0:0:0:0:
374,166,120407,5,8,3:1:0:0:
366,125,120504,1,0,0:0:0:0:
374,248,120599,5,0,0:0:0:0:
366,289,120696,1,0,0:0:0:0:
355,213,120791,6,0,B|308:231|259:200|259:200|223:251|158:240|158:240|131:177|208:152,1,323.999990112305,8|0,3:1|0:0,0:0:0:0:
47,28,121176,1,8,0:1:0:0:
34,57,121272,1,8,0:1:0:0:
35,89,121368,1,8,0:1:0:0:
47,119,121465,1,8,0:1:0:0:
117,75,121561,5,8,3:1:0:0:
48,340,121753,1,0,0:0:0:0:
248,197,121945,5,8,3:1:0:0:
316,182,122041,1,0,0:0:0:0:
248,181,122137,5,0,0:0:0:0:
316,198,122233,1,0,0:0:0:0:
286,136,122330,5,8,0:1:0:0:
280,104,122426,1,8,0:1:0:0:
275,71,122522,1,8,0:1:0:0:
269,39,122618,1,8,0:1:0:0:
192,9,122714,5,8,0:1:0:0:
144,70,122811,1,8,0:1:0:0:
198,137,122907,1,8,0:1:0:0:
138,200,123003,1,8,0:1:0:0:
195,275,123099,6,0,B|228:235|291:241|291:241|309:248|332:277,1,161.999995056153,2|0,0:1|0:0,0:0:0:0:
415,355,123291,2,0,P|425:302|440:250,1,107.999996704102
366,0,123484,6,0,L|377:120,1,107.999996704102,4|0,0:1|0:0,0:0:0:0:
204,382,123676,2,0,L|193:262,1,107.999996704102,0|8,0:0|0:3,0:0:0:0:
246,104,123868,5,0,0:0:0:0:
215,92,123964,1,8,0:3:0:0:
182,92,124061,1,4,0:3:0:0:
152,105,124157,1,4,0:3:0:0:
94,179,124253,5,4,0:3:0:0:
63,191,124349,1,4,0:3:0:0:
30,191,124446,1,4,0:3:0:0:
0,178,124542,1,4,0:3:0:0:
51,111,124637,6,0,B|110:150|181:142|181:142|149:179|149:179|186:231|163:311,1,315.000012016297,6|0,0:0|0:0,0:0:0:0:
97,374,125407,5,0,0:0:0:0:
157,308,125599,1,0,0:0:0:0:
240,276,125791,1,0,0:0:0:0:
329,285,125984,1,0,0:0:0:0:
404,333,126176,1,2,0:0:0:0:
