osu file format v14

[General]
AudioFilename: audio.mp3
AudioLeadIn: 0
PreviewTime: 785
Countdown: 0
SampleSet: Soft
StackLeniency: 0.2
Mode: 0
LetterboxInBreaks: 0
EpilepsyWarning: 1
WidescreenStoryboard: 1

[Editor]
Bookmarks: 26170,50785,63093,75401,100016
DistanceSpacing: 0.1
BeatDivisor: 8
GridSize: 32
TimelineZoom: 3.599998

[Metadata]
Title:Tokyo's Starlight
TitleUnicode:Tokyo's Starlight
Artist:HyuN
ArtistUnicode:HyuN
Creator:Heilia
Version:Starry Starry Night
Source:osu!
Tags:mappers guild mapper's guild featured artist instrumental Nasmoeb Beomsan Beom neoskylove affirmation electronic
BeatmapID:2116308
BeatmapSetID:1011055

[Difficulty]
HPDrainRate:5
CircleSize:4.5
OverallDifficulty:8.7
ApproachRate:9.7
SliderMultiplier:3.59999990463257
SliderTickRate:1

[Events]
//Background and Video events
0,0,"bgg.jpg",0,0
//Break Periods
//Storyboard Layer 0 (Background)
//Storyboard Layer 1 (Fail)
//Storyboard Layer 2 (Pass)
//Storyboard Layer 3 (Foreground)
//Storyboard Layer 4 (Overlay)
//Storyboard Sound Samples

[TimingPoints]
1565,384.615384615385,4,2,99,40,1,0
26180,-28.9017341040462,4,2,99,85,0,1
26565,-28.9017341040462,4,2,99,85,0,0
50795,-28.9017341040462,4,2,99,55,0,0
63103,-28.9017341040462,4,2,99,65,0,0
75411,-28.9017341040462,4,2,99,85,0,1
75795,-28.9017341040462,4,2,99,85,0,0
112334,-63.6942675159236,4,2,99,90,0,1
124641,-909.090909090909,4,2,99,90,0,0

[Colours]
Combo1 : 255,198,170
Combo2 : 255,162,208
Combo3 : 157,157,255
Combo4 : 136,196,255
Combo5 : 192,192,192
Combo6 : 226,226,199
Combo7 : 220,73,143
Combo8 : 145,200,200

[HitObjects]
236,151,1565,53,2,0:0:0:0:
179,99,1757,1,0,0:0:0:0:
106,121,1949,1,0,0:0:0:0:
163,174,2141,1,2,0:0:0:0:
166,191,2526,37,0,0:0:0:0:
149,343,2718,1,2,0:0:0:0:
157,267,2911,1,0,0:0:0:0:
357,344,3103,69,2,0:0:0:0:
358,316,3295,1,0,0:0:0:0:
408,240,3488,37,2,0:0:0:0:
382,230,3680,1,0,0:0:0:0:
325,158,3872,69,2,0:0:0:0:
308,180,4064,1,0,0:0:0:0:
222,212,4257,37,2,0:0:0:0:
237,236,4449,1,0,0:0:0:0:
257,326,4641,69,2,0:0:0:0:
194,370,4833,1,0,0:0:0:0:
124,339,5026,1,0,0:0:0:0:
187,294,5217,1,2,0:0:0:0:
181,276,5603,37,0,0:0:0:0:
189,200,5796,1,2,0:0:0:0:
198,124,5988,1,0,0:0:0:0:
116,7,6180,69,2,0:0:0:0:
135,81,6372,1,0,0:0:0:0:
198,124,6565,1,0,0:0:0:0:
274,117,6757,1,0,0:0:0:0:
328,62,6949,37,2,0:0:0:0:
466,94,7142,1,2,0:0:0:0:
478,235,7335,1,2,0:0:0:0:
348,291,7526,1,2,0:0:0:0:
254,183,7718,69,2,0:0:0:0:
181,161,7911,1,0,0:0:0:0:
124,213,8103,1,0,0:0:0:0:
197,236,8295,1,2,0:0:0:0:
190,250,8680,37,0,0:0:0:0:
342,233,8872,1,2,0:0:0:0:
266,241,9065,1,0,0:0:0:0:
239,130,9257,69,2,0:0:0:0:
244,158,9449,1,0,0:0:0:0:
405,303,9641,37,2,0:0:0:0:
410,275,9833,1,0,0:0:0:0:
389,51,10026,69,2,0:0:0:0:
369,163,10218,1,0,0:0:0:0:
151,163,10411,37,2,0:0:0:0:
131,51,10603,1,0,0:0:0:0:
239,292,10795,69,2,0:0:0:0:
182,344,10987,1,0,0:0:0:0:
109,322,11179,1,0,0:0:0:0:
166,269,11371,1,2,0:0:0:0:
157,249,11757,37,0,0:0:0:0:
165,173,11950,1,0,0:0:0:0:
174,97,12142,1,0,0:0:0:0:
66,66,12334,69,2,0:0:0:0:
248,7,12526,1,2,0:0:0:0:
362,162,12719,1,2,0:0:0:0:
248,319,12911,1,2,0:0:0:0:
65,259,13103,37,2,0:0:0:0:
156,142,13295,1,0,0:0:0:0:
87,184,13488,1,2,0:0:0:0:
231,162,13680,1,2,0:0:0:0:
283,217,13872,69,2,0:0:0:0:
356,240,14065,1,0,0:0:0:0:
413,187,14257,1,0,0:0:0:0:
340,165,14449,1,2,0:0:0:0:
329,152,14834,37,0,0:0:0:0:
346,0,15027,1,2,0:0:0:0:
337,76,15219,1,0,0:0:0:0:
170,107,15411,69,2,0:0:0:0:
194,93,15603,1,0,0:0:0:0:
238,14,15795,37,2,0:0:0:0:
259,32,15988,1,0,0:0:0:0:
349,51,16180,69,2,0:0:0:0:
337,76,16372,1,0,0:0:0:0:
347,167,16565,37,2,0:0:0:0:
320,165,16757,1,0,0:0:0:0:
226,180,16949,69,2,0:0:0:0:
194,250,17141,1,0,0:0:0:0:
239,313,17333,1,0,0:0:0:0:
270,243,17525,1,2,0:0:0:0:
255,224,17911,37,0,0:0:0:0:
331,233,18103,1,2,0:0:0:0:
407,241,18296,1,0,0:0:0:0:
437,137,18488,69,2,0:0:0:0:
492,191,18680,1,0,0:0:0:0:
499,267,18872,1,0,0:0:0:0:
456,330,19065,1,0,0:0:0:0:
385,348,19257,37,2,0:0:0:0:
246,315,19450,1,2,0:0:0:0:
234,174,19641,1,2,0:0:0:0:
365,118,19834,1,2,0:0:0:0:
458,226,20026,69,2,0:0:0:0:
512,166,20219,1,0,0:0:0:0:
484,93,20411,1,0,0:0:0:0:
436,153,20603,1,2,0:0:0:0:
424,141,20988,37,0,0:0:0:0:
407,293,21180,1,2,0:0:0:0:
415,217,21373,1,0,0:0:0:0:
320,263,21565,69,2,0:0:0:0:
292,268,21757,1,0,0:0:0:0:
186,137,21949,37,2,0:0:0:0:
214,142,22141,1,0,0:0:0:0:
178,368,22334,69,2,0:0:0:0:
198,256,22526,1,0,0:0:0:0:
79,93,22718,37,2,0:0:0:0:
99,205,22911,1,0,0:0:0:0:
359,131,23103,69,2,0:0:0:0:
302,183,23295,1,0,0:0:0:0:
229,161,23487,1,0,0:0:0:0:
286,108,23679,1,2,0:0:0:0:
199,42,24065,37,0,0:0:0:0:
123,33,24257,1,2,0:0:0:0:
47,25,24450,1,0,0:0:0:0:
243,237,24641,69,2,3:0:0:0:
243,237,25025,1,2,3:0:0:0:
243,237,25411,37,4,3:0:0:0:
416,185,25603,101,0,1:0:0:0:
410,208,25699,1,0,1:0:0:0:
332,268,25795,21,4,3:0:0:0:
354,261,25891,1,4,3:0:0:0:
448,302,25988,69,0,1:0:0:0:
431,285,26084,1,0,1:0:0:0:
373,340,26180,53,6,1:3:0:0:
373,340,26372,1,2,0:0:0:0:
239,224,26565,21,2,1:2:0:0:
243,237,26661,1,2,0:0:0:0:
185,163,26757,69,2,3:2:0:0:
267,123,26853,1,2,1:2:0:0:
243,26,26949,37,4,3:0:0:0:
366,38,27141,1,4,3:0:0:0:
284,30,27334,1,0,1:0:0:0:
325,34,27526,1,4,3:0:0:0:
496,144,27718,85,6,3:0:0:0:
496,144,27911,1,2,0:0:0:0:
423,264,28103,21,2,1:2:0:0:
331,287,28199,1,2,0:0:0:0:
265,189,28295,69,2,0:2:0:0:
267,201,28391,1,2,1:2:0:0:
175,254,28488,37,4,3:0:0:0:
163,131,28680,1,4,3:0:0:0:
171,213,28872,1,0,1:0:0:0:
167,172,29065,1,4,3:0:0:0:
285,16,29257,85,6,3:0:0:0:
285,16,29449,1,2,0:0:0:0:
336,212,29641,21,2,1:2:0:0:
338,191,29738,1,2,0:0:0:0:
310,101,29834,69,2,0:2:0:0:
402,122,29930,1,2,1:2:0:0:
490,48,30026,37,4,3:0:0:0:
477,211,30218,1,4,3:0:0:0:
483,122,30411,1,0,1:0:0:0:
482,129,30507,1,4,3:0:0:0:
482,137,30603,1,4,3:0:0:0:
382,321,30795,85,6,3:0:0:0:
382,321,30988,1,2,0:0:0:0:
251,291,31180,21,2,1:2:0:0:
167,239,31276,1,2,0:0:0:0:
91,303,31372,69,2,0:2:0:0:
95,291,31468,1,2,1:2:0:0:
24,223,31565,37,4,3:0:0:0:
16,141,31757,1,4,3:0:0:0:
201,58,31949,37,0,1:0:0:0:
179,99,32045,1,0,0:0:0:0:
138,117,32141,1,0,1:0:0:0:
94,107,32237,1,0,1:0:0:0:
63,73,32334,1,6,1:2:0:0:
63,73,32526,1,2,0:0:0:0:
14,271,32718,69,2,1:2:0:0:
14,288,32815,1,2,0:0:0:0:
60,366,32910,69,2,0:2:0:0:
147,330,33007,1,2,1:2:0:0:
237,361,33103,37,4,3:0:0:0:
249,238,33295,1,0,3:0:0:0:
241,320,33488,1,0,1:0:0:0:
245,279,33680,1,4,3:0:0:0:
84,384,33872,85,6,3:0:0:0:
84,384,34065,1,2,0:0:0:0:
23,269,34257,21,2,1:2:0:0:
0,180,34353,1,2,0:0:0:0:
97,116,34449,69,2,0:2:0:0:
93,137,34545,1,2,1:2:0:0:
132,231,34641,37,4,3:0:0:0:
255,219,34833,1,4,3:0:0:0:
173,227,35026,1,0,1:0:0:0:
214,223,35218,1,4,3:0:0:0:
272,89,35411,85,6,3:0:0:0:
272,89,35603,1,2,0:0:0:0:
421,39,35795,21,2,1:2:0:0:
450,54,35891,1,2,0:0:0:0:
484,141,35988,69,2,0:2:0:0:
435,219,36083,1,2,1:2:0:0:
330,220,36180,37,4,3:0:0:0:
342,384,36372,1,4,3:0:0:0:
337,294,36565,1,0,1:0:0:0:
338,301,36661,1,4,3:0:0:0:
338,309,36757,1,4,3:0:0:0:
111,324,36949,85,6,1:2:0:0:
111,324,37141,1,4,3:0:0:0:
259,153,37334,53,4,3:0:0:0:
260,182,37430,1,4,3:0:0:0:
377,203,37526,5,6,1:3:0:0:
340,274,37622,1,4,3:0:0:0:
231,264,37718,5,6,1:3:0:0:
297,211,37815,5,0,0:0:0:0:
260,182,37911,1,4,3:0:0:0:
214,183,38007,1,0,0:0:0:0:
139,241,38103,85,2,1:3:0:0:
154,248,38199,1,4,3:0:0:0:
163,234,38295,1,4,3:0:0:0:
149,225,38391,1,0,0:0:0:0:
231,264,38488,37,6,1:2:0:0:
231,264,38680,1,2,0:0:0:0:
463,92,38872,21,2,1:2:0:0:
463,104,38968,1,2,0:0:0:0:
385,171,39065,69,2,0:2:0:0:
409,264,39161,1,2,1:2:0:0:
494,207,39257,37,4,3:0:0:0:
482,330,39449,1,4,3:0:0:0:
490,248,39641,1,0,1:0:0:0:
486,289,39834,1,4,3:0:0:0:
337,365,40026,85,6,3:0:0:0:
337,365,40218,1,2,0:0:0:0:
214,290,40411,21,2,1:2:0:0:
213,276,40507,1,2,0:0:0:0:
253,189,40603,69,2,0:2:0:0:
308,264,40699,1,2,1:2:0:0:
398,238,40795,37,4,3:0:0:0:
410,115,40987,1,4,3:0:0:0:
402,197,41180,1,0,1:0:0:0:
406,156,41372,1,4,3:0:0:0:
280,51,41565,85,6,3:0:0:0:
280,51,41757,1,2,0:0:0:0:
252,219,41949,21,2,1:2:0:0:
255,234,42045,1,2,0:0:0:0:
191,304,42141,69,2,0:2:0:0:
125,244,42238,1,2,1:2:0:0:
38,281,42334,37,4,3:0:0:0:
26,117,42526,1,4,3:0:0:0:
31,207,42719,1,0,1:0:0:0:
30,200,42815,1,4,3:0:0:0:
30,192,42911,1,4,3:0:0:0:
137,73,43103,85,6,3:0:0:0:
137,73,43295,1,2,0:0:0:0:
262,201,43488,21,2,1:2:0:0:
245,172,43584,1,2,0:0:0:0:
268,82,43680,69,2,0:2:0:0:
361,61,43776,1,2,1:2:0:0:
430,127,43872,37,4,3:0:0:0:
398,220,44065,1,4,3:0:0:0:
243,337,44257,37,0,1:0:0:0:
258,293,44353,1,0,0:0:0:0:
295,268,44449,1,0,1:0:0:0:
340,270,44545,1,0,1:0:0:0:
376,298,44641,1,6,1:2:0:0:
376,298,44834,1,2,0:0:0:0:
324,145,45026,69,2,1:2:0:0:
235,173,45122,1,2,0:0:0:0:
170,98,45218,69,2,0:2:0:0:
173,83,45315,1,2,1:2:0:0:
86,159,45411,37,4,3:0:0:0:
98,282,45603,1,4,3:0:0:0:
90,200,45795,1,0,1:0:0:0:
94,241,45988,1,4,3:0:0:0:
282,360,46180,85,6,3:0:0:0:
282,360,46372,1,2,0:0:0:0:
470,245,46565,21,2,1:2:0:0:
384,297,46661,1,2,0:0:0:0:
370,189,46757,69,2,0:2:0:0:
372,201,46853,1,2,1:2:0:0:
280,254,46949,37,4,3:0:0:0:
268,131,47141,1,4,3:0:0:0:
276,213,47334,1,0,1:0:0:0:
272,172,47526,1,4,3:0:0:0:
212,5,47718,85,6,3:0:0:0:
212,5,47911,1,2,0:0:0:0:
63,104,48103,21,2,1:2:0:0:
94,94,48199,1,2,0:0:0:0:
129,179,48295,69,2,0:2:0:0:
220,195,48391,1,2,1:2:0:0:
293,128,48488,37,4,3:0:0:0:
309,291,48680,1,4,3:0:0:0:
300,202,48873,1,0,1:0:0:0:
301,209,48969,1,4,3:0:0:0:
301,217,49065,1,4,3:0:0:0:
480,228,49257,85,6,1:2:0:0:
480,228,49449,1,4,3:0:0:0:
494,22,49641,53,4,3:0:0:0:
461,33,49738,1,4,3:0:0:0:
386,0,49834,5,6,3:0:0:0:
371,81,49930,1,4,3:0:0:0:
291,91,50026,5,6,3:0:0:0:
371,81,50122,5,0,0:0:0:0:
367,126,50219,1,4,3:0:0:0:
334,159,50315,1,0,0:0:0:0:
242,176,50411,85,6,3:0:0:0:
254,162,50507,1,4,3:0:0:0:
242,150,50603,1,4,3:0:0:0:
230,162,50699,1,0,0:0:0:0:
295,235,50795,85,6,0:0:0:0:
311,384,50988,1,2,0:0:0:0:
303,309,51372,5,2,0:0:0:0:
439,300,51757,37,2,3:0:0:0:
454,173,51949,1,2,3:0:0:0:
469,46,52141,1,2,3:0:0:0:
274,46,52334,21,2,0:0:0:0:
335,2,52526,1,2,0:0:0:0:
409,2,52718,1,2,0:0:0:0:
469,46,52911,1,2,0:0:0:0:
492,116,53103,1,2,0:0:0:0:
469,187,53295,1,2,0:0:0:0:
469,187,53680,21,2,0:0:0:0:
469,187,53872,1,2,0:0:0:0:
446,338,54065,1,2,0:0:0:0:
458,262,54449,5,2,0:0:0:0:
348,357,54834,37,2,3:0:0:0:
221,342,55026,1,2,3:0:0:0:
94,327,55218,1,2,3:0:0:0:
94,132,55411,21,2,0:0:0:0:
50,193,55603,1,2,0:0:0:0:
50,267,55795,1,2,0:0:0:0:
94,327,55988,1,2,0:0:0:0:
164,350,56180,1,2,0:0:0:0:
235,327,56372,1,2,0:0:0:0:
407,46,56757,21,0,0:0:0:0:
402,58,56853,1,0,0:0:0:0:
397,70,56949,5,4,1:0:0:0:
364,220,57141,1,0,0:0:0:0:
199,150,57334,21,0,1:0:0:0:
101,169,57526,1,0,0:0:0:0:
0,53,57718,85,0,1:0:0:0:
144,82,57910,1,0,0:0:0:0:
306,25,58103,21,0,1:0:0:0:
288,156,58295,1,0,0:0:0:0:
392,131,58488,85,0,1:0:0:0:
383,49,58680,1,0,0:0:0:0:
509,177,58872,21,0,1:0:0:0:
498,248,59064,1,0,0:0:0:0:
385,323,59257,85,0,1:0:0:0:
349,317,59449,1,0,0:0:0:0:
222,316,59641,21,0,1:0:0:0:
107,332,59833,1,0,0:0:0:0:
260,201,60026,85,0,1:0:0:0:
418,227,60218,1,0,0:0:0:0:
316,25,60411,21,0,1:0:0:0:
136,61,60603,1,0,0:0:0:0:
27,223,60795,85,0,1:0:0:0:
149,253,60987,1,0,0:0:0:0:
291,134,61180,21,0,1:0:0:0:
492,151,61372,1,0,0:0:0:0:
314,237,61565,101,4,3:0:0:0:
103,309,61757,1,4,3:0:0:0:
140,91,61949,1,0,1:0:0:0:
191,210,62141,101,4,3:0:0:0:
189,199,62237,1,0,1:3:0:0:
266,152,62334,5,0,3:0:0:0:
248,77,62430,5,0,3:0:0:0:
274,70,62526,1,4,3:0:0:0:
299,80,62622,1,0,3:0:0:0:
377,136,62718,5,0,1:0:0:0:
349,143,62814,1,0,3:0:0:0:
356,172,62910,1,0,1:0:0:0:
385,164,63007,1,0,1:0:0:0:
461,133,63103,69,4,3:1:0:0:
452,209,63295,1,4,3:0:0:0:
444,285,63488,1,0,1:0:0:0:
368,309,63680,1,0,0:0:0:0:
363,264,63777,1,0,1:0:0:0:
319,254,63873,1,0,0:0:0:0:
296,294,63969,1,0,0:0:0:0:
327,328,64065,1,4,3:0:0:0:
249,354,64257,1,0,1:0:0:0:
173,345,64449,1,0,0:0:0:0:
97,337,64641,85,4,3:0:0:0:
42,285,64834,1,4,3:0:0:0:
112,262,65026,1,0,1:0:0:0:
162,126,65218,1,0,0:0:0:0:
157,161,65315,1,0,1:0:0:0:
152,195,65411,1,0,0:0:0:0:
232,163,65603,1,4,3:0:0:0:
89,106,65795,1,0,1:0:0:0:
112,262,65988,1,0,0:0:0:0:
408,377,66180,21,4,3:0:0:0:
399,301,66372,1,4,3:0:0:0:
391,225,66565,1,0,1:0:0:0:
393,80,66757,1,0,0:0:0:0:
388,115,66854,1,0,1:0:0:0:
383,149,66949,1,0,0:0:0:0:
310,131,67141,1,4,3:0:0:0:
269,197,67334,1,0,1:0:0:0:
193,176,67525,1,0,0:0:0:0:
189,100,67718,85,4,3:0:0:0:
121,61,67910,1,4,3:0:0:0:
60,109,68103,1,0,1:0:0:0:
60,188,68295,1,0,0:0:0:0:
56,231,68392,1,0,1:0:0:0:
97,250,68488,1,0,0:0:0:0:
127,214,68584,1,0,0:0:0:0:
102,175,68680,1,4,3:0:0:0:
168,280,68872,1,0,1:0:0:0:
201,300,68968,1,0,3:0:0:0:
239,302,69065,1,0,1:0:0:0:
273,286,69161,1,0,1:0:0:0:
225,220,69257,21,4,3:2:0:0:
302,212,69449,1,4,3:0:0:0:
378,204,69641,1,0,1:0:0:0:
450,172,69834,1,0,0:0:0:0:
482,185,69931,1,0,1:0:0:0:
456,209,70026,1,0,0:0:0:0:
378,204,70218,1,4,3:0:0:0:
343,132,70411,1,0,1:0:0:0:
392,70,70603,1,0,0:0:0:0:
352,0,70795,85,4,3:0:0:0:
277,8,70987,1,4,3:0:0:0:
201,16,71179,1,0,1:0:0:0:
142,71,71372,1,0,0:0:0:0:
147,106,71468,1,0,1:0:0:0:
152,140,71565,1,0,0:0:0:0:
227,160,71757,1,4,3:0:0:0:
262,230,71949,1,0,1:0:0:0:
217,295,72141,1,4,3:0:0:0:
254,365,72334,21,4,3:0:0:0:
329,373,72526,1,4,3:0:0:0:
404,381,72718,1,0,1:0:0:0:
474,260,72911,1,0,0:0:0:0:
469,294,73007,1,0,1:0:0:0:
464,329,73103,1,0,0:0:0:0:
388,304,73296,1,4,3:0:0:0:
355,234,73488,1,0,1:0:0:0:
409,182,73680,1,0,0:0:0:0:
67,323,73872,5,4,3:0:0:0:
0,106,74065,1,0,3:0:0:0:
223,142,74257,1,0,1:0:0:0:
75,195,74449,101,4,3:0:0:0:
112,202,74545,1,4,3:0:0:0:
108,123,74641,5,0,3:0:0:0:
100,95,74737,1,0,3:0:0:0:
128,88,74833,1,4,3:0:0:0:
134,115,74929,1,0,3:0:0:0:
204,68,75026,5,0,1:0:0:0:
223,142,75123,1,0,3:0:0:0:
286,185,75219,1,0,1:0:0:0:
362,178,75315,1,0,1:0:0:0:
416,123,75411,21,6,1:0:0:0:
416,123,75603,1,0,0:0:0:0:
386,326,75795,21,2,1:2:0:0:
383,312,75891,1,2,0:0:0:0:
328,251,75988,69,2,0:2:0:0:
248,272,76084,1,2,1:2:0:0:
229,352,76180,37,4,3:0:0:0:
106,340,76372,1,4,3:0:0:0:
188,348,76565,1,0,1:0:0:0:
147,344,76757,1,4,3:0:0:0:
46,181,76949,85,6,3:0:0:0:
46,181,77141,1,2,0:0:0:0:
125,24,77334,21,2,1:2:0:0:
162,108,77430,1,2,0:0:0:0:
262,71,77526,69,2,0:2:0:0:
241,76,77622,1,2,1:2:0:0:
314,138,77718,37,4,3:0:0:0:
437,126,77910,1,4,3:0:0:0:
355,134,78103,1,0,1:0:0:0:
396,130,78295,1,4,3:0:0:0:
499,283,78488,85,6,3:0:0:0:
499,283,78680,1,2,0:0:0:0:
327,284,78872,21,2,1:2:0:0:
240,320,78968,1,2,0:0:0:0:
174,250,79065,69,2,0:2:0:0:
178,234,79161,1,2,1:2:0:0:
98,302,79257,37,4,3:0:0:0:
82,139,79449,1,4,3:0:0:0:
91,228,79642,1,0,1:0:0:0:
90,221,79738,1,4,3:0:0:0:
90,213,79834,1,4,3:0:0:0:
39,75,80026,85,6,3:0:0:0:
39,75,80218,1,2,0:0:0:0:
195,100,80411,21,2,1:2:0:0:
211,104,80507,1,2,0:0:0:0:
297,89,80603,69,2,0:2:0:0:
316,2,80699,1,2,1:2:0:0:
404,22,80795,37,4,3:0:0:0:
384,111,80988,1,4,3:0:0:0:
231,235,81180,37,0,1:0:0:0:
245,190,81276,1,0,0:0:0:0:
282,165,81372,1,0,1:0:0:0:
327,168,81468,1,0,1:0:0:0:
364,196,81565,1,6,1:2:0:0:
364,196,81757,1,2,0:0:0:0:
215,120,81949,69,2,1:2:0:0:
244,37,82045,1,2,0:0:0:0:
132,93,82142,69,2,0:2:0:0:
119,89,82238,1,2,1:2:0:0:
48,149,82334,37,4,3:0:0:0:
60,272,82526,1,4,3:0:0:0:
52,190,82719,1,0,1:0:0:0:
56,231,82911,1,4,3:0:0:0:
221,214,83102,85,6,3:0:0:0:
221,214,83295,1,2,0:0:0:0:
110,71,83488,21,2,1:2:0:0:
133,77,83583,1,2,0:0:0:0:
229,27,83679,69,2,0:2:0:0:
207,113,83775,1,2,0:2:0:0:
305,72,83872,37,4,3:0:0:0:
317,195,84064,1,4,3:0:0:0:
309,113,84257,1,0,1:0:0:0:
313,154,84449,1,4,3:0:0:0:
482,97,84641,85,6,3:0:0:0:
482,97,84834,1,2,0:0:0:0:
437,263,85026,21,2,1:2:0:0:
440,280,85122,1,2,0:0:0:0:
347,311,85218,69,2,0:2:0:0:
261,290,85314,1,2,1:2:0:0:
205,365,85411,37,4,3:0:0:0:
42,349,85603,1,4,3:0:0:0:
131,358,85796,1,0,1:0:0:0:
124,357,85891,1,4,3:0:0:0:
116,357,85988,1,4,3:0:0:0:
33,158,86180,85,6,1:2:0:0:
33,158,86372,1,4,3:0:0:0:
251,97,86565,53,4,3:0:0:0:
245,129,86661,1,4,3:0:0:0:
157,224,86756,5,6,1:3:0:0:
143,145,86853,1,4,3:0:0:0:
232,247,86949,5,6,1:3:0:0:
157,224,87046,5,0,0:0:0:0:
149,262,87142,1,4,3:0:0:0:
169,294,87238,1,0,0:0:0:0:
250,366,87334,85,6,3:0:0:0:
248,352,87430,1,4,3:0:0:0:
246,338,87526,1,4,3:0:0:0:
244,324,87622,1,0,0:0:0:0:
311,280,87718,37,6,1:2:0:0:
311,280,87911,1,2,0:0:0:0:
497,116,88103,21,2,1:2:0:0:
471,122,88199,1,2,0:0:0:0:
372,26,88295,69,2,0:2:0:0:
458,39,88391,1,2,1:2:0:0:
393,139,88488,37,4,3:0:0:0:
270,127,88680,1,4,3:0:0:0:
352,135,88873,1,0,1:0:0:0:
311,131,89065,1,4,3:0:0:0:
213,8,89257,85,6,3:0:0:0:
213,8,89449,1,2,0:0:0:0:
140,153,89641,21,2,1:2:0:0:
143,129,89738,1,2,0:0:0:0:
64,91,89834,69,2,0:2:0:0:
5,153,89930,1,2,1:2:0:0:
45,231,90026,37,4,3:0:0:0:
57,354,90218,1,4,3:0:0:0:
49,272,90411,1,0,1:0:0:0:
53,313,90603,1,4,3:0:0:0:
222,361,90795,85,6,3:0:0:0:
222,361,90988,1,2,0:0:0:0:
360,251,91180,21,2,1:2:0:0:
379,158,91276,1,2,0:0:0:0:
279,229,91372,69,2,0:2:0:0:
261,231,91469,1,2,1:2:0:0:
204,152,91564,37,4,3:0:0:0:
41,168,91756,1,4,3:0:0:0:
130,159,91949,1,0,1:0:0:0:
123,160,92045,1,4,3:0:0:0:
115,160,92141,1,4,3:0:0:0:
156,8,92334,85,6,3:0:0:0:
156,8,92526,1,2,0:0:0:0:
271,106,92718,21,2,1:2:0:0:
363,129,92815,1,2,0:0:0:0:
447,63,92911,69,2,0:2:0:0:
431,72,93007,1,2,1:2:0:0:
431,190,93103,37,4,3:0:0:0:
423,272,93296,1,4,3:0:0:0:
221,294,93488,37,0,1:0:0:0:
257,265,93585,1,0,0:0:0:0:
302,263,93681,1,0,1:0:0:0:
339,288,93777,1,0,1:0:0:0:
354,332,93873,1,6,1:2:0:0:
354,332,94065,1,2,0:0:0:0:
263,139,94257,69,2,1:2:0:0:
260,161,94353,1,2,0:0:0:0:
193,217,94449,69,2,0:2:0:0:
107,178,94545,1,2,1:2:0:0:
45,251,94641,37,4,3:0:0:0:
57,374,94833,1,4,3:0:0:0:
49,292,95026,1,0,1:0:0:0:
53,333,95218,1,4,3:0:0:0:
221,373,95411,85,6,3:0:0:0:
221,373,95603,1,2,0:0:0:0:
309,220,95795,21,2,1:2:0:0:
324,137,95891,1,2,0:0:0:0:
409,193,95988,69,2,0:2:0:0:
411,204,96084,1,2,1:2:0:0:
375,288,96180,37,4,3:0:0:0:
498,300,96372,1,4,3:0:0:0:
416,292,96565,1,0,1:0:0:0:
457,296,96757,1,4,3:0:0:0:
506,149,96949,85,6,3:0:0:0:
506,149,97141,1,2,0:0:0:0:
378,37,97334,21,2,1:2:0:0:
375,50,97430,1,2,0:0:0:0:
224,57,97526,69,2,0:2:0:0:
302,102,97622,1,2,1:2:0:0:
273,184,97718,37,4,3:0:0:0:
110,200,97910,1,4,3:0:0:0:
199,191,98103,1,0,1:0:0:0:
192,192,98199,1,4,3:0:0:0:
184,192,98295,1,4,3:0:0:0:
76,99,98488,85,6,1:2:0:0:
76,99,98680,1,4,3:0:0:0:
80,241,98872,53,4,3:0:0:0:
88,266,98968,1,4,3:0:0:0:
173,279,99065,5,6,1:3:0:0:
191,192,99161,1,0,3:0:0:0:
173,279,99257,5,6,1:3:0:0:
228,331,99353,5,0,0:0:0:0:
250,298,99449,1,4,3:0:0:0:
249,261,99545,1,0,0:0:0:0:
332,229,99641,85,6,1:3:0:0:
330,243,99737,1,0,3:0:0:0:
328,257,99833,1,0,3:0:0:0:
326,271,99929,1,0,0:0:0:0:
403,284,100026,37,6,1:0:0:0:
403,284,100218,1,2,0:0:0:0:
480,38,100411,53,2,1:2:0:0:
406,33,100507,1,2,0:0:0:0:
472,55,100603,69,2,0:2:0:0:
398,50,100699,1,2,1:2:0:0:
324,45,100795,37,4,3:0:0:0:
336,168,100987,1,4,3:0:0:0:
328,86,101180,1,0,1:0:0:0:
332,127,101372,1,4,3:0:0:0:
144,124,101565,53,6,3:0:0:0:
144,124,101757,1,2,0:0:0:0:
76,314,101949,53,2,1:2:0:0:
150,319,102045,1,2,0:0:0:0:
84,297,102141,69,2,0:2:0:0:
158,302,102237,1,2,1:2:0:0:
232,307,102334,37,4,3:0:0:0:
217,182,102526,1,4,3:0:0:0:
202,57,102718,1,0,1:0:0:0:
250,313,102911,5,0,1:0:0:0:
235,188,103007,1,0,1:0:0:0:
220,63,103103,1,6,1:2:0:0:
220,63,103295,1,2,0:0:0:0:
485,245,103488,101,2,1:2:0:0:
411,250,103584,1,2,0:0:0:0:
477,228,103680,69,2,0:2:0:0:
403,233,103776,1,2,1:2:0:0:
329,238,103872,37,4,3:0:0:0:
341,115,104064,1,4,3:0:0:0:
333,197,104257,1,0,1:0:0:0:
337,156,104449,1,4,3:0:0:0:
135,266,104641,53,6,3:0:0:0:
135,266,104834,1,2,0:0:0:0:
40,64,105026,53,2,1:2:0:0:
114,59,105122,1,2,0:0:0:0:
48,81,105218,69,2,0:2:0:0:
122,76,105314,1,2,1:2:0:0:
196,71,105411,37,4,3:0:0:0:
196,71,105603,1,4,3:0:0:0:
48,81,105795,5,0,1:0:0:0:
122,76,105891,1,0,0:0:0:0:
196,71,105987,1,0,1:0:0:0:
270,66,106083,1,0,1:0:0:0:
344,61,106180,37,6,1:2:0:0:
344,61,106372,1,2,0:0:0:0:
499,215,106565,53,2,1:2:0:0:
425,210,106661,1,2,0:0:0:0:
491,232,106757,69,2,0:2:0:0:
417,227,106853,1,2,1:2:0:0:
343,222,106949,37,4,3:0:0:0:
355,345,107141,1,4,3:0:0:0:
347,263,107334,1,0,1:0:0:0:
351,304,107526,1,4,3:0:0:0:
166,380,107718,53,6,3:0:0:0:
166,380,107911,1,2,0:0:0:0:
23,244,108103,53,2,1:2:0:0:
97,239,108199,1,2,0:0:0:0:
31,261,108295,69,2,0:2:0:0:
105,256,108391,1,2,1:2:0:0:
179,251,108488,37,4,3:0:0:0:
194,126,108680,1,4,3:0:0:0:
209,1,108872,1,0,1:0:0:0:
194,264,109065,5,0,1:0:0:0:
209,139,109161,1,0,1:0:0:0:
224,14,109257,1,6,1:2:0:0:
224,14,109449,1,2,0:0:0:0:
512,219,109641,101,2,1:2:0:0:
438,224,109737,1,2,0:0:0:0:
504,202,109834,69,2,0:2:0:0:
430,207,109929,1,2,1:2:0:0:
356,212,110026,37,4,3:0:0:0:
371,89,110218,1,4,3:0:0:0:
360,170,110411,1,0,1:0:0:0:
366,130,110603,1,4,3:0:0:0:
166,164,110795,53,6,1:2:0:0:
166,164,110988,1,4,3:0:0:0:
9,18,111180,69,4,3:0:0:0:
87,17,111276,1,4,3:0:0:0:
165,16,111372,1,6,1:3:0:0:
243,15,111468,1,4,3:0:0:0:
321,14,111565,5,6,1:3:0:0:
243,15,111661,5,0,0:0:0:0:
253,53,111757,1,4,3:0:0:0:
281,80,111853,1,0,0:0:0:0:
220,161,111949,5,6,1:3:0:0:
218,147,112045,1,4,3:0:0:0:
216,133,112141,1,4,3:0:0:0:
214,119,112237,1,4,3:0:0:0:
131,132,112334,69,6,1:2:0:0:
299,152,112526,1,4,3:0:0:0:
349,236,112718,101,6,1:2:0:0:
353,220,112815,1,2,0:0:0:0:
287,293,112911,5,4,3:0:0:0:
220,224,113007,1,2,0:2:0:0:
130,251,113103,101,4,1:2:0:0:
244,139,113295,1,4,3:0:0:0:
287,293,113488,5,4,1:2:0:0:
130,251,113680,1,4,3:0:0:0:
244,139,113872,101,6,1:2:0:0:
287,293,114065,1,4,3:0:0:0:
436,267,114257,5,6,1:2:0:0:
435,254,114353,1,2,0:0:0:0:
510,129,114449,101,4,3:0:0:0:
435,175,114545,1,2,0:2:0:0:
356,134,114641,5,4,1:2:0:0:
512,220,114834,1,4,3:0:0:0:
324,307,115026,101,4,1:2:0:0:
191,296,115122,1,0,0:0:0:0:
313,321,115218,5,0,1:0:0:0:
181,311,115314,1,0,1:0:0:0:
49,301,115411,101,6,1:2:0:0:
182,163,115603,5,4,3:0:0:0:
301,25,115795,101,6,1:2:0:0:
289,113,115891,1,2,0:0:0:0:
371,79,115988,5,4,3:0:0:0:
403,89,116084,1,2,0:2:0:0:
384,0,116180,101,4,1:2:0:0:
215,60,116372,1,4,3:0:0:0:
276,205,116565,5,4,1:2:0:0:
301,25,116757,1,4,3:0:0:0:
201,147,116949,101,6,1:2:0:0:
371,79,117141,1,4,3:0:0:0:
125,228,117334,5,6,1:2:0:0:
132,204,117430,1,2,0:0:0:0:
51,168,117526,101,4,3:0:0:0:
0,232,117622,1,2,0:2:0:0:
49,301,117718,5,4,1:2:0:0:
245,270,117911,1,4,3:0:0:0:
441,239,118103,1,4,1:2:0:0:
49,283,118295,101,0,1:0:0:0:
245,252,118392,1,0,1:0:0:0:
441,221,118488,5,6,1:2:0:0:
441,221,118680,1,4,3:0:0:0:
278,169,118872,101,6,1:2:0:0:
282,152,118969,1,2,0:0:0:0:
275,65,119065,5,4,3:0:0:0:
350,104,119161,1,2,0:2:0:0:
421,61,119257,101,4,1:2:0:0:
362,187,119449,1,4,3:0:0:0:
275,65,119641,5,4,1:2:0:0:
430,138,119833,1,4,3:0:0:0:
348,19,120026,101,6,1:2:0:0:
279,157,120218,1,4,3:0:0:0:
435,122,120411,5,6,1:2:0:0:
430,138,120507,1,2,0:0:0:0:
362,187,120603,101,4,3:0:0:0:
433,242,120699,1,2,0:2:0:0:
403,318,120795,5,4,1:2:0:0:
430,138,120988,1,4,3:0:0:0:
134,0,121180,101,4,1:2:0:0:
145,133,121276,1,0,0:0:0:0:
120,11,121372,5,0,1:0:0:0:
130,143,121468,1,0,1:0:0:0:
140,275,121565,101,4,1:2:0:0:
324,213,121757,5,4,3:0:0:0:
495,139,121949,101,4,1:2:0:0:
481,223,122045,1,2,0:0:0:0:
409,158,122141,5,4,3:0:0:0:
405,182,122238,1,2,0:2:0:0:
324,213,122334,5,4,1:2:0:0:
276,157,122430,5,0,0:0:0:0:
301,141,122526,1,4,3:0:0:0:
334,138,122622,1,0,0:0:0:0:
240,247,122718,5,4,1:2:0:0:
238,230,122814,1,0,1:0:0:0:
144,226,122911,5,4,3:0:0:0:
147,219,123007,1,4,3:0:0:0:
65,161,123103,37,4,1:2:0:0:
238,230,123295,5,4,3:0:0:0:
430,184,123488,69,4,1:0:0:0:
452,80,123584,1,4,3:0:0:0:
345,149,123680,5,6,1:2:0:0:
357,155,123776,1,4,3:0:0:0:
365,320,123872,5,6,1:2:0:0:
384,249,123968,1,0,0:0:0:0:
313,229,124065,1,4,3:0:0:0:
294,300,124161,1,0,0:0:0:0:
170,341,124257,69,6,1:2:0:0:
158,297,124353,1,4,3:0:0:0:
202,285,124449,1,4,3:0:0:0:
213,329,124545,1,4,3:0:0:0:
209,340,124641,69,4,1:0:0:0:
