osu file format v14

[General]
AudioFilename: audio.mp3
AudioLeadIn: 0
PreviewTime: 785
Countdown: 0
SampleSet: Soft
StackLeniency: 0.4
Mode: 0
LetterboxInBreaks: 0
EpilepsyWarning: 1
WidescreenStoryboard: 1

[Editor]
Bookmarks: 10401,26170,50785,63093,74439,75401,100016,111170,114824,116555,120978
DistanceSpacing: 0.2
BeatDivisor: 4
GridSize: 32
TimelineZoom: 3.199998

[Metadata]
Title:Tokyo's Starlight
TitleUnicode:Tokyo's Starlight
Artist:HyuN
ArtistUnicode:HyuN
Creator:Heilia
Version:Extra
Source:osu!
Tags:mappers guild mapper's guild featured artist instrumental Nasmoeb Beomsan Beom neoskylove affirmation electronic
BeatmapID:2234734
BeatmapSetID:1011055

[Difficulty]
HPDrainRate:5
CircleSize:4.5
OverallDifficulty:8
ApproachRate:9.3
SliderMultiplier:1.69999990463257
SliderTickRate:1

[Events]
//Background and Video events
0,0,"bgg.jpg",0,0
//Break Periods
//Storyboard Layer 0 (Background)
//Storyboard Layer 1 (Fail)
//Storyboard Layer 2 (Pass)
//Storyboard Layer 3 (Foreground)
//Storyboard Layer 4 (Overlay)
//Storyboard Sound Samples

[TimingPoints]
1565,384.615384615385,4,2,99,40,1,0
1565,-133.333333333333,4,2,99,40,0,0
10026,-90.9090909090909,4,2,99,40,0,0
10795,-133.333333333333,4,2,99,40,0,0
22334,-90.9090909090909,4,2,99,40,0,0
23103,-133.333333333333,4,2,99,40,0,0
25603,-83.3333333333333,4,2,99,40,0,0
26180,-66.6666666666667,4,2,99,85,0,0
50795,-66.6666666666667,4,2,99,55,0,0
52334,-100,4,2,99,55,0,0
63103,-100,4,2,99,65,0,0
75411,-66.6666666666667,4,2,99,85,0,0
112334,-58.8235294117647,4,2,99,90,0,1
124641,-83.3333333333333,4,2,99,90,0,0

[Colours]
Combo1 : 255,198,170
Combo2 : 255,162,208
Combo3 : 157,157,255
Combo4 : 136,196,255
Combo5 : 192,192,192
Combo6 : 226,226,199
Combo7 : 220,73,143
Combo8 : 145,200,200

[HitObjects]
171,187,1565,54,0,P|216:177|239:185,2,63.7499988555908,2|0|0,0:0|0:0|0:0,0:0:0:0:
132,257,2141,2,0,P|124:180|111:113,1,127.499997711182,2|0,0:0|0:0,0:0:0:0:
49,84,2718,2,0,P|77:58|119:57,1,63.7499988555908,2|0,0:0|0:0,0:0:0:0:
115,130,3103,38,0,P|158:135|196:134,1,63.7499988555908,2|0,0:0|0:0,0:0:0:0:
214,207,3487,2,0,P|253:190|286:170,1,63.7499988555908,2|0,0:0|0:0,0:0:0:0:
340,221,3872,2,0,P|365:187|383:153,1,63.7499988555908,2|0,0:0|0:0,0:0:0:0:
453,187,4257,2,0,P|458:144|457:106,1,63.7499988555908,2|0,0:0|0:0,0:0:0:0:
415,55,4641,70,0,P|455:41|493:52,2,63.7499988555908,2|0|0,0:0|0:0|0:0,0:0:0:0:
357,0,5218,2,0,P|367:68|368:156,1,127.499997711182,2|0,0:0|0:0,0:0:0:0:
444,152,5795,2,0,P|437:183|435:215,1,63.7499988555908,2|0,0:0|0:0,0:0:0:0:
436,300,6180,38,0,P|404:293|372:291,1,63.7499988555908,2|0,0:0|0:0,0:0:0:0:
315,235,6565,2,0,P|284:245|255:258,1,63.7499988555908,0|0,0:0|0:0,0:0:0:0:
59,359,6949,69,2,0:0:0:0:
47,285,7141,1,2,0:0:0:0:
114,248,7334,1,2,0:0:0:0:
168,304,7526,1,2,0:0:0:0:
147,119,7718,38,0,P|160:76|181:51,2,63.7499988555908,2|0|0,0:0|0:0|0:0,0:0:0:0:
75,154,8295,2,0,P|138:159|195:185,1,127.499997711182,2|0,0:0|0:0,0:0:0:0:
262,231,8872,2,0,L|252:304,1,63.7499988555908,2|0,0:0|0:0,0:0:0:0:
403,282,9257,70,0,P|361:275|319:279,1,63.7499988555908,2|0,0:0|0:0,0:0:0:0:
215,154,9641,2,0,P|257:147|299:151,1,63.7499988555908,2|0,0:0|0:0,0:0:0:0:
252,323,10026,38,0,P|254:274|264:220,1,93.4999976081848,2|0,0:0|0:0,0:0:0:0:
120,72,10411,2,0,P|127:118|129:164,1,93.4999976081848,2|0,0:0|0:0,0:0:0:0:
311,81,10795,70,0,P|278:74|243:84,2,63.7499988555908,2|0|0,0:0|0:0|0:0,0:0:0:0:
377,33,11372,2,0,P|363:82|357:165,1,127.499997711182,2|0,0:0|0:0,0:0:0:0:
379,254,11949,2,0,L|315:262,1,63.7499988555908,0|0,0:0|0:0,0:0:0:0:
119,290,12334,37,2,0:0:0:0:
37,187,12526,1,2,0:0:0:0:
109,77,12718,1,2,0:0:0:0:
235,111,12911,1,2,0:0:0:0:
241,241,13103,69,2,0:0:0:0:
316,262,13295,1,0,0:0:0:0:
356,197,13488,1,2,0:0:0:0:
309,139,13680,1,2,0:0:0:0:
280,60,13872,38,0,P|314:48|343:51,2,63.7499988555908,2|0|0,0:0|0:0|0:0,0:0:0:0:
225,117,14449,2,0,P|239:48|197:0,1,127.499997711182,2|0,0:0|0:0,0:0:0:0:
166,67,15026,2,0,P|135:77|99:79,1,63.7499988555908,2|0,0:0|0:0,0:0:0:0:
1,2,15411,70,0,P|11:49|13:75,1,63.7499988555908,2|0,0:0|0:0,0:0:0:0:
78,111,15795,2,0,P|68:158|66:184,1,63.7499988555908,2|0,0:0|0:0,0:0:0:0:
0,210,16180,2,0,P|10:257|12:283,1,63.7499988555908,2|0,0:0|0:0,0:0:0:0:
77,319,16564,2,0,P|67:366|65:392,1,63.7499988555908,2|0,0:0|0:0,0:0:0:0:
193,296,16949,38,0,P|187:257|176:228,2,63.7499988555908,2|0|0,0:0|0:0|0:0,0:0:0:0:
177,374,17526,2,0,P|222:316|301:353,1,127.499997711182,2|0,0:0|0:0,0:0:0:0:
345,344,18103,2,0,P|337:264|337:264,1,63.7499988555908,2|0,0:0|0:0,0:0:0:0:
348,195,18488,70,0,P|313:209|280:216,1,63.7499988555908,2|0,0:0|0:0,0:0:0:0:
177,129,18872,2,0,P|188:158|205:185,1,63.7499988555908,0|0,0:0|0:0,0:0:0:0:
427,153,19257,37,2,0:0:0:0:
427,76,19449,1,2,0:0:0:0:
354,53,19642,1,2,0:0:0:0:
310,115,19834,1,2,0:0:0:0:
351,239,20026,70,0,P|348:280|341:317,2,63.7499988555908,2|0|0,0:0|0:0|0:0,0:0:0:0:
417,190,20603,2,0,P|336:188|319:104,1,127.499997711182,2|0,0:0|0:0,0:0:0:0:
249,107,21180,2,0,L|164:115,1,63.7499988555908,2|0,0:0|0:0,0:0:0:0:
98,81,21565,38,0,P|111:130|113:166,1,63.7499988555908,2|0,0:0|0:0,0:0:0:0:
163,254,21949,2,0,P|168:222|178:192,1,63.7499988555908,2|0,0:0|0:0,0:0:0:0:
348,195,22334,70,0,P|296:181|245:182,1,93.4999976081848,2|0,0:0|0:0,0:0:0:0:
98,81,22718,2,0,P|150:67|201:68,1,93.4999976081848,2|0,0:0|0:0,0:0:0:0:
56,227,23103,38,0,P|53:189|47:162,2,63.7499988555908,2|0|0,0:0|0:0|0:0,0:0:0:0:
28,311,23680,2,0,P|86:260|160:288,1,127.499997711182,2|0,0:0|0:0,0:0:0:0:
210,254,24257,2,0,L|200:332,1,63.7499988555908,2|0,0:0|0:0,0:0:0:0:
56,227,24641,69,2,3:0:0:0:
56,227,25026,1,2,3:0:0:0:
56,227,25411,1,4,3:0:0:0:
107,0,25603,37,0,1:0:0:0:
99,24,25699,1,0,1:0:0:0:
95,49,25795,1,4,3:0:0:0:
95,75,25892,1,4,3:0:0:0:
98,100,25988,1,0,1:0:0:0:
105,124,26084,1,0,1:0:0:0:
116,148,26180,6,0,P|157:191|252:157,1,127.499997711182,6|2,1:3|0:0,0:0:0:0:
332,82,26468,1,0,0:0:0:0:
332,82,26565,2,0,P|316:150|313:176,1,63.7499988555908,2|2,1:2|0:0,0:0:0:0:
381,352,26757,1,2,3:2:0:0:
428,291,26853,1,2,1:2:0:0:
376,236,26949,38,0,P|340:236|292:263,1,63.7499988555908,4|0,3:0|0:0,0:0:0:0:
375,225,27141,2,0,P|339:225|291:252,1,63.7499988555908,4|0,3:0|0:0,0:0:0:0:
462,168,27334,70,0,P|436:142|383:127,1,63.7499988555908,0|0,1:0|0:0,0:0:0:0:
469,159,27526,2,0,P|443:133|390:118,1,63.7499988555908,4|0,3:0|0:0,0:0:0:0:
324,28,27718,38,0,P|315:64|308:114,1,63.7499988555908,6|0,3:0|0:0,0:0:0:0:
83,54,27911,2,0,P|159:67|210:73,1,127.499997711182,2|2,0:0|1:2,0:0:0:0:
277,216,28199,1,2,0:0:0:0:
289,198,28295,2,0,L|198:214,1,63.7499988555908,2|2,0:2|1:2,0:0:0:0:
83,54,28488,70,0,P|93:94|114:120,1,63.7499988555908,4|0,3:0|0:0,0:0:0:0:
57,91,28680,2,0,P|86:120|117:132,1,63.7499988555908,4|0,3:0|0:0,0:0:0:0:
28,273,28872,38,0,P|68:283|101:278,1,63.7499988555908,0|0,1:0|0:0,0:0:0:0:
47,314,29064,2,0,P|86:302|112:281,1,63.7499988555908,4|0,3:0|0:0,0:0:0:0:
252,352,29257,70,0,L|241:252,1,63.7499988555908,6|0,3:0|0:0,0:0:0:0:
359,175,29449,2,0,L|366:112,1,63.7499988555908,2|0,0:0|0:0,0:0:0:0:
169,261,29641,37,2,1:2:0:0:
195,222,29737,1,2,0:0:0:0:
239,204,29833,1,2,0:2:0:0:
285,215,29929,1,2,1:2:0:0:
317,249,30026,70,0,P|366:257|424:262,1,63.7499988555908,4|0,3:0|0:0,0:0:0:0:
320,265,30218,2,0,P|369:273|427:278,1,63.7499988555908,4|0,3:0|0:0,0:0:0:0:
512,149,30411,38,0,P|463:157|405:162,1,63.7499988555908,0|0,1:0|0:0,0:0:0:0:
509,165,30603,2,0,P|460:173|402:178,1,63.7499988555908,4|0,3:0|0:0,0:0:0:0:
322,18,30795,70,0,P|311:50|305:88,1,63.7499988555908,6|0,3:0|0:0,0:0:0:0:
125,68,30988,1,2,0:0:0:0:
125,68,31084,1,0,0:0:0:0:
125,68,31180,2,0,P|182:54|207:52,1,63.7499988555908,2|2,1:2|0:0,0:0:0:0:
249,284,31372,1,2,0:2:0:0:
303,226,31468,1,2,1:2:0:0:
270,155,31565,38,0,P|231:158|180:159,1,63.7499988555908,4|0,3:0|0:0,0:0:0:0:
17,243,31757,2,0,P|48:241|80:239,1,63.7499988555908,4|0,3:0|0:0,0:0:0:0:
114,146,31949,69,0,1:0:0:0:
119,165,32045,1,0,3:0:0:0:
169,233,32141,37,0,1:0:0:0:
164,252,32237,1,0,1:0:0:0:
112,314,32334,70,0,P|192:303|266:302,1,127.499997711182,6|2,1:2|0:0,0:0:0:0:
388,220,32622,1,0,0:0:0:0:
388,220,32719,2,0,P|356:217|324:212,1,63.7499988555908,2|2,1:2|0:0,0:0:0:0:
207,9,32911,1,2,0:2:0:0:
169,77,33007,1,2,1:2:0:0:
219,136,33103,38,0,P|250:131|282:128,1,63.7499988555908,4|0,3:0|0:0,0:0:0:0:
223,154,33295,2,0,P|254:149|286:146,1,63.7499988555908,0|0,3:0|0:0,0:0:0:0:
157,224,33488,70,0,P|137:198|119:172,1,63.7499988555908,0|0,1:0|0:0,0:0:0:0:
144,236,33680,2,0,P|124:210|106:184,1,63.7499988555908,4|0,3:0|0:0,0:0:0:0:
261,247,33872,38,0,P|247:275|235:305,1,63.7499988555908,6|0,3:0|0:0,0:0:0:0:
72,353,34065,2,0,P|137:362|219:383,1,127.499997711182,2|2,0:0|1:2,0:0:0:0:
370,376,34353,1,2,0:0:0:0:
386,364,34449,2,0,P|379:305|377:275,1,63.7499988555908,2|2,0:2|1:2,0:0:0:0:
468,159,34641,70,0,P|459:213|456:241,1,63.7499988555908,4|0,3:0|0:0,0:0:0:0:
440,169,34834,2,0,P|440:223|442:251,1,63.7499988555908,4|0,3:0|0:0,0:0:0:0:
329,36,35026,38,0,P|338:90|341:118,1,63.7499988555908,0|0,1:0|0:0,0:0:0:0:
357,46,35219,2,0,P|356:100|354:128,1,63.7499988555908,4|0,3:0|0:0,0:0:0:0:
289,220,35411,70,0,P|238:215|168:207,1,63.7499988555908,6|0,3:0|0:0,0:0:0:0:
93,42,35603,2,0,P|98:73|103:104,1,63.7499988555908,2|0,0:0|0:0,0:0:0:0:
193,290,35795,37,2,1:2:0:0:
154,264,35891,1,2,0:0:0:0:
136,220,35987,1,2,0:2:0:0:
147,174,36083,1,2,1:2:0:0:
181,142,36180,70,0,P|189:93|194:35,1,63.7499988555908,4|0,3:0|0:0,0:0:0:0:
195,151,36372,2,0,P|203:102|208:44,1,63.7499988555908,4|0,3:0|0:0,0:0:0:0:
289,220,36565,38,0,P|297:269|302:327,1,63.7499988555908,0|0,1:0|0:0,0:0:0:0:
303,211,36757,2,0,P|311:260|316:318,1,63.7499988555908,4|0,3:0|0:0,0:0:0:0:
414,187,36949,70,0,P|444:179|476:173,1,63.7499988555908,6|0,1:2|0:0,0:0:0:0:
267,97,37141,1,4,3:0:0:0:
267,97,37238,1,0,0:0:0:0:
267,97,37334,2,0,P|235:92|203:87,1,63.7499988555908,4|4,3:0|3:0,0:0:0:0:
51,12,37526,1,6,1:3:0:0:
34,89,37622,1,4,3:0:0:0:
99,130,37718,69,6,1:3:0:0:
118,167,37814,1,0,0:0:0:0:
119,209,37910,1,4,3:0:0:0:
103,248,38006,1,0,0:0:0:0:
43,304,38103,5,2,1:3:0:0:
46,322,38199,1,4,3:0:0:0:
49,340,38295,1,4,3:0:0:0:
52,358,38391,1,0,0:0:0:0:
131,376,38488,22,0,P|209:372|270:366,1,127.499997711182,6|2,1:2|0:0,0:0:0:0:
414,289,38776,1,0,0:0:0:0:
414,289,38872,2,0,P|352:284|329:285,1,63.7499988555908,2|2,1:2|0:0,0:0:0:0:
166,113,39065,1,2,0:2:0:0:
136,184,39161,1,2,1:2:0:0:
194,234,39257,38,0,P|256:229|279:230,1,63.7499988555908,4|0,3:0|0:0,0:0:0:0:
201,216,39449,2,0,P|262:221|285:226,1,63.7499988555908,4|0,3:0|0:0,0:0:0:0:
343,17,39641,70,0,P|348:79|347:102,1,63.7499988555908,0|0,1:0|0:0,0:0:0:0:
361,24,39833,2,0,P|355:85|350:108,1,63.7499988555908,4|0,3:0|0:0,0:0:0:0:
405,269,40026,38,0,L|397:182,1,63.7499988555908,6|0,3:0|0:0,0:0:0:0:
434,116,40218,2,0,P|390:167|305:145,1,127.499997711182,2|2,0:0|1:2,0:0:0:0:
216,48,40507,1,2,0:0:0:0:
232,60,40603,2,0,B|220:149,1,63.7499988555908,2|2,0:2|1:2,0:0:0:0:
272,284,40795,70,0,P|219:270|189:269,1,63.7499988555908,4|0,3:0|0:0,0:0:0:0:
258,248,40988,2,0,P|226:252|196:262,1,63.7499988555908,4|0,3:0|0:0,0:0:0:0:
4,141,41180,38,0,P|57:155|87:156,1,63.7499988555908,0|0,1:0|0:0,0:0:0:0:
18,177,41373,2,0,P|49:172|79:162,1,63.7499988555908,4|0,3:0|0:0,0:0:0:0:
128,312,41565,70,0,P|113:254|129:217,1,63.7499988555908,6|0,3:0|0:0,0:0:0:0:
268,97,41757,2,0,P|266:128|253:157,1,63.7499988555908,2|0,0:0|0:0,0:0:0:0:
147,0,41950,37,2,1:2:0:0:
152,47,42046,1,2,0:0:0:0:
158,94,42142,1,2,0:2:0:0:
163,142,42238,1,2,1:2:0:0:
169,189,42334,70,0,L|258:194,1,63.7499988555908,4|0,3:0|0:0,0:0:0:0:
167,204,42526,2,0,L|256:209,1,63.7499988555908,4|0,3:0|0:0,0:0:0:0:
414,300,42718,38,0,L|325:305,1,63.7499988555908,0|0,1:0|0:0,0:0:0:0:
416,315,42910,2,0,L|327:320,1,63.7499988555908,4|0,3:0|0:0,0:0:0:0:
262,354,43103,70,0,P|251:303|259:283,1,63.7499988555908,6|0,3:0|0:0,0:0:0:0:
76,341,43295,1,2,0:0:0:0:
76,341,43391,1,0,0:0:0:0:
76,341,43488,2,0,P|106:333|137:324,1,63.7499988555908,2|2,1:2|0:0,0:0:0:0:
212,123,43680,1,2,0:2:0:0:
142,85,43776,1,2,1:2:0:0:
87,139,43872,38,0,P|92:173|98:225,1,63.7499988555908,4|0,3:0|0:0,0:0:0:0:
276,71,44065,2,0,P|279:39|284:7,1,63.7499988555908,4|0,3:0|0:0,0:0:0:0:
234,232,44257,69,0,1:0:0:0:
238,249,44353,1,0,3:0:0:0:
323,239,44449,37,0,1:0:0:0:
327,256,44545,1,0,1:0:0:0:
416,263,44641,70,0,P|441:192|396:136,1,127.499997711182,6|2,1:2|0:0,0:0:0:0:
253,148,44930,1,0,0:0:0:0:
253,148,45026,2,0,P|301:153|335:159,1,63.7499988555908,2|2,1:2|0:0,0:0:0:0:
416,0,45218,1,2,0:2:0:0:
376,65,45315,1,2,1:2:0:0:
293,44,45411,38,0,P|246:44|215:65,1,63.7499988555908,4|0,3:0|0:0,0:0:0:0:
293,32,45603,2,0,P|246:32|215:53,1,63.7499988555908,4|0,3:0|0:0,0:0:0:0:
67,40,45795,70,0,P|90:80|124:97,1,63.7499988555908,0|0,1:0|0:0,0:0:0:0:
56,46,45987,2,0,P|79:86|113:103,1,63.7499988555908,4|0,3:0|0:0,0:0:0:0:
178,256,46180,38,0,P|201:215|198:177,1,63.7499988555908,6|0,3:0|0:0,0:0:0:0:
10,239,46372,2,0,P|71:191|137:218,1,127.499997711182,2|2,0:0|1:2,0:0:0:0:
108,348,46661,1,2,0:0:0:0:
93,340,46757,2,0,L|84:254,1,63.7499988555908,2|2,0:2|1:2,0:0:0:0:
73,94,46949,70,0,P|21:85|1:86,1,63.7499988555908,4|0,3:0|0:0,0:0:0:0:
77,80,47141,2,0,P|25:71|5:72,1,63.7499988555908,4|0,3:0|0:0,0:0:0:0:
179,57,47334,38,0,P|148:13|133:0,1,63.7499988555908,0|0,1:0|0:0,0:0:0:0:
191,49,47526,2,0,P|160:5|145:-7,1,63.7499988555908,4|0,3:0|0:0,0:0:0:0:
283,91,47718,70,0,P|292:39|291:19,1,63.7499988555908,6|0,3:0|0:0,0:0:0:0:
134,161,47911,2,0,P|165:155|196:150,1,63.7499988555908,2|0,0:0|0:0,0:0:0:0:
471,233,48103,37,2,1:2:0:0:
431,257,48199,1,2,0:0:0:0:
391,281,48295,1,2,0:2:0:0:
369,241,48391,1,2,1:2:0:0:
347,201,48488,70,0,P|315:206|284:211,1,63.7499988555908,4|0,3:0|0:0,0:0:0:0:
351,189,48680,2,0,P|319:194|288:199,1,63.7499988555908,4|0,3:0|0:0,0:0:0:0:
290,355,48872,38,0,P|295:323|300:292,1,63.7499988555908,0|0,1:0|0:0,0:0:0:0:
278,359,49064,2,0,P|283:327|288:296,1,63.7499988555908,4|0,3:0|0:0,0:0:0:0:
447,354,49257,70,0,P|415:349|384:343,1,63.7499988555908,6|0,1:2|0:0,0:0:0:0:
197,318,49449,1,4,3:0:0:0:
197,318,49545,1,0,0:0:0:0:
197,318,49641,2,0,P|165:322|134:328,1,63.7499988555908,4|4,3:0|3:0,0:0:0:0:
0,144,49834,1,6,3:0:0:0:
74,150,49930,1,4,3:0:0:0:
149,157,50026,69,6,3:0:0:0:
186,138,50122,1,0,0:0:0:0:
228,137,50218,1,4,3:0:0:0:
267,153,50314,1,0,0:0:0:0:
319,216,50411,5,6,3:0:0:0:
337,213,50507,1,4,3:0:0:0:
355,210,50603,1,4,3:0:0:0:
373,207,50699,1,0,0:0:0:0:
416,142,50795,85,6,0:0:0:0:
392,344,50988,1,2,0:0:0:0:
404,243,51372,5,2,0:0:0:0:
424,145,51757,37,2,3:0:0:0:
412,246,51950,1,2,3:0:0:0:
400,347,52141,1,2,3:0:0:0:
400,347,52334,2,0,P|328:338|285:334,1,84.9999952316285,2|2,0:0|0:0,0:0:0:0:
83,362,52718,21,2,0:0:0:0:
70,284,52911,1,2,0:0:0:0:
148,271,53103,1,2,0:0:0:0:
161,349,53295,1,2,0:0:0:0:
168,359,53680,22,0,P|228:354|260:352,1,84.9999952316285,2|2,0:0|0:0,0:0:0:0:
98,205,54065,5,2,0:0:0:0:
122,3,54450,1,2,0:0:0:0:
90,202,54834,37,2,3:0:0:0:
102,101,55027,1,2,3:0:0:0:
114,0,55218,1,2,3:0:0:0:
114,0,55411,2,0,P|157:5|212:7,1,84.9999952316285,2|2,0:0|0:0,0:0:0:0:
432,29,55795,21,2,0:0:0:0:
374,82,55988,1,2,0:0:0:0:
299,57,56180,1,2,0:0:0:0:
357,5,56372,1,2,0:0:0:0:
357,5,56757,21,0,0:0:0:0:
357,5,56853,1,0,0:0:0:0:
357,5,56949,6,0,P|346:87|345:128,1,84.9999952316285,4|0,1:0|0:0,0:0:0:0:
141,51,57334,2,0,P|223:40|264:39,1,84.9999952316285,0|0,1:0|0:0,0:0:0:0:
131,176,57718,1,0,1:0:0:0:
131,176,57911,1,0,0:0:0:0:
131,176,58103,2,0,P|89:168|46:164,1,84.9999952316285,0|0,1:0|0:0,0:0:0:0:
167,369,58488,22,0,P|142:339|155:283,1,84.9999952316285,0|0,1:0|0:0,0:0:0:0:
348,285,58872,2,0,P|305:288|263:296,1,84.9999952316285,0|0,1:0|0:0,0:0:0:0:
203,142,59257,2,0,L|191:57,1,84.9999952316285,0|0,1:0|0:0,0:0:0:0:
191,57,59641,1,0,1:0:0:0:
498,33,60026,86,0,P|490:84|486:133,1,84.9999952316285,0|0,1:0|0:0,0:0:0:0:
282,85,60411,2,0,P|333:77|382:73,1,84.9999952316285,0|0,1:0|0:0,0:0:0:0:
494,247,60795,1,0,1:0:0:0:
494,247,60988,1,0,0:0:0:0:
494,247,61180,2,0,P|443:239|394:235,1,84.9999952316285,0|0,1:0|0:0,0:0:0:0:
314,311,61565,6,0,P|272:318|230:323,1,84.9999952316285,4|4,3:0|3:0,0:0:0:0:
114,261,61949,1,0,1:0:0:0:
189,138,62141,1,4,3:0:0:0:
189,138,62238,1,0,1:3:0:0:
189,138,62334,101,0,3:0:0:0:
226,157,62430,1,0,3:0:0:0:
268,158,62526,1,4,3:0:0:0:
307,142,62622,1,0,3:0:0:0:
367,82,62719,21,0,1:0:0:0:
364,64,62815,1,0,3:0:0:0:
361,46,62911,1,0,1:0:0:0:
358,28,63007,1,0,1:0:0:0:
280,3,63103,85,4,3:1:0:0:
210,40,63295,1,4,3:0:0:0:
138,11,63488,1,0,1:0:0:0:
76,60,63680,1,0,0:0:0:0:
79,72,63776,1,0,1:0:0:0:
82,84,63872,1,0,0:0:0:0:
127,151,64065,1,4,3:0:0:0:
77,214,64257,1,0,1:0:0:0:
125,279,64449,1,0,0:0:0:0:
417,276,64641,85,4,3:0:0:0:
337,285,64834,1,4,3:0:0:0:
257,294,65026,1,0,1:0:0:0:
206,234,65218,1,0,0:0:0:0:
209,220,65315,1,0,1:0:0:0:
212,208,65411,1,0,0:0:0:0:
133,200,65603,1,4,3:0:0:0:
125,279,65795,2,0,L|134:368,1,84.9999952316285,0|0,1:0|0:0,0:0:0:0:
281,355,66180,21,4,3:0:0:0:
351,316,66372,1,4,3:0:0:0:
411,364,66565,1,0,1:0:0:0:
486,335,66757,1,0,0:0:0:0:
499,336,66853,1,0,1:0:0:0:
512,337,66949,1,0,0:0:0:0:
496,261,67141,1,4,3:0:0:0:
512,185,67334,1,0,1:0:0:0:
496,109,67526,1,0,0:0:0:0:
171,39,67718,85,4,3:0:0:0:
241,0,67911,1,4,3:0:0:0:
294,58,68103,1,0,1:0:0:0:
372,70,68295,1,0,0:0:0:0:
369,80,68391,1,0,1:0:0:0:
367,92,68488,1,0,0:0:0:0:
306,139,68680,1,4,3:0:0:0:
411,336,68872,21,0,1:0:0:0:
398,335,68968,1,0,3:0:0:0:
385,334,69064,1,0,1:0:0:0:
372,333,69161,1,0,1:0:0:0:
359,332,69257,85,4,3:2:0:0:
287,367,69449,1,4,3:0:0:0:
216,332,69641,1,0,1:0:0:0:
140,360,69834,1,0,0:0:0:0:
127,357,69930,1,0,1:0:0:0:
114,354,70026,1,0,0:0:0:0:
39,373,70218,1,4,3:0:0:0:
60,296,70411,1,0,1:0:0:0:
0,244,70603,1,0,0:0:0:0:
222,12,70795,21,4,3:0:0:0:
213,89,70988,1,4,3:0:0:0:
204,166,71180,1,0,1:0:0:0:
195,243,71372,1,0,0:0:0:0:
198,255,71468,1,0,1:0:0:0:
201,267,71565,1,0,0:0:0:0:
278,280,71758,1,4,3:0:0:0:
304,355,71949,1,0,1:0:0:0:
227,342,72141,1,4,3:0:0:0:
491,160,72334,85,4,3:0:0:0:
430,111,72526,1,4,3:0:0:0:
363,153,72718,1,0,1:0:0:0:
302,101,72911,1,0,0:0:0:0:
306,88,73007,1,0,1:0:0:0:
310,75,73103,1,0,0:0:0:0:
337,2,73295,1,4,3:0:0:0:
257,11,73488,1,0,1:0:0:0:
177,20,73680,1,0,0:0:0:0:
163,331,73872,37,4,3:0:0:0:
236,364,74065,1,0,3:0:0:0:
305,322,74257,1,0,1:0:0:0:
372,368,74449,101,4,3:0:0:0:
382,365,74546,1,4,3:0:0:0:
391,363,74642,5,0,3:0:0:0:
410,326,74738,1,0,3:0:0:0:
411,284,74834,1,4,3:0:0:0:
395,245,74930,1,0,3:0:0:0:
332,195,75027,5,0,1:0:0:0:
314,198,75123,1,0,3:0:0:0:
296,201,75219,1,0,1:0:0:0:
278,204,75315,1,0,1:0:0:0:
223,259,75411,6,0,P|217:291|196:384,1,127.499997711182,6|0,1:0|0:0,0:0:0:0:
53,260,75699,1,0,0:0:0:0:
53,260,75795,2,0,P|110:267|169:270,1,63.7499988555908,2|2,1:2|0:0,0:0:0:0:
353,67,75988,1,2,0:2:0:0:
386,136,76084,1,2,1:2:0:0:
332,195,76180,38,0,P|295:189|251:184,1,63.7499988555908,4|0,3:0|0:0,0:0:0:0:
322,207,76372,2,0,P|285:198|242:189,1,63.7499988555908,4|0,3:0|0:0,0:0:0:0:
140,30,76565,70,0,P|176:24|220:19,1,63.7499988555908,0|0,1:0|0:0,0:0:0:0:
150,42,76757,2,0,P|186:33|229:24,1,63.7499988555908,4|0,3:0|0:0,0:0:0:0:
159,192,76949,38,0,P|162:160|168:129,1,63.7499988555908,6|0,3:0|0:0,0:0:0:0:
27,5,77141,2,0,P|64:87|83:142,1,127.499997711182,2|2,0:0|1:2,0:0:0:0:
257,99,77430,1,2,0:0:0:0:
269,88,77526,2,0,L|348:95,1,63.7499988555908,2|2,0:2|1:2,0:0:0:0:
437,12,77718,70,0,P|452:59|451:89,1,63.7499988555908,4|0,3:0|0:0,0:0:0:0:
473,25,77911,2,0,P|462:73|446:98,1,63.7499988555908,4|0,3:0|0:0,0:0:0:0:
398,163,78103,38,0,P|408:211|424:236,1,63.7499988555908,0|0,1:0|0:0,0:0:0:0:
373,192,78296,2,0,P|406:228|432:242,1,63.7499988555908,4|0,3:0|0:0,0:0:0:0:
426,316,78488,70,0,P|407:374|406:388,1,63.7499988555908,6|0,3:0|0:0,0:0:0:0:
232,316,78680,2,0,P|173:308|159:307,1,63.7499988555908,2|0,0:0|0:0,0:0:0:0:
298,384,78872,37,2,1:2:0:0:
321,343,78968,1,2,0:0:0:0:
321,295,79064,1,2,0:2:0:0:
297,255,79160,1,2,1:2:0:0:
255,232,79257,70,0,P|262:193|264:154,1,63.7499988555908,4|0,3:0|0:0,0:0:0:0:
239,232,79449,2,0,P|246:193|248:154,1,63.7499988555908,4|0,3:0|0:0,0:0:0:0:
168,307,79641,38,0,P|175:346|177:385,1,63.7499988555908,0|0,1:0|0:0,0:0:0:0:
152,307,79833,2,0,P|159:346|161:385,1,63.7499988555908,4|0,3:0|0:0,0:0:0:0:
15,242,80026,70,0,L|97:233,1,63.7499988555908,6|0,3:0|0:0,0:0:0:0:
167,126,80218,1,2,0:0:0:0:
167,126,80315,1,0,0:0:0:0:
167,126,80411,2,0,P|160:155|155:188,1,63.7499988555908,2|2,1:2|0:0,0:0:0:0:
2,18,80603,1,2,0:2:0:0:
40,85,80699,1,2,1:2:0:0:
113,59,80795,38,0,P|154:41|190:47,1,63.7499988555908,4|0,3:0|0:0,0:0:0:0:
393,114,80988,2,0,P|361:112|333:96,1,63.7499988555908,4|0,3:0|0:0,0:0:0:0:
289,9,81180,69,0,1:0:0:0:
285,25,81276,1,0,3:0:0:0:
238,95,81372,37,0,1:0:0:0:
242,111,81468,1,0,1:0:0:0:
300,171,81565,70,0,P|291:262|282:303,1,127.499997711182,6|2,1:2|0:0,0:0:0:0:
132,268,81853,1,0,0:0:0:0:
132,268,81949,2,0,P|167:266|205:260,1,63.7499988555908,2|2,1:2|0:0,0:0:0:0:
382,369,82141,1,2,0:2:0:0:
447,326,82238,1,2,1:2:0:0:
419,253,82334,38,0,L|427:170,1,63.7499988555908,4|0,3:0|0:0,0:0:0:0:
404,240,82526,2,0,L|419:158,1,63.7499988555908,4|0,3:0|0:0,0:0:0:0:
497,129,82718,70,0,L|489:46,1,63.7499988555908,0|0,1:0|0:0,0:0:0:0:
512,116,82910,2,0,L|496:34,1,63.7499988555908,4|0,3:0|0:0,0:0:0:0:
224,14,83103,38,0,P|229:65|264:92,1,63.7499988555908,6|0,3:0|0:0,0:0:0:0:
408,68,83295,2,0,P|347:21|280:55,1,127.499997711182,2|2,0:0|1:2,0:0:0:0:
317,180,83584,1,2,0:0:0:0:
333,171,83680,2,0,L|339:90,1,63.7499988555908,2|0,0:2|0:0,0:0:0:0:
221,295,83872,70,0,P|211:248|209:213,1,63.7499988555908,4|0,3:0|0:0,0:0:0:0:
211,303,84065,2,0,P|201:256|199:221,1,63.7499988555908,4|0,3:0|0:0,0:0:0:0:
92,213,84257,38,0,P|118:172|141:146,1,63.7499988555908,0|0,1:0|0:0,0:0:0:0:
79,211,84450,2,0,P|105:170|128:144,1,63.7499988555908,4|0,3:0|0:0,0:0:0:0:
66,52,84641,70,0,P|113:42|148:40,1,63.7499988555908,6|0,3:0|0:0,0:0:0:0:
350,100,84834,2,0,P|318:96|287:88,1,63.7499988555908,2|0,0:0|0:0,0:0:0:0:
266,0,85026,37,2,1:2:0:0:
230,31,85122,1,2,0:0:0:0:
198,64,85218,1,2,0:2:0:0:
209,107,85314,1,2,1:2:0:0:
220,149,85411,70,0,P|227:198|231:256,1,63.7499988555908,4|0,3:0|0:0,0:0:0:0:
229,150,85603,2,0,P|236:199|240:257,1,63.7499988555908,4|0,3:0|0:0,0:0:0:0:
345,274,85795,38,0,P|305:305|258:338,1,63.7499988555908,0|0,1:0|0:0,0:0:0:0:
348,282,85987,2,0,P|309:313|260:346,1,63.7499988555908,4|0,3:0|0:0,0:0:0:0:
217,379,86180,70,0,P|160:368|144:365,1,63.7499988555908,6|0,1:2|0:0,0:0:0:0:
44,150,86372,1,4,3:0:0:0:
44,150,86468,1,0,0:0:0:0:
44,150,86565,2,0,P|49:181|56:212,1,63.7499988555908,4|4,3:0|3:0,0:0:0:0:
3,306,86757,1,6,1:3:0:0:
75,338,86853,1,4,3:0:0:0:
129,280,86950,69,6,1:3:0:0:
169,271,87046,1,0,0:0:0:0:
210,281,87142,1,4,3:0:0:0:
244,306,87238,1,0,0:0:0:0:
306,362,87334,5,6,3:0:0:0:
325,360,87430,1,4,3:0:0:0:
343,358,87526,1,4,3:0:0:0:
361,357,87622,1,0,0:0:0:0:
430,315,87718,22,0,P|437:235|446:171,1,127.499997711182,6|2,1:2|0:0,0:0:0:0:
512,40,88007,1,0,0:0:0:0:
512,40,88103,2,0,P|491:95|483:111,1,63.7499988555908,2|2,1:2|0:0,0:0:0:0:
251,41,88295,1,2,0:2:0:0:
322,6,88391,1,2,1:2:0:0:
377,62,88488,38,0,P|373:119|363:143,1,63.7499988555908,4|0,3:0|0:0,0:0:0:0:
365,67,88680,2,0,P|361:124|351:148,1,63.7499988555908,4|0,3:0|0:0,0:0:0:0:
456,193,88872,70,0,P|412:230|388:240,1,63.7499988555908,0|0,1:0|0:0,0:0:0:0:
443,188,89064,2,0,P|399:225|375:235,1,63.7499988555908,4|0,3:0|0:0,0:0:0:0:
366,329,89257,38,0,P|306:319|283:320,1,63.7499988555908,6|0,3:0|0:0,0:0:0:0:
113,351,89449,2,0,P|195:342|199:266,1,127.499997711182,2|2,0:0|1:2,0:0:0:0:
289,179,89738,1,2,0:0:0:0:
281,200,89834,2,0,P|249:202|218:210,1,63.7499988555908,2|2,0:2|1:2,0:0:0:0:
94,239,90026,70,0,P|108:210|116:179,1,63.7499988555908,4|0,3:0|0:0,0:0:0:0:
83,235,90218,2,0,P|97:206|105:175,1,63.7499988555908,4|0,3:0|0:0,0:0:0:0:
146,60,90411,38,0,P|163:86|186:109,1,63.7499988555908,0|0,1:0|0:0,0:0:0:0:
154,53,90603,2,0,P|171:79|194:102,1,63.7499988555908,4|0,3:0|0:0,0:0:0:0:
393,91,90795,70,0,P|383:140|382:178,1,63.7499988555908,6|0,3:0|0:0,0:0:0:0:
260,27,90988,2,0,P|309:17|347:16,1,63.7499988555908,2|0,0:0|0:0,0:0:0:0:
301,322,91180,37,2,1:2:0:0:
296,275,91276,1,2,0:0:0:0:
290,228,91372,1,2,0:2:0:0:
285,180,91468,1,2,1:2:0:0:
279,133,91564,70,0,P|230:140|191:142,1,63.7499988555908,4|0,3:0|0:0,0:0:0:0:
262,111,91757,2,0,P|216:130|179:142,1,63.7499988555908,4|0,3:0|0:0,0:0:0:0:
0,52,91949,38,0,P|49:45|88:43,1,63.7499988555908,0|0,1:0|0:0,0:0:0:0:
17,74,92142,2,0,P|62:54|99:42,1,63.7499988555908,4|0,3:0|0:0,0:0:0:0:
109,132,92334,70,0,L|115:202,1,63.7499988555908,6|0,3:0|0:0,0:0:0:0:
16,304,92526,1,2,0:0:0:0:
16,304,92622,1,0,0:0:0:0:
16,304,92718,2,0,P|57:297|96:288,1,63.7499988555908,2|2,1:2|0:0,0:0:0:0:
288,346,92911,1,2,0:2:0:0:
220,384,93007,1,2,1:2:0:0:
164,332,93103,38,0,L|169:268,1,63.7499988555908,4|0,3:0|0:0,0:0:0:0:
293,201,93295,2,0,L|287:137,1,63.7499988555908,4|0,3:0|0:0,0:0:0:0:
118,47,93488,69,0,1:0:0:0:
121,32,93584,1,0,3:0:0:0:
198,52,93680,37,0,1:0:0:0:
201,37,93776,1,0,1:0:0:0:
278,57,93872,70,0,P|320:21|397:43,1,127.499997711182,6|2,1:2|0:0,0:0:0:0:
512,132,94161,1,0,0:0:0:0:
512,132,94257,2,0,P|452:123|432:122,1,63.7499988555908,2|2,1:2|0:0,0:0:0:0:
231,195,94449,1,2,0:2:0:0:
287,137,94545,1,2,1:2:0:0:
360,171,94641,38,0,P|356:233|356:252,1,63.7499988555908,4|0,3:0|0:0,0:0:0:0:
384,193,94834,2,0,P|364:251|359:270,1,63.7499988555908,4|0,3:0|0:0,0:0:0:0:
484,301,95026,70,0,P|488:363|488:382,1,63.7499988555908,0|0,1:0|0:0,0:0:0:0:
460,323,95219,2,0,P|479:381|484:400,1,63.7499988555908,4|0,3:0|0:0,0:0:0:0:
348,365,95411,38,0,P|312:362|269:358,1,63.7499988555908,6|0,3:0|0:0,0:0:0:0:
189,187,95603,2,0,P|221:259|200:314,1,127.499997711182,2|2,0:0|1:2,0:0:0:0:
106,362,95891,1,2,0:0:0:0:
90,353,95988,2,0,L|83:272,1,63.7499988555908,2|2,0:2|1:2,0:0:0:0:
5,167,96180,70,0,P|47:161|84:169,1,63.7499988555908,4|0,3:0|0:0,0:0:0:0:
21,130,96372,2,0,P|60:145|88:171,1,63.7499988555908,4|0,3:0|0:0,0:0:0:0:
120,19,96565,38,0,P|146:52|157:88,1,63.7499988555908,0|0,1:0|0:0,0:0:0:0:
160,15,96757,2,0,P|166:57|158:94,1,63.7499988555908,4|0,3:0|0:0,0:0:0:0:
284,252,96949,70,0,L|277:181,1,63.7499988555908,6|0,3:0|0:0,0:0:0:0:
429,110,97141,2,0,P|479:114|511:122,1,63.7499988555908,2|0,0:0|0:0,0:0:0:0:
207,144,97334,37,2,1:2:0:0:
241,113,97430,1,2,0:0:0:0:
289,107,97526,1,2,0:2:0:0:
330,129,97622,1,2,1:2:0:0:
352,170,97718,70,0,L|346:56,1,63.7499988555908,4|0,3:0|0:0,0:0:0:0:
365,166,97911,2,0,L|359:52,1,63.7499988555908,4|0,3:0|0:0,0:0:0:0:
501,245,98103,38,0,L|387:239,1,63.7499988555908,0|0,1:0|0:0,0:0:0:0:
497,258,98296,2,0,L|383:252,1,63.7499988555908,4|0,3:0|0:0,0:0:0:0:
343,383,98488,70,0,P|361:334|373:304,1,63.7499988555908,6|0,1:2|0:0,0:0:0:0:
202,295,98680,1,4,3:0:0:0:
202,295,98776,1,0,0:0:0:0:
202,295,98872,2,0,P|232:303|263:312,1,63.7499988555908,4|4,3:0|3:0,0:0:0:0:
82,372,99065,1,6,1:3:0:0:
70,293,99161,1,0,3:0:0:0:
58,214,99257,69,6,1:3:0:0:
85,183,99353,1,0,0:0:0:0:
97,142,99449,1,4,3:0:0:0:
92,101,99545,1,0,0:0:0:0:
51,30,99641,69,6,1:3:0:0:
70,28,99737,1,0,3:0:0:0:
88,26,99833,1,0,3:0:0:0:
106,25,99929,1,0,0:0:0:0:
178,62,100026,38,0,P|240:70|311:75,1,127.499997711182,6|2,1:0|0:0,0:0:0:0:
451,0,100315,1,0,0:0:0:0:
451,0,100411,2,0,P|390:11|374:12,1,63.7499988555908,2|2,1:2|0:0,0:0:0:0:
453,255,100603,1,2,0:2:0:0:
487,184,100699,1,2,1:2:0:0:
433,121,100795,70,0,P|392:129|349:125,1,63.7499988555908,4|0,3:0|0:0,0:0:0:0:
433,131,100988,2,0,P|392:139|349:135,1,63.7499988555908,4|0,3:0|0:0,0:0:0:0:
337,237,101180,38,0,P|302:213|274:180,1,63.7499988555908,0|0,1:0|0:0,0:0:0:0:
330,245,101372,2,0,P|295:221|267:188,1,63.7499988555908,4|0,3:0|0:0,0:0:0:0:
172,239,101565,70,0,L|166:156,1,63.7499988555908,6|0,3:0|0:0,0:0:0:0:
230,69,101757,2,0,P|149:92|101:101,1,127.499997711182,2|2,0:0|1:2,0:0:0:0:
0,10,102045,1,2,0:0:0:0:
14,0,102141,2,0,L|4:78,1,63.7499988555908,2|2,0:2|1:2,0:0:0:0:
0,210,102334,38,0,P|8:274|9:286,1,63.7499988555908,4|0,3:0|0:0,0:0:0:0:
167,175,102526,2,0,P|136:183|106:193,1,63.7499988555908,4|0,3:0|0:0,0:0:0:0:
180,326,102718,2,0,P|210:334|240:344,1,63.7499988555908,0|0,1:0|0:0,0:0:0:0:
479,261,102911,69,0,1:0:0:0:
405,271,103007,1,0,1:0:0:0:
331,281,103103,38,0,L|323:199,1,63.7499988555908,6|0,1:2|0:0,0:0:0:0:
436,62,103295,2,0,P|410:154|403:191,1,127.499997711182,2|2,0:0|1:2,0:0:0:0:
254,117,103584,1,2,0:0:0:0:
243,101,103680,2,0,P|292:106|315:108,1,63.7499988555908,2|2,0:2|1:2,0:0:0:0:
143,7,103872,70,0,P|133:58|131:84,1,63.7499988555908,4|0,3:0|0:0,0:0:0:0:
117,24,104065,2,0,P|120:75|125:101,1,63.7499988555908,4|0,3:0|0:0,0:0:0:0:
7,127,104257,38,0,P|35:170|52:189,1,63.7499988555908,0|0,1:0|0:0,0:0:0:0:
0,157,104450,2,0,P|39:191|60:205,1,63.7499988555908,4|0,3:0|0:0,0:0:0:0:
86,310,104641,70,0,P|135:306|193:307,1,63.7499988555908,6|0,3:0|0:0,0:0:0:0:
363,242,104834,2,0,P|313:238|255:239,1,63.7499988555908,2|0,0:0|0:0,0:0:0:0:
209,384,105026,37,2,1:2:0:0:
228,340,105122,1,2,0:0:0:0:
243,297,105218,1,2,0:2:0:0:
215,262,105314,1,2,1:2:0:0:
187,229,105411,70,0,L|202:130,1,63.7499988555908,4|0,3:0|0:0,0:0:0:0:
17,83,105603,2,0,L|80:73,1,63.7499988555908,4|0,3:0|0:0,0:0:0:0:
111,167,105795,37,0,1:0:0:0:
116,148,105891,1,0,3:0:0:0:
168,86,105988,69,0,1:0:0:0:
163,67,106084,1,0,1:0:0:0:
128,0,106180,38,0,P|175:46|253:19,1,127.499997711182,6|2,1:2|0:0,0:0:0:0:
379,87,106468,1,0,0:0:0:0:
379,87,106565,2,0,P|325:93|289:104,1,63.7499988555908,2|2,1:2|0:0,0:0:0:0:
173,270,106757,1,2,0:2:0:0:
143,202,106853,1,2,1:2:0:0:
199,152,106949,70,0,P|245:158|278:162,1,63.7499988555908,4|0,3:0|0:0,0:0:0:0:
203,142,107141,2,0,P|249:148|282:152,1,63.7499988555908,4|0,3:0|0:0,0:0:0:0:
463,256,107334,38,0,P|417:262|384:266,1,63.7499988555908,0|0,1:0|0:0,0:0:0:0:
459,246,107526,2,0,P|413:252|380:256,1,63.7499988555908,4|0,3:0|0:0,0:0:0:0:
250,344,107718,70,0,L|174:331,1,63.7499988555908,6|0,3:0|0:0,0:0:0:0:
330,204,107911,2,0,P|312:263|340:318,1,127.499997711182,2|2,0:0|1:2,0:0:0:0:
476,384,108199,1,2,0:0:0:0:
490,372,108295,2,0,L|502:298,1,63.7499988555908,2|2,0:2|1:2,0:0:0:0:
501,139,108488,38,0,P|454:136|428:138,1,63.7499988555908,4|0,3:0|0:0,0:0:0:0:
486,117,108680,2,0,P|439:126|415:134,1,63.7499988555908,4|0,3:0|0:0,0:0:0:0:
270,127,108872,70,0,P|223:130|197:128,1,63.7499988555908,0|0,1:0|0:0,0:0:0:0:
255,149,109064,2,0,P|208:139|184:131,1,63.7499988555908,0|0,1:0|1:0,0:0:0:0:
62,279,109257,38,0,P|69:330|69:362,1,63.7499988555908,6|0,1:2|0:0,0:0:0:0:
112,103,109449,2,0,P|114:71|119:39,1,63.7499988555908,2|0,0:0|0:0,0:0:0:0:
0,212,109641,69,2,1:2:0:0:
41,189,109737,1,2,0:0:0:0:
89,189,109833,1,2,0:2:0:0:
129,213,109929,1,2,1:2:0:0:
152,255,110026,38,0,P|191:248|230:246,1,63.7499988555908,4|0,3:0|0:0,0:0:0:0:
153,267,110218,2,0,P|192:260|231:258,1,63.7499988555908,4|0,3:0|0:0,0:0:0:0:
272,338,110411,70,0,P|294:305|320:276,1,63.7499988555908,0|0,1:0|0:0,0:0:0:0:
281,345,110603,2,0,P|303:312|329:283,1,63.7499988555908,4|0,3:0|0:0,0:0:0:0:
423,296,110795,38,0,P|416:257|414:218,1,63.7499988555908,6|0,1:2|0:0,0:0:0:0:
504,127,110988,1,4,3:0:0:0:
504,127,111084,1,0,0:0:0:0:
504,127,111180,2,0,P|510:88|513:49,1,63.7499988555908,4|4,3:0|3:0,0:0:0:0:
307,7,111372,1,6,1:3:0:0:
246,58,111468,1,4,3:0:0:0:
279,127,111565,69,6,1:3:0:0:
293,165,111661,1,0,0:0:0:0:
291,207,111757,1,4,3:0:0:0:
272,244,111853,1,0,0:0:0:0:
210,294,111949,37,6,1:3:0:0:
192,290,112045,1,4,3:0:0:0:
174,287,112141,1,4,3:0:0:0:
155,284,112237,1,4,3:0:0:0:
81,315,112334,6,0,P|39:230|61:169,1,144.499994649887,6|4,1:2|3:0,0:0:0:0:
218,139,112621,1,0,0:0:0:0:
218,139,112718,2,0,P|154:155|117:162,1,72.2499973249436,6|2,1:2|0:0,0:0:0:0:
0,9,112911,1,4,3:0:0:0:
55,66,113007,1,2,0:2:0:0:
129,42,113103,102,0,P|166:47|206:50,1,72.2499973249436,4|0,1:2|0:0,0:0:0:0:
316,183,113295,1,4,3:0:0:0:
316,183,113391,1,0,0:0:0:0:
316,183,113488,2,0,P|303:124|293:86,1,72.2499973249436,4|0,1:2|0:0,0:0:0:0:
489,15,113680,2,0,P|480:50|473:85,1,72.2499973249436,4|0,3:0|0:0,0:0:0:0:
373,10,113872,6,0,P|391:100|401:183,1,144.499994649887,6|4,1:2|3:0,0:0:0:0:
457,309,114161,1,0,0:0:0:0:
457,309,114257,2,0,P|467:237|482:166,1,144.499994649887,6|4,1:2|3:0,0:0:0:0:
316,183,114545,1,2,0:2:0:0:
316,183,114641,2,0,P|359:176|429:170,1,72.2499973249436,4|0,1:2|0:0,0:0:0:0:
256,29,114834,2,0,P|213:22|143:16,1,72.2499973249436,4|0,3:0|0:0,0:0:0:0:
139,275,115026,101,4,1:2:0:0:
143,255,115122,1,0,3:0:0:0:
84,196,115218,5,0,1:0:0:0:
80,176,115314,1,0,1:0:0:0:
154,134,115411,102,0,P|91:88|7:151,1,144.499994649887,6|4,1:2|3:0,0:0:0:0:
256,29,115699,1,0,0:0:0:0:
256,29,115795,2,0,P|241:99|231:171,1,144.499994649887,6|4,1:2|3:0,0:0:0:0:
89,247,116084,1,2,0:2:0:0:
89,247,116180,6,0,P|82:187|78:167,1,72.2499973249436,4|0,1:2|0:0,0:0:0:0:
265,313,116372,2,0,P|259:348|255:384,1,72.2499973249436,4|0,3:0|0:0,0:0:0:0:
457,160,116565,2,0,P|387:154|337:203,1,144.499994649887,4|4,1:2|3:0,0:0:0:0:
398,377,116853,1,0,0:0:0:0:
398,377,116949,102,0,P|408:277|419:209,1,144.499994649887,6|4,1:2|3:0,0:0:0:0:
238,21,117238,1,0,0:0:0:0:
238,21,117334,2,0,P|248:92|255:164,1,144.499994649887,6|4,1:2|3:0,0:0:0:0:
136,294,117622,1,2,0:2:0:0:
136,294,117718,2,0,P|186:283|239:279,1,72.2499973249436,4|0,1:2|0:0,0:0:0:0:
70,171,117911,2,0,P|34:162|0:157,1,72.2499973249436,4|0,3:0|0:0,0:0:0:0:
343,11,118103,5,4,1:2:0:0:
350,23,118295,101,0,1:0:0:0:
360,129,118391,1,0,1:0:0:0:
370,235,118488,6,0,P|455:193|516:215,1,144.499994649887,6|4,1:2|3:0,0:0:0:0:
379,359,118775,1,0,0:0:0:0:
379,359,118872,2,0,P|320:351|276:350,1,72.2499973249436,6|2,1:2|0:0,0:0:0:0:
116,216,119065,1,4,3:0:0:0:
171,273,119161,1,2,0:2:0:0:
245,249,119257,102,0,P|250:210|259:154,1,72.2499973249436,4|0,1:2|0:0,0:0:0:0:
88,297,119449,1,4,3:0:0:0:
88,297,119545,1,0,0:0:0:0:
88,297,119641,2,0,P|93:332|97:368,1,72.2499973249436,4|0,1:2|0:0,0:0:0:0:
0,106,119834,2,0,P|37:113|72:116,1,72.2499973249436,4|0,3:0|0:0,0:0:0:0:
310,72,120026,6,0,P|280:121|166:93,1,144.499994649887,6|4,1:2|3:0,0:0:0:0:
95,37,120315,1,0,0:0:0:0:
95,37,120411,2,0,P|110:108|120:179,1,144.499994649887,6|4,1:2|3:0,0:0:0:0:
249,314,120699,1,2,0:2:0:0:
249,314,120795,2,0,P|253:278|259:242,1,72.2499973249436,4|0,1:2|0:0,0:0:0:0:
441,106,120988,2,0,P|405:110|369:116,1,72.2499973249436,4|0,3:0|0:0,0:0:0:0:
496,372,121180,101,4,1:2:0:0:
500,352,121276,1,0,3:0:0:0:
441,293,121372,5,0,1:0:0:0:
437,273,121468,1,0,1:0:0:0:
511,231,121565,102,0,P|448:185|364:248,1,144.499994649887,4|4,1:2|3:0,0:0:0:0:
227,365,121853,1,0,0:0:0:0:
227,365,121949,2,0,P|297:350|369:340,1,144.499994649887,4|4,1:2|3:0,0:0:0:0:
109,126,122334,21,4,1:2:0:0:
144,129,122430,1,0,0:0:0:0:
179,132,122526,1,4,3:0:0:0:
215,135,122623,1,0,0:0:0:0:
239,108,122718,21,4,1:2:0:0:
274,105,122814,1,0,1:0:0:0:
309,102,122910,1,4,3:0:0:0:
345,99,123007,1,4,3:0:0:0:
375,128,123103,54,0,B|397:193|397:193|355:261,1,144.499994649887,4|4,1:2|3:0,0:0:0:0:
61,363,123488,5,4,1:0:0:0:
82,295,123584,1,4,3:0:0:0:
142,257,123680,1,6,1:2:0:0:
212,265,123776,1,4,3:0:0:0:
261,317,123872,69,6,1:2:0:0:
296,320,123968,1,0,0:0:0:0:
331,323,124064,1,4,3:0:0:0:
367,326,124161,1,0,0:0:0:0:
440,292,124257,5,6,1:2:0:0:
441,277,124353,1,4,3:0:0:0:
442,262,124449,1,4,3:0:0:0:
444,247,124545,1,4,3:0:0:0:
404,177,124641,5,4,1:0:0:0:
