osu file format v14

[General]
AudioFilename: audio.mp3
AudioLeadIn: 0
PreviewTime: 56765
Countdown: 0
SampleSet: Soft
StackLeniency: 0.6
Mode: 3
LetterboxInBreaks: 0
SpecialStyle: 0
WidescreenStoryboard: 0

[Editor]
Bookmarks: 19301,28667,38033,56765,75496,94228,112960,131691,152765
DistanceSpacing: 0.5
BeatDivisor: 4
GridSize: 4
TimelineZoom: 2.1

[Metadata]
Title:The Apocalypse
TitleUnicode:降臨 -The Apocalypse-
Artist:HyuN
ArtistUnicode:HyuN
Creator:Reba
Version:Fallen Angels
Source:BOFU2017
Tags:kourin KRUX THE BMS OF FIGHTERS ULTIMATE 2017 LEGENDA EST A MYTH electronic instrumental Renaissance Hardcore core piano Kim_GodSSI KimGodSSI Jakads _VianK_ Madoka2574 FA featured artist Team Masterpiece チームメンバーリンク
BeatmapID:1722248
BeatmapSetID:821730

[Difficulty]
HPDrainRate:9
CircleSize:7
OverallDifficulty:8.5
ApproachRate:5
SliderMultiplier:1.4
SliderTickRate:1

[Events]
//Background and Video events
0,0,"Apocalypse BG.jpg",0,0
//Break Periods
//Storyboard Layer 0 (Background)
//Storyboard Layer 1 (Fail)
//Storyboard Layer 2 (Pass)
//Storyboard Layer 3 (Foreground)
//Storyboard Layer 4 (Overlay)
//Storyboard Sound Samples

[TimingPoints]
570,292.682926829268,4,2,1,50,1,0

[HitObjects]
475,192,570,5,0,0:0:0:0:
256,192,570,1,0,0:0:0:0:
402,192,570,1,0,0:0:0:0:
36,192,570,128,0,1301:0:0:0:0:
109,192,716,1,0,0:0:0:0:
109,192,862,128,0,1448:0:0:0:0:
329,192,862,1,0,0:0:0:0:
475,192,862,1,0,0:0:0:0:
182,192,1009,1,0,0:0:0:0:
182,192,1155,128,0,1594:0:0:0:0:
475,192,1155,1,0,0:0:0:0:
402,192,1155,1,0,0:0:0:0:
329,192,1301,1,0,0:0:0:0:
36,192,1448,128,0,1594:0:0:0:0:
256,192,1448,1,0,0:0:0:0:
475,192,1448,1,0,0:0:0:0:
329,192,1594,1,0,0:0:0:0:
109,192,1594,1,0,0:0:0:0:
402,192,1740,128,0,2472:0:0:0:0:
182,192,1740,1,0,0:0:0:0:
36,192,1740,1,0,0:0:0:0:
329,192,1887,1,0,0:0:0:0:
329,192,2033,128,0,2618:0:0:0:0:
475,192,2033,1,0,0:0:0:0:
109,192,2033,1,0,0:0:0:0:
256,192,2179,1,0,0:0:0:0:
256,192,2326,128,0,2765:0:0:0:0:
109,192,2326,1,0,0:0:0:0:
36,192,2326,1,0,0:0:0:0:
182,192,2472,1,0,0:0:0:0:
402,192,2618,128,0,2765:0:0:0:0:
475,192,2618,1,0,0:0:0:0:
36,192,2618,1,0,0:0:0:0:
329,192,2765,1,0,0:0:0:0:
109,192,2765,1,0,0:0:0:0:
402,192,2911,1,0,0:0:0:0:
475,192,2911,1,0,0:0:0:0:
182,192,2911,128,0,3643:0:0:0:0:
256,192,3057,1,0,0:0:0:0:
256,192,3204,128,0,3789:0:0:0:0:
475,192,3204,1,0,0:0:0:0:
36,192,3204,1,0,0:0:0:0:
329,192,3350,1,0,0:0:0:0:
329,192,3496,128,0,3935:0:0:0:0:
36,192,3496,1,0,0:0:0:0:
475,192,3496,1,0,0:0:0:0:
109,192,3643,1,0,0:0:0:0:
182,192,3789,128,0,3935:0:0:0:0:
402,192,3789,1,0,0:0:0:0:
475,192,3789,1,0,0:0:0:0:
256,192,3935,1,0,0:0:0:0:
36,192,3935,1,0,0:0:0:0:
182,192,4082,1,0,0:0:0:0:
475,192,4082,128,0,4813:0:0:0:0:
329,192,4082,1,0,0:0:0:0:
402,192,4228,1,0,0:0:0:0:
402,192,4374,128,0,4960:0:0:0:0:
256,192,4374,1,0,0:0:0:0:
109,192,4374,1,0,0:0:0:0:
329,192,4521,1,0,0:0:0:0:
329,192,4667,128,0,5106:0:0:0:0:
36,192,4667,1,0,0:0:0:0:
182,192,4667,1,0,0:0:0:0:
256,192,4813,1,0,0:0:0:0:
475,192,4960,128,0,5106:0:0:0:0:
109,192,4960,1,0,0:0:0:0:
36,192,4960,1,0,0:0:0:0:
402,192,5106,1,0,0:0:0:0:
256,192,5106,1,0,0:0:0:0:
329,192,5252,1,0,0:0:0:0:
475,192,5252,1,0,0:0:0:0:
109,192,5252,128,0,5984:0:0:0:0:
182,192,5399,1,0,0:0:0:0:
402,192,5545,1,0,0:0:0:0:
182,192,5545,128,0,6130:0:0:0:0:
475,192,5545,1,0,0:0:0:0:
256,192,5691,1,0,0:0:0:0:
256,192,5838,128,0,6277:0:0:0:0:
475,192,5838,1,0,0:0:0:0:
329,192,5838,1,0,0:0:0:0:
36,192,5984,1,0,0:0:0:0:
109,192,6130,128,0,6277:0:0:0:0:
475,192,6130,1,0,0:0:0:0:
402,192,6130,1,0,0:0:0:0:
182,192,6277,1,0,0:0:0:0:
329,192,6423,128,0,7155:0:0:0:0:
475,192,6423,1,0,0:0:0:0:
109,192,6423,1,0,0:0:0:0:
256,192,6569,1,0,0:0:0:0:
256,192,6716,128,0,7301:0:0:0:0:
402,192,6716,1,0,0:0:0:0:
36,192,6716,1,0,0:0:0:0:
182,192,6862,1,0,0:0:0:0:
182,192,7009,128,0,7448:0:0:0:0:
36,192,7009,1,0,0:0:0:0:
475,192,7009,1,0,0:0:0:0:
402,192,7155,1,0,0:0:0:0:
329,192,7301,128,0,7448:0:0:0:0:
475,192,7301,1,0,0:0:0:0:
36,192,7301,1,0,0:0:0:0:
109,192,7448,1,0,0:0:0:0:
475,192,7594,128,0,8033:0:0:0:0:
182,192,7594,1,0,0:0:0:0:
329,192,7594,1,0,0:0:0:0:
402,192,7740,128,0,7887:0:0:0:0:
256,192,7740,1,0,0:0:0:0:
182,192,7887,128,0,8179:0:0:0:0:
329,192,7887,1,0,0:0:0:0:
256,192,8033,128,0,8179:0:0:0:0:
402,192,8033,1,0,0:0:0:0:
36,192,8179,128,0,8618:0:0:0:0:
329,192,8179,1,0,0:0:0:0:
109,192,8326,128,0,8472:0:0:0:0:
256,192,8326,1,0,0:0:0:0:
329,192,8472,128,0,8765:0:0:0:0:
182,192,8472,1,0,0:0:0:0:
256,192,8618,128,0,8765:0:0:0:0:
109,192,8618,1,0,0:0:0:0:
475,192,8765,128,0,9057:0:0:0:0:
36,192,8765,1,0,0:0:0:0:
402,192,8862,128,0,9057:0:0:0:0:
109,192,8862,1,0,0:0:0:0:
329,192,8960,128,0,9057:0:0:0:0:
182,192,8960,1,0,0:0:0:0:
109,192,9057,128,0,9350:0:0:0:0:
256,192,9057,1,0,0:0:0:0:
329,192,9155,1,0,0:0:0:0:
182,192,9155,128,0,9350:0:0:0:0:
256,192,9252,128,0,9350:0:0:0:0:
475,192,9252,1,0,0:0:0:0:
36,192,9350,1,0,0:0:0:0:
402,192,9350,128,0,9643:0:0:0:0:
109,192,9448,1,0,0:0:0:0:
329,192,9448,128,0,9643:0:0:0:0:
182,192,9545,1,0,0:0:0:0:
256,192,9545,128,0,9643:0:0:0:0:
36,192,9643,128,0,9935:0:0:0:0:
475,192,9643,1,0,0:0:0:0:
109,192,9740,128,0,9935:0:0:0:0:
402,192,9740,1,0,0:0:0:0:
182,192,9838,128,0,9935:0:0:0:0:
329,192,9838,1,0,0:0:0:0:
256,192,9935,1,0,0:0:0:0:
475,192,9935,1,0,0:0:0:0:
402,192,9935,1,0,0:0:0:0:
329,192,10009,1,0,0:0:0:0:
109,192,10082,1,0,0:0:0:0:
402,192,10082,1,0,0:0:0:0:
182,192,10082,1,0,0:0:0:0:
475,192,10155,1,0,0:0:0:0:
36,192,10228,1,0,0:0:0:0:
256,192,10228,1,0,0:0:0:0:
109,192,10228,1,0,0:0:0:0:
329,192,10301,1,0,0:0:0:0:
402,192,10374,1,0,0:0:0:0:
475,192,10374,1,0,0:0:0:0:
182,192,10374,1,0,0:0:0:0:
109,192,10448,1,0,0:0:0:0:
36,192,10521,1,0,0:0:0:0:
329,192,10521,1,0,0:0:0:0:
402,192,10521,1,0,0:0:0:0:
182,192,10594,1,0,0:0:0:0:
475,192,10667,1,0,0:0:0:0:
329,192,10667,1,0,0:0:0:0:
36,192,10667,1,0,0:0:0:0:
256,192,10740,1,0,0:0:0:0:
182,192,10813,1,0,0:0:0:0:
109,192,10813,1,0,0:0:0:0:
402,192,10813,1,0,0:0:0:0:
329,192,10887,1,0,0:0:0:0:
256,192,10960,1,0,0:0:0:0:
475,192,10960,1,0,0:0:0:0:
36,192,10960,1,0,0:0:0:0:
402,192,11033,1,0,0:0:0:0:
36,192,11106,128,0,11252:0:0:0:0:
329,192,11106,1,0,0:0:0:0:
182,192,11106,1,0,0:0:0:0:
475,192,11179,1,0,0:0:0:0:
256,192,11252,1,0,0:0:0:0:
109,192,11252,1,0,0:0:0:0:
329,192,11326,1,0,0:0:0:0:
182,192,11399,128,0,11545:0:0:0:0:
402,192,11399,1,0,0:0:0:0:
475,192,11399,1,0,0:0:0:0:
329,192,11472,1,0,0:0:0:0:
109,192,11545,1,0,0:0:0:0:
256,192,11545,1,0,0:0:0:0:
402,192,11618,1,0,0:0:0:0:
329,192,11691,128,0,11838:0:0:0:0:
182,192,11691,1,0,0:0:0:0:
36,192,11691,1,0,0:0:0:0:
475,192,11765,1,0,0:0:0:0:
109,192,11838,1,0,0:0:0:0:
36,192,11838,1,0,0:0:0:0:
256,192,11911,1,0,0:0:0:0:
475,192,11984,128,0,12130:0:0:0:0:
402,192,11984,1,0,0:0:0:0:
182,192,11984,1,0,0:0:0:0:
329,192,12057,1,0,0:0:0:0:
256,192,12130,1,0,0:0:0:0:
36,192,12130,1,0,0:0:0:0:
182,192,12204,1,0,0:0:0:0:
109,192,12277,1,0,0:0:0:0:
329,192,12277,1,0,0:0:0:0:
475,192,12277,1,0,0:0:0:0:
402,192,12374,1,0,0:0:0:0:
182,192,12423,1,0,0:0:0:0:
36,192,12423,1,0,0:0:0:0:
329,192,12472,1,0,0:0:0:0:
256,192,12569,1,0,0:0:0:0:
475,192,12569,1,0,0:0:0:0:
36,192,12569,1,0,0:0:0:0:
182,192,12667,1,0,0:0:0:0:
475,192,12716,1,0,0:0:0:0:
329,192,12716,1,0,0:0:0:0:
109,192,12765,1,0,0:0:0:0:
36,192,12862,1,0,0:0:0:0:
182,192,12862,1,0,0:0:0:0:
402,192,12862,1,0,0:0:0:0:
256,192,13009,1,0,0:0:0:0:
475,192,13082,1,0,0:0:0:0:
36,192,13082,1,0,0:0:0:0:
109,192,13082,1,0,0:0:0:0:
329,192,13155,1,0,0:0:0:0:
109,192,13301,1,0,0:0:0:0:
329,192,13301,1,0,0:0:0:0:
402,192,13301,1,0,0:0:0:0:
182,192,13448,1,0,0:0:0:0:
36,192,13448,1,0,0:0:0:0:
402,192,13448,1,0,0:0:0:0:
475,192,13448,128,0,13594:0:0:0:0:
256,192,13594,1,0,0:0:0:0:
109,192,13740,128,0,13887:0:0:0:0:
36,192,13740,1,0,0:0:0:0:
329,192,13740,1,0,0:0:0:0:
475,192,13740,1,0,0:0:0:0:
182,192,13887,1,0,0:0:0:0:
256,192,14033,128,0,14179:0:0:0:0:
402,192,14033,1,0,0:0:0:0:
475,192,14033,1,0,0:0:0:0:
36,192,14033,1,0,0:0:0:0:
329,192,14179,1,0,0:0:0:0:
475,192,14326,128,0,14472:0:0:0:0:
256,192,14326,1,0,0:0:0:0:
109,192,14326,1,0,0:0:0:0:
36,192,14326,1,0,0:0:0:0:
402,192,14472,1,0,0:0:0:0:
475,192,14618,128,0,15643:0:0:0:0:
36,192,14618,1,0,0:0:0:0:
329,192,14618,1,0,0:0:0:0:
109,192,14618,1,0,0:0:0:0:
402,192,14765,128,0,15496:0:0:0:0:
256,192,14765,1,0,0:0:0:0:
329,192,14911,128,0,15350:0:0:0:0:
182,192,14911,1,0,0:0:0:0:
256,192,15057,128,0,15204:0:0:0:0:
109,192,15057,1,0,0:0:0:0:
36,192,15204,128,0,15643:0:0:0:0:
182,192,15204,1,0,0:0:0:0:
109,192,15350,128,0,15643:0:0:0:0:
256,192,15350,1,0,0:0:0:0:
182,192,15496,128,0,15643:0:0:0:0:
329,192,15496,1,0,0:0:0:0:
256,192,15643,128,0,15789:0:0:0:0:
402,192,15643,1,0,0:0:0:0:
475,192,15789,1,0,0:0:0:0:
36,192,15789,1,0,0:0:0:0:
109,192,15789,1,0,0:0:0:0:
182,192,15887,1,0,0:0:0:0:
402,192,15887,1,0,0:0:0:0:
256,192,15984,1,0,0:0:0:0:
329,192,15984,1,0,0:0:0:0:
402,192,16082,1,0,0:0:0:0:
475,192,16082,1,0,0:0:0:0:
36,192,16082,1,0,0:0:0:0:
182,192,16179,1,0,0:0:0:0:
256,192,16179,1,0,0:0:0:0:
109,192,16277,1,0,0:0:0:0:
329,192,16277,1,0,0:0:0:0:
475,192,16374,1,0,0:0:0:0:
402,192,16374,1,0,0:0:0:0:
36,192,16374,1,0,0:0:0:0:
329,192,16472,1,0,0:0:0:0:
182,192,16472,1,0,0:0:0:0:
109,192,16569,1,0,0:0:0:0:
256,192,16569,1,0,0:0:0:0:
182,192,16667,1,0,0:0:0:0:
475,192,16667,1,0,0:0:0:0:
36,192,16667,1,0,0:0:0:0:
402,192,16765,1,0,0:0:0:0:
329,192,16765,1,0,0:0:0:0:
182,192,16862,1,0,0:0:0:0:
256,192,16862,1,0,0:0:0:0:
475,192,16960,1,0,0:0:0:0:
109,192,16960,1,0,0:0:0:0:
36,192,16960,1,0,0:0:0:0:
329,192,17057,1,0,0:0:0:0:
182,192,17106,1,0,0:0:0:0:
36,192,17106,1,0,0:0:0:0:
402,192,17155,1,0,0:0:0:0:
475,192,17252,1,0,0:0:0:0:
256,192,17252,1,0,0:0:0:0:
109,192,17252,1,0,0:0:0:0:
329,192,17350,1,0,0:0:0:0:
182,192,17399,1,0,0:0:0:0:
36,192,17399,1,0,0:0:0:0:
402,192,17448,1,0,0:0:0:0:
475,192,17545,1,0,0:0:0:0:
256,192,17545,1,0,0:0:0:0:
109,192,17545,1,0,0:0:0:0:
182,192,17643,1,0,0:0:0:0:
329,192,17691,1,0,0:0:0:0:
475,192,17691,1,0,0:0:0:0:
109,192,17740,1,0,0:0:0:0:
402,192,17838,1,0,0:0:0:0:
36,192,17838,1,0,0:0:0:0:
256,192,17838,1,0,0:0:0:0:
182,192,17935,1,0,0:0:0:0:
475,192,17984,1,0,0:0:0:0:
329,192,17984,1,0,0:0:0:0:
109,192,18033,1,0,0:0:0:0:
36,192,18130,1,0,0:0:0:0:
256,192,18130,1,0,0:0:0:0:
402,192,18130,1,0,0:0:0:0:
182,192,18204,1,0,0:0:0:0:
109,192,18277,1,0,0:0:0:0:
329,192,18277,1,0,0:0:0:0:
475,192,18277,1,0,0:0:0:0:
256,192,18350,1,0,0:0:0:0:
182,192,18423,1,0,0:0:0:0:
36,192,18423,1,0,0:0:0:0:
402,192,18423,1,0,0:0:0:0:
475,192,18496,1,0,0:0:0:0:
329,192,18569,1,0,0:0:0:0:
109,192,18569,1,0,0:0:0:0:
36,192,18569,1,0,0:0:0:0:
402,192,18643,1,0,0:0:0:0:
475,192,18716,1,0,0:0:0:0:
182,192,18716,1,0,0:0:0:0:
109,192,18716,1,0,0:0:0:0:
256,192,18789,1,0,0:0:0:0:
402,192,18789,1,0,0:0:0:0:
329,192,18862,1,0,0:0:0:0:
109,192,18862,1,0,0:0:0:0:
36,192,18862,1,0,0:0:0:0:
182,192,18935,1,0,0:0:0:0:
402,192,18935,1,0,0:0:0:0:
256,192,19009,1,0,0:0:0:0:
475,192,19009,1,0,0:0:0:0:
36,192,19009,1,0,0:0:0:0:
182,192,19082,1,0,0:0:0:0:
109,192,19082,1,0,0:0:0:0:
475,192,19155,1,0,0:0:0:0:
402,192,19155,1,0,0:0:0:0:
329,192,19155,1,0,0:0:0:0:
256,192,19228,1,0,0:0:0:0:
182,192,19228,1,0,0:0:0:0:
36,192,19301,1,0,0:0:0:0:
329,192,19301,1,0,0:0:0:0:
402,192,19301,1,0,0:0:0:0:
475,192,19301,1,0,0:0:0:0:
109,192,19301,1,0,0:0:0:0:
36,192,19594,1,0,0:0:0:0:
256,192,20472,5,0,0:0:0:0:
256,192,20765,1,0,0:0:0:0:
475,192,21643,1,0,0:0:0:0:
475,192,21935,1,0,0:0:0:0:
256,192,22813,1,0,0:0:0:0:
256,192,23106,1,0,0:0:0:0:
36,192,23984,1,0,0:0:0:0:
256,192,23984,128,0,24789:0:0:0:0:
475,192,23984,1,0,0:0:0:0:
109,192,23984,1,0,0:0:0:0:
402,192,24277,128,0,24496:0:0:0:0:
36,192,24277,1,0,0:0:0:0:
402,192,24569,1,0,0:0:0:0:
256,192,24862,1,0,0:0:0:0:
475,192,25155,1,0,0:0:0:0:
329,192,25155,128,0,25960:0:0:0:0:
475,192,25448,1,0,0:0:0:0:
182,192,25448,128,0,25667:0:0:0:0:
182,192,25740,1,0,0:0:0:0:
329,192,26033,1,0,0:0:0:0:
475,192,26326,1,0,0:0:0:0:
329,192,26326,1,0,0:0:0:0:
182,192,26399,1,0,0:0:0:0:
36,192,26472,1,0,0:0:0:0:
256,192,26545,1,0,0:0:0:0:
402,192,26618,1,0,0:0:0:0:
475,192,26618,1,0,0:0:0:0:
329,192,26691,1,0,0:0:0:0:
256,192,26765,1,0,0:0:0:0:
182,192,26838,1,0,0:0:0:0:
36,192,26911,1,0,0:0:0:0:
109,192,26911,1,0,0:0:0:0:
256,192,26984,1,0,0:0:0:0:
475,192,27057,1,0,0:0:0:0:
329,192,27130,1,0,0:0:0:0:
182,192,27204,1,0,0:0:0:0:
36,192,27204,1,0,0:0:0:0:
256,192,27277,1,0,0:0:0:0:
329,192,27350,1,0,0:0:0:0:
402,192,27423,1,0,0:0:0:0:
475,192,27496,1,0,0:0:0:0:
36,192,27496,1,0,0:0:0:0:
182,192,27496,1,0,0:0:0:0:
256,192,27569,1,0,0:0:0:0:
329,192,27569,1,0,0:0:0:0:
402,192,27643,1,0,0:0:0:0:
109,192,27643,1,0,0:0:0:0:
256,192,27716,1,0,0:0:0:0:
182,192,27716,1,0,0:0:0:0:
36,192,27789,1,0,0:0:0:0:
329,192,27789,1,0,0:0:0:0:
475,192,27789,1,0,0:0:0:0:
109,192,27862,1,0,0:0:0:0:
182,192,27862,1,0,0:0:0:0:
256,192,27935,1,0,0:0:0:0:
402,192,27935,1,0,0:0:0:0:
36,192,28009,1,0,0:0:0:0:
109,192,28009,1,0,0:0:0:0:
329,192,28082,1,0,0:0:0:0:
475,192,28082,1,0,0:0:0:0:
402,192,28082,1,0,0:0:0:0:
256,192,28155,1,0,0:0:0:0:
182,192,28155,1,0,0:0:0:0:
109,192,28228,1,0,0:0:0:0:
36,192,28228,1,0,0:0:0:0:
329,192,28301,1,0,0:0:0:0:
256,192,28301,1,0,0:0:0:0:
475,192,28374,1,0,0:0:0:0:
182,192,28374,1,0,0:0:0:0:
36,192,28374,1,0,0:0:0:0:
329,192,28448,1,0,0:0:0:0:
402,192,28448,1,0,0:0:0:0:
109,192,28521,1,0,0:0:0:0:
256,192,28521,1,0,0:0:0:0:
475,192,28594,1,0,0:0:0:0:
402,192,28594,1,0,0:0:0:0:
182,192,28667,1,0,0:0:0:0:
329,192,28667,1,0,0:0:0:0:
36,192,28667,128,0,28813:0:0:0:0:
109,192,28667,128,0,28813:0:0:0:0:
402,192,28813,1,0,0:0:0:0:
402,192,28960,128,0,29106:0:0:0:0:
475,192,28960,1,0,0:0:0:0:
182,192,28960,1,0,0:0:0:0:
36,192,28960,1,0,0:0:0:0:
256,192,29106,1,0,0:0:0:0:
256,192,29252,128,0,29399:0:0:0:0:
475,192,29252,1,0,0:0:0:0:
36,192,29252,1,0,0:0:0:0:
109,192,29399,1,0,0:0:0:0:
109,192,29545,128,0,29691:0:0:0:0:
256,192,29545,1,0,0:0:0:0:
36,192,29545,1,0,0:0:0:0:
402,192,29545,1,0,0:0:0:0:
475,192,29691,1,0,0:0:0:0:
475,192,29838,128,0,29984:0:0:0:0:
109,192,29838,1,0,0:0:0:0:
329,192,29838,128,0,29984:0:0:0:0:
182,192,29984,1,0,0:0:0:0:
182,192,30130,128,0,30277:0:0:0:0:
329,192,30130,1,0,0:0:0:0:
36,192,30130,1,0,0:0:0:0:
475,192,30130,1,0,0:0:0:0:
256,192,30277,1,0,0:0:0:0:
256,192,30423,128,0,30569:0:0:0:0:
109,192,30423,1,0,0:0:0:0:
475,192,30423,1,0,0:0:0:0:
329,192,30569,1,0,0:0:0:0:
329,192,30716,128,0,30862:0:0:0:0:
182,192,30716,1,0,0:0:0:0:
36,192,30716,1,0,0:0:0:0:
475,192,30716,1,0,0:0:0:0:
402,192,30862,1,0,0:0:0:0:
402,192,31009,128,0,31155:0:0:0:0:
182,192,31009,1,0,0:0:0:0:
329,192,31009,128,0,31155:0:0:0:0:
109,192,31155,1,0,0:0:0:0:
109,192,31301,128,0,31448:0:0:0:0:
475,192,31301,1,0,0:0:0:0:
256,192,31301,1,0,0:0:0:0:
36,192,31301,1,0,0:0:0:0:
329,192,31448,1,0,0:0:0:0:
329,192,31594,128,0,31740:0:0:0:0:
182,192,31594,1,0,0:0:0:0:
475,192,31594,1,0,0:0:0:0:
36,192,31740,1,0,0:0:0:0:
36,192,31887,128,0,32033:0:0:0:0:
182,192,31887,1,0,0:0:0:0:
402,192,31887,1,0,0:0:0:0:
475,192,31887,1,0,0:0:0:0:
256,192,32033,1,0,0:0:0:0:
256,192,32179,128,0,32326:0:0:0:0:
329,192,32179,1,0,0:0:0:0:
109,192,32179,128,0,32326:0:0:0:0:
475,192,32326,1,0,0:0:0:0:
475,192,32472,128,0,32618:0:0:0:0:
36,192,32472,1,0,0:0:0:0:
329,192,32472,1,0,0:0:0:0:
109,192,32472,1,0,0:0:0:0:
182,192,32618,1,0,0:0:0:0:
182,192,32765,128,0,32911:0:0:0:0:
475,192,32765,1,0,0:0:0:0:
402,192,32765,1,0,0:0:0:0:
329,192,32911,1,0,0:0:0:0:
329,192,33057,128,0,33204:0:0:0:0:
109,192,33057,1,0,0:0:0:0:
36,192,33057,1,0,0:0:0:0:
475,192,33057,1,0,0:0:0:0:
402,192,33057,1,0,0:0:0:0:
109,192,33204,1,0,0:0:0:0:
36,192,33204,1,0,0:0:0:0:
256,192,33204,1,0,0:0:0:0:
475,192,33350,1,0,0:0:0:0:
402,192,33350,1,0,0:0:0:0:
329,192,33350,1,0,0:0:0:0:
182,192,33350,1,0,0:0:0:0:
402,192,33496,1,0,0:0:0:0:
256,192,33496,1,0,0:0:0:0:
109,192,33569,1,0,0:0:0:0:
182,192,33569,1,0,0:0:0:0:
329,192,33643,1,0,0:0:0:0:
475,192,33643,1,0,0:0:0:0:
36,192,33643,1,0,0:0:0:0:
256,192,33716,1,0,0:0:0:0:
182,192,33716,1,0,0:0:0:0:
109,192,33789,1,0,0:0:0:0:
36,192,33789,1,0,0:0:0:0:
402,192,33789,1,0,0:0:0:0:
475,192,33789,1,0,0:0:0:0:
182,192,33935,1,0,0:0:0:0:
475,192,33935,1,0,0:0:0:0:
36,192,33935,1,0,0:0:0:0:
402,192,34009,1,0,0:0:0:0:
256,192,34009,1,0,0:0:0:0:
329,192,34082,1,0,0:0:0:0:
109,192,34082,1,0,0:0:0:0:
402,192,34155,1,0,0:0:0:0:
182,192,34155,1,0,0:0:0:0:
475,192,34228,1,0,0:0:0:0:
36,192,34228,1,0,0:0:0:0:
256,192,34228,1,0,0:0:0:0:
109,192,34228,1,0,0:0:0:0:
36,192,34374,1,0,0:0:0:0:
182,192,34374,1,0,0:0:0:0:
329,192,34448,1,0,0:0:0:0:
256,192,34448,1,0,0:0:0:0:
475,192,34521,1,0,0:0:0:0:
109,192,34521,1,0,0:0:0:0:
402,192,34521,1,0,0:0:0:0:
182,192,34594,1,0,0:0:0:0:
256,192,34594,1,0,0:0:0:0:
36,192,34667,1,0,0:0:0:0:
475,192,34667,1,0,0:0:0:0:
402,192,34667,1,0,0:0:0:0:
329,192,34667,1,0,0:0:0:0:
329,192,34813,1,0,0:0:0:0:
109,192,34813,1,0,0:0:0:0:
36,192,34813,1,0,0:0:0:0:
182,192,34887,1,0,0:0:0:0:
402,192,34887,1,0,0:0:0:0:
256,192,34960,1,0,0:0:0:0:
475,192,34960,1,0,0:0:0:0:
109,192,35033,1,0,0:0:0:0:
329,192,35033,1,0,0:0:0:0:
182,192,35106,1,0,0:0:0:0:
402,192,35106,1,0,0:0:0:0:
36,192,35106,1,0,0:0:0:0:
475,192,35106,1,0,0:0:0:0:
402,192,35252,1,0,0:0:0:0:
329,192,35252,1,0,0:0:0:0:
109,192,35326,1,0,0:0:0:0:
182,192,35326,1,0,0:0:0:0:
36,192,35399,1,0,0:0:0:0:
475,192,35399,1,0,0:0:0:0:
256,192,35399,1,0,0:0:0:0:
329,192,35399,1,0,0:0:0:0:
256,192,35545,1,0,0:0:0:0:
182,192,35545,1,0,0:0:0:0:
329,192,35618,1,0,0:0:0:0:
36,192,35618,1,0,0:0:0:0:
182,192,35691,1,0,0:0:0:0:
109,192,35691,1,0,0:0:0:0:
402,192,35691,1,0,0:0:0:0:
475,192,35691,1,0,0:0:0:0:
329,192,35838,1,0,0:0:0:0:
182,192,35838,1,0,0:0:0:0:
402,192,35911,1,0,0:0:0:0:
256,192,35911,1,0,0:0:0:0:
475,192,35984,1,0,0:0:0:0:
36,192,35984,1,0,0:0:0:0:
329,192,35984,1,0,0:0:0:0:
182,192,36057,1,0,0:0:0:0:
256,192,36057,1,0,0:0:0:0:
402,192,36130,1,0,0:0:0:0:
475,192,36130,1,0,0:0:0:0:
109,192,36130,1,0,0:0:0:0:
36,192,36130,1,0,0:0:0:0:
329,192,36277,1,0,0:0:0:0:
109,192,36277,1,0,0:0:0:0:
182,192,36277,1,0,0:0:0:0:
402,192,36350,1,0,0:0:0:0:
475,192,36350,1,0,0:0:0:0:
182,192,36423,1,0,0:0:0:0:
36,192,36423,1,0,0:0:0:0:
329,192,36496,1,0,0:0:0:0:
256,192,36496,1,0,0:0:0:0:
402,192,36569,1,0,0:0:0:0:
475,192,36569,1,0,0:0:0:0:
36,192,36569,1,0,0:0:0:0:
109,192,36569,1,0,0:0:0:0:
329,192,36716,1,0,0:0:0:0:
402,192,36716,1,0,0:0:0:0:
182,192,36789,1,0,0:0:0:0:
256,192,36789,1,0,0:0:0:0:
109,192,36862,1,0,0:0:0:0:
36,192,36862,1,0,0:0:0:0:
475,192,36862,1,0,0:0:0:0:
402,192,36862,1,0,0:0:0:0:
182,192,37009,1,0,0:0:0:0:
329,192,37009,1,0,0:0:0:0:
36,192,37082,1,0,0:0:0:0:
402,192,37082,1,0,0:0:0:0:
475,192,37082,1,0,0:0:0:0:
109,192,37082,1,0,0:0:0:0:
182,192,37155,1,0,0:0:0:0:
329,192,37155,1,0,0:0:0:0:
256,192,37301,1,0,0:0:0:0:
475,192,37301,1,0,0:0:0:0:
402,192,37301,1,0,0:0:0:0:
36,192,37301,1,0,0:0:0:0:
109,192,37301,1,0,0:0:0:0:
36,192,37448,1,0,0:0:0:0:
329,192,37448,1,0,0:0:0:0:
182,192,37448,1,0,0:0:0:0:
109,192,37448,1,0,0:0:0:0:
475,192,37448,1,0,0:0:0:0:
402,192,37594,1,0,0:0:0:0:
475,192,37594,1,0,0:0:0:0:
329,192,37630,1,0,0:0:0:0:
256,192,37667,1,0,0:0:0:0:
182,192,37704,1,0,0:0:0:0:
109,192,37740,1,0,0:0:0:0:
36,192,37740,1,0,0:0:0:0:
475,192,37740,1,0,0:0:0:0:
402,192,37740,1,0,0:0:0:0:
109,192,37887,1,0,0:0:0:0:
36,192,37887,1,0,0:0:0:0:
402,192,37887,1,0,0:0:0:0:
475,192,37887,1,0,0:0:0:0:
182,192,37923,1,0,0:0:0:0:
256,192,37960,1,0,0:0:0:0:
329,192,37996,1,0,0:0:0:0:
109,192,38033,1,0,0:0:0:0:
402,192,38033,128,0,38179:0:0:0:0:
475,192,38033,128,0,38179:0:0:0:0:
36,192,38033,1,0,0:0:0:0:
256,192,38179,1,0,0:0:0:0:
329,192,38326,128,0,38472:0:0:0:0:
182,192,38326,128,0,38472:0:0:0:0:
36,192,38326,1,0,0:0:0:0:
475,192,38326,1,0,0:0:0:0:
402,192,38472,1,0,0:0:0:0:
109,192,38618,128,0,38765:0:0:0:0:
36,192,38618,128,0,38765:0:0:0:0:
329,192,38618,1,0,0:0:0:0:
402,192,38765,1,0,0:0:0:0:
182,192,38838,128,0,39204:0:0:0:0:
475,192,38911,1,0,0:0:0:0:
329,192,38911,1,0,0:0:0:0:
36,192,38911,1,0,0:0:0:0:
329,192,39057,128,0,39204:0:0:0:0:
36,192,39057,1,0,0:0:0:0:
475,192,39204,128,0,39350:0:0:0:0:
402,192,39204,128,0,39350:0:0:0:0:
256,192,39204,1,0,0:0:0:0:
109,192,39204,1,0,0:0:0:0:
182,192,39350,1,0,0:0:0:0:
109,192,39496,128,0,39643:0:0:0:0:
36,192,39496,128,0,39643:0:0:0:0:
329,192,39496,1,0,0:0:0:0:
475,192,39496,1,0,0:0:0:0:
256,192,39643,1,0,0:0:0:0:
182,192,39789,128,0,39935:0:0:0:0:
329,192,39789,128,0,39935:0:0:0:0:
36,192,39789,1,0,0:0:0:0:
109,192,39935,1,0,0:0:0:0:
475,192,40009,128,0,40374:0:0:0:0:
182,192,40082,1,0,0:0:0:0:
329,192,40082,1,0,0:0:0:0:
36,192,40082,1,0,0:0:0:0:
256,192,40228,1,0,0:0:0:0:
402,192,40228,128,0,40374:0:0:0:0:
109,192,40374,128,0,40521:0:0:0:0:
36,192,40374,128,0,40521:0:0:0:0:
329,192,40374,1,0,0:0:0:0:
182,192,40374,1,0,0:0:0:0:
402,192,40521,1,0,0:0:0:0:
182,192,40667,128,0,40813:0:0:0:0:
256,192,40667,128,0,40813:0:0:0:0:
475,192,40667,1,0,0:0:0:0:
36,192,40667,1,0,0:0:0:0:
109,192,40813,1,0,0:0:0:0:
329,192,40960,128,0,41106:0:0:0:0:
402,192,40960,128,0,41106:0:0:0:0:
182,192,40960,1,0,0:0:0:0:
256,192,41106,1,0,0:0:0:0:
36,192,41179,128,0,41545:0:0:0:0:
329,192,41252,1,0,0:0:0:0:
402,192,41252,1,0,0:0:0:0:
182,192,41252,1,0,0:0:0:0:
109,192,41399,128,0,41545:0:0:0:0:
256,192,41399,1,0,0:0:0:0:
475,192,41545,128,0,41691:0:0:0:0:
182,192,41545,128,0,41691:0:0:0:0:
329,192,41545,1,0,0:0:0:0:
402,192,41545,1,0,0:0:0:0:
36,192,41691,1,0,0:0:0:0:
402,192,41838,128,0,41984:0:0:0:0:
109,192,41838,128,0,41984:0:0:0:0:
256,192,41838,1,0,0:0:0:0:
475,192,41838,1,0,0:0:0:0:
182,192,41984,1,0,0:0:0:0:
36,192,42130,128,0,42569:0:0:0:0:
109,192,42130,1,0,0:0:0:0:
329,192,42130,128,0,42423:0:0:0:0:
182,192,42277,1,0,0:0:0:0:
109,192,42423,128,0,42569:0:0:0:0:
402,192,42423,1,0,0:0:0:0:
475,192,42423,1,0,0:0:0:0:
256,192,42423,1,0,0:0:0:0:
182,192,42569,128,0,42716:0:0:0:0:
475,192,42569,1,0,0:0:0:0:
329,192,42569,1,0,0:0:0:0:
256,192,42716,128,0,42862:0:0:0:0:
109,192,42716,1,0,0:0:0:0:
36,192,42716,1,0,0:0:0:0:
402,192,42716,128,0,42862:0:0:0:0:
329,192,42862,1,0,0:0:0:0:
256,192,43009,128,0,43155:0:0:0:0:
36,192,43009,1,0,0:0:0:0:
475,192,43009,1,0,0:0:0:0:
109,192,43009,128,0,43155:0:0:0:0:
402,192,43155,1,0,0:0:0:0:
182,192,43301,128,0,43740:0:0:0:0:
329,192,43301,1,0,0:0:0:0:
36,192,43301,1,0,0:0:0:0:
256,192,43448,1,0,0:0:0:0:
109,192,43521,128,0,43740:0:0:0:0:
475,192,43594,1,0,0:0:0:0:
402,192,43594,1,0,0:0:0:0:
329,192,43594,1,0,0:0:0:0:
36,192,43740,128,0,43887:0:0:0:0:
475,192,43740,1,0,0:0:0:0:
256,192,43887,128,0,44033:0:0:0:0:
182,192,43887,1,0,0:0:0:0:
402,192,43887,1,0,0:0:0:0:
109,192,43887,128,0,44033:0:0:0:0:
329,192,44033,1,0,0:0:0:0:
256,192,44179,128,0,44326:0:0:0:0:
36,192,44179,1,0,0:0:0:0:
402,192,44179,128,0,44326:0:0:0:0:
475,192,44179,1,0,0:0:0:0:
109,192,44326,1,0,0:0:0:0:
329,192,44472,128,0,44911:0:0:0:0:
475,192,44472,1,0,0:0:0:0:
182,192,44472,1,0,0:0:0:0:
256,192,44618,1,0,0:0:0:0:
402,192,44691,128,0,44911:0:0:0:0:
182,192,44765,1,0,0:0:0:0:
109,192,44765,1,0,0:0:0:0:
36,192,44765,1,0,0:0:0:0:
475,192,44911,128,0,45057:0:0:0:0:
36,192,44911,1,0,0:0:0:0:
402,192,45057,1,0,0:0:0:0:
182,192,45057,128,0,45204:0:0:0:0:
329,192,45057,1,0,0:0:0:0:
256,192,45057,128,0,45204:0:0:0:0:
36,192,45204,1,0,0:0:0:0:
109,192,45350,128,0,45496:0:0:0:0:
475,192,45350,1,0,0:0:0:0:
402,192,45350,1,0,0:0:0:0:
182,192,45350,128,0,45496:0:0:0:0:
256,192,45496,1,0,0:0:0:0:
36,192,45643,128,0,46082:0:0:0:0:
329,192,45643,1,0,0:0:0:0:
475,192,45643,1,0,0:0:0:0:
256,192,45789,1,0,0:0:0:0:
109,192,45862,128,0,46082:0:0:0:0:
475,192,45935,1,0,0:0:0:0:
402,192,45935,1,0,0:0:0:0:
329,192,45935,1,0,0:0:0:0:
182,192,46082,128,0,46228:0:0:0:0:
329,192,46082,1,0,0:0:0:0:
475,192,46228,128,0,46374:0:0:0:0:
36,192,46228,1,0,0:0:0:0:
402,192,46228,128,0,46374:0:0:0:0:
109,192,46228,1,0,0:0:0:0:
256,192,46374,1,0,0:0:0:0:
402,192,46521,128,0,46667:0:0:0:0:
329,192,46521,128,0,46667:0:0:0:0:
109,192,46667,1,0,0:0:0:0:
36,192,46667,1,0,0:0:0:0:
182,192,46667,1,0,0:0:0:0:
329,192,46813,128,0,46960:0:0:0:0:
109,192,46813,1,0,0:0:0:0:
475,192,46813,1,0,0:0:0:0:
182,192,46813,1,0,0:0:0:0:
256,192,46960,1,0,0:0:0:0:
475,192,46960,1,0,0:0:0:0:
402,192,46960,1,0,0:0:0:0:
182,192,46996,1,0,0:0:0:0:
109,192,47033,1,0,0:0:0:0:
36,192,47069,1,0,0:0:0:0:
475,192,47106,1,0,0:0:0:0:
402,192,47106,1,0,0:0:0:0:
329,192,47106,1,0,0:0:0:0:
256,192,47179,1,0,0:0:0:0:
109,192,47179,1,0,0:0:0:0:
36,192,47179,1,0,0:0:0:0:
182,192,47252,1,0,0:0:0:0:
402,192,47252,1,0,0:0:0:0:
475,192,47252,1,0,0:0:0:0:
109,192,47326,1,0,0:0:0:0:
36,192,47326,1,0,0:0:0:0:
329,192,47326,1,0,0:0:0:0:
256,192,47399,1,0,0:0:0:0:
402,192,47399,128,0,47545:0:0:0:0:
475,192,47399,128,0,47545:0:0:0:0:
109,192,47399,1,0,0:0:0:0:
36,192,47399,1,0,0:0:0:0:
182,192,47545,1,0,0:0:0:0:
182,192,47691,128,0,47838:0:0:0:0:
36,192,47691,128,0,47838:0:0:0:0:
402,192,47691,1,0,0:0:0:0:
475,192,47691,1,0,0:0:0:0:
256,192,47838,1,0,0:0:0:0:
402,192,47984,128,0,48130:0:0:0:0:
256,192,47984,128,0,48130:0:0:0:0:
109,192,47984,1,0,0:0:0:0:
329,192,48130,1,0,0:0:0:0:
109,192,48204,128,0,48569:0:0:0:0:
402,192,48277,1,0,0:0:0:0:
256,192,48277,1,0,0:0:0:0:
475,192,48277,1,0,0:0:0:0:
256,192,48423,128,0,48569:0:0:0:0:
475,192,48423,1,0,0:0:0:0:
36,192,48569,128,0,48716:0:0:0:0:
475,192,48569,128,0,48716:0:0:0:0:
329,192,48569,1,0,0:0:0:0:
402,192,48569,1,0,0:0:0:0:
182,192,48716,1,0,0:0:0:0:
182,192,48862,128,0,49009:0:0:0:0:
329,192,48862,128,0,49009:0:0:0:0:
475,192,48862,1,0,0:0:0:0:
36,192,48862,1,0,0:0:0:0:
256,192,49009,1,0,0:0:0:0:
256,192,49155,128,0,49301:0:0:0:0:
109,192,49155,128,0,49301:0:0:0:0:
402,192,49155,1,0,0:0:0:0:
182,192,49301,1,0,0:0:0:0:
402,192,49374,128,0,49740:0:0:0:0:
256,192,49448,1,0,0:0:0:0:
109,192,49448,1,0,0:0:0:0:
36,192,49448,1,0,0:0:0:0:
256,192,49594,128,0,49740:0:0:0:0:
36,192,49594,1,0,0:0:0:0:
36,192,49740,128,0,49887:0:0:0:0:
475,192,49740,128,0,49887:0:0:0:0:
182,192,49740,1,0,0:0:0:0:
329,192,49740,1,0,0:0:0:0:
109,192,49887,1,0,0:0:0:0:
109,192,50033,128,0,50179:0:0:0:0:
256,192,50033,128,0,50179:0:0:0:0:
475,192,50033,1,0,0:0:0:0:
402,192,50033,1,0,0:0:0:0:
329,192,50179,1,0,0:0:0:0:
329,192,50326,128,0,50472:0:0:0:0:
36,192,50326,128,0,50472:0:0:0:0:
182,192,50326,1,0,0:0:0:0:
256,192,50472,1,0,0:0:0:0:
475,192,50545,128,0,50911:0:0:0:0:
329,192,50618,1,0,0:0:0:0:
36,192,50618,1,0,0:0:0:0:
182,192,50618,1,0,0:0:0:0:
329,192,50765,128,0,50911:0:0:0:0:
109,192,50765,1,0,0:0:0:0:
36,192,50911,128,0,51057:0:0:0:0:
109,192,50911,128,0,51057:0:0:0:0:
256,192,50911,1,0,0:0:0:0:
182,192,50911,1,0,0:0:0:0:
329,192,51057,1,0,0:0:0:0:
182,192,51204,128,0,51350:0:0:0:0:
329,192,51204,128,0,51350:0:0:0:0:
475,192,51204,1,0,0:0:0:0:
36,192,51204,1,0,0:0:0:0:
402,192,51350,1,0,0:0:0:0:
475,192,51496,128,0,51643:0:0:0:0:
402,192,51496,128,0,51643:0:0:0:0:
256,192,51496,1,0,0:0:0:0:
109,192,51643,1,0,0:0:0:0:
256,192,51789,1,0,0:0:0:0:
182,192,51789,1,0,0:0:0:0:
402,192,51789,1,0,0:0:0:0:
182,192,51935,1,0,0:0:0:0:
109,192,51935,1,0,0:0:0:0:
329,192,51935,1,0,0:0:0:0:
36,192,52082,1,0,0:0:0:0:
109,192,52082,1,0,0:0:0:0:
256,192,52082,1,0,0:0:0:0:
475,192,52082,1,0,0:0:0:0:
402,192,52155,1,0,0:0:0:0:
329,192,52155,1,0,0:0:0:0:
182,192,52228,1,0,0:0:0:0:
109,192,52228,1,0,0:0:0:0:
329,192,52301,1,0,0:0:0:0:
256,192,52301,1,0,0:0:0:0:
36,192,52374,1,0,0:0:0:0:
475,192,52374,1,0,0:0:0:0:
402,192,52374,1,0,0:0:0:0:
109,192,52448,1,0,0:0:0:0:
329,192,52448,1,0,0:0:0:0:
182,192,52521,1,0,0:0:0:0:
256,192,52521,1,0,0:0:0:0:
329,192,52594,1,0,0:0:0:0:
36,192,52594,1,0,0:0:0:0:
109,192,52667,1,0,0:0:0:0:
402,192,52667,1,0,0:0:0:0:
475,192,52667,1,0,0:0:0:0:
182,192,52740,1,0,0:0:0:0:
329,192,52740,1,0,0:0:0:0:
256,192,52813,1,0,0:0:0:0:
36,192,52813,1,0,0:0:0:0:
182,192,52887,1,0,0:0:0:0:
475,192,52887,1,0,0:0:0:0:
402,192,52887,1,0,0:0:0:0:
36,192,52960,1,0,0:0:0:0:
329,192,52960,1,0,0:0:0:0:
109,192,52960,1,0,0:0:0:0:
256,192,53033,1,0,0:0:0:0:
402,192,53033,1,0,0:0:0:0:
182,192,53106,1,0,0:0:0:0:
475,192,53106,1,0,0:0:0:0:
109,192,53106,1,0,0:0:0:0:
329,192,53179,1,0,0:0:0:0:
256,192,53179,1,0,0:0:0:0:
475,192,53252,1,0,0:0:0:0:
402,192,53252,1,0,0:0:0:0:
36,192,53252,1,0,0:0:0:0:
109,192,53252,1,0,0:0:0:0:
182,192,53326,1,0,0:0:0:0:
329,192,53326,1,0,0:0:0:0:
256,192,53399,1,0,0:0:0:0:
475,192,53399,1,0,0:0:0:0:
402,192,53472,1,0,0:0:0:0:
182,192,53472,1,0,0:0:0:0:
36,192,53545,1,0,0:0:0:0:
109,192,53545,1,0,0:0:0:0:
329,192,53545,1,0,0:0:0:0:
256,192,53618,1,0,0:0:0:0:
182,192,53618,1,0,0:0:0:0:
329,192,53691,1,0,0:0:0:0:
402,192,53691,1,0,0:0:0:0:
182,192,53765,1,0,0:0:0:0:
109,192,53765,1,0,0:0:0:0:
475,192,53838,1,0,0:0:0:0:
36,192,53838,1,0,0:0:0:0:
256,192,53838,1,0,0:0:0:0:
329,192,53838,1,0,0:0:0:0:
182,192,53911,1,0,0:0:0:0:
402,192,53911,1,0,0:0:0:0:
109,192,53984,1,0,0:0:0:0:
329,192,53984,1,0,0:0:0:0:
475,192,54057,1,0,0:0:0:0:
256,192,54057,1,0,0:0:0:0:
36,192,54057,1,0,0:0:0:0:
402,192,54130,1,0,0:0:0:0:
182,192,54130,1,0,0:0:0:0:
109,192,54130,1,0,0:0:0:0:
329,192,54204,1,0,0:0:0:0:
256,192,54204,1,0,0:0:0:0:
475,192,54277,1,0,0:0:0:0:
402,192,54277,1,0,0:0:0:0:
182,192,54277,1,0,0:0:0:0:
109,192,54350,1,0,0:0:0:0:
329,192,54350,1,0,0:0:0:0:
36,192,54423,1,0,0:0:0:0:
475,192,54423,1,0,0:0:0:0:
402,192,54423,1,0,0:0:0:0:
256,192,54423,1,0,0:0:0:0:
182,192,54496,1,0,0:0:0:0:
109,192,54496,1,0,0:0:0:0:
329,192,54569,1,0,0:0:0:0:
402,192,54569,1,0,0:0:0:0:
256,192,54643,1,0,0:0:0:0:
182,192,54643,1,0,0:0:0:0:
109,192,54716,1,0,0:0:0:0:
36,192,54716,1,0,0:0:0:0:
475,192,54716,1,0,0:0:0:0:
402,192,54789,1,0,0:0:0:0:
182,192,54789,1,0,0:0:0:0:
329,192,54862,1,0,0:0:0:0:
256,192,54862,1,0,0:0:0:0:
182,192,54935,1,0,0:0:0:0:
109,192,54935,1,0,0:0:0:0:
475,192,55009,1,0,0:0:0:0:
36,192,55009,1,0,0:0:0:0:
402,192,55009,1,0,0:0:0:0:
329,192,55009,1,0,0:0:0:0:
256,192,55082,1,0,0:0:0:0:
182,192,55082,1,0,0:0:0:0:
36,192,55155,1,0,0:0:0:0:
109,192,55155,1,0,0:0:0:0:
182,192,55228,1,0,0:0:0:0:
475,192,55228,1,0,0:0:0:0:
402,192,55228,1,0,0:0:0:0:
256,192,55301,1,0,0:0:0:0:
36,192,55301,1,0,0:0:0:0:
329,192,55301,1,0,0:0:0:0:
109,192,55374,1,0,0:0:0:0:
182,192,55374,1,0,0:0:0:0:
402,192,55448,1,0,0:0:0:0:
475,192,55448,1,0,0:0:0:0:
256,192,55448,1,0,0:0:0:0:
109,192,55521,1,0,0:0:0:0:
36,192,55521,1,0,0:0:0:0:
475,192,55594,1,0,0:0:0:0:
402,192,55594,1,0,0:0:0:0:
329,192,55594,1,0,0:0:0:0:
182,192,55594,1,0,0:0:0:0:
256,192,55667,1,0,0:0:0:0:
36,192,55667,1,0,0:0:0:0:
329,192,55740,1,0,0:0:0:0:
109,192,55740,1,0,0:0:0:0:
402,192,55813,1,0,0:0:0:0:
182,192,55813,1,0,0:0:0:0:
256,192,55887,1,0,0:0:0:0:
36,192,55887,1,0,0:0:0:0:
109,192,55887,1,0,0:0:0:0:
329,192,55960,1,0,0:0:0:0:
475,192,55960,1,0,0:0:0:0:
109,192,56033,1,0,0:0:0:0:
182,192,56033,1,0,0:0:0:0:
256,192,56106,1,0,0:0:0:0:
402,192,56106,1,0,0:0:0:0:
329,192,56179,128,0,56326:0:0:0:0:
182,192,56179,1,0,0:0:0:0:
36,192,56179,128,0,56326:0:0:0:0:
109,192,56179,128,0,56252:0:0:0:0:
256,192,56252,128,0,56399:0:0:0:0:
475,192,56252,1,0,0:0:0:0:
182,192,56326,128,0,56472:0:0:0:0:
402,192,56326,1,0,0:0:0:0:
109,192,56399,128,0,56545:0:0:0:0:
329,192,56399,1,0,0:0:0:0:
475,192,56472,128,0,56618:0:0:0:0:
256,192,56472,1,0,0:0:0:0:
36,192,56472,1,0,0:0:0:0:
182,192,56545,1,0,0:0:0:0:
402,192,56545,128,0,56691:0:0:0:0:
109,192,56618,1,0,0:0:0:0:
329,192,56618,128,0,56765:0:0:0:0:
475,192,56691,1,0,0:0:0:0:
256,192,56691,128,0,56838:0:0:0:0:
36,192,56765,1,0,0:0:0:0:
402,192,56765,1,0,0:0:0:0:
109,192,56765,1,0,0:0:0:0:
329,192,56838,1,0,0:0:0:0:
182,192,56838,1,0,0:0:0:0:
36,192,56911,1,0,0:0:0:0:
256,192,56911,1,0,0:0:0:0:
182,192,56984,1,0,0:0:0:0:
402,192,56984,1,0,0:0:0:0:
36,192,57057,1,0,0:0:0:0:
109,192,57057,1,0,0:0:0:0:
329,192,57057,1,0,0:0:0:0:
256,192,57130,1,0,0:0:0:0:
475,192,57130,1,0,0:0:0:0:
109,192,57204,1,0,0:0:0:0:
182,192,57204,1,0,0:0:0:0:
329,192,57277,1,0,0:0:0:0:
402,192,57277,1,0,0:0:0:0:
36,192,57350,1,0,0:0:0:0:
256,192,57350,1,0,0:0:0:0:
475,192,57350,1,0,0:0:0:0:
182,192,57423,1,0,0:0:0:0:
109,192,57423,1,0,0:0:0:0:
329,192,57496,1,0,0:0:0:0:
402,192,57496,1,0,0:0:0:0:
256,192,57569,1,0,0:0:0:0:
182,192,57569,1,0,0:0:0:0:
109,192,57643,1,0,0:0:0:0:
36,192,57643,1,0,0:0:0:0:
475,192,57643,1,0,0:0:0:0:
402,192,57716,1,0,0:0:0:0:
329,192,57716,1,0,0:0:0:0:
109,192,57789,1,0,0:0:0:0:
182,192,57789,1,0,0:0:0:0:
256,192,57862,1,0,0:0:0:0:
329,192,57862,1,0,0:0:0:0:
475,192,57935,1,0,0:0:0:0:
109,192,57935,1,0,0:0:0:0:
36,192,57935,1,0,0:0:0:0:
402,192,57935,1,0,0:0:0:0:
256,192,58009,1,0,0:0:0:0:
182,192,58009,1,0,0:0:0:0:
329,192,58082,1,0,0:0:0:0:
402,192,58082,1,0,0:0:0:0:
182,192,58155,1,0,0:0:0:0:
109,192,58155,1,0,0:0:0:0:
36,192,58228,1,0,0:0:0:0:
256,192,58228,1,0,0:0:0:0:
475,192,58228,1,0,0:0:0:0:
329,192,58301,1,0,0:0:0:0:
109,192,58301,1,0,0:0:0:0:
402,192,58374,1,0,0:0:0:0:
256,192,58374,1,0,0:0:0:0:
475,192,58448,1,0,0:0:0:0:
182,192,58448,1,0,0:0:0:0:
36,192,58521,1,0,0:0:0:0:
329,192,58521,1,0,0:0:0:0:
109,192,58521,1,0,0:0:0:0:
402,192,58594,1,0,0:0:0:0:
182,192,58594,1,0,0:0:0:0:
256,192,58667,1,0,0:0:0:0:
475,192,58667,1,0,0:0:0:0:
329,192,58740,1,0,0:0:0:0:
109,192,58740,1,0,0:0:0:0:
475,192,58813,1,0,0:0:0:0:
182,192,58813,1,0,0:0:0:0:
402,192,58813,1,0,0:0:0:0:
256,192,58887,1,0,0:0:0:0:
36,192,58887,1,0,0:0:0:0:
329,192,58960,1,0,0:0:0:0:
402,192,58960,1,0,0:0:0:0:
182,192,59033,1,0,0:0:0:0:
256,192,59033,1,0,0:0:0:0:
475,192,59106,1,0,0:0:0:0:
36,192,59106,1,0,0:0:0:0:
109,192,59106,1,0,0:0:0:0:
402,192,59106,1,0,0:0:0:0:
329,192,59179,1,0,0:0:0:0:
256,192,59179,1,0,0:0:0:0:
182,192,59252,1,0,0:0:0:0:
109,192,59252,1,0,0:0:0:0:
329,192,59326,1,0,0:0:0:0:
402,192,59326,1,0,0:0:0:0:
475,192,59399,1,0,0:0:0:0:
256,192,59399,1,0,0:0:0:0:
36,192,59399,1,0,0:0:0:0:
329,192,59472,1,0,0:0:0:0:
109,192,59472,1,0,0:0:0:0:
402,192,59545,1,0,0:0:0:0:
182,192,59545,1,0,0:0:0:0:
256,192,59618,1,0,0:0:0:0:
475,192,59618,1,0,0:0:0:0:
109,192,59691,1,0,0:0:0:0:
36,192,59691,1,0,0:0:0:0:
329,192,59691,1,0,0:0:0:0:
402,192,59765,1,0,0:0:0:0:
256,192,59765,1,0,0:0:0:0:
182,192,59838,1,0,0:0:0:0:
475,192,59838,1,0,0:0:0:0:
109,192,59911,1,0,0:0:0:0:
329,192,59911,1,0,0:0:0:0:
36,192,59984,1,0,0:0:0:0:
256,192,59984,1,0,0:0:0:0:
402,192,59984,1,0,0:0:0:0:
182,192,60057,1,0,0:0:0:0:
109,192,60057,1,0,0:0:0:0:
475,192,60130,1,0,0:0:0:0:
329,192,60130,1,0,0:0:0:0:
256,192,60204,1,0,0:0:0:0:
182,192,60204,1,0,0:0:0:0:
36,192,60277,1,0,0:0:0:0:
109,192,60277,1,0,0:0:0:0:
402,192,60277,1,0,0:0:0:0:
475,192,60277,1,0,0:0:0:0:
329,192,60350,1,0,0:0:0:0:
256,192,60350,1,0,0:0:0:0:
182,192,60423,1,0,0:0:0:0:
36,192,60423,1,0,0:0:0:0:
402,192,60496,1,0,0:0:0:0:
329,192,60496,1,0,0:0:0:0:
36,192,60569,1,0,0:0:0:0:
256,192,60569,1,0,0:0:0:0:
109,192,60569,1,0,0:0:0:0:
475,192,60643,1,0,0:0:0:0:
402,192,60643,1,0,0:0:0:0:
182,192,60716,1,0,0:0:0:0:
329,192,60716,1,0,0:0:0:0:
36,192,60789,1,0,0:0:0:0:
109,192,60789,1,0,0:0:0:0:
475,192,60862,1,0,0:0:0:0:
402,192,60862,1,0,0:0:0:0:
256,192,60862,1,0,0:0:0:0:
329,192,60935,1,0,0:0:0:0:
109,192,60935,1,0,0:0:0:0:
402,192,61009,1,0,0:0:0:0:
182,192,61009,1,0,0:0:0:0:
256,192,61082,1,0,0:0:0:0:
109,192,61082,1,0,0:0:0:0:
329,192,61155,1,0,0:0:0:0:
36,192,61155,1,0,0:0:0:0:
475,192,61155,1,0,0:0:0:0:
182,192,61228,1,0,0:0:0:0:
256,192,61228,1,0,0:0:0:0:
109,192,61301,1,0,0:0:0:0:
402,192,61301,1,0,0:0:0:0:
475,192,61301,1,0,0:0:0:0:
256,192,61374,1,0,0:0:0:0:
329,192,61374,1,0,0:0:0:0:
475,192,61448,5,0,0:0:0:0:
182,192,61448,1,0,0:0:0:0:
402,192,61448,1,0,0:0:0:0:
36,192,61448,1,0,0:0:0:0:
329,192,61521,1,0,0:0:0:0:
109,192,61521,1,0,0:0:0:0:
256,192,61594,1,0,0:0:0:0:
36,192,61594,1,0,0:0:0:0:
182,192,61667,1,0,0:0:0:0:
329,192,61667,1,0,0:0:0:0:
475,192,61740,1,0,0:0:0:0:
402,192,61740,1,0,0:0:0:0:
109,192,61740,1,0,0:0:0:0:
36,192,61813,1,0,0:0:0:0:
256,192,61813,1,0,0:0:0:0:
402,192,61887,1,0,0:0:0:0:
182,192,61887,1,0,0:0:0:0:
329,192,61960,1,0,0:0:0:0:
109,192,61960,1,0,0:0:0:0:
475,192,62033,1,0,0:0:0:0:
36,192,62033,1,0,0:0:0:0:
256,192,62033,1,0,0:0:0:0:
182,192,62106,1,0,0:0:0:0:
402,192,62106,1,0,0:0:0:0:
329,192,62179,1,0,0:0:0:0:
475,192,62179,1,0,0:0:0:0:
256,192,62252,1,0,0:0:0:0:
36,192,62252,1,0,0:0:0:0:
182,192,62326,1,0,0:0:0:0:
402,192,62326,1,0,0:0:0:0:
475,192,62326,1,0,0:0:0:0:
109,192,62399,1,0,0:0:0:0:
256,192,62399,1,0,0:0:0:0:
329,192,62472,1,0,0:0:0:0:
36,192,62472,1,0,0:0:0:0:
402,192,62545,1,0,0:0:0:0:
182,192,62545,1,0,0:0:0:0:
475,192,62618,1,0,0:0:0:0:
256,192,62618,1,0,0:0:0:0:
109,192,62618,1,0,0:0:0:0:
36,192,62618,1,0,0:0:0:0:
329,192,62691,1,0,0:0:0:0:
402,192,62691,1,0,0:0:0:0:
182,192,62765,1,0,0:0:0:0:
109,192,62765,1,0,0:0:0:0:
256,192,62838,1,0,0:0:0:0:
329,192,62838,1,0,0:0:0:0:
402,192,62911,1,0,0:0:0:0:
475,192,62911,1,0,0:0:0:0:
36,192,62911,1,0,0:0:0:0:
109,192,62984,1,0,0:0:0:0:
329,192,62984,1,0,0:0:0:0:
256,192,63057,1,0,0:0:0:0:
182,192,63057,1,0,0:0:0:0:
329,192,63130,1,0,0:0:0:0:
36,192,63130,1,0,0:0:0:0:
109,192,63204,1,0,0:0:0:0:
402,192,63204,1,0,0:0:0:0:
475,192,63204,1,0,0:0:0:0:
182,192,63277,1,0,0:0:0:0:
256,192,63277,1,0,0:0:0:0:
329,192,63350,1,0,0:0:0:0:
36,192,63350,1,0,0:0:0:0:
402,192,63423,1,0,0:0:0:0:
109,192,63423,1,0,0:0:0:0:
182,192,63496,1,0,0:0:0:0:
475,192,63496,1,0,0:0:0:0:
329,192,63496,1,0,0:0:0:0:
256,192,63569,1,0,0:0:0:0:
36,192,63569,1,0,0:0:0:0:
182,192,63643,1,0,0:0:0:0:
402,192,63643,1,0,0:0:0:0:
329,192,63716,1,0,0:0:0:0:
109,192,63716,1,0,0:0:0:0:
256,192,63789,1,0,0:0:0:0:
475,192,63789,1,0,0:0:0:0:
36,192,63789,1,0,0:0:0:0:
402,192,63789,1,0,0:0:0:0:
182,192,63862,1,0,0:0:0:0:
329,192,63862,1,0,0:0:0:0:
256,192,63935,1,0,0:0:0:0:
109,192,63935,1,0,0:0:0:0:
182,192,64009,1,0,0:0:0:0:
36,192,64009,1,0,0:0:0:0:
109,192,64082,1,0,0:0:0:0:
402,192,64082,1,0,0:0:0:0:
475,192,64082,1,0,0:0:0:0:
329,192,64155,1,0,0:0:0:0:
182,192,64155,1,0,0:0:0:0:
256,192,64228,1,0,0:0:0:0:
36,192,64228,1,0,0:0:0:0:
329,192,64301,1,0,0:0:0:0:
109,192,64301,1,0,0:0:0:0:
182,192,64374,1,0,0:0:0:0:
402,192,64374,1,0,0:0:0:0:
475,192,64374,1,0,0:0:0:0:
256,192,64448,1,0,0:0:0:0:
109,192,64448,1,0,0:0:0:0:
36,192,64521,1,0,0:0:0:0:
329,192,64521,1,0,0:0:0:0:
256,192,64594,1,0,0:0:0:0:
475,192,64594,1,0,0:0:0:0:
182,192,64667,1,0,0:0:0:0:
402,192,64667,1,0,0:0:0:0:
109,192,64667,1,0,0:0:0:0:
329,192,64740,1,0,0:0:0:0:
36,192,64740,1,0,0:0:0:0:
256,192,64813,1,0,0:0:0:0:
475,192,64813,1,0,0:0:0:0:
182,192,64887,1,0,0:0:0:0:
329,192,64887,1,0,0:0:0:0:
109,192,64960,1,0,0:0:0:0:
402,192,64960,1,0,0:0:0:0:
475,192,64960,1,0,0:0:0:0:
36,192,64960,1,0,0:0:0:0:
256,192,65033,1,0,0:0:0:0:
182,192,65033,1,0,0:0:0:0:
329,192,65106,1,0,0:0:0:0:
402,192,65106,1,0,0:0:0:0:
182,192,65179,1,0,0:0:0:0:
109,192,65179,1,0,0:0:0:0:
36,192,65252,1,0,0:0:0:0:
256,192,65252,1,0,0:0:0:0:
475,192,65252,1,0,0:0:0:0:
329,192,65326,1,0,0:0:0:0:
182,192,65326,1,0,0:0:0:0:
402,192,65399,1,0,0:0:0:0:
109,192,65399,1,0,0:0:0:0:
256,192,65472,1,0,0:0:0:0:
475,192,65472,1,0,0:0:0:0:
36,192,65545,1,0,0:0:0:0:
329,192,65545,1,0,0:0:0:0:
109,192,65545,1,0,0:0:0:0:
402,192,65618,1,0,0:0:0:0:
182,192,65618,1,0,0:0:0:0:
256,192,65691,1,0,0:0:0:0:
475,192,65691,1,0,0:0:0:0:
182,192,65765,1,0,0:0:0:0:
109,192,65765,1,0,0:0:0:0:
329,192,65838,1,0,0:0:0:0:
475,192,65838,1,0,0:0:0:0:
36,192,65838,1,0,0:0:0:0:
182,192,65911,1,0,0:0:0:0:
256,192,65911,1,0,0:0:0:0:
402,192,65984,1,0,0:0:0:0:
36,192,65984,1,0,0:0:0:0:
109,192,65984,1,0,0:0:0:0:
329,192,66057,1,0,0:0:0:0:
256,192,66057,1,0,0:0:0:0:
109,192,66130,1,0,0:0:0:0:
36,192,66130,1,0,0:0:0:0:
182,192,66130,1,0,0:0:0:0:
475,192,66130,1,0,0:0:0:0:
402,192,66130,1,0,0:0:0:0:
329,192,66204,1,0,0:0:0:0:
256,192,66204,1,0,0:0:0:0:
182,192,66277,1,0,0:0:0:0:
109,192,66277,1,0,0:0:0:0:
256,192,66350,1,0,0:0:0:0:
36,192,66350,1,0,0:0:0:0:
329,192,66423,1,0,0:0:0:0:
402,192,66423,1,0,0:0:0:0:
475,192,66423,1,0,0:0:0:0:
182,192,66496,1,0,0:0:0:0:
36,192,66496,1,0,0:0:0:0:
256,192,66569,1,0,0:0:0:0:
475,192,66569,1,0,0:0:0:0:
109,192,66643,1,0,0:0:0:0:
329,192,66643,1,0,0:0:0:0:
182,192,66716,1,0,0:0:0:0:
402,192,66716,1,0,0:0:0:0:
475,192,66716,1,0,0:0:0:0:
256,192,66789,1,0,0:0:0:0:
36,192,66789,1,0,0:0:0:0:
329,192,66862,1,0,0:0:0:0:
182,192,66862,1,0,0:0:0:0:
109,192,66935,1,0,0:0:0:0:
402,192,66935,1,0,0:0:0:0:
36,192,67009,1,0,0:0:0:0:
475,192,67009,1,0,0:0:0:0:
256,192,67009,1,0,0:0:0:0:
402,192,67082,1,0,0:0:0:0:
182,192,67082,1,0,0:0:0:0:
329,192,67155,1,0,0:0:0:0:
109,192,67155,1,0,0:0:0:0:
256,192,67228,1,0,0:0:0:0:
402,192,67228,1,0,0:0:0:0:
182,192,67301,1,0,0:0:0:0:
475,192,67301,1,0,0:0:0:0:
109,192,67301,1,0,0:0:0:0:
36,192,67301,1,0,0:0:0:0:
256,192,67374,1,0,0:0:0:0:
402,192,67374,1,0,0:0:0:0:
329,192,67448,1,0,0:0:0:0:
36,192,67448,1,0,0:0:0:0:
256,192,67521,1,0,0:0:0:0:
475,192,67521,1,0,0:0:0:0:
182,192,67594,1,0,0:0:0:0:
402,192,67594,1,0,0:0:0:0:
109,192,67594,1,0,0:0:0:0:
329,192,67667,1,0,0:0:0:0:
475,192,67667,1,0,0:0:0:0:
256,192,67740,1,0,0:0:0:0:
36,192,67740,1,0,0:0:0:0:
182,192,67813,1,0,0:0:0:0:
402,192,67813,1,0,0:0:0:0:
109,192,67887,1,0,0:0:0:0:
329,192,67887,1,0,0:0:0:0:
36,192,67887,1,0,0:0:0:0:
475,192,67960,1,0,0:0:0:0:
256,192,67960,1,0,0:0:0:0:
182,192,68033,1,0,0:0:0:0:
402,192,68033,1,0,0:0:0:0:
109,192,68106,1,0,0:0:0:0:
256,192,68106,1,0,0:0:0:0:
36,192,68179,1,0,0:0:0:0:
329,192,68179,1,0,0:0:0:0:
475,192,68179,1,0,0:0:0:0:
402,192,68252,1,0,0:0:0:0:
182,192,68252,1,0,0:0:0:0:
109,192,68326,1,0,0:0:0:0:
329,192,68326,1,0,0:0:0:0:
36,192,68399,1,0,0:0:0:0:
256,192,68399,1,0,0:0:0:0:
475,192,68472,1,0,0:0:0:0:
182,192,68472,1,0,0:0:0:0:
109,192,68472,1,0,0:0:0:0:
402,192,68472,1,0,0:0:0:0:
329,192,68545,1,0,0:0:0:0:
256,192,68545,1,0,0:0:0:0:
36,192,68618,1,0,0:0:0:0:
109,192,68618,1,0,0:0:0:0:
182,192,68691,1,0,0:0:0:0:
256,192,68691,1,0,0:0:0:0:
329,192,68765,1,0,0:0:0:0:
475,192,68765,1,0,0:0:0:0:
402,192,68765,1,0,0:0:0:0:
256,192,68838,1,0,0:0:0:0:
36,192,68838,1,0,0:0:0:0:
182,192,68911,1,0,0:0:0:0:
402,192,68911,1,0,0:0:0:0:
109,192,68984,1,0,0:0:0:0:
329,192,68984,1,0,0:0:0:0:
256,192,69057,1,0,0:0:0:0:
475,192,69057,1,0,0:0:0:0:
36,192,69057,1,0,0:0:0:0:
182,192,69130,1,0,0:0:0:0:
329,192,69130,1,0,0:0:0:0:
402,192,69204,1,0,0:0:0:0:
109,192,69204,1,0,0:0:0:0:
475,192,69277,1,0,0:0:0:0:
182,192,69277,1,0,0:0:0:0:
36,192,69350,1,0,0:0:0:0:
256,192,69350,1,0,0:0:0:0:
109,192,69350,1,0,0:0:0:0:
329,192,69423,1,0,0:0:0:0:
402,192,69423,1,0,0:0:0:0:
182,192,69496,1,0,0:0:0:0:
36,192,69496,1,0,0:0:0:0:
475,192,69569,1,0,0:0:0:0:
402,192,69569,1,0,0:0:0:0:
36,192,69643,1,0,0:0:0:0:
109,192,69643,1,0,0:0:0:0:
182,192,69643,1,0,0:0:0:0:
329,192,69643,1,0,0:0:0:0:
475,192,69716,1,0,0:0:0:0:
256,192,69716,1,0,0:0:0:0:
182,192,69789,1,0,0:0:0:0:
402,192,69789,1,0,0:0:0:0:
329,192,69862,1,0,0:0:0:0:
36,192,69862,1,0,0:0:0:0:
475,192,69935,1,0,0:0:0:0:
109,192,69935,1,0,0:0:0:0:
256,192,69935,1,0,0:0:0:0:
182,192,70009,1,0,0:0:0:0:
402,192,70009,1,0,0:0:0:0:
329,192,70082,1,0,0:0:0:0:
109,192,70082,1,0,0:0:0:0:
256,192,70155,1,0,0:0:0:0:
36,192,70155,1,0,0:0:0:0:
182,192,70228,1,0,0:0:0:0:
475,192,70228,1,0,0:0:0:0:
402,192,70228,1,0,0:0:0:0:
109,192,70301,1,0,0:0:0:0:
329,192,70301,1,0,0:0:0:0:
256,192,70374,1,0,0:0:0:0:
475,192,70374,1,0,0:0:0:0:
182,192,70448,1,0,0:0:0:0:
402,192,70448,1,0,0:0:0:0:
329,192,70521,1,0,0:0:0:0:
36,192,70521,1,0,0:0:0:0:
109,192,70521,1,0,0:0:0:0:
402,192,70594,1,0,0:0:0:0:
182,192,70594,1,0,0:0:0:0:
256,192,70667,1,0,0:0:0:0:
475,192,70667,1,0,0:0:0:0:
36,192,70667,1,0,0:0:0:0:
182,192,70740,1,0,0:0:0:0:
329,192,70740,1,0,0:0:0:0:
109,192,70813,5,0,0:0:0:0:
36,192,70813,1,0,0:0:0:0:
475,192,70813,1,0,0:0:0:0:
402,192,70813,1,0,0:0:0:0:
329,192,70887,5,0,0:0:0:0:
256,192,70887,1,0,0:0:0:0:
109,192,70960,1,0,0:0:0:0:
182,192,70960,1,0,0:0:0:0:
36,192,70960,1,0,0:0:0:0:
329,192,71033,1,0,0:0:0:0:
402,192,71033,1,0,0:0:0:0:
109,192,71106,1,0,0:0:0:0:
36,192,71106,1,0,0:0:0:0:
256,192,71106,1,0,0:0:0:0:
475,192,71106,1,0,0:0:0:0:
182,192,71179,1,0,0:0:0:0:
329,192,71179,1,0,0:0:0:0:
256,192,71252,1,0,0:0:0:0:
402,192,71252,1,0,0:0:0:0:
475,192,71252,1,0,0:0:0:0:
109,192,71326,1,0,0:0:0:0:
36,192,71326,1,0,0:0:0:0:
329,192,71399,1,0,0:0:0:0:
475,192,71399,1,0,0:0:0:0:
182,192,71399,1,0,0:0:0:0:
402,192,71399,1,0,0:0:0:0:
256,192,71472,1,0,0:0:0:0:
109,192,71472,1,0,0:0:0:0:
36,192,71545,1,0,0:0:0:0:
182,192,71545,1,0,0:0:0:0:
475,192,71545,1,0,0:0:0:0:
329,192,71618,1,0,0:0:0:0:
402,192,71618,1,0,0:0:0:0:
256,192,71691,1,0,0:0:0:0:
475,192,71691,1,0,0:0:0:0:
36,192,71691,1,0,0:0:0:0:
109,192,71691,1,0,0:0:0:0:
329,192,71765,1,0,0:0:0:0:
182,192,71765,1,0,0:0:0:0:
256,192,71838,1,0,0:0:0:0:
402,192,71838,1,0,0:0:0:0:
475,192,71838,1,0,0:0:0:0:
109,192,71911,1,0,0:0:0:0:
36,192,71911,1,0,0:0:0:0:
256,192,71984,1,0,0:0:0:0:
475,192,71984,1,0,0:0:0:0:
402,192,71984,1,0,0:0:0:0:
182,192,71984,1,0,0:0:0:0:
329,192,72057,1,0,0:0:0:0:
109,192,72057,1,0,0:0:0:0:
256,192,72130,1,0,0:0:0:0:
36,192,72130,1,0,0:0:0:0:
475,192,72130,1,0,0:0:0:0:
182,192,72204,1,0,0:0:0:0:
329,192,72204,1,0,0:0:0:0:
109,192,72277,1,0,0:0:0:0:
36,192,72277,1,0,0:0:0:0:
402,192,72277,1,0,0:0:0:0:
475,192,72277,1,0,0:0:0:0:
329,192,72350,1,0,0:0:0:0:
256,192,72350,1,0,0:0:0:0:
182,192,72423,1,0,0:0:0:0:
109,192,72423,1,0,0:0:0:0:
36,192,72423,1,0,0:0:0:0:
329,192,72496,1,0,0:0:0:0:
402,192,72496,1,0,0:0:0:0:
475,192,72569,1,0,0:0:0:0:
256,192,72569,1,0,0:0:0:0:
109,192,72569,1,0,0:0:0:0:
36,192,72569,1,0,0:0:0:0:
182,192,72643,1,0,0:0:0:0:
402,192,72643,1,0,0:0:0:0:
329,192,72716,1,0,0:0:0:0:
475,192,72716,1,0,0:0:0:0:
109,192,72716,1,0,0:0:0:0:
256,192,72789,1,0,0:0:0:0:
182,192,72789,1,0,0:0:0:0:
402,192,72862,1,0,0:0:0:0:
475,192,72862,1,0,0:0:0:0:
109,192,72862,1,0,0:0:0:0:
36,192,72862,1,0,0:0:0:0:
329,192,72935,1,0,0:0:0:0:
256,192,72935,1,0,0:0:0:0:
109,192,73009,1,0,0:0:0:0:
36,192,73009,1,0,0:0:0:0:
182,192,73009,1,0,0:0:0:0:
475,192,73009,1,0,0:0:0:0:
402,192,73082,1,0,0:0:0:0:
329,192,73082,1,0,0:0:0:0:
475,192,73155,1,0,0:0:0:0:
109,192,73155,1,0,0:0:0:0:
36,192,73155,1,0,0:0:0:0:
256,192,73155,1,0,0:0:0:0:
182,192,73228,1,0,0:0:0:0:
329,192,73228,1,0,0:0:0:0:
256,192,73301,1,0,0:0:0:0:
402,192,73301,1,0,0:0:0:0:
36,192,73301,1,0,0:0:0:0:
475,192,73374,1,0,0:0:0:0:
182,192,73374,1,0,0:0:0:0:
109,192,73448,1,0,0:0:0:0:
36,192,73448,1,0,0:0:0:0:
329,192,73448,1,0,0:0:0:0:
402,192,73448,1,0,0:0:0:0:
256,192,73521,1,0,0:0:0:0:
182,192,73521,1,0,0:0:0:0:
329,192,73594,1,0,0:0:0:0:
36,192,73594,1,0,0:0:0:0:
475,192,73594,1,0,0:0:0:0:
402,192,73667,1,0,0:0:0:0:
109,192,73667,1,0,0:0:0:0:
182,192,73740,1,0,0:0:0:0:
475,192,73740,1,0,0:0:0:0:
256,192,73740,1,0,0:0:0:0:
36,192,73740,1,0,0:0:0:0:
329,192,73813,1,0,0:0:0:0:
402,192,73813,1,0,0:0:0:0:
182,192,73887,1,0,0:0:0:0:
109,192,73887,1,0,0:0:0:0:
475,192,73887,1,0,0:0:0:0:
256,192,73960,1,0,0:0:0:0:
329,192,73960,1,0,0:0:0:0:
402,192,74033,1,0,0:0:0:0:
475,192,74033,1,0,0:0:0:0:
109,192,74033,1,0,0:0:0:0:
36,192,74033,1,0,0:0:0:0:
182,192,74106,1,0,0:0:0:0:
329,192,74106,1,0,0:0:0:0:
256,192,74179,1,0,0:0:0:0:
475,192,74179,1,0,0:0:0:0:
36,192,74179,1,0,0:0:0:0:
402,192,74252,1,0,0:0:0:0:
182,192,74252,1,0,0:0:0:0:
329,192,74326,1,0,0:0:0:0:
109,192,74326,1,0,0:0:0:0:
36,192,74326,1,0,0:0:0:0:
475,192,74326,1,0,0:0:0:0:
256,192,74399,1,0,0:0:0:0:
182,192,74399,1,0,0:0:0:0:
109,192,74472,1,0,0:0:0:0:
402,192,74472,1,0,0:0:0:0:
475,192,74472,1,0,0:0:0:0:
329,192,74545,1,0,0:0:0:0:
36,192,74545,1,0,0:0:0:0:
256,192,74618,1,0,0:0:0:0:
475,192,74618,1,0,0:0:0:0:
402,192,74618,1,0,0:0:0:0:
182,192,74618,1,0,0:0:0:0:
109,192,74691,1,0,0:0:0:0:
36,192,74691,1,0,0:0:0:0:
256,192,74765,1,0,0:0:0:0:
329,192,74765,1,0,0:0:0:0:
475,192,74765,1,0,0:0:0:0:
182,192,74838,1,0,0:0:0:0:
402,192,74838,1,0,0:0:0:0:
109,192,74911,1,0,0:0:0:0:
36,192,74911,1,0,0:0:0:0:
475,192,74911,1,0,0:0:0:0:
329,192,74911,1,0,0:0:0:0:
256,192,74984,1,0,0:0:0:0:
182,192,74984,1,0,0:0:0:0:
402,192,75057,1,0,0:0:0:0:
329,192,75057,1,0,0:0:0:0:
36,192,75057,1,0,0:0:0:0:
182,192,75130,1,0,0:0:0:0:
109,192,75130,1,0,0:0:0:0:
475,192,75204,1,0,0:0:0:0:
402,192,75204,1,0,0:0:0:0:
36,192,75204,1,0,0:0:0:0:
329,192,75204,1,0,0:0:0:0:
256,192,75277,1,0,0:0:0:0:
182,192,75277,1,0,0:0:0:0:
402,192,75350,1,0,0:0:0:0:
475,192,75350,1,0,0:0:0:0:
109,192,75350,1,0,0:0:0:0:
36,192,75350,1,0,0:0:0:0:
329,192,75423,1,0,0:0:0:0:
256,192,75423,1,0,0:0:0:0:
182,192,75496,1,0,0:0:0:0:
109,192,75496,1,0,0:0:0:0:
36,192,75496,1,0,0:0:0:0:
402,192,75496,1,0,0:0:0:0:
475,192,75496,128,0,75643:0:0:0:0:
475,192,75789,128,0,75935:0:0:0:0:
256,192,76082,128,0,76228:0:0:0:0:
36,192,76374,128,0,76521:0:0:0:0:
109,192,76667,128,0,76813:0:0:0:0:
475,192,76667,1,0,0:0:0:0:
402,192,76667,1,0,0:0:0:0:
256,192,76667,1,0,0:0:0:0:
109,192,76960,128,0,77106:0:0:0:0:
182,192,77252,128,0,77399:0:0:0:0:
329,192,77545,128,0,77691:0:0:0:0:
109,192,77545,1,0,0:0:0:0:
256,192,77545,1,0,0:0:0:0:
182,192,77545,1,0,0:0:0:0:
36,192,77545,1,0,0:0:0:0:
475,192,77545,1,0,0:0:0:0:
402,192,77838,1,0,0:0:0:0:
256,192,77838,1,0,0:0:0:0:
182,192,77838,1,0,0:0:0:0:
36,192,77838,1,0,0:0:0:0:
109,192,77838,1,0,0:0:0:0:
475,192,77838,128,0,77984:0:0:0:0:
329,192,78130,128,0,78277:0:0:0:0:
402,192,78423,128,0,78569:0:0:0:0:
256,192,78716,128,0,78862:0:0:0:0:
182,192,79009,128,0,79155:0:0:0:0:
475,192,79009,1,0,0:0:0:0:
402,192,79009,1,0,0:0:0:0:
329,192,79009,1,0,0:0:0:0:
36,192,79009,1,0,0:0:0:0:
109,192,79009,1,0,0:0:0:0:
182,192,79301,128,0,79448:0:0:0:0:
36,192,79448,1,0,0:0:0:0:
109,192,79448,1,0,0:0:0:0:
329,192,79448,1,0,0:0:0:0:
402,192,79448,1,0,0:0:0:0:
256,192,79448,1,0,0:0:0:0:
182,192,79594,1,0,0:0:0:0:
402,192,79594,1,0,0:0:0:0:
475,192,79594,1,0,0:0:0:0:
329,192,79594,1,0,0:0:0:0:
109,192,79594,1,0,0:0:0:0:
109,192,79740,1,0,0:0:0:0:
36,192,79740,1,0,0:0:0:0:
182,192,79777,1,0,0:0:0:0:
256,192,79813,1,0,0:0:0:0:
329,192,79850,1,0,0:0:0:0:
475,192,79887,1,0,0:0:0:0:
402,192,79887,1,0,0:0:0:0:
182,192,79960,1,0,0:0:0:0:
109,192,79960,1,0,0:0:0:0:
36,192,79960,1,0,0:0:0:0:
402,192,80033,1,0,0:0:0:0:
475,192,80033,1,0,0:0:0:0:
329,192,80069,1,0,0:0:0:0:
256,192,80106,1,0,0:0:0:0:
182,192,80143,1,0,0:0:0:0:
475,192,80179,1,0,0:0:0:0:
402,192,80179,1,0,0:0:0:0:
329,192,80179,1,0,0:0:0:0:
109,192,80179,1,0,0:0:0:0:
36,192,80179,128,0,80399:0:0:0:0:
256,192,80326,1,0,0:0:0:0:
182,192,80472,128,0,80691:0:0:0:0:
475,192,80472,1,0,0:0:0:0:
36,192,80472,1,0,0:0:0:0:
402,192,80618,1,0,0:0:0:0:
329,192,80765,128,0,80984:0:0:0:0:
182,192,80765,1,0,0:0:0:0:
36,192,80765,1,0,0:0:0:0:
256,192,80911,1,0,0:0:0:0:
109,192,81057,128,0,81277:0:0:0:0:
475,192,81057,1,0,0:0:0:0:
329,192,81057,1,0,0:0:0:0:
182,192,81204,1,0,0:0:0:0:
329,192,81204,1,0,0:0:0:0:
402,192,81350,128,0,81569:0:0:0:0:
256,192,81350,1,0,0:0:0:0:
109,192,81350,1,0,0:0:0:0:
475,192,81350,1,0,0:0:0:0:
182,192,81496,1,0,0:0:0:0:
329,192,81643,128,0,81862:0:0:0:0:
402,192,81643,1,0,0:0:0:0:
109,192,81643,1,0,0:0:0:0:
36,192,81789,1,0,0:0:0:0:
256,192,81935,128,0,82155:0:0:0:0:
329,192,81935,1,0,0:0:0:0:
475,192,81935,1,0,0:0:0:0:
109,192,82082,1,0,0:0:0:0:
182,192,82228,128,0,82448:0:0:0:0:
256,192,82228,1,0,0:0:0:0:
475,192,82228,1,0,0:0:0:0:
256,192,82374,1,0,0:0:0:0:
329,192,82448,1,0,0:0:0:0:
36,192,82521,128,0,82740:0:0:0:0:
402,192,82521,1,0,0:0:0:0:
475,192,82521,1,0,0:0:0:0:
182,192,82521,1,0,0:0:0:0:
109,192,82521,1,0,0:0:0:0:
256,192,82667,1,0,0:0:0:0:
109,192,82813,128,0,83033:0:0:0:0:
36,192,82813,1,0,0:0:0:0:
329,192,82813,1,0,0:0:0:0:
256,192,82960,1,0,0:0:0:0:
402,192,82960,1,0,0:0:0:0:
475,192,82960,1,0,0:0:0:0:
329,192,82960,1,0,0:0:0:0:
182,192,83106,128,0,83326:0:0:0:0:
402,192,83106,1,0,0:0:0:0:
109,192,83106,1,0,0:0:0:0:
329,192,83252,1,0,0:0:0:0:
256,192,83399,128,0,83618:0:0:0:0:
475,192,83399,1,0,0:0:0:0:
329,192,83399,1,0,0:0:0:0:
36,192,83399,1,0,0:0:0:0:
182,192,83399,1,0,0:0:0:0:
182,192,83545,1,0,0:0:0:0:
402,192,83691,1,0,0:0:0:0:
256,192,83691,1,0,0:0:0:0:
475,192,83691,1,0,0:0:0:0:
109,192,83838,1,0,0:0:0:0:
402,192,83838,1,0,0:0:0:0:
475,192,83838,1,0,0:0:0:0:
36,192,83838,1,0,0:0:0:0:
256,192,83911,1,0,0:0:0:0:
329,192,83911,1,0,0:0:0:0:
109,192,83984,1,0,0:0:0:0:
182,192,83984,1,0,0:0:0:0:
109,192,84130,1,0,0:0:0:0:
182,192,84130,1,0,0:0:0:0:
329,192,84130,1,0,0:0:0:0:
36,192,84277,1,0,0:0:0:0:
256,192,84277,1,0,0:0:0:0:
402,192,84277,1,0,0:0:0:0:
475,192,84277,1,0,0:0:0:0:
182,192,84277,1,0,0:0:0:0:
329,192,84423,1,0,0:0:0:0:
109,192,84569,1,0,0:0:0:0:
36,192,84569,1,0,0:0:0:0:
475,192,84569,1,0,0:0:0:0:
402,192,84569,1,0,0:0:0:0:
329,192,84643,1,0,0:0:0:0:
182,192,84643,1,0,0:0:0:0:
256,192,84643,1,0,0:0:0:0:
109,192,84716,1,0,0:0:0:0:
36,192,84716,1,0,0:0:0:0:
402,192,84716,1,0,0:0:0:0:
475,192,84716,1,0,0:0:0:0:
182,192,84752,1,0,0:0:0:0:
256,192,84789,1,0,0:0:0:0:
329,192,84826,1,0,0:0:0:0:
475,192,84862,5,0,0:0:0:0:
402,192,84862,1,0,0:0:0:0:
109,192,84862,1,0,0:0:0:0:
36,192,84862,1,0,0:0:0:0:
182,192,84862,1,0,0:0:0:0:
329,192,85155,1,0,0:0:0:0:
475,192,85155,1,0,0:0:0:0:
402,192,85155,1,0,0:0:0:0:
182,192,85155,1,0,0:0:0:0:
402,192,85301,1,0,0:0:0:0:
475,192,85301,1,0,0:0:0:0:
109,192,85301,1,0,0:0:0:0:
36,192,85301,1,0,0:0:0:0:
256,192,85301,1,0,0:0:0:0:
182,192,85301,1,0,0:0:0:0:
475,192,85594,1,0,0:0:0:0:
402,192,85594,1,0,0:0:0:0:
329,192,85594,1,0,0:0:0:0:
182,192,85594,1,0,0:0:0:0:
402,192,85740,1,0,0:0:0:0:
475,192,85740,1,0,0:0:0:0:
109,192,85740,1,0,0:0:0:0:
36,192,85740,1,0,0:0:0:0:
256,192,85740,1,0,0:0:0:0:
182,192,85740,1,0,0:0:0:0:
329,192,86033,1,0,0:0:0:0:
402,192,86033,1,0,0:0:0:0:
475,192,86033,1,0,0:0:0:0:
182,192,86033,1,0,0:0:0:0:
475,192,86179,1,0,0:0:0:0:
402,192,86179,1,0,0:0:0:0:
109,192,86179,1,0,0:0:0:0:
36,192,86179,1,0,0:0:0:0:
256,192,86179,1,0,0:0:0:0:
182,192,86179,1,0,0:0:0:0:
475,192,86472,1,0,0:0:0:0:
402,192,86472,1,0,0:0:0:0:
329,192,86472,1,0,0:0:0:0:
182,192,86472,1,0,0:0:0:0:
402,192,86618,1,0,0:0:0:0:
475,192,86618,1,0,0:0:0:0:
109,192,86618,1,0,0:0:0:0:
36,192,86618,1,0,0:0:0:0:
256,192,86618,1,0,0:0:0:0:
182,192,86618,1,0,0:0:0:0:
475,192,86911,1,0,0:0:0:0:
36,192,86911,1,0,0:0:0:0:
256,192,86911,1,0,0:0:0:0:
109,192,86911,1,0,0:0:0:0:
402,192,86911,1,0,0:0:0:0:
182,192,86911,1,0,0:0:0:0:
36,192,87204,1,0,0:0:0:0:
109,192,87204,1,0,0:0:0:0:
182,192,87204,1,0,0:0:0:0:
329,192,87204,1,0,0:0:0:0:
475,192,87204,1,0,0:0:0:0:
402,192,87204,1,0,0:0:0:0:
182,192,87496,1,0,0:0:0:0:
36,192,87496,1,0,0:0:0:0:
109,192,87496,1,0,0:0:0:0:
329,192,87496,1,0,0:0:0:0:
109,192,87643,1,0,0:0:0:0:
36,192,87643,1,0,0:0:0:0:
256,192,87643,1,0,0:0:0:0:
402,192,87643,1,0,0:0:0:0:
475,192,87643,1,0,0:0:0:0:
329,192,87643,1,0,0:0:0:0:
36,192,87935,1,0,0:0:0:0:
109,192,87935,1,0,0:0:0:0:
182,192,87935,1,0,0:0:0:0:
329,192,87935,1,0,0:0:0:0:
109,192,88082,1,0,0:0:0:0:
36,192,88082,1,0,0:0:0:0:
475,192,88082,1,0,0:0:0:0:
402,192,88082,1,0,0:0:0:0:
256,192,88082,1,0,0:0:0:0:
329,192,88082,1,0,0:0:0:0:
182,192,88374,1,0,0:0:0:0:
109,192,88374,1,0,0:0:0:0:
36,192,88374,1,0,0:0:0:0:
329,192,88374,1,0,0:0:0:0:
36,192,88521,1,0,0:0:0:0:
109,192,88521,1,0,0:0:0:0:
256,192,88521,1,0,0:0:0:0:
402,192,88521,1,0,0:0:0:0:
475,192,88521,1,0,0:0:0:0:
329,192,88521,1,0,0:0:0:0:
36,192,88813,1,0,0:0:0:0:
109,192,88813,1,0,0:0:0:0:
329,192,88813,1,0,0:0:0:0:
182,192,88813,1,0,0:0:0:0:
109,192,88960,1,0,0:0:0:0:
36,192,88960,1,0,0:0:0:0:
256,192,88960,1,0,0:0:0:0:
402,192,88960,1,0,0:0:0:0:
475,192,88960,1,0,0:0:0:0:
329,192,88960,1,0,0:0:0:0:
109,192,89252,1,0,0:0:0:0:
36,192,89252,1,0,0:0:0:0:
475,192,89252,1,0,0:0:0:0:
256,192,89252,1,0,0:0:0:0:
402,192,89252,1,0,0:0:0:0:
329,192,89252,1,0,0:0:0:0:
329,192,89399,1,0,0:0:0:0:
182,192,89399,1,0,0:0:0:0:
329,192,89545,1,0,0:0:0:0:
402,192,89545,1,0,0:0:0:0:
475,192,89545,1,0,0:0:0:0:
36,192,89545,1,0,0:0:0:0:
109,192,89545,1,0,0:0:0:0:
256,192,89545,1,0,0:0:0:0:
182,192,89618,1,0,0:0:0:0:
256,192,89691,1,0,0:0:0:0:
36,192,89691,1,0,0:0:0:0:
329,192,89765,1,0,0:0:0:0:
402,192,89838,1,0,0:0:0:0:
475,192,89838,1,0,0:0:0:0:
109,192,89838,1,0,0:0:0:0:
182,192,89838,1,0,0:0:0:0:
329,192,89911,1,0,0:0:0:0:
475,192,89984,1,0,0:0:0:0:
402,192,89984,1,0,0:0:0:0:
256,192,89984,1,0,0:0:0:0:
109,192,89984,1,0,0:0:0:0:
36,192,89984,1,0,0:0:0:0:
182,192,90057,1,0,0:0:0:0:
109,192,90130,1,0,0:0:0:0:
329,192,90130,1,0,0:0:0:0:
256,192,90204,1,0,0:0:0:0:
182,192,90277,1,0,0:0:0:0:
402,192,90277,1,0,0:0:0:0:
475,192,90277,1,0,0:0:0:0:
36,192,90277,1,0,0:0:0:0:
329,192,90350,1,0,0:0:0:0:
475,192,90423,1,0,0:0:0:0:
256,192,90423,1,0,0:0:0:0:
402,192,90423,1,0,0:0:0:0:
109,192,90423,1,0,0:0:0:0:
36,192,90423,1,0,0:0:0:0:
182,192,90496,1,0,0:0:0:0:
256,192,90569,1,0,0:0:0:0:
36,192,90569,1,0,0:0:0:0:
329,192,90643,1,0,0:0:0:0:
475,192,90716,1,0,0:0:0:0:
182,192,90716,1,0,0:0:0:0:
402,192,90716,1,0,0:0:0:0:
109,192,90716,1,0,0:0:0:0:
256,192,90789,1,0,0:0:0:0:
402,192,90862,1,0,0:0:0:0:
475,192,90862,1,0,0:0:0:0:
36,192,90862,1,0,0:0:0:0:
109,192,90862,1,0,0:0:0:0:
329,192,90862,1,0,0:0:0:0:
182,192,90935,1,0,0:0:0:0:
256,192,91009,1,0,0:0:0:0:
475,192,91009,1,0,0:0:0:0:
329,192,91082,1,0,0:0:0:0:
475,192,91155,1,0,0:0:0:0:
402,192,91155,1,0,0:0:0:0:
36,192,91155,1,0,0:0:0:0:
256,192,91155,1,0,0:0:0:0:
182,192,91228,1,0,0:0:0:0:
475,192,91301,1,0,0:0:0:0:
402,192,91301,1,0,0:0:0:0:
36,192,91301,1,0,0:0:0:0:
109,192,91301,1,0,0:0:0:0:
329,192,91301,1,0,0:0:0:0:
182,192,91374,1,0,0:0:0:0:
256,192,91448,1,0,0:0:0:0:
475,192,91448,1,0,0:0:0:0:
329,192,91521,1,0,0:0:0:0:
475,192,91594,1,0,0:0:0:0:
402,192,91594,1,0,0:0:0:0:
109,192,91594,1,0,0:0:0:0:
36,192,91594,1,0,0:0:0:0:
256,192,91594,1,0,0:0:0:0:
182,192,91667,1,0,0:0:0:0:
329,192,91740,1,0,0:0:0:0:
402,192,91740,1,0,0:0:0:0:
256,192,91813,1,0,0:0:0:0:
182,192,91887,1,0,0:0:0:0:
36,192,91887,1,0,0:0:0:0:
109,192,91887,1,0,0:0:0:0:
402,192,91887,1,0,0:0:0:0:
475,192,91887,1,0,0:0:0:0:
329,192,91960,1,0,0:0:0:0:
256,192,92033,1,0,0:0:0:0:
475,192,92033,1,0,0:0:0:0:
182,192,92106,1,0,0:0:0:0:
36,192,92179,1,0,0:0:0:0:
109,192,92179,1,0,0:0:0:0:
402,192,92179,1,0,0:0:0:0:
329,192,92179,1,0,0:0:0:0:
256,192,92252,1,0,0:0:0:0:
182,192,92326,1,0,0:0:0:0:
109,192,92326,1,0,0:0:0:0:
36,192,92326,1,0,0:0:0:0:
402,192,92326,1,0,0:0:0:0:
475,192,92326,1,0,0:0:0:0:
329,192,92399,1,0,0:0:0:0:
256,192,92472,1,0,0:0:0:0:
36,192,92472,1,0,0:0:0:0:
329,192,92545,1,0,0:0:0:0:
475,192,92618,1,0,0:0:0:0:
109,192,92618,1,0,0:0:0:0:
182,192,92618,1,0,0:0:0:0:
402,192,92618,1,0,0:0:0:0:
256,192,92691,1,0,0:0:0:0:
109,192,92765,1,0,0:0:0:0:
329,192,92765,1,0,0:0:0:0:
36,192,92765,1,0,0:0:0:0:
475,192,92765,1,0,0:0:0:0:
402,192,92765,1,0,0:0:0:0:
182,192,92838,1,0,0:0:0:0:
256,192,92911,1,0,0:0:0:0:
402,192,92911,1,0,0:0:0:0:
182,192,92984,1,0,0:0:0:0:
36,192,93057,1,0,0:0:0:0:
402,192,93057,1,0,0:0:0:0:
475,192,93057,1,0,0:0:0:0:
109,192,93057,1,0,0:0:0:0:
329,192,93130,1,0,0:0:0:0:
36,192,93204,1,0,0:0:0:0:
109,192,93204,1,0,0:0:0:0:
256,192,93204,1,0,0:0:0:0:
402,192,93204,1,0,0:0:0:0:
475,192,93204,1,0,0:0:0:0:
182,192,93277,1,0,0:0:0:0:
329,192,93350,1,0,0:0:0:0:
36,192,93350,1,0,0:0:0:0:
256,192,93423,1,0,0:0:0:0:
109,192,93496,1,0,0:0:0:0:
182,192,93496,1,0,0:0:0:0:
402,192,93496,1,0,0:0:0:0:
475,192,93496,1,0,0:0:0:0:
329,192,93569,1,0,0:0:0:0:
109,192,93643,1,0,0:0:0:0:
36,192,93643,1,0,0:0:0:0:
182,192,93643,1,0,0:0:0:0:
475,192,93643,1,0,0:0:0:0:
402,192,93643,1,0,0:0:0:0:
256,192,93716,1,0,0:0:0:0:
329,192,93789,1,0,0:0:0:0:
402,192,93789,1,0,0:0:0:0:
256,192,93862,1,0,0:0:0:0:
182,192,93935,1,0,0:0:0:0:
109,192,93935,1,0,0:0:0:0:
36,192,93935,1,0,0:0:0:0:
475,192,93935,1,0,0:0:0:0:
402,192,93935,1,0,0:0:0:0:
329,192,94009,1,0,0:0:0:0:
256,192,94082,1,0,0:0:0:0:
36,192,94082,1,0,0:0:0:0:
182,192,94155,1,0,0:0:0:0:
36,192,94228,128,0,94374:0:0:0:0:
109,192,94228,1,0,0:0:0:0:
329,192,94228,128,0,94521:0:0:0:0:
475,192,94228,128,0,94374:0:0:0:0:
182,192,94374,128,0,94667:0:0:0:0:
36,192,94521,128,0,94813:0:0:0:0:
475,192,94521,128,0,94667:0:0:0:0:
402,192,94521,128,0,94667:0:0:0:0:
256,192,94667,128,0,94960:0:0:0:0:
109,192,94813,128,0,95106:0:0:0:0:
475,192,94813,128,0,94960:0:0:0:0:
402,192,94813,128,0,94960:0:0:0:0:
329,192,94960,128,0,95252:0:0:0:0:
182,192,95106,128,0,95399:0:0:0:0:
36,192,95106,128,0,95252:0:0:0:0:
475,192,95106,128,0,95252:0:0:0:0:
402,192,95252,128,0,95545:0:0:0:0:
256,192,95399,128,0,95691:0:0:0:0:
109,192,95399,128,0,95545:0:0:0:0:
36,192,95399,128,0,95545:0:0:0:0:
475,192,95545,128,0,95838:0:0:0:0:
329,192,95691,128,0,95984:0:0:0:0:
109,192,95691,128,0,95838:0:0:0:0:
36,192,95691,128,0,95838:0:0:0:0:
182,192,95838,128,0,96130:0:0:0:0:
36,192,95984,128,0,96277:0:0:0:0:
475,192,95984,128,0,96130:0:0:0:0:
402,192,95984,128,0,96130:0:0:0:0:
256,192,96130,128,0,96423:0:0:0:0:
109,192,96277,128,0,96569:0:0:0:0:
329,192,96277,128,0,96423:0:0:0:0:
475,192,96277,128,0,96423:0:0:0:0:
182,192,96423,128,0,96716:0:0:0:0:
256,192,96569,128,0,96862:0:0:0:0:
36,192,96569,128,0,96716:0:0:0:0:
402,192,96569,128,0,96716:0:0:0:0:
475,192,96716,128,0,97009:0:0:0:0:
329,192,96862,128,0,97155:0:0:0:0:
182,192,96862,128,0,97009:0:0:0:0:
36,192,96862,128,0,97009:0:0:0:0:
402,192,97009,128,0,97301:0:0:0:0:
256,192,97155,128,0,97448:0:0:0:0:
36,192,97155,128,0,97301:0:0:0:0:
109,192,97155,128,0,97301:0:0:0:0:
329,192,97301,128,0,97594:0:0:0:0:
182,192,97448,128,0,97740:0:0:0:0:
475,192,97448,128,0,97594:0:0:0:0:
36,192,97448,128,0,97594:0:0:0:0:
256,192,97594,128,0,97887:0:0:0:0:
109,192,97740,128,0,98033:0:0:0:0:
402,192,97740,128,0,97887:0:0:0:0:
475,192,97740,128,0,97887:0:0:0:0:
182,192,97887,128,0,98179:0:0:0:0:
36,192,98033,128,0,98326:0:0:0:0:
329,192,98033,128,0,98179:0:0:0:0:
475,192,98033,128,0,98179:0:0:0:0:
109,192,98179,128,0,98472:0:0:0:0:
182,192,98326,128,0,98618:0:0:0:0:
475,192,98326,128,0,98472:0:0:0:0:
402,192,98326,128,0,98472:0:0:0:0:
256,192,98472,128,0,98765:0:0:0:0:
329,192,98618,128,0,98911:0:0:0:0:
36,192,98618,128,0,98765:0:0:0:0:
475,192,98618,128,0,98765:0:0:0:0:
182,192,98765,128,0,99057:0:0:0:0:
36,192,98911,128,0,99204:0:0:0:0:
402,192,98911,128,0,99057:0:0:0:0:
475,192,98911,128,0,99057:0:0:0:0:
256,192,99057,128,0,99350:0:0:0:0:
475,192,99204,128,0,99350:0:0:0:0:
109,192,99204,128,0,99496:0:0:0:0:
402,192,99204,128,0,99350:0:0:0:0:
329,192,99350,128,0,99643:0:0:0:0:
182,192,99496,128,0,99789:0:0:0:0:
36,192,99496,128,0,99643:0:0:0:0:
475,192,99496,128,0,99643:0:0:0:0:
402,192,99643,128,0,99935:0:0:0:0:
256,192,99789,128,0,100082:0:0:0:0:
109,192,99789,128,0,99935:0:0:0:0:
36,192,99789,128,0,99935:0:0:0:0:
329,192,99935,128,0,100228:0:0:0:0:
402,192,100082,128,0,100374:0:0:0:0:
182,192,100082,128,0,100228:0:0:0:0:
36,192,100082,128,0,100228:0:0:0:0:
475,192,100228,128,0,100521:0:0:0:0:
36,192,100374,128,0,100521:0:0:0:0:
109,192,100374,128,0,100521:0:0:0:0:
329,192,100374,128,0,100667:0:0:0:0:
182,192,100521,128,0,100813:0:0:0:0:
36,192,100667,128,0,100813:0:0:0:0:
256,192,100667,128,0,100960:0:0:0:0:
475,192,100667,128,0,100813:0:0:0:0:
329,192,100813,128,0,101106:0:0:0:0:
402,192,100960,128,0,101252:0:0:0:0:
36,192,100960,128,0,101106:0:0:0:0:
182,192,100960,128,0,101106:0:0:0:0:
475,192,101106,128,0,101399:0:0:0:0:
329,192,101252,128,0,101545:0:0:0:0:
182,192,101252,128,0,101399:0:0:0:0:
256,192,101399,128,0,101838:0:0:0:0:
109,192,101399,128,0,101545:0:0:0:0:
36,192,101545,128,0,101838:0:0:0:0:
182,192,101545,128,0,101691:0:0:0:0:
329,192,101691,128,0,101984:0:0:0:0:
109,192,101691,128,0,101984:0:0:0:0:
402,192,101838,128,0,102130:0:0:0:0:
182,192,101838,128,0,102130:0:0:0:0:
475,192,101984,128,0,102277:0:0:0:0:
256,192,101984,128,0,102277:0:0:0:0:
36,192,102130,128,0,102423:0:0:0:0:
329,192,102130,128,0,102423:0:0:0:0:
109,192,102277,128,0,102423:0:0:0:0:
402,192,102277,128,0,102423:0:0:0:0:
256,192,102423,128,0,102716:0:0:0:0:
182,192,102423,1,0,0:0:0:0:
475,192,102423,1,0,0:0:0:0:
329,192,102521,128,0,102716:0:0:0:0:
36,192,102521,1,0,0:0:0:0:
402,192,102618,128,0,102716:0:0:0:0:
109,192,102618,1,0,0:0:0:0:
182,192,102716,128,0,103009:0:0:0:0:
475,192,102716,1,0,0:0:0:0:
109,192,102813,128,0,103009:0:0:0:0:
402,192,102813,1,0,0:0:0:0:
36,192,102911,128,0,103009:0:0:0:0:
329,192,102911,1,0,0:0:0:0:
256,192,103009,128,0,103301:0:0:0:0:
475,192,103009,1,0,0:0:0:0:
329,192,103106,128,0,103301:0:0:0:0:
36,192,103106,1,0,0:0:0:0:
402,192,103204,128,0,103301:0:0:0:0:
109,192,103204,1,0,0:0:0:0:
182,192,103301,128,0,103594:0:0:0:0:
475,192,103301,1,0,0:0:0:0:
109,192,103399,128,0,103594:0:0:0:0:
402,192,103399,1,0,0:0:0:0:
36,192,103496,128,0,103594:0:0:0:0:
329,192,103496,1,0,0:0:0:0:
256,192,103594,1,0,0:0:0:0:
402,192,103594,1,0,0:0:0:0:
475,192,103594,1,0,0:0:0:0:
182,192,103667,1,0,0:0:0:0:
109,192,103740,1,0,0:0:0:0:
36,192,103740,1,0,0:0:0:0:
329,192,103740,1,0,0:0:0:0:
402,192,103813,1,0,0:0:0:0:
182,192,103887,1,0,0:0:0:0:
109,192,103887,1,0,0:0:0:0:
475,192,103887,1,0,0:0:0:0:
256,192,103960,1,0,0:0:0:0:
329,192,104033,1,0,0:0:0:0:
402,192,104033,1,0,0:0:0:0:
36,192,104033,1,0,0:0:0:0:
182,192,104106,1,0,0:0:0:0:
329,192,104179,1,0,0:0:0:0:
36,192,104179,1,0,0:0:0:0:
256,192,104179,1,0,0:0:0:0:
109,192,104252,1,0,0:0:0:0:
182,192,104326,1,0,0:0:0:0:
402,192,104326,1,0,0:0:0:0:
475,192,104326,1,0,0:0:0:0:
329,192,104399,1,0,0:0:0:0:
256,192,104472,1,0,0:0:0:0:
475,192,104472,1,0,0:0:0:0:
36,192,104472,1,0,0:0:0:0:
182,192,104545,1,0,0:0:0:0:
109,192,104618,1,0,0:0:0:0:
402,192,104618,1,0,0:0:0:0:
329,192,104618,1,0,0:0:0:0:
256,192,104691,1,0,0:0:0:0:
182,192,104765,128,0,104984:0:0:0:0:
475,192,104765,1,0,0:0:0:0:
402,192,104765,1,0,0:0:0:0:
36,192,104765,128,0,105204:0:0:0:0:
256,192,104838,128,0,105057:0:0:0:0:
329,192,104911,128,0,105130:0:0:0:0:
402,192,104984,128,0,105204:0:0:0:0:
475,192,105057,128,0,105496:0:0:0:0:
109,192,105057,128,0,105277:0:0:0:0:
182,192,105130,128,0,105350:0:0:0:0:
256,192,105204,128,0,105423:0:0:0:0:
329,192,105277,128,0,105496:0:0:0:0:
402,192,105350,128,0,105643:0:0:0:0:
36,192,105350,128,0,105569:0:0:0:0:
109,192,105423,128,0,105643:0:0:0:0:
182,192,105496,128,0,105716:0:0:0:0:
256,192,105569,128,0,105789:0:0:0:0:
329,192,105643,128,0,105935:0:0:0:0:
475,192,105643,128,0,105862:0:0:0:0:
36,192,105716,128,0,105935:0:0:0:0:
109,192,105789,128,0,105935:0:0:0:0:
182,192,105862,128,0,105935:0:0:0:0:
475,192,105935,1,0,0:0:0:0:
402,192,105935,1,0,0:0:0:0:
256,192,105935,1,0,0:0:0:0:
329,192,106033,1,0,0:0:0:0:
109,192,106082,1,0,0:0:0:0:
36,192,106082,1,0,0:0:0:0:
256,192,106130,1,0,0:0:0:0:
182,192,106228,1,0,0:0:0:0:
475,192,106228,1,0,0:0:0:0:
402,192,106228,1,0,0:0:0:0:
329,192,106326,1,0,0:0:0:0:
109,192,106374,1,0,0:0:0:0:
36,192,106374,1,0,0:0:0:0:
256,192,106423,1,0,0:0:0:0:
402,192,106521,1,0,0:0:0:0:
475,192,106521,1,0,0:0:0:0:
182,192,106521,1,0,0:0:0:0:
256,192,106667,1,0,0:0:0:0:
36,192,106740,1,0,0:0:0:0:
109,192,106740,1,0,0:0:0:0:
475,192,106740,1,0,0:0:0:0:
329,192,106813,1,0,0:0:0:0:
256,192,106960,1,0,0:0:0:0:
402,192,106960,1,0,0:0:0:0:
182,192,106960,1,0,0:0:0:0:
329,192,107106,1,0,0:0:0:0:
36,192,107106,128,0,107399:0:0:0:0:
475,192,107106,1,0,0:0:0:0:
109,192,107106,1,0,0:0:0:0:
256,192,107252,1,0,0:0:0:0:
182,192,107399,1,0,0:0:0:0:
475,192,107399,128,0,107691:0:0:0:0:
402,192,107399,1,0,0:0:0:0:
329,192,107399,1,0,0:0:0:0:
109,192,107545,1,0,0:0:0:0:
256,192,107691,128,0,107984:0:0:0:0:
36,192,107691,1,0,0:0:0:0:
182,192,107691,1,0,0:0:0:0:
329,192,107691,1,0,0:0:0:0:
402,192,107838,1,0,0:0:0:0:
36,192,107984,128,0,108277:0:0:0:0:
475,192,107984,1,0,0:0:0:0:
109,192,107984,1,0,0:0:0:0:
182,192,107984,1,0,0:0:0:0:
402,192,108130,1,0,0:0:0:0:
475,192,108277,128,0,108716:0:0:0:0:
256,192,108277,1,0,0:0:0:0:
329,192,108277,1,0,0:0:0:0:
402,192,108423,128,0,108862:0:0:0:0:
182,192,108423,1,0,0:0:0:0:
256,192,108423,1,0,0:0:0:0:
329,192,108569,128,0,109009:0:0:0:0:
109,192,108569,1,0,0:0:0:0:
182,192,108569,1,0,0:0:0:0:
36,192,108716,1,0,0:0:0:0:
256,192,108716,128,0,109155:0:0:0:0:
109,192,108716,1,0,0:0:0:0:
182,192,108862,128,0,109301:0:0:0:0:
475,192,108862,1,0,0:0:0:0:
36,192,108862,1,0,0:0:0:0:
109,192,109009,128,0,109448:0:0:0:0:
402,192,109009,1,0,0:0:0:0:
475,192,109009,1,0,0:0:0:0:
36,192,109155,128,0,109448:0:0:0:0:
329,192,109155,1,0,0:0:0:0:
402,192,109155,1,0,0:0:0:0:
475,192,109301,128,0,109448:0:0:0:0:
329,192,109301,1,0,0:0:0:0:
256,192,109301,1,0,0:0:0:0:
402,192,109448,1,0,0:0:0:0:
182,192,109448,1,0,0:0:0:0:
256,192,109448,1,0,0:0:0:0:
329,192,109545,1,0,0:0:0:0:
109,192,109545,1,0,0:0:0:0:
36,192,109545,1,0,0:0:0:0:
475,192,109643,1,0,0:0:0:0:
182,192,109643,1,0,0:0:0:0:
402,192,109643,1,0,0:0:0:0:
256,192,109740,1,0,0:0:0:0:
109,192,109740,1,0,0:0:0:0:
36,192,109740,1,0,0:0:0:0:
329,192,109838,1,0,0:0:0:0:
475,192,109838,1,0,0:0:0:0:
402,192,109838,1,0,0:0:0:0:
182,192,109935,1,0,0:0:0:0:
109,192,109935,1,0,0:0:0:0:
36,192,109935,1,0,0:0:0:0:
402,192,110033,1,0,0:0:0:0:
475,192,110033,1,0,0:0:0:0:
329,192,110033,1,0,0:0:0:0:
109,192,110130,1,0,0:0:0:0:
36,192,110130,1,0,0:0:0:0:
256,192,110130,1,0,0:0:0:0:
182,192,110228,1,0,0:0:0:0:
402,192,110228,1,0,0:0:0:0:
475,192,110228,1,0,0:0:0:0:
329,192,110326,1,0,0:0:0:0:
109,192,110326,1,0,0:0:0:0:
36,192,110326,1,0,0:0:0:0:
256,192,110423,1,0,0:0:0:0:
402,192,110423,1,0,0:0:0:0:
475,192,110423,1,0,0:0:0:0:
182,192,110521,1,0,0:0:0:0:
109,192,110521,1,0,0:0:0:0:
36,192,110521,1,0,0:0:0:0:
329,192,110618,1,0,0:0:0:0:
402,192,110618,1,0,0:0:0:0:
475,192,110618,1,0,0:0:0:0:
256,192,110716,1,0,0:0:0:0:
475,192,110765,1,0,0:0:0:0:
402,192,110765,1,0,0:0:0:0:
182,192,110813,1,0,0:0:0:0:
109,192,110911,1,0,0:0:0:0:
36,192,110911,1,0,0:0:0:0:
329,192,110911,1,0,0:0:0:0:
402,192,111009,1,0,0:0:0:0:
109,192,111057,1,0,0:0:0:0:
182,192,111057,1,0,0:0:0:0:
475,192,111106,1,0,0:0:0:0:
182,192,111204,1,0,0:0:0:0:
256,192,111204,1,0,0:0:0:0:
36,192,111204,1,0,0:0:0:0:
329,192,111301,1,0,0:0:0:0:
182,192,111350,1,0,0:0:0:0:
109,192,111350,1,0,0:0:0:0:
402,192,111399,1,0,0:0:0:0:
329,192,111496,1,0,0:0:0:0:
36,192,111496,1,0,0:0:0:0:
109,192,111496,1,0,0:0:0:0:
256,192,111594,1,0,0:0:0:0:
402,192,111643,1,0,0:0:0:0:
475,192,111643,1,0,0:0:0:0:
182,192,111691,1,0,0:0:0:0:
329,192,111789,128,0,112009:0:0:0:0:
475,192,111789,128,0,112887:0:0:0:0:
109,192,111789,1,0,0:0:0:0:
36,192,111789,1,0,0:0:0:0:
256,192,111862,128,0,112082:0:0:0:0:
182,192,111935,128,0,112155:0:0:0:0:
109,192,112009,128,0,112228:0:0:0:0:
402,192,112082,128,0,112521:0:0:0:0:
36,192,112082,128,0,112301:0:0:0:0:
329,192,112155,128,0,112448:0:0:0:0:
256,192,112228,128,0,112374:0:0:0:0:
182,192,112301,1,0,0:0:0:0:
36,192,112374,128,0,112887:0:0:0:0:
109,192,112374,128,0,112521:0:0:0:0:
182,192,112448,128,0,112594:0:0:0:0:
256,192,112521,128,0,112667:0:0:0:0:
329,192,112594,128,0,112740:0:0:0:0:
109,192,112667,128,0,112887:0:0:0:0:
402,192,112667,128,0,112813:0:0:0:0:
182,192,112740,128,0,112887:0:0:0:0:
256,192,112813,128,0,112887:0:0:0:0:
329,192,112887,1,0,0:0:0:0:
475,192,112960,5,0,0:0:0:0:
109,192,112960,1,0,0:0:0:0:
36,192,112960,1,0,0:0:0:0:
182,192,112960,1,0,0:0:0:0:
256,192,112960,1,0,0:0:0:0:
402,192,113033,1,0,0:0:0:0:
329,192,113033,1,0,0:0:0:0:
109,192,113106,1,0,0:0:0:0:
256,192,113106,1,0,0:0:0:0:
182,192,113179,1,0,0:0:0:0:
402,192,113179,1,0,0:0:0:0:
36,192,113252,1,0,0:0:0:0:
256,192,113252,1,0,0:0:0:0:
475,192,113252,1,0,0:0:0:0:
109,192,113326,1,0,0:0:0:0:
329,192,113326,1,0,0:0:0:0:
182,192,113399,1,0,0:0:0:0:
402,192,113399,1,0,0:0:0:0:
256,192,113472,1,0,0:0:0:0:
109,192,113472,1,0,0:0:0:0:
475,192,113545,1,0,0:0:0:0:
36,192,113545,1,0,0:0:0:0:
329,192,113545,1,0,0:0:0:0:
256,192,113618,1,0,0:0:0:0:
182,192,113618,1,0,0:0:0:0:
36,192,113691,1,0,0:0:0:0:
109,192,113691,1,0,0:0:0:0:
329,192,113765,1,0,0:0:0:0:
256,192,113765,1,0,0:0:0:0:
182,192,113838,1,0,0:0:0:0:
402,192,113838,1,0,0:0:0:0:
475,192,113838,1,0,0:0:0:0:
329,192,113911,1,0,0:0:0:0:
109,192,113911,1,0,0:0:0:0:
256,192,113984,1,0,0:0:0:0:
36,192,113984,1,0,0:0:0:0:
182,192,114057,1,0,0:0:0:0:
402,192,114057,1,0,0:0:0:0:
475,192,114130,1,0,0:0:0:0:
109,192,114130,1,0,0:0:0:0:
256,192,114130,1,0,0:0:0:0:
329,192,114130,1,0,0:0:0:0:
36,192,114130,1,0,0:0:0:0:
182,192,114204,1,0,0:0:0:0:
402,192,114204,1,0,0:0:0:0:
109,192,114277,1,0,0:0:0:0:
329,192,114277,1,0,0:0:0:0:
36,192,114350,1,0,0:0:0:0:
256,192,114350,1,0,0:0:0:0:
182,192,114423,1,0,0:0:0:0:
402,192,114423,1,0,0:0:0:0:
475,192,114423,1,0,0:0:0:0:
109,192,114496,1,0,0:0:0:0:
256,192,114496,1,0,0:0:0:0:
36,192,114569,1,0,0:0:0:0:
329,192,114569,1,0,0:0:0:0:
402,192,114643,1,0,0:0:0:0:
182,192,114643,1,0,0:0:0:0:
109,192,114716,1,0,0:0:0:0:
36,192,114716,1,0,0:0:0:0:
475,192,114716,1,0,0:0:0:0:
256,192,114789,1,0,0:0:0:0:
402,192,114789,1,0,0:0:0:0:
329,192,114862,1,0,0:0:0:0:
182,192,114862,1,0,0:0:0:0:
36,192,114935,1,0,0:0:0:0:
109,192,114935,1,0,0:0:0:0:
256,192,115009,1,0,0:0:0:0:
475,192,115009,1,0,0:0:0:0:
402,192,115009,1,0,0:0:0:0:
329,192,115082,1,0,0:0:0:0:
109,192,115082,1,0,0:0:0:0:
182,192,115155,1,0,0:0:0:0:
36,192,115155,1,0,0:0:0:0:
329,192,115228,1,0,0:0:0:0:
256,192,115228,1,0,0:0:0:0:
402,192,115301,1,0,0:0:0:0:
475,192,115301,1,0,0:0:0:0:
109,192,115301,1,0,0:0:0:0:
36,192,115301,1,0,0:0:0:0:
182,192,115301,1,0,0:0:0:0:
256,192,115374,1,0,0:0:0:0:
329,192,115374,1,0,0:0:0:0:
402,192,115448,1,0,0:0:0:0:
109,192,115448,1,0,0:0:0:0:
475,192,115521,1,0,0:0:0:0:
182,192,115521,1,0,0:0:0:0:
36,192,115594,1,0,0:0:0:0:
256,192,115594,1,0,0:0:0:0:
109,192,115594,1,0,0:0:0:0:
329,192,115667,1,0,0:0:0:0:
475,192,115667,1,0,0:0:0:0:
182,192,115740,1,0,0:0:0:0:
36,192,115740,1,0,0:0:0:0:
256,192,115813,1,0,0:0:0:0:
402,192,115813,1,0,0:0:0:0:
109,192,115887,1,0,0:0:0:0:
36,192,115887,1,0,0:0:0:0:
475,192,115887,1,0,0:0:0:0:
329,192,115960,1,0,0:0:0:0:
182,192,115960,1,0,0:0:0:0:
36,192,116033,1,0,0:0:0:0:
402,192,116033,1,0,0:0:0:0:
256,192,116106,1,0,0:0:0:0:
109,192,116106,1,0,0:0:0:0:
329,192,116179,1,0,0:0:0:0:
402,192,116179,1,0,0:0:0:0:
475,192,116179,1,0,0:0:0:0:
182,192,116252,1,0,0:0:0:0:
36,192,116252,1,0,0:0:0:0:
256,192,116326,1,0,0:0:0:0:
475,192,116326,1,0,0:0:0:0:
329,192,116399,1,0,0:0:0:0:
109,192,116399,1,0,0:0:0:0:
402,192,116472,1,0,0:0:0:0:
475,192,116472,1,0,0:0:0:0:
182,192,116472,1,0,0:0:0:0:
36,192,116472,1,0,0:0:0:0:
256,192,116472,1,0,0:0:0:0:
329,192,116545,1,0,0:0:0:0:
109,192,116545,1,0,0:0:0:0:
182,192,116618,1,0,0:0:0:0:
402,192,116618,1,0,0:0:0:0:
256,192,116691,1,0,0:0:0:0:
475,192,116691,1,0,0:0:0:0:
329,192,116765,1,0,0:0:0:0:
109,192,116765,1,0,0:0:0:0:
36,192,116765,1,0,0:0:0:0:
256,192,116838,1,0,0:0:0:0:
402,192,116838,1,0,0:0:0:0:
182,192,116911,1,0,0:0:0:0:
475,192,116911,1,0,0:0:0:0:
109,192,116984,1,0,0:0:0:0:
329,192,116984,1,0,0:0:0:0:
36,192,117057,1,0,0:0:0:0:
475,192,117057,1,0,0:0:0:0:
256,192,117057,1,0,0:0:0:0:
402,192,117130,1,0,0:0:0:0:
182,192,117130,1,0,0:0:0:0:
329,192,117204,1,0,0:0:0:0:
475,192,117204,1,0,0:0:0:0:
256,192,117277,1,0,0:0:0:0:
109,192,117277,1,0,0:0:0:0:
36,192,117350,1,0,0:0:0:0:
329,192,117350,1,0,0:0:0:0:
402,192,117350,1,0,0:0:0:0:
256,192,117423,1,0,0:0:0:0:
182,192,117423,1,0,0:0:0:0:
402,192,117496,1,0,0:0:0:0:
109,192,117496,1,0,0:0:0:0:
475,192,117496,1,0,0:0:0:0:
329,192,117569,1,0,0:0:0:0:
256,192,117569,1,0,0:0:0:0:
182,192,117643,1,0,0:0:0:0:
402,192,117643,1,0,0:0:0:0:
475,192,117643,1,0,0:0:0:0:
109,192,117643,1,0,0:0:0:0:
36,192,117643,1,0,0:0:0:0:
329,192,117716,1,0,0:0:0:0:
256,192,117716,1,0,0:0:0:0:
109,192,117789,1,0,0:0:0:0:
182,192,117789,1,0,0:0:0:0:
402,192,117862,1,0,0:0:0:0:
329,192,117862,1,0,0:0:0:0:
36,192,117935,1,0,0:0:0:0:
256,192,117935,1,0,0:0:0:0:
475,192,117935,1,0,0:0:0:0:
402,192,118009,1,0,0:0:0:0:
182,192,118009,1,0,0:0:0:0:
475,192,118082,1,0,0:0:0:0:
329,192,118082,1,0,0:0:0:0:
256,192,118155,1,0,0:0:0:0:
182,192,118155,1,0,0:0:0:0:
36,192,118228,1,0,0:0:0:0:
329,192,118228,1,0,0:0:0:0:
109,192,118228,1,0,0:0:0:0:
402,192,118301,1,0,0:0:0:0:
182,192,118301,1,0,0:0:0:0:
329,192,118374,1,0,0:0:0:0:
475,192,118374,1,0,0:0:0:0:
256,192,118448,1,0,0:0:0:0:
36,192,118448,1,0,0:0:0:0:
182,192,118521,1,0,0:0:0:0:
402,192,118521,1,0,0:0:0:0:
475,192,118521,1,0,0:0:0:0:
109,192,118594,1,0,0:0:0:0:
329,192,118594,1,0,0:0:0:0:
256,192,118667,1,0,0:0:0:0:
475,192,118667,1,0,0:0:0:0:
182,192,118740,1,0,0:0:0:0:
402,192,118740,1,0,0:0:0:0:
329,192,118813,1,0,0:0:0:0:
109,192,118813,1,0,0:0:0:0:
36,192,118813,1,0,0:0:0:0:
475,192,118813,1,0,0:0:0:0:
256,192,118813,1,0,0:0:0:0:
402,192,118887,1,0,0:0:0:0:
182,192,118887,1,0,0:0:0:0:
329,192,118960,1,0,0:0:0:0:
109,192,118960,1,0,0:0:0:0:
256,192,119033,1,0,0:0:0:0:
475,192,119033,1,0,0:0:0:0:
182,192,119106,1,0,0:0:0:0:
36,192,119106,1,0,0:0:0:0:
402,192,119106,1,0,0:0:0:0:
329,192,119179,1,0,0:0:0:0:
109,192,119179,1,0,0:0:0:0:
182,192,119252,1,0,0:0:0:0:
402,192,119252,1,0,0:0:0:0:
256,192,119326,1,0,0:0:0:0:
475,192,119326,1,0,0:0:0:0:
329,192,119399,1,0,0:0:0:0:
109,192,119399,1,0,0:0:0:0:
36,192,119399,1,0,0:0:0:0:
402,192,119472,1,0,0:0:0:0:
256,192,119472,1,0,0:0:0:0:
475,192,119545,1,0,0:0:0:0:
182,192,119545,1,0,0:0:0:0:
109,192,119618,1,0,0:0:0:0:
329,192,119618,1,0,0:0:0:0:
36,192,119691,5,0,0:0:0:0:
402,192,119691,1,0,0:0:0:0:
475,192,119691,1,0,0:0:0:0:
329,192,119765,1,0,0:0:0:0:
256,192,119765,1,0,0:0:0:0:
182,192,119838,1,0,0:0:0:0:
109,192,119838,1,0,0:0:0:0:
475,192,119911,1,0,0:0:0:0:
402,192,119911,1,0,0:0:0:0:
182,192,119984,1,0,0:0:0:0:
36,192,119984,1,0,0:0:0:0:
329,192,119984,1,0,0:0:0:0:
109,192,119984,1,0,0:0:0:0:
256,192,119984,1,0,0:0:0:0:
402,192,120057,1,0,0:0:0:0:
475,192,120057,1,0,0:0:0:0:
256,192,120130,1,0,0:0:0:0:
109,192,120130,1,0,0:0:0:0:
329,192,120204,1,0,0:0:0:0:
402,192,120204,1,0,0:0:0:0:
182,192,120277,1,0,0:0:0:0:
36,192,120277,1,0,0:0:0:0:
475,192,120277,1,0,0:0:0:0:
256,192,120350,1,0,0:0:0:0:
329,192,120350,1,0,0:0:0:0:
402,192,120423,1,0,0:0:0:0:
109,192,120423,1,0,0:0:0:0:
182,192,120496,1,0,0:0:0:0:
256,192,120496,1,0,0:0:0:0:
329,192,120569,1,0,0:0:0:0:
36,192,120569,1,0,0:0:0:0:
475,192,120569,1,0,0:0:0:0:
109,192,120643,1,0,0:0:0:0:
182,192,120643,1,0,0:0:0:0:
402,192,120716,1,0,0:0:0:0:
256,192,120716,1,0,0:0:0:0:
109,192,120789,1,0,0:0:0:0:
36,192,120789,1,0,0:0:0:0:
329,192,120862,5,0,0:0:0:0:
182,192,120862,1,0,0:0:0:0:
475,192,120862,1,0,0:0:0:0:
402,192,120935,1,0,0:0:0:0:
256,192,120935,1,0,0:0:0:0:
36,192,121009,1,0,0:0:0:0:
109,192,121009,1,0,0:0:0:0:
329,192,121082,5,0,0:0:0:0:
182,192,121082,1,0,0:0:0:0:
36,192,121155,5,0,0:0:0:0:
475,192,121155,1,0,0:0:0:0:
109,192,121155,1,0,0:0:0:0:
256,192,121155,1,0,0:0:0:0:
402,192,121155,1,0,0:0:0:0:
182,192,121228,1,0,0:0:0:0:
329,192,121228,1,0,0:0:0:0:
109,192,121301,1,0,0:0:0:0:
475,192,121301,1,0,0:0:0:0:
256,192,121374,1,0,0:0:0:0:
402,192,121374,1,0,0:0:0:0:
182,192,121448,1,0,0:0:0:0:
36,192,121448,1,0,0:0:0:0:
329,192,121521,1,0,0:0:0:0:
475,192,121521,1,0,0:0:0:0:
256,192,121594,1,0,0:0:0:0:
109,192,121594,1,0,0:0:0:0:
36,192,121594,1,0,0:0:0:0:
475,192,121667,1,0,0:0:0:0:
402,192,121667,1,0,0:0:0:0:
256,192,121740,1,0,0:0:0:0:
109,192,121740,1,0,0:0:0:0:
36,192,121740,1,0,0:0:0:0:
329,192,121740,1,0,0:0:0:0:
182,192,121740,1,0,0:0:0:0:
475,192,121813,1,0,0:0:0:0:
402,192,121813,1,0,0:0:0:0:
36,192,121887,1,0,0:0:0:0:
109,192,121887,1,0,0:0:0:0:
182,192,121923,1,0,0:0:0:0:
256,192,121960,1,0,0:0:0:0:
329,192,121996,1,0,0:0:0:0:
109,192,122033,1,0,0:0:0:0:
475,192,122033,1,0,0:0:0:0:
402,192,122033,1,0,0:0:0:0:
36,192,122033,1,0,0:0:0:0:
182,192,122106,1,0,0:0:0:0:
329,192,122106,1,0,0:0:0:0:
402,192,122179,1,0,0:0:0:0:
475,192,122179,1,0,0:0:0:0:
256,192,122179,1,0,0:0:0:0:
36,192,122179,1,0,0:0:0:0:
109,192,122216,1,0,0:0:0:0:
182,192,122252,1,0,0:0:0:0:
256,192,122289,1,0,0:0:0:0:
329,192,122326,5,0,0:0:0:0:
475,192,122326,1,0,0:0:0:0:
36,192,122326,1,0,0:0:0:0:
109,192,122326,1,0,0:0:0:0:
182,192,122399,1,0,0:0:0:0:
402,192,122399,1,0,0:0:0:0:
109,192,122472,1,0,0:0:0:0:
256,192,122472,1,0,0:0:0:0:
329,192,122545,1,0,0:0:0:0:
36,192,122545,1,0,0:0:0:0:
402,192,122618,1,0,0:0:0:0:
475,192,122618,1,0,0:0:0:0:
109,192,122618,1,0,0:0:0:0:
182,192,122691,1,0,0:0:0:0:
329,192,122691,1,0,0:0:0:0:
36,192,122765,1,0,0:0:0:0:
256,192,122765,1,0,0:0:0:0:
329,192,122838,1,0,0:0:0:0:
109,192,122838,1,0,0:0:0:0:
475,192,122911,1,0,0:0:0:0:
402,192,122911,1,0,0:0:0:0:
182,192,122911,1,0,0:0:0:0:
36,192,122984,1,0,0:0:0:0:
256,192,122984,1,0,0:0:0:0:
182,192,123057,1,0,0:0:0:0:
329,192,123057,1,0,0:0:0:0:
402,192,123130,1,0,0:0:0:0:
109,192,123130,1,0,0:0:0:0:
256,192,123204,1,0,0:0:0:0:
36,192,123204,1,0,0:0:0:0:
475,192,123204,1,0,0:0:0:0:
402,192,123277,1,0,0:0:0:0:
182,192,123277,1,0,0:0:0:0:
109,192,123350,1,0,0:0:0:0:
329,192,123350,1,0,0:0:0:0:
36,192,123423,1,0,0:0:0:0:
256,192,123423,1,0,0:0:0:0:
402,192,123496,1,0,0:0:0:0:
329,192,123496,1,0,0:0:0:0:
182,192,123496,1,0,0:0:0:0:
475,192,123496,1,0,0:0:0:0:
109,192,123496,1,0,0:0:0:0:
36,192,123569,1,0,0:0:0:0:
256,192,123569,1,0,0:0:0:0:
402,192,123643,1,0,0:0:0:0:
182,192,123643,1,0,0:0:0:0:
329,192,123716,1,0,0:0:0:0:
109,192,123716,1,0,0:0:0:0:
475,192,123789,1,0,0:0:0:0:
256,192,123789,1,0,0:0:0:0:
36,192,123789,1,0,0:0:0:0:
402,192,123862,1,0,0:0:0:0:
182,192,123862,1,0,0:0:0:0:
256,192,123935,1,0,0:0:0:0:
109,192,123935,1,0,0:0:0:0:
36,192,124009,1,0,0:0:0:0:
329,192,124009,1,0,0:0:0:0:
182,192,124082,1,0,0:0:0:0:
402,192,124082,1,0,0:0:0:0:
475,192,124082,1,0,0:0:0:0:
36,192,124155,1,0,0:0:0:0:
256,192,124155,1,0,0:0:0:0:
402,192,124228,1,0,0:0:0:0:
329,192,124228,1,0,0:0:0:0:
109,192,124301,1,0,0:0:0:0:
182,192,124301,1,0,0:0:0:0:
475,192,124374,1,0,0:0:0:0:
256,192,124374,1,0,0:0:0:0:
36,192,124374,1,0,0:0:0:0:
182,192,124448,1,0,0:0:0:0:
402,192,124448,1,0,0:0:0:0:
109,192,124521,1,0,0:0:0:0:
329,192,124521,1,0,0:0:0:0:
475,192,124594,1,0,0:0:0:0:
256,192,124594,1,0,0:0:0:0:
329,192,124667,1,0,0:0:0:0:
402,192,124667,1,0,0:0:0:0:
182,192,124667,1,0,0:0:0:0:
36,192,124667,1,0,0:0:0:0:
109,192,124667,1,0,0:0:0:0:
475,192,124740,1,0,0:0:0:0:
256,192,124740,1,0,0:0:0:0:
36,192,124813,1,0,0:0:0:0:
182,192,124813,1,0,0:0:0:0:
329,192,124887,1,0,0:0:0:0:
109,192,124887,1,0,0:0:0:0:
182,192,124960,1,0,0:0:0:0:
402,192,124960,1,0,0:0:0:0:
475,192,124960,1,0,0:0:0:0:
36,192,125033,1,0,0:0:0:0:
256,192,125033,1,0,0:0:0:0:
109,192,125106,1,0,0:0:0:0:
329,192,125106,1,0,0:0:0:0:
36,192,125179,1,0,0:0:0:0:
182,192,125179,1,0,0:0:0:0:
402,192,125252,1,0,0:0:0:0:
475,192,125252,1,0,0:0:0:0:
256,192,125252,1,0,0:0:0:0:
329,192,125326,1,0,0:0:0:0:
182,192,125326,1,0,0:0:0:0:
109,192,125399,1,0,0:0:0:0:
402,192,125399,1,0,0:0:0:0:
182,192,125472,1,0,0:0:0:0:
475,192,125472,1,0,0:0:0:0:
36,192,125545,1,0,0:0:0:0:
256,192,125545,1,0,0:0:0:0:
402,192,125545,1,0,0:0:0:0:
109,192,125618,1,0,0:0:0:0:
329,192,125618,1,0,0:0:0:0:
475,192,125691,1,0,0:0:0:0:
256,192,125691,1,0,0:0:0:0:
402,192,125765,1,0,0:0:0:0:
182,192,125765,1,0,0:0:0:0:
329,192,125838,5,0,0:0:0:0:
475,192,125838,1,0,0:0:0:0:
36,192,125838,1,0,0:0:0:0:
256,192,125838,1,0,0:0:0:0:
109,192,125838,1,0,0:0:0:0:
182,192,125911,1,0,0:0:0:0:
402,192,125911,1,0,0:0:0:0:
109,192,125984,1,0,0:0:0:0:
329,192,125984,1,0,0:0:0:0:
475,192,126057,1,0,0:0:0:0:
256,192,126057,1,0,0:0:0:0:
402,192,126130,1,0,0:0:0:0:
36,192,126130,1,0,0:0:0:0:
182,192,126130,1,0,0:0:0:0:
109,192,126204,1,0,0:0:0:0:
329,192,126204,1,0,0:0:0:0:
402,192,126277,1,0,0:0:0:0:
256,192,126277,1,0,0:0:0:0:
475,192,126350,1,0,0:0:0:0:
182,192,126350,1,0,0:0:0:0:
329,192,126423,1,0,0:0:0:0:
36,192,126423,1,0,0:0:0:0:
109,192,126423,1,0,0:0:0:0:
182,192,126496,1,0,0:0:0:0:
402,192,126496,1,0,0:0:0:0:
475,192,126569,1,0,0:0:0:0:
256,192,126569,1,0,0:0:0:0:
109,192,126643,1,0,0:0:0:0:
329,192,126643,1,0,0:0:0:0:
475,192,126716,1,0,0:0:0:0:
402,192,126716,1,0,0:0:0:0:
182,192,126716,1,0,0:0:0:0:
36,192,126789,1,0,0:0:0:0:
256,192,126789,1,0,0:0:0:0:
402,192,126862,1,0,0:0:0:0:
109,192,126862,1,0,0:0:0:0:
329,192,126862,1,0,0:0:0:0:
256,192,126935,1,0,0:0:0:0:
182,192,126935,1,0,0:0:0:0:
109,192,127009,1,0,0:0:0:0:
402,192,127009,1,0,0:0:0:0:
329,192,127009,1,0,0:0:0:0:
475,192,127009,1,0,0:0:0:0:
36,192,127009,1,0,0:0:0:0:
256,192,127082,5,0,0:0:0:0:
182,192,127082,1,0,0:0:0:0:
329,192,127155,1,0,0:0:0:0:
36,192,127155,1,0,0:0:0:0:
402,192,127155,1,0,0:0:0:0:
182,192,127228,1,0,0:0:0:0:
109,192,127228,1,0,0:0:0:0:
36,192,127301,1,0,0:0:0:0:
256,192,127301,1,0,0:0:0:0:
475,192,127301,1,0,0:0:0:0:
329,192,127301,1,0,0:0:0:0:
402,192,127374,1,0,0:0:0:0:
182,192,127374,1,0,0:0:0:0:
109,192,127448,1,0,0:0:0:0:
329,192,127448,1,0,0:0:0:0:
475,192,127448,1,0,0:0:0:0:
36,192,127521,1,0,0:0:0:0:
256,192,127521,1,0,0:0:0:0:
182,192,127594,1,0,0:0:0:0:
402,192,127594,1,0,0:0:0:0:
475,192,127594,1,0,0:0:0:0:
329,192,127594,1,0,0:0:0:0:
109,192,127667,1,0,0:0:0:0:
36,192,127667,1,0,0:0:0:0:
256,192,127740,1,0,0:0:0:0:
402,192,127740,1,0,0:0:0:0:
475,192,127740,1,0,0:0:0:0:
182,192,127813,1,0,0:0:0:0:
109,192,127813,1,0,0:0:0:0:
329,192,127887,1,0,0:0:0:0:
36,192,127887,1,0,0:0:0:0:
475,192,127887,1,0,0:0:0:0:
402,192,127887,1,0,0:0:0:0:
256,192,127960,1,0,0:0:0:0:
182,192,127960,1,0,0:0:0:0:
109,192,128033,1,0,0:0:0:0:
36,192,128033,1,0,0:0:0:0:
402,192,128033,1,0,0:0:0:0:
329,192,128106,1,0,0:0:0:0:
256,192,128106,1,0,0:0:0:0:
475,192,128179,1,0,0:0:0:0:
109,192,128179,1,0,0:0:0:0:
182,192,128179,1,0,0:0:0:0:
36,192,128179,1,0,0:0:0:0:
402,192,128179,1,0,0:0:0:0:
256,192,128252,5,0,0:0:0:0:
329,192,128252,1,0,0:0:0:0:
182,192,128326,1,0,0:0:0:0:
475,192,128326,1,0,0:0:0:0:
109,192,128326,1,0,0:0:0:0:
329,192,128399,1,0,0:0:0:0:
402,192,128399,1,0,0:0:0:0:
475,192,128472,1,0,0:0:0:0:
256,192,128472,1,0,0:0:0:0:
182,192,128472,1,0,0:0:0:0:
36,192,128472,1,0,0:0:0:0:
329,192,128545,1,0,0:0:0:0:
109,192,128545,1,0,0:0:0:0:
402,192,128618,1,0,0:0:0:0:
182,192,128618,1,0,0:0:0:0:
36,192,128618,1,0,0:0:0:0:
256,192,128691,1,0,0:0:0:0:
475,192,128691,1,0,0:0:0:0:
109,192,128765,1,0,0:0:0:0:
36,192,128765,1,0,0:0:0:0:
329,192,128765,1,0,0:0:0:0:
402,192,128765,1,0,0:0:0:0:
182,192,128765,1,0,0:0:0:0:
256,192,128838,1,0,0:0:0:0:
475,192,128838,1,0,0:0:0:0:
329,192,128911,1,0,0:0:0:0:
109,192,128911,1,0,0:0:0:0:
36,192,128911,1,0,0:0:0:0:
182,192,128984,1,0,0:0:0:0:
402,192,128984,1,0,0:0:0:0:
256,192,129057,1,0,0:0:0:0:
36,192,129057,1,0,0:0:0:0:
475,192,129057,1,0,0:0:0:0:
329,192,129057,1,0,0:0:0:0:
182,192,129130,1,0,0:0:0:0:
109,192,129130,1,0,0:0:0:0:
402,192,129204,1,0,0:0:0:0:
329,192,129204,1,0,0:0:0:0:
36,192,129204,1,0,0:0:0:0:
475,192,129204,1,0,0:0:0:0:
256,192,129277,1,0,0:0:0:0:
182,192,129277,1,0,0:0:0:0:
109,192,129350,1,0,0:0:0:0:
36,192,129350,1,0,0:0:0:0:
475,192,129350,1,0,0:0:0:0:
402,192,129350,1,0,0:0:0:0:
329,192,129423,1,0,0:0:0:0:
256,192,129423,1,0,0:0:0:0:
402,192,129496,1,0,0:0:0:0:
475,192,129496,1,0,0:0:0:0:
109,192,129496,1,0,0:0:0:0:
36,192,129496,1,0,0:0:0:0:
182,192,129569,1,0,0:0:0:0:
329,192,129569,1,0,0:0:0:0:
402,192,129643,1,0,0:0:0:0:
475,192,129643,1,0,0:0:0:0:
36,192,129643,1,0,0:0:0:0:
256,192,129643,1,0,0:0:0:0:
109,192,129716,1,0,0:0:0:0:
329,192,129716,1,0,0:0:0:0:
475,192,129789,1,0,0:0:0:0:
402,192,129789,1,0,0:0:0:0:
182,192,129789,1,0,0:0:0:0:
36,192,129789,1,0,0:0:0:0:
256,192,129862,1,0,0:0:0:0:
329,192,129862,1,0,0:0:0:0:
475,192,129935,1,0,0:0:0:0:
109,192,129935,1,0,0:0:0:0:
182,192,129935,1,0,0:0:0:0:
36,192,129935,1,0,0:0:0:0:
402,192,130009,1,0,0:0:0:0:
329,192,130009,1,0,0:0:0:0:
475,192,130082,1,0,0:0:0:0:
109,192,130082,1,0,0:0:0:0:
256,192,130082,1,0,0:0:0:0:
36,192,130082,1,0,0:0:0:0:
402,192,130155,1,0,0:0:0:0:
182,192,130155,1,0,0:0:0:0:
475,192,130228,1,0,0:0:0:0:
109,192,130228,1,0,0:0:0:0:
36,192,130228,1,0,0:0:0:0:
329,192,130228,1,0,0:0:0:0:
182,192,130301,1,0,0:0:0:0:
256,192,130301,1,0,0:0:0:0:
109,192,130374,1,0,0:0:0:0:
475,192,130374,1,0,0:0:0:0:
402,192,130374,1,0,0:0:0:0:
329,192,130448,1,0,0:0:0:0:
256,192,130448,1,0,0:0:0:0:
36,192,130448,1,0,0:0:0:0:
475,192,130521,1,0,0:0:0:0:
402,192,130521,1,0,0:0:0:0:
182,192,130521,1,0,0:0:0:0:
329,192,130594,1,0,0:0:0:0:
36,192,130594,1,0,0:0:0:0:
109,192,130594,1,0,0:0:0:0:
256,192,130667,1,0,0:0:0:0:
402,192,130667,1,0,0:0:0:0:
475,192,130667,1,0,0:0:0:0:
182,192,130740,1,0,0:0:0:0:
109,192,130740,1,0,0:0:0:0:
36,192,130740,1,0,0:0:0:0:
329,192,130813,1,0,0:0:0:0:
402,192,130813,1,0,0:0:0:0:
475,192,130813,1,0,0:0:0:0:
256,192,130887,1,0,0:0:0:0:
109,192,130887,1,0,0:0:0:0:
36,192,130887,1,0,0:0:0:0:
182,192,130960,1,0,0:0:0:0:
402,192,130960,1,0,0:0:0:0:
475,192,130960,1,0,0:0:0:0:
329,192,131033,1,0,0:0:0:0:
109,192,131033,1,0,0:0:0:0:
36,192,131033,1,0,0:0:0:0:
256,192,131106,1,0,0:0:0:0:
182,192,131106,1,0,0:0:0:0:
475,192,131106,1,0,0:0:0:0:
402,192,131106,1,0,0:0:0:0:
109,192,131179,1,0,0:0:0:0:
329,192,131179,1,0,0:0:0:0:
256,192,131252,1,0,0:0:0:0:
36,192,131252,1,0,0:0:0:0:
475,192,131289,1,0,0:0:0:0:
402,192,131326,1,0,0:0:0:0:
329,192,131362,1,0,0:0:0:0:
109,192,131399,1,0,0:0:0:0:
36,192,131399,1,0,0:0:0:0:
475,192,131399,1,0,0:0:0:0:
256,192,131399,1,0,0:0:0:0:
329,192,131472,1,0,0:0:0:0:
402,192,131472,1,0,0:0:0:0:
182,192,131472,1,0,0:0:0:0:
256,192,131545,1,0,0:0:0:0:
36,192,131545,1,0,0:0:0:0:
475,192,131545,1,0,0:0:0:0:
109,192,131582,1,0,0:0:0:0:
182,192,131618,1,0,0:0:0:0:
256,192,131655,1,0,0:0:0:0:
475,192,131691,1,0,0:0:0:0:
36,192,131691,1,0,0:0:0:0:
329,192,131691,1,0,0:0:0:0:
402,192,131691,1,0,0:0:0:0:
109,192,131691,1,0,0:0:0:0:
256,192,131838,1,0,0:0:0:0:
182,192,131838,1,0,0:0:0:0:
256,192,131984,128,0,132130:0:0:0:0:
182,192,131984,128,0,132130:0:0:0:0:
475,192,131984,1,0,0:0:0:0:
402,192,131984,1,0,0:0:0:0:
109,192,132130,1,0,0:0:0:0:
36,192,132130,1,0,0:0:0:0:
109,192,132277,128,0,132423:0:0:0:0:
36,192,132277,128,0,132423:0:0:0:0:
475,192,132277,1,0,0:0:0:0:
402,192,132277,1,0,0:0:0:0:
329,192,132423,1,0,0:0:0:0:
256,192,132423,1,0,0:0:0:0:
329,192,132569,128,0,132716:0:0:0:0:
256,192,132569,128,0,132716:0:0:0:0:
109,192,132569,1,0,0:0:0:0:
36,192,132569,1,0,0:0:0:0:
402,192,132716,1,0,0:0:0:0:
475,192,132716,1,0,0:0:0:0:
402,192,132862,128,0,133009:0:0:0:0:
475,192,132862,128,0,133009:0:0:0:0:
36,192,132862,1,0,0:0:0:0:
109,192,132862,1,0,0:0:0:0:
182,192,133009,1,0,0:0:0:0:
329,192,133009,1,0,0:0:0:0:
329,192,133155,128,0,133301:0:0:0:0:
182,192,133155,128,0,133301:0:0:0:0:
109,192,133301,1,0,0:0:0:0:
36,192,133301,1,0,0:0:0:0:
109,192,133448,128,0,133594:0:0:0:0:
36,192,133448,128,0,133594:0:0:0:0:
256,192,133448,1,0,0:0:0:0:
402,192,133448,1,0,0:0:0:0:
329,192,133594,1,0,0:0:0:0:
475,192,133594,1,0,0:0:0:0:
329,192,133740,128,0,133887:0:0:0:0:
475,192,133740,128,0,133887:0:0:0:0:
109,192,133740,1,0,0:0:0:0:
182,192,133740,1,0,0:0:0:0:
256,192,133887,1,0,0:0:0:0:
402,192,133887,1,0,0:0:0:0:
402,192,134033,128,0,134179:0:0:0:0:
256,192,134033,128,0,134179:0:0:0:0:
109,192,134033,1,0,0:0:0:0:
36,192,134033,1,0,0:0:0:0:
182,192,134179,1,0,0:0:0:0:
329,192,134179,1,0,0:0:0:0:
329,192,134326,128,0,134472:0:0:0:0:
182,192,134326,128,0,134472:0:0:0:0:
475,192,134326,1,0,0:0:0:0:
36,192,134326,1,0,0:0:0:0:
256,192,134472,1,0,0:0:0:0:
109,192,134472,1,0,0:0:0:0:
256,192,134618,128,0,134765:0:0:0:0:
109,192,134618,128,0,134765:0:0:0:0:
475,192,134618,1,0,0:0:0:0:
402,192,134618,1,0,0:0:0:0:
182,192,134765,1,0,0:0:0:0:
36,192,134765,1,0,0:0:0:0:
182,192,134911,128,0,135057:0:0:0:0:
36,192,134911,128,0,135057:0:0:0:0:
329,192,134911,1,0,0:0:0:0:
256,192,134911,1,0,0:0:0:0:
402,192,135057,1,0,0:0:0:0:
475,192,135057,1,0,0:0:0:0:
402,192,135204,128,0,135350:0:0:0:0:
475,192,135204,128,0,135350:0:0:0:0:
36,192,135204,1,0,0:0:0:0:
182,192,135204,1,0,0:0:0:0:
256,192,135350,1,0,0:0:0:0:
329,192,135350,1,0,0:0:0:0:
329,192,135496,128,0,135643:0:0:0:0:
256,192,135496,128,0,135643:0:0:0:0:
475,192,135496,1,0,0:0:0:0:
36,192,135496,1,0,0:0:0:0:
182,192,135643,1,0,0:0:0:0:
109,192,135643,1,0,0:0:0:0:
182,192,135789,128,0,135935:0:0:0:0:
109,192,135789,128,0,135935:0:0:0:0:
475,192,135789,1,0,0:0:0:0:
402,192,135789,1,0,0:0:0:0:
256,192,135935,1,0,0:0:0:0:
329,192,135935,1,0,0:0:0:0:
475,192,136082,1,0,0:0:0:0:
402,192,136082,1,0,0:0:0:0:
182,192,136082,1,0,0:0:0:0:
109,192,136082,1,0,0:0:0:0:
402,192,136228,1,0,0:0:0:0:
329,192,136228,1,0,0:0:0:0:
109,192,136228,1,0,0:0:0:0:
36,192,136228,1,0,0:0:0:0:
256,192,136374,1,0,0:0:0:0:
475,192,136374,1,0,0:0:0:0:
329,192,136374,1,0,0:0:0:0:
36,192,136374,128,0,136521:0:0:0:0:
109,192,136374,128,0,136521:0:0:0:0:
182,192,136521,1,0,0:0:0:0:
256,192,136521,1,0,0:0:0:0:
182,192,136667,128,0,136813:0:0:0:0:
256,192,136667,128,0,136813:0:0:0:0:
36,192,136667,1,0,0:0:0:0:
475,192,136667,1,0,0:0:0:0:
329,192,136813,1,0,0:0:0:0:
402,192,136813,1,0,0:0:0:0:
402,192,136960,128,0,137106:0:0:0:0:
329,192,136960,128,0,137106:0:0:0:0:
109,192,136960,1,0,0:0:0:0:
36,192,136960,1,0,0:0:0:0:
182,192,137106,1,0,0:0:0:0:
256,192,137106,1,0,0:0:0:0:
36,192,137252,128,0,137399:0:0:0:0:
475,192,137252,128,0,137399:0:0:0:0:
329,192,137252,1,0,0:0:0:0:
402,192,137252,1,0,0:0:0:0:
109,192,137399,1,0,0:0:0:0:
182,192,137399,1,0,0:0:0:0:
182,192,137545,128,0,137691:0:0:0:0:
109,192,137545,128,0,137691:0:0:0:0:
402,192,137545,1,0,0:0:0:0:
329,192,137545,1,0,0:0:0:0:
256,192,137691,1,0,0:0:0:0:
36,192,137691,1,0,0:0:0:0:
329,192,137838,128,0,137984:0:0:0:0:
402,192,137838,128,0,137984:0:0:0:0:
182,192,137838,1,0,0:0:0:0:
109,192,137838,1,0,0:0:0:0:
256,192,137984,1,0,0:0:0:0:
475,192,137984,1,0,0:0:0:0:
182,192,138130,128,0,138277:0:0:0:0:
109,192,138130,128,0,138277:0:0:0:0:
329,192,138130,1,0,0:0:0:0:
402,192,138130,1,0,0:0:0:0:
256,192,138277,1,0,0:0:0:0:
36,192,138277,1,0,0:0:0:0:
329,192,138423,128,0,138569:0:0:0:0:
402,192,138423,128,0,138569:0:0:0:0:
182,192,138423,1,0,0:0:0:0:
109,192,138423,1,0,0:0:0:0:
256,192,138569,1,0,0:0:0:0:
475,192,138569,1,0,0:0:0:0:
256,192,138716,128,0,138862:0:0:0:0:
475,192,138716,128,0,138862:0:0:0:0:
109,192,138716,1,0,0:0:0:0:
36,192,138716,1,0,0:0:0:0:
182,192,138862,1,0,0:0:0:0:
402,192,138862,1,0,0:0:0:0:
402,192,139009,128,0,139155:0:0:0:0:
182,192,139009,128,0,139155:0:0:0:0:
36,192,139009,1,0,0:0:0:0:
256,192,139009,1,0,0:0:0:0:
109,192,139155,1,0,0:0:0:0:
329,192,139155,1,0,0:0:0:0:
329,192,139301,128,0,139448:0:0:0:0:
109,192,139301,128,0,139448:0:0:0:0:
182,192,139301,1,0,0:0:0:0:
402,192,139301,1,0,0:0:0:0:
256,192,139448,1,0,0:0:0:0:
36,192,139448,1,0,0:0:0:0:
256,192,139594,128,0,139740:0:0:0:0:
36,192,139594,128,0,139740:0:0:0:0:
329,192,139594,1,0,0:0:0:0:
109,192,139594,1,0,0:0:0:0:
402,192,139740,1,0,0:0:0:0:
475,192,139740,1,0,0:0:0:0:
256,192,139887,1,0,0:0:0:0:
475,192,139887,128,0,140033:0:0:0:0:
402,192,139887,128,0,140033:0:0:0:0:
36,192,139887,1,0,0:0:0:0:
182,192,140033,1,0,0:0:0:0:
329,192,140033,1,0,0:0:0:0:
109,192,140179,128,0,140326:0:0:0:0:
36,192,140179,128,0,140326:0:0:0:0:
402,192,140179,1,0,0:0:0:0:
475,192,140179,1,0,0:0:0:0:
329,192,140326,1,0,0:0:0:0:
182,192,140326,1,0,0:0:0:0:
402,192,140472,128,0,140618:0:0:0:0:
475,192,140472,128,0,140618:0:0:0:0:
109,192,140472,1,0,0:0:0:0:
36,192,140472,1,0,0:0:0:0:
329,192,140618,1,0,0:0:0:0:
182,192,140618,1,0,0:0:0:0:
256,192,140765,1,0,0:0:0:0:
475,192,140765,1,0,0:0:0:0:
402,192,140765,1,0,0:0:0:0:
109,192,140765,1,0,0:0:0:0:
36,192,140765,1,0,0:0:0:0:
329,192,140765,1,0,0:0:0:0:
182,192,140765,1,0,0:0:0:0:
109,192,140911,1,0,0:0:0:0:
36,192,140911,1,0,0:0:0:0:
182,192,140948,1,0,0:0:0:0:
256,192,140984,1,0,0:0:0:0:
329,192,141021,1,0,0:0:0:0:
475,192,141057,1,0,0:0:0:0:
402,192,141057,1,0,0:0:0:0:
109,192,141057,1,0,0:0:0:0:
36,192,141057,1,0,0:0:0:0:
182,192,141204,1,0,0:0:0:0:
329,192,141204,1,0,0:0:0:0:
475,192,141204,1,0,0:0:0:0:
109,192,141350,1,0,0:0:0:0:
256,192,141350,1,0,0:0:0:0:
402,192,141350,1,0,0:0:0:0:
109,192,141496,1,0,0:0:0:0:
36,192,141496,1,0,0:0:0:0:
475,192,141496,1,0,0:0:0:0:
402,192,141496,1,0,0:0:0:0:
182,192,141496,1,0,0:0:0:0:
329,192,141496,1,0,0:0:0:0:
256,192,141496,1,0,0:0:0:0:
36,192,141643,1,0,0:0:0:0:
329,192,141643,1,0,0:0:0:0:
182,192,141643,1,0,0:0:0:0:
256,192,141789,1,0,0:0:0:0:
402,192,141789,1,0,0:0:0:0:
109,192,141789,1,0,0:0:0:0:
109,192,141935,1,0,0:0:0:0:
475,192,141935,1,0,0:0:0:0:
329,192,141935,1,0,0:0:0:0:
402,192,141935,1,0,0:0:0:0:
36,192,141935,1,0,0:0:0:0:
256,192,141935,1,0,0:0:0:0:
182,192,141935,1,0,0:0:0:0:
402,192,142082,1,0,0:0:0:0:
475,192,142082,1,0,0:0:0:0:
256,192,142082,1,0,0:0:0:0:
329,192,142228,1,0,0:0:0:0:
182,192,142228,1,0,0:0:0:0:
36,192,142228,1,0,0:0:0:0:
402,192,142374,1,0,0:0:0:0:
256,192,142374,1,0,0:0:0:0:
36,192,142374,1,0,0:0:0:0:
109,192,142374,1,0,0:0:0:0:
475,192,142374,1,0,0:0:0:0:
329,192,142374,1,0,0:0:0:0:
182,192,142374,1,0,0:0:0:0:
109,192,142521,1,0,0:0:0:0:
36,192,142521,1,0,0:0:0:0:
256,192,142521,1,0,0:0:0:0:
182,192,142667,1,0,0:0:0:0:
402,192,142667,1,0,0:0:0:0:
329,192,142667,1,0,0:0:0:0:
475,192,142813,1,0,0:0:0:0:
36,192,142813,1,0,0:0:0:0:
329,192,142813,1,0,0:0:0:0:
256,192,142813,1,0,0:0:0:0:
109,192,142813,1,0,0:0:0:0:
402,192,142813,1,0,0:0:0:0:
182,192,142813,1,0,0:0:0:0:
475,192,142960,1,0,0:0:0:0:
256,192,142960,1,0,0:0:0:0:
36,192,142960,1,0,0:0:0:0:
475,192,143106,1,0,0:0:0:0:
109,192,143106,1,0,0:0:0:0:
329,192,143106,1,0,0:0:0:0:
182,192,143106,1,0,0:0:0:0:
402,192,143106,1,0,0:0:0:0:
256,192,143106,1,0,0:0:0:0:
36,192,143106,1,0,0:0:0:0:
329,192,143252,1,0,0:0:0:0:
182,192,143252,1,0,0:0:0:0:
36,192,143252,1,0,0:0:0:0:
402,192,143399,1,0,0:0:0:0:
256,192,143399,1,0,0:0:0:0:
329,192,143399,1,0,0:0:0:0:
109,192,143399,1,0,0:0:0:0:
36,192,143399,1,0,0:0:0:0:
475,192,143399,1,0,0:0:0:0:
182,192,143399,1,0,0:0:0:0:
402,192,143545,1,0,0:0:0:0:
329,192,143545,1,0,0:0:0:0:
475,192,143545,1,0,0:0:0:0:
36,192,143691,1,0,0:0:0:0:
256,192,143691,1,0,0:0:0:0:
109,192,143691,1,0,0:0:0:0:
329,192,143838,1,0,0:0:0:0:
475,192,143838,1,0,0:0:0:0:
402,192,143838,1,0,0:0:0:0:
109,192,143838,1,0,0:0:0:0:
182,192,143838,1,0,0:0:0:0:
256,192,143838,1,0,0:0:0:0:
36,192,143838,1,0,0:0:0:0:
182,192,143984,1,0,0:0:0:0:
36,192,143984,1,0,0:0:0:0:
402,192,143984,1,0,0:0:0:0:
256,192,144130,1,0,0:0:0:0:
475,192,144130,1,0,0:0:0:0:
109,192,144130,1,0,0:0:0:0:
402,192,144277,1,0,0:0:0:0:
475,192,144277,1,0,0:0:0:0:
182,192,144277,1,0,0:0:0:0:
109,192,144277,1,0,0:0:0:0:
36,192,144277,1,0,0:0:0:0:
329,192,144277,1,0,0:0:0:0:
256,192,144277,1,0,0:0:0:0:
402,192,144423,1,0,0:0:0:0:
475,192,144423,1,0,0:0:0:0:
256,192,144423,1,0,0:0:0:0:
329,192,144569,1,0,0:0:0:0:
182,192,144569,1,0,0:0:0:0:
36,192,144569,1,0,0:0:0:0:
109,192,144716,1,0,0:0:0:0:
36,192,144716,1,0,0:0:0:0:
402,192,144716,1,0,0:0:0:0:
475,192,144716,1,0,0:0:0:0:
256,192,144716,1,0,0:0:0:0:
329,192,144716,1,0,0:0:0:0:
182,192,144716,1,0,0:0:0:0:
109,192,144862,1,0,0:0:0:0:
36,192,144862,1,0,0:0:0:0:
256,192,144862,1,0,0:0:0:0:
182,192,145009,1,0,0:0:0:0:
329,192,145009,1,0,0:0:0:0:
402,192,145009,1,0,0:0:0:0:
475,192,145009,1,0,0:0:0:0:
36,192,145155,1,0,0:0:0:0:
109,192,145155,1,0,0:0:0:0:
402,192,145155,1,0,0:0:0:0:
475,192,145155,1,0,0:0:0:0:
256,192,145155,1,0,0:0:0:0:
329,192,145155,1,0,0:0:0:0:
182,192,145155,1,0,0:0:0:0:
182,192,145301,1,0,0:0:0:0:
329,192,145301,1,0,0:0:0:0:
109,192,145301,1,0,0:0:0:0:
256,192,145448,1,0,0:0:0:0:
475,192,145448,1,0,0:0:0:0:
182,192,145448,1,0,0:0:0:0:
36,192,145448,1,0,0:0:0:0:
402,192,145448,1,0,0:0:0:0:
329,192,145448,1,0,0:0:0:0:
109,192,145448,1,0,0:0:0:0:
256,192,145594,1,0,0:0:0:0:
402,192,145594,1,0,0:0:0:0:
36,192,145594,1,0,0:0:0:0:
402,192,145740,1,0,0:0:0:0:
329,192,145740,1,0,0:0:0:0:
109,192,145740,1,0,0:0:0:0:
36,192,145740,1,0,0:0:0:0:
475,192,145740,1,0,0:0:0:0:
256,192,145740,1,0,0:0:0:0:
182,192,145740,1,0,0:0:0:0:
475,192,145887,1,0,0:0:0:0:
402,192,145887,1,0,0:0:0:0:
329,192,145887,1,0,0:0:0:0:
256,192,145960,1,0,0:0:0:0:
109,192,145960,1,0,0:0:0:0:
36,192,145960,1,0,0:0:0:0:
182,192,146033,1,0,0:0:0:0:
402,192,146033,1,0,0:0:0:0:
475,192,146033,1,0,0:0:0:0:
329,192,146106,1,0,0:0:0:0:
109,192,146106,1,0,0:0:0:0:
36,192,146106,1,0,0:0:0:0:
256,192,146179,1,0,0:0:0:0:
402,192,146179,1,0,0:0:0:0:
475,192,146179,1,0,0:0:0:0:
182,192,146179,1,0,0:0:0:0:
109,192,146326,1,0,0:0:0:0:
36,192,146326,1,0,0:0:0:0:
329,192,146326,1,0,0:0:0:0:
402,192,146399,1,0,0:0:0:0:
475,192,146399,1,0,0:0:0:0:
182,192,146399,1,0,0:0:0:0:
256,192,146472,1,0,0:0:0:0:
36,192,146472,1,0,0:0:0:0:
109,192,146472,1,0,0:0:0:0:
329,192,146545,1,0,0:0:0:0:
402,192,146545,1,0,0:0:0:0:
475,192,146545,1,0,0:0:0:0:
256,192,146618,1,0,0:0:0:0:
109,192,146618,1,0,0:0:0:0:
36,192,146618,1,0,0:0:0:0:
182,192,146618,1,0,0:0:0:0:
329,192,146765,1,0,0:0:0:0:
402,192,146765,1,0,0:0:0:0:
475,192,146765,1,0,0:0:0:0:
256,192,146838,1,0,0:0:0:0:
109,192,146838,1,0,0:0:0:0:
36,192,146838,1,0,0:0:0:0:
182,192,146911,1,0,0:0:0:0:
402,192,146911,1,0,0:0:0:0:
475,192,146911,1,0,0:0:0:0:
329,192,146984,1,0,0:0:0:0:
256,192,146984,1,0,0:0:0:0:
109,192,146984,1,0,0:0:0:0:
182,192,147057,1,0,0:0:0:0:
402,192,147057,1,0,0:0:0:0:
475,192,147057,1,0,0:0:0:0:
36,192,147057,1,0,0:0:0:0:
36,192,147204,1,0,0:0:0:0:
109,192,147204,1,0,0:0:0:0:
256,192,147204,1,0,0:0:0:0:
329,192,147277,1,0,0:0:0:0:
402,192,147277,1,0,0:0:0:0:
475,192,147277,1,0,0:0:0:0:
182,192,147350,1,0,0:0:0:0:
109,192,147350,1,0,0:0:0:0:
36,192,147350,1,0,0:0:0:0:
475,192,147423,1,0,0:0:0:0:
256,192,147423,1,0,0:0:0:0:
402,192,147423,1,0,0:0:0:0:
329,192,147496,1,0,0:0:0:0:
182,192,147496,1,0,0:0:0:0:
109,192,147496,1,0,0:0:0:0:
36,192,147496,1,0,0:0:0:0:
402,192,147643,1,0,0:0:0:0:
475,192,147643,1,0,0:0:0:0:
329,192,147643,1,0,0:0:0:0:
109,192,147716,1,0,0:0:0:0:
182,192,147716,1,0,0:0:0:0:
36,192,147716,1,0,0:0:0:0:
402,192,147789,1,0,0:0:0:0:
475,192,147789,1,0,0:0:0:0:
256,192,147789,1,0,0:0:0:0:
329,192,147789,1,0,0:0:0:0:
182,192,147935,1,0,0:0:0:0:
109,192,147935,1,0,0:0:0:0:
36,192,147935,1,0,0:0:0:0:
329,192,148009,1,0,0:0:0:0:
402,192,148009,1,0,0:0:0:0:
475,192,148009,1,0,0:0:0:0:
256,192,148082,1,0,0:0:0:0:
182,192,148082,1,0,0:0:0:0:
36,192,148082,1,0,0:0:0:0:
109,192,148082,1,0,0:0:0:0:
329,192,148228,1,0,0:0:0:0:
402,192,148228,1,0,0:0:0:0:
475,192,148228,1,0,0:0:0:0:
256,192,148301,1,0,0:0:0:0:
109,192,148301,1,0,0:0:0:0:
36,192,148301,1,0,0:0:0:0:
402,192,148374,1,0,0:0:0:0:
182,192,148374,1,0,0:0:0:0:
475,192,148374,1,0,0:0:0:0:
329,192,148448,1,0,0:0:0:0:
109,192,148448,1,0,0:0:0:0:
36,192,148448,1,0,0:0:0:0:
256,192,148521,1,0,0:0:0:0:
182,192,148521,1,0,0:0:0:0:
402,192,148521,1,0,0:0:0:0:
475,192,148521,1,0,0:0:0:0:
109,192,148667,1,0,0:0:0:0:
36,192,148667,1,0,0:0:0:0:
329,192,148667,1,0,0:0:0:0:
402,192,148740,1,0,0:0:0:0:
475,192,148740,1,0,0:0:0:0:
256,192,148740,1,0,0:0:0:0:
182,192,148813,1,0,0:0:0:0:
109,192,148813,1,0,0:0:0:0:
36,192,148813,1,0,0:0:0:0:
329,192,148887,1,0,0:0:0:0:
402,192,148887,1,0,0:0:0:0:
475,192,148887,1,0,0:0:0:0:
256,192,148960,1,0,0:0:0:0:
182,192,148960,1,0,0:0:0:0:
109,192,148960,1,0,0:0:0:0:
36,192,148960,1,0,0:0:0:0:
329,192,149106,1,0,0:0:0:0:
402,192,149106,1,0,0:0:0:0:
475,192,149106,1,0,0:0:0:0:
256,192,149179,1,0,0:0:0:0:
109,192,149179,1,0,0:0:0:0:
36,192,149179,1,0,0:0:0:0:
182,192,149252,1,0,0:0:0:0:
402,192,149252,1,0,0:0:0:0:
475,192,149252,1,0,0:0:0:0:
329,192,149326,1,0,0:0:0:0:
36,192,149326,1,0,0:0:0:0:
109,192,149326,1,0,0:0:0:0:
182,192,149399,1,0,0:0:0:0:
256,192,149399,1,0,0:0:0:0:
402,192,149399,1,0,0:0:0:0:
475,192,149399,1,0,0:0:0:0:
109,192,149545,1,0,0:0:0:0:
36,192,149545,1,0,0:0:0:0:
329,192,149545,1,0,0:0:0:0:
182,192,149618,1,0,0:0:0:0:
402,192,149618,1,0,0:0:0:0:
475,192,149618,1,0,0:0:0:0:
256,192,149691,1,0,0:0:0:0:
109,192,149691,1,0,0:0:0:0:
36,192,149691,1,0,0:0:0:0:
329,192,149765,1,0,0:0:0:0:
402,192,149765,1,0,0:0:0:0:
475,192,149765,1,0,0:0:0:0:
256,192,149838,1,0,0:0:0:0:
182,192,149838,1,0,0:0:0:0:
109,192,149838,1,0,0:0:0:0:
36,192,149838,1,0,0:0:0:0:
402,192,149984,1,0,0:0:0:0:
475,192,149984,1,0,0:0:0:0:
329,192,149984,1,0,0:0:0:0:
182,192,150057,1,0,0:0:0:0:
109,192,150057,1,0,0:0:0:0:
36,192,150057,1,0,0:0:0:0:
402,192,150130,1,0,0:0:0:0:
475,192,150130,1,0,0:0:0:0:
256,192,150130,1,0,0:0:0:0:
329,192,150130,1,0,0:0:0:0:
182,192,150277,1,0,0:0:0:0:
109,192,150277,1,0,0:0:0:0:
36,192,150277,1,0,0:0:0:0:
329,192,150350,1,0,0:0:0:0:
402,192,150350,1,0,0:0:0:0:
475,192,150350,1,0,0:0:0:0:
182,192,150423,1,0,0:0:0:0:
109,192,150441,1,0,0:0:0:0:
36,192,150460,1,0,0:0:0:0:
182,192,151009,1,0,0:0:0:0:
256,192,151027,1,0,0:0:0:0:
329,192,151045,1,0,0:0:0:0:
475,192,151594,1,0,0:0:0:0:
402,192,151612,1,0,0:0:0:0:
329,192,151630,1,0,0:0:0:0:
256,192,152179,1,0,0:0:0:0:
182,192,152198,1,0,0:0:0:0:
109,192,152216,1,0,0:0:0:0:
329,192,152765,1,0,0:0:0:0:
402,192,152783,1,0,0:0:0:0:
475,192,152801,1,0,0:0:0:0:
