osu file format v14

[General]
AudioFilename: audio.ogg
AudioLeadIn: 0
PreviewTime: 164675
Countdown: 0
SampleSet: Normal
StackLeniency: 0.7
Mode: 3
LetterboxInBreaks: 0
SpecialStyle: 0
WidescreenStoryboard: 1

[Editor]
Bookmarks: 19775,29075,38975,58175,67775,77375,86975,106175,115775,125375,144575,163775,164975,184175,203375,212975
DistanceSpacing: 0.8
BeatDivisor: 4
GridSize: 8
TimelineZoom: 2.099999

[Metadata]
Title:Soulwind
TitleUnicode:Soulwind
Artist:HyuN
ArtistUnicode:HyuN
Creator:Wishtynite
Version:Zephyr
Source:
Tags:바람과 시간 속 In The Wind And Time 1st Healing Concept Digital Album rice jumpstream electronic instrumental piano HimitsuHiketsu
BeatmapID:4418823
BeatmapSetID:2000308

[Difficulty]
HPDrainRate:8
CircleSize:4
OverallDifficulty:8
ApproachRate:5
SliderMultiplier:1.4
SliderTickRate:1

[Events]
//Background and Video events
0,0,"202240452.jpg",0,0
//Break Periods
//Storyboard Layer 0 (Background)
//Storyboard Layer 1 (Fail)
//Storyboard Layer 2 (Pass)
//Storyboard Layer 3 (Foreground)
//Storyboard Layer 4 (Overlay)
//Storyboard Sound Samples
Sample,19775,0,"G6.wav",70
Sample,20675,0,"D#7.wav",70
Sample,20975,0,"D7.wav",70
Sample,21275,0,"F7.wav",70
Sample,21875,0,"D#7.wav",70
Sample,22175,0,"F6.wav",70
Sample,22475,0,"D#6.wav",70
Sample,23225,0,"F6.wav",70
Sample,24275,0,"G#6.wav",70
Sample,24575,0,"G6.wav",70
Sample,25475,0,"D#7.wav",70
Sample,25775,0,"D7.wav",70
Sample,26075,0,"F7.wav",70
Sample,26675,0,"D#7.wav",70
Sample,26975,0,"F6.wav",70
Sample,29075,0,"F6.wav",70
Sample,29150,0,"D#6.wav",70
Sample,29300,0,"G6.wav",70
Sample,29375,0,"G6.wav",70
Sample,29825,0,"A#6.wav",70
Sample,30275,0,"D#7.wav",70
Sample,30575,0,"D7.wav",70
Sample,30725,0,"D#7.wav",70
Sample,30875,0,"F7.wav",70
Sample,31025,0,"G7.wav",70
Sample,31325,0,"D#7.wav",70
Sample,31625,0,"A#6.wav",70
Sample,31775,0,"F6.wav",70
Sample,32075,0,"D#6.wav",70
Sample,32225,0,"D#6.wav",70
Sample,32525,0,"F6.wav",70
Sample,32825,0,"F6.wav",70
Sample,33725,0,"G6.wav",70
Sample,33875,0,"G#6.wav",70
Sample,34025,0,"A#6.wav",70
Sample,34175,0,"A#6.wav",70
Sample,34625,0,"A#6.wav",70
Sample,35075,0,"A#6.wav",70
Sample,35525,0,"A#6.wav",70
Sample,35975,0,"A#6.wav",70
Sample,37475,0,"G6.wav",70
Sample,37550,0,"F6.wav",70
Sample,37625,0,"G6.wav",70
Sample,37700,0,"G#6.wav",70
Sample,38675,0,"G6.wav",70
Sample,38825,0,"G#6.wav",70
Sample,38975,0,"A#6.wav",70
Sample,39575,0,"A#6.wav",70
Sample,39725,0,"G#6.wav",70
Sample,40175,0,"F6.wav",70
Sample,40325,0,"A#5.wav",70
Sample,40925,0,"D7.wav",70
Sample,41225,0,"D6.wav",70
Sample,41375,0,"G6.wav",70
Sample,42125,0,"D#7.wav",70
Sample,42575,0,"D#7.wav",70
Sample,43175,0,"D#7.wav",70
Sample,43475,0,"D7.wav",70
Sample,43625,0,"A#6.wav",70
Sample,43775,0,"G#6.wav",70
Sample,44975,0,"B6.wav",70
Sample,46775,0,"D#6.wav",70
Sample,47075,0,"F6.wav",70
Sample,47375,0,"G#6.wav",70
Sample,47525,0,"C#6.wav",70
Sample,47675,0,"C7.wav",70
Sample,47825,0,"F6.wav",70
Sample,48200,0,"A#5.wav",70
Sample,48500,0,"G6.wav",70
Sample,48575,0,"A#6.wav",70
Sample,49175,0,"A#6.wav",70
Sample,49325,0,"G#6.wav",70
Sample,49775,0,"A#6.wav",70
Sample,49925,0,"B5.wav",70
Sample,50225,0,"G6.wav",70
Sample,50375,0,"A#6.wav",70
Sample,50600,0,"G#6.wav",70
Sample,50825,0,"G6.wav",70
Sample,50975,0,"G6.wav",70
Sample,51275,0,"G6.wav",70
Sample,51425,0,"A#6.wav",70
Sample,51725,0,"D#7.wav",70
Sample,52025,0,"D7.wav",70
Sample,52325,0,"G6.wav",70
Sample,52850,0,"C6.wav",70
Sample,52925,0,"G5.wav",70
Sample,53000,0,"C6.wav",70
Sample,53300,0,"G6.wav",70
Sample,53375,0,"A#6.wav",70
Sample,54275,0,"A#6.wav",70
Sample,55175,0,"A#6.wav",70
Sample,56975,0,"F6.wav",70
Sample,57125,0,"D7.wav",70
Sample,57275,0,"F7.wav",70
Sample,57425,0,"D8.wav",70
Sample,57950,0,"D#7.wav",70
Sample,58100,0,"A#6.wav",70
Sample,67775,0,"G6.wav",70
Sample,68675,0,"D#7.wav",70
Sample,68975,0,"D7.wav",70
Sample,69275,0,"F7.wav",70
Sample,69875,0,"D#7.wav",70
Sample,70175,0,"F6.wav",70
Sample,70475,0,"D#6.wav",70
Sample,71225,0,"F6.wav",70
Sample,72275,0,"G#6.wav",70
Sample,72575,0,"G6.wav",70
Sample,73475,0,"D#7.wav",70
Sample,73775,0,"D7.wav",70
Sample,74075,0,"F7.wav",70
Sample,74675,0,"D#7.wav",70
Sample,74975,0,"F6.wav",70
Sample,77075,0,"F6.wav",70
Sample,77150,0,"D#6.wav",70
Sample,77300,0,"G6.wav",70
Sample,77375,0,"G6.wav",70
Sample,77825,0,"A#6.wav",70
Sample,78275,0,"D#7.wav",70
Sample,78575,0,"D7.wav",70
Sample,78725,0,"D#7.wav",70
Sample,78875,0,"F7.wav",70
Sample,79025,0,"G7.wav",70
Sample,79325,0,"D#7.wav",70
Sample,79625,0,"A#6.wav",70
Sample,79775,0,"F6.wav",70
Sample,80075,0,"D#6.wav",70
Sample,80225,0,"D#6.wav",70
Sample,80525,0,"F6.wav",70
Sample,80825,0,"F6.wav",70
Sample,81725,0,"G6.wav",70
Sample,81875,0,"G#6.wav",70
Sample,82025,0,"A#6.wav",70
Sample,82175,0,"A#6.wav",70
Sample,82625,0,"A#6.wav",70
Sample,83075,0,"A#6.wav",70
Sample,83525,0,"A#6.wav",70
Sample,83975,0,"A#6.wav",70
Sample,85475,0,"G6.wav",70
Sample,85550,0,"F6.wav",70
Sample,85625,0,"G6.wav",70
Sample,85700,0,"G#6.wav",70
Sample,86675,0,"G6.wav",70
Sample,86825,0,"G#6.wav",70
Sample,86975,0,"A#6.wav",70
Sample,87575,0,"A#6.wav",70
Sample,87725,0,"G#6.wav",70
Sample,88175,0,"F6.wav",70
Sample,88325,0,"A#5.wav",70
Sample,88925,0,"D7.wav",70
Sample,89225,0,"D6.wav",70
Sample,89375,0,"G6.wav",70
Sample,90125,0,"D#7.wav",70
Sample,90575,0,"D#7.wav",70
Sample,91175,0,"D#7.wav",70
Sample,91475,0,"D7.wav",70
Sample,91625,0,"A#6.wav",70
Sample,91775,0,"G#6.wav",70
Sample,92975,0,"B6.wav",70
Sample,94775,0,"D#6.wav",70
Sample,95075,0,"F6.wav",70
Sample,95375,0,"G#6.wav",70
Sample,95525,0,"C#6.wav",70
Sample,95675,0,"C7.wav",70
Sample,95825,0,"F6.wav",70
Sample,96200,0,"A#5.wav",70
Sample,96500,0,"G6.wav",70
Sample,96575,0,"A#6.wav",70
Sample,97175,0,"A#6.wav",70
Sample,97325,0,"G#6.wav",70
Sample,97775,0,"A#6.wav",70
Sample,97925,0,"B5.wav",70
Sample,98225,0,"G6.wav",70
Sample,98375,0,"A#6.wav",70
Sample,98600,0,"G#6.wav",70
Sample,98825,0,"G6.wav",70
Sample,98975,0,"G6.wav",70
Sample,99275,0,"G6.wav",70
Sample,99425,0,"A#6.wav",70
Sample,99725,0,"D#7.wav",70
Sample,100025,0,"D7.wav",70
Sample,100325,0,"G6.wav",70
Sample,100850,0,"C6.wav",70
Sample,100925,0,"G5.wav",70
Sample,101000,0,"C6.wav",70
Sample,101300,0,"G6.wav",70
Sample,101375,0,"A#6.wav",70
Sample,102275,0,"A#6.wav",70
Sample,103175,0,"A#6.wav",70
Sample,104975,0,"F6.wav",70
Sample,105125,0,"D7.wav",70
Sample,105275,0,"F7.wav",70
Sample,105425,0,"D8.wav",70
Sample,105950,0,"D#7.wav",70
Sample,106100,0,"A#6.wav",70
Sample,115775,0,"D#7.wav",70
Sample,116075,0,"D#7.wav",70
Sample,116675,0,"D#7.wav",70
Sample,117275,0,"D#7.wav",70
Sample,117875,0,"D#7.wav",70
Sample,118025,0,"A#7.wav",70
Sample,118175,0,"snare.wav",80
Sample,118175,0,"D#7.wav",70
Sample,118475,0,"D#7.wav",70
Sample,119075,0,"D#7.wav",70
Sample,119675,0,"A#7.wav",70
Sample,119675,0,"D#7.wav",70
Sample,119975,0,"D#7.wav",70
Sample,120275,0,"D#7.wav",70
Sample,120275,0,"G7.wav",70
Sample,120425,0,"A#7.wav",70
Sample,120575,0,"snare.wav",80
Sample,120575,0,"D#7.wav",70
Sample,120875,0,"D#7.wav",70
Sample,121475,0,"D#7.wav",70
Sample,122075,0,"D#7.wav",70
Sample,122675,0,"D#7.wav",70
Sample,122825,0,"A#7.wav",70
Sample,122975,0,"D#7.wav",70
Sample,122975,0,"snare.wav",80
Sample,123275,0,"D#7.wav",70
Sample,123875,0,"D#7.wav",70
Sample,124175,0,"D#8.wav",70
Sample,125150,0,"D7.wav",70
Sample,125300,0,"G6.wav",70
Sample,144275,0,"G6.wav",70
Sample,144425,0,"G#6.wav",70
Sample,144575,0,"A#6.wav",70
Sample,145175,0,"A#6.wav",70
Sample,145325,0,"G#6.wav",70
Sample,145775,0,"F6.wav",70
Sample,145925,0,"A#5.wav",70
Sample,146525,0,"D7.wav",70
Sample,146825,0,"D6.wav",70
Sample,146975,0,"G6.wav",70
Sample,147725,0,"D#7.wav",70
Sample,148175,0,"D#7.wav",70
Sample,148775,0,"D#7.wav",70
Sample,149075,0,"D7.wav",70
Sample,149225,0,"A#6.wav",70
Sample,149375,0,"G#6.wav",70
Sample,150575,0,"B6.wav",70
Sample,152375,0,"D#6.wav",70
Sample,152675,0,"F6.wav",70
Sample,152975,0,"G#6.wav",70
Sample,153125,0,"C#6.wav",70
Sample,153275,0,"C7.wav",70
Sample,153425,0,"F6.wav",70
Sample,153800,0,"A#5.wav",70
Sample,154100,0,"G6.wav",70
Sample,154175,0,"A#6.wav",70
Sample,154775,0,"A#6.wav",70
Sample,154925,0,"G#6.wav",70
Sample,155375,0,"A#6.wav",70
Sample,155525,0,"B5.wav",70
Sample,155825,0,"G6.wav",70
Sample,155975,0,"A#6.wav",70
Sample,156200,0,"G#6.wav",70
Sample,156425,0,"G6.wav",70
Sample,156575,0,"G6.wav",70
Sample,156875,0,"G6.wav",70
Sample,157025,0,"A#6.wav",70
Sample,157325,0,"D#7.wav",70
Sample,157625,0,"D7.wav",70
Sample,157925,0,"G6.wav",70
Sample,158450,0,"C6.wav",70
Sample,158525,0,"G5.wav",70
Sample,158600,0,"C6.wav",70
Sample,158900,0,"G6.wav",70
Sample,158975,0,"A#6.wav",70
Sample,159875,0,"A#6.wav",70
Sample,160775,0,"A#6.wav",70
Sample,162575,0,"F6.wav",70
Sample,162725,0,"D7.wav",70
Sample,162875,0,"F7.wav",70
Sample,163025,0,"D8.wav",70
Sample,163550,0,"D#7.wav",70
Sample,163700,0,"A#6.wav",70
Sample,164675,0,"A#6.wav",70
Sample,164675,0,"F#6.wav",70
Sample,164825,0,"B6.wav",70
Sample,164975,0,"C#7.wav",70
Sample,165575,0,"C#7.wav",70
Sample,165725,0,"B6.wav",70
Sample,166175,0,"G#6.wav",70
Sample,166325,0,"C#6.wav",70
Sample,166925,0,"F7.wav",70
Sample,167225,0,"F6.wav",70
Sample,167375,0,"A#6.wav",70
Sample,168125,0,"F#7.wav",70
Sample,168575,0,"F#7.wav",70
Sample,169175,0,"F#7.wav",70
Sample,169475,0,"F7.wav",70
Sample,169625,0,"C#7.wav",70
Sample,169775,0,"B6.wav",70
Sample,170975,0,"D7.wav",70
Sample,172775,0,"F#6.wav",70
Sample,173075,0,"G#6.wav",70
Sample,173375,0,"B5.wav",70
Sample,173525,0,"E6.wav",70
Sample,173675,0,"D#7.wav",70
Sample,173825,0,"G#6.wav",70
Sample,174200,0,"C#6.wav",70
Sample,174500,0,"A#6.wav",70
Sample,174575,0,"C#7.wav",70
Sample,175175,0,"C#7.wav",70
Sample,175325,0,"B6.wav",70
Sample,175775,0,"C#7.wav",70
Sample,175925,0,"D6.wav",70
Sample,176225,0,"A#6.wav",70
Sample,176375,0,"C#7.wav",70
Sample,176600,0,"B6.wav",70
Sample,176825,0,"A#6.wav",70
Sample,176975,0,"A#6.wav",70
Sample,177275,0,"A#6.wav",70
Sample,177425,0,"C#7.wav",70
Sample,177725,0,"F#7.wav",70
Sample,178025,0,"F7.wav",70
Sample,178325,0,"A#6.wav",70
Sample,178850,0,"D#5.wav",70
Sample,178925,0,"A#5.wav",70
Sample,179000,0,"D#5.wav",70
Sample,179300,0,"A#6.wav",70
Sample,179375,0,"C#7.wav",70
Sample,180275,0,"C#7.wav",70
Sample,181175,0,"C#7.wav",70
Sample,182975,0,"G#6.wav",70
Sample,183125,0,"F7.wav",70
Sample,183275,0,"G#7.wav",70
Sample,183425,0,"F8.wav",70
Sample,183950,0,"F#7.wav",70
Sample,184100,0,"C#7.wav",70

[TimingPoints]
575,300,4,1,1,80,1,0
125375,-100,4,1,1,80,0,1
143375,-100,4,1,1,80,0,0
184175,-100,4,1,1,80,0,1
202175,-100,4,1,1,80,0,0

[HitObjects]
192,192,575,5,0,0:0:0:50:D#7.wav
448,192,575,1,0,0:0:0:0:
64,192,725,1,0,0:0:0:50:A#6.wav
192,192,875,1,0,0:0:0:50:D#7.wav
320,192,1025,1,0,0:0:0:50:F7.wav
64,192,1175,1,0,0:0:0:50:D#7.wav
192,192,1325,1,0,0:0:0:50:A#6.wav
64,192,1475,1,0,0:0:0:50:D#7.wav
448,192,1625,1,0,0:0:0:50:A#7.wav
192,192,1775,1,0,0:0:0:50:D#7.wav
64,192,1925,1,0,0:0:0:50:A#6.wav
320,192,2075,1,0,0:0:0:50:D#7.wav
448,192,2225,1,0,0:0:0:50:A#7.wav
192,192,2375,1,0,0:0:0:50:D#7.wav
64,192,2525,1,0,0:0:0:50:A#6.wav
320,192,2675,1,0,0:0:0:50:D#7.wav
448,192,2825,1,0,0:0:0:50:A#7.wav
192,192,2975,1,0,0:0:0:50:D#7.wav
320,192,2975,1,0,0:0:0:0:
64,192,3125,1,0,0:0:0:50:A#6.wav
192,192,3275,1,0,0:0:0:50:D#7.wav
320,192,3425,1,0,0:0:0:50:F7.wav
64,192,3575,1,0,0:0:0:50:D#7.wav
192,192,3725,1,0,0:0:0:50:A#6.wav
64,192,3875,1,0,0:0:0:50:D#7.wav
448,192,4025,1,0,0:0:0:50:A#7.wav
64,192,4175,1,0,0:0:0:50:D#7.wav
192,192,4325,1,0,0:0:0:50:A#6.wav
320,192,4475,1,0,0:0:0:50:A#7.wav
448,192,4475,1,0,0:0:0:50:D#7.wav
448,192,4625,1,0,0:0:0:50:A#7.wav
192,192,4775,1,0,0:0:0:50:G#7.wav
320,192,4775,1,0,0:0:0:50:D#7.wav
64,192,4925,1,0,0:0:0:50:A#6.wav
320,192,5075,1,0,0:0:0:50:G7.wav
448,192,5075,1,0,0:0:0:50:D#7.wav
320,192,5225,1,0,0:0:0:50:A#7.wav
192,192,5375,1,0,0:0:0:50:D#7.wav
448,192,5375,1,0,0:0:0:0:
64,192,5525,1,0,0:0:0:50:A#6.wav
192,192,5675,1,0,0:0:0:50:D#7.wav
320,192,5825,1,0,0:0:0:50:F7.wav
64,192,5975,1,0,0:0:0:50:D#7.wav
192,192,6125,1,0,0:0:0:50:A#6.wav
64,192,6275,1,0,0:0:0:50:D#7.wav
448,192,6425,1,0,0:0:0:50:A#7.wav
192,192,6575,1,0,0:0:0:50:D#7.wav
64,192,6725,1,0,0:0:0:50:A#6.wav
320,192,6875,1,0,0:0:0:50:D#7.wav
448,192,7025,1,0,0:0:0:50:A#7.wav
192,192,7175,1,0,0:0:0:50:D#7.wav
64,192,7325,1,0,0:0:0:50:A#6.wav
320,192,7475,1,0,0:0:0:50:D#7.wav
448,192,7625,1,0,0:0:0:50:A#7.wav
192,192,7775,1,0,0:0:0:50:D#7.wav
320,192,7775,1,0,0:0:0:0:
64,192,7925,1,0,0:0:0:50:A#6.wav
192,192,8075,1,0,0:0:0:50:D#7.wav
320,192,8225,1,0,0:0:0:50:F7.wav
64,192,8375,1,0,0:0:0:50:D#7.wav
192,192,8525,1,0,0:0:0:50:A#6.wav
64,192,8675,1,0,0:0:0:50:D#7.wav
448,192,8825,1,0,0:0:0:50:A#7.wav
192,192,8975,1,0,0:0:0:50:D#7.wav
320,192,8975,1,0,0:0:0:0:
64,192,9125,1,0,0:0:0:50:A#6.wav
320,192,9275,1,0,0:0:0:50:D#7.wav
448,192,9425,1,0,0:0:0:50:A#7.wav
192,192,9575,1,0,0:0:0:50:D#7.wav
64,192,9725,1,0,0:0:0:50:A#6.wav
320,192,9875,1,0,0:0:0:50:D#7.wav
448,192,10025,1,0,0:0:0:50:A#7.wav
192,192,10175,1,0,0:0:0:50:D#7.wav
320,192,10175,1,0,0:0:0:0:
64,192,10325,1,0,0:0:0:50:A#6.wav
192,192,10475,1,0,0:0:0:50:D#7.wav
320,192,10625,1,0,0:0:0:50:F7.wav
64,192,10775,1,0,0:0:0:50:D#7.wav
192,192,10925,1,0,0:0:0:50:A#6.wav
64,192,11075,1,0,0:0:0:50:D#7.wav
448,192,11225,1,0,0:0:0:50:A#7.wav
192,192,11375,1,0,0:0:0:50:D#7.wav
64,192,11525,1,0,0:0:0:50:A#6.wav
320,192,11675,1,0,0:0:0:50:D#7.wav
448,192,11825,1,0,0:0:0:50:A#7.wav
192,192,11975,1,0,0:0:0:50:D#7.wav
64,192,12125,1,0,0:0:0:50:A#6.wav
320,192,12275,1,0,0:0:0:50:D#7.wav
448,192,12425,1,0,0:0:0:50:A#7.wav
192,192,12575,1,0,0:0:0:50:D#7.wav
320,192,12575,1,0,0:0:0:0:
64,192,12725,1,0,0:0:0:50:A#6.wav
192,192,12875,1,0,0:0:0:50:D#7.wav
320,192,13025,1,0,0:0:0:50:F7.wav
64,192,13175,1,0,0:0:0:50:D#7.wav
192,192,13325,1,0,0:0:0:50:A#6.wav
64,192,13475,1,0,0:0:0:50:D#7.wav
448,192,13625,1,0,0:0:0:50:A#7.wav
64,192,13775,1,0,0:0:0:50:D#7.wav
192,192,13925,1,0,0:0:0:50:A#6.wav
320,192,14075,1,0,0:0:0:50:A#7.wav
448,192,14075,1,0,0:0:0:50:D#7.wav
448,192,14225,1,0,0:0:0:50:A#7.wav
192,192,14375,1,0,0:0:0:50:G#7.wav
320,192,14375,1,0,0:0:0:50:D#7.wav
64,192,14525,1,0,0:0:0:50:A#6.wav
320,192,14675,1,0,0:0:0:50:G7.wav
448,192,14675,1,0,0:0:0:50:D#7.wav
320,192,14825,1,0,0:0:0:50:A#7.wav
192,192,14975,1,0,0:0:0:50:D#7.wav
448,192,14975,1,0,0:0:0:0:
64,192,15125,1,0,0:0:0:50:A#6.wav
192,192,15275,1,0,0:0:0:50:D#7.wav
320,192,15425,1,0,0:0:0:50:F7.wav
64,192,15575,1,0,0:0:0:50:D#7.wav
192,192,15725,1,0,0:0:0:50:A#6.wav
64,192,15875,1,0,0:0:0:50:D#7.wav
448,192,16025,1,0,0:0:0:50:A#7.wav
192,192,16175,1,0,0:0:0:50:D#7.wav
64,192,16325,1,0,0:0:0:50:A#6.wav
320,192,16475,1,0,0:0:0:50:D#7.wav
448,192,16625,1,0,0:0:0:50:A#7.wav
192,192,16775,1,0,0:0:0:50:D#7.wav
64,192,16925,1,0,0:0:0:50:A#6.wav
320,192,17075,1,0,0:0:0:50:D#7.wav
448,192,17225,1,0,0:0:0:50:A#7.wav
192,192,17375,1,0,0:0:0:50:D#7.wav
320,192,17375,1,0,0:0:0:0:
64,192,17525,1,0,0:0:0:50:A#6.wav
192,192,17675,1,0,0:0:0:50:D#7.wav
320,192,17825,1,0,0:0:0:50:F7.wav
64,192,17975,1,0,0:0:0:50:D#7.wav
192,192,18125,1,0,0:0:0:50:A#6.wav
64,192,18275,1,0,0:0:0:50:D#7.wav
448,192,18425,1,0,0:0:0:50:A#7.wav
64,192,18575,1,0,0:0:0:50:D#8.wav
448,192,18575,1,0,0:0:0:0:
448,192,19175,1,0,0:0:0:70:D#8.wav
320,192,19250,1,0,0:0:0:70:D8.wav
192,192,19325,1,0,0:0:0:70:A#7.wav
64,192,19400,1,0,0:0:0:70:G7.wav
320,192,19475,1,0,0:0:0:70:D#7.wav
448,192,19550,1,0,0:0:0:70:D7.wav
64,192,19625,1,0,0:0:0:70:A#6.wav
192,192,19700,1,0,0:0:0:70:G6.wav
64,192,19775,1,0,0:0:0:80:crash.wav
320,192,19775,1,0,0:0:0:80:kick.wav
448,192,19775,1,0,0:0:0:70:D#6.wav
192,192,19925,1,0,0:0:0:0:
448,192,20075,1,0,0:0:0:80:kick.wav
192,192,20225,1,0,0:0:0:70:G6.wav
320,192,20225,1,0,0:0:0:70:A#6.wav
64,192,20375,1,0,0:0:0:80:kick.wav
192,192,20525,1,0,0:0:0:0:
320,192,20675,1,0,0:0:0:80:kick.wav
448,192,20675,1,0,0:0:0:70:A#6.wav
64,192,20825,1,0,0:0:0:80:snare.wav
448,192,20825,1,0,0:0:0:0:
192,192,20975,1,0,0:0:0:80:kick.wav
320,192,20975,1,0,0:0:0:70:A#6.wav
64,192,21125,1,0,0:0:0:70:A#6.wav
320,192,21125,1,0,0:0:0:70:D#7.wav
192,192,21275,1,0,0:0:0:80:kick.wav
320,192,21275,1,0,0:0:0:70:A#6.wav
320,192,21425,1,0,0:0:0:70:A#6.wav
448,192,21425,1,0,0:0:0:70:G7.wav
64,192,21575,1,0,0:0:0:80:kick.wav
192,192,21575,1,0,0:0:0:70:F7.wav
448,192,21725,1,0,0:0:0:70:D#7.wav
64,192,21800,1,0,0:0:0:70:D7.wav
448,192,21875,1,0,0:0:0:80:kick.wav
64,192,21950,1,0,0:0:0:70:D7.wav
192,192,22025,1,0,0:0:0:70:A#6.wav
448,192,22100,1,0,0:0:0:70:G6.wav
192,192,22175,1,0,0:0:0:80:kick.wav
320,192,22175,1,0,0:0:0:70:D6.wav
448,192,22325,1,0,0:0:0:0:
64,192,22475,1,0,0:0:0:80:kick.wav
192,192,22475,1,0,0:0:0:70:C6.wav
64,192,22625,1,0,0:0:0:70:C6.wav
192,192,22625,1,0,0:0:0:70:D#6.wav
448,192,22775,1,0,0:0:0:80:kick.wav
64,192,22925,1,0,0:0:0:70:D6.wav
320,192,22925,1,0,0:0:0:70:F6.wav
192,192,23075,1,0,0:0:0:80:kick.wav
64,192,23225,1,0,0:0:0:80:snare.wav
448,192,23225,1,0,0:0:0:70:D6.wav
320,192,23375,1,0,0:0:0:80:kick.wav
64,192,23525,1,0,0:0:0:70:D#6.wav
192,192,23525,1,0,0:0:0:0:
192,192,23675,1,0,0:0:0:80:kick.wav
320,192,23675,1,0,0:0:0:70:F6.wav
320,192,23825,1,0,0:0:0:70:G6.wav
448,192,23825,1,0,0:0:0:0:
192,192,23975,1,0,0:0:0:80:kick.wav
64,192,24125,1,0,0:0:0:70:D#6.wav
320,192,24125,1,0,0:0:0:70:G6.wav
192,192,24275,1,0,0:0:0:80:kick.wav
448,192,24275,1,0,0:0:0:70:F6.wav
320,192,24425,1,0,0:0:0:70:G6.wav
448,192,24425,1,0,0:0:0:70:A#6.wav
64,192,24575,1,0,0:0:0:80:crash.wav
192,192,24575,1,0,0:0:0:80:kick.wav
320,192,24575,1,0,0:0:0:70:D#6.wav
448,192,24725,1,0,0:0:0:0:
64,192,24875,1,0,0:0:0:80:kick.wav
192,192,25025,1,0,0:0:0:70:G6.wav
320,192,25025,1,0,0:0:0:70:A#6.wav
448,192,25175,1,0,0:0:0:80:kick.wav
192,192,25325,1,0,0:0:0:0:
320,192,25475,1,0,0:0:0:80:kick.wav
448,192,25475,1,0,0:0:0:70:A#6.wav
64,192,25625,1,0,0:0:0:80:snare.wav
448,192,25625,1,0,0:0:0:0:
192,192,25775,1,0,0:0:0:80:kick.wav
320,192,25775,1,0,0:0:0:70:A#6.wav
64,192,25925,1,0,0:0:0:70:A#6.wav
320,192,25925,1,0,0:0:0:70:D#7.wav
192,192,26075,1,0,0:0:0:80:kick.wav
320,192,26075,1,0,0:0:0:70:A#6.wav
320,192,26225,1,0,0:0:0:70:A#6.wav
448,192,26225,1,0,0:0:0:70:G7.wav
64,192,26375,1,0,0:0:0:80:kick.wav
192,192,26375,1,0,0:0:0:70:F7.wav
448,192,26525,1,0,0:0:0:70:D#7.wav
64,192,26600,1,0,0:0:0:70:D7.wav
448,192,26675,1,0,0:0:0:80:kick.wav
64,192,26750,1,0,0:0:0:70:D7.wav
192,192,26825,1,0,0:0:0:70:A#6.wav
448,192,26900,1,0,0:0:0:70:G6.wav
192,192,26975,1,0,0:0:0:80:kick.wav
320,192,26975,1,0,0:0:0:70:D6.wav
64,192,27125,1,0,0:0:0:70:D#6.wav
320,192,27125,1,0,0:0:0:0:
448,192,27275,1,0,0:0:0:80:kick.wav
192,192,27425,1,0,0:0:0:70:F6.wav
320,192,27425,1,0,0:0:0:0:
64,192,27575,1,0,0:0:0:80:kick.wav
192,192,27725,1,0,0:0:0:70:F#6.wav
448,192,27725,1,0,0:0:0:0:
320,192,27875,1,0,0:0:0:80:kick.wav
64,192,28025,1,0,0:0:0:80:snare.wav
448,192,28025,1,0,0:0:0:70:G6.wav
64,192,28175,1,0,0:0:0:80:crash.wav
320,192,28175,1,0,0:0:0:80:kick.wav
448,192,28175,1,0,0:0:0:70:D7.wav
192,192,28250,1,0,0:0:0:70:D#7.wav
320,192,28325,1,0,0:0:0:70:D7.wav
64,192,28400,1,0,0:0:0:70:A#6.wav
192,192,28475,1,0,0:0:0:70:F6.wav
448,192,28550,1,0,0:0:0:70:G6.wav
320,192,28625,1,0,0:0:0:70:F6.wav
192,192,28700,1,0,0:0:0:70:D#6.wav
64,192,28775,1,0,0:0:0:70:D6.wav
320,192,28850,1,0,0:0:0:70:D#6.wav
448,192,28925,1,0,0:0:0:70:F6.wav
192,192,29000,1,0,0:0:0:70:D#6.wav
320,192,29075,1,0,0:0:0:50:snare.wav
64,192,29150,1,0,0:0:0:60:snare.wav
192,192,29225,1,0,0:0:0:70:snare.wav
448,192,29225,1,0,0:0:0:70:F6.wav
320,192,29300,1,0,0:0:0:80:snare.wav
64,192,29375,1,0,0:0:0:80:crash.wav
192,192,29375,1,0,0:0:0:80:kick.wav
448,192,29375,1,0,0:0:0:70:D#6.wav
320,192,29525,1,0,0:0:0:80:kick.wav
64,192,29675,1,0,0:0:0:80:snare.wav
448,192,29675,1,0,0:0:0:0:
192,192,29825,1,0,0:0:0:80:kick.wav
320,192,29825,1,0,0:0:0:70:G6.wav
448,192,29975,1,0,0:0:0:80:kick.wav
192,192,30125,1,0,0:0:0:80:kick.wav
64,192,30275,1,0,0:0:0:80:snare.wav
448,192,30275,1,0,0:0:0:70:A#6.wav
320,192,30425,1,0,0:0:0:80:kick.wav
64,192,30575,1,0,0:0:0:80:kick.wav
192,192,30575,1,0,0:0:0:70:A#6.wav
64,192,30725,1,0,0:0:0:80:kick.wav
320,192,30725,1,0,0:0:0:70:A#6.wav
64,192,30875,1,0,0:0:0:80:snare.wav
448,192,30875,1,0,0:0:0:70:A#6.wav
64,192,31025,1,0,0:0:0:80:kick.wav
192,192,31025,1,0,0:0:0:70:A#6.wav
320,192,31175,1,0,0:0:0:80:kick.wav
448,192,31175,1,0,0:0:0:70:F7.wav
192,192,31325,1,0,0:0:0:80:kick.wav
320,192,31400,1,0,0:0:0:70:D7.wav
64,192,31475,1,0,0:0:0:80:snare.wav
448,192,31475,1,0,0:0:0:70:D#7.wav
192,192,31550,1,0,0:0:0:70:D7.wav
320,192,31625,1,0,0:0:0:80:kick.wav
64,192,31700,1,0,0:0:0:70:G6.wav
192,192,31775,1,0,0:0:0:80:crash.wav
320,192,31775,1,0,0:0:0:80:kick.wav
448,192,31775,1,0,0:0:0:70:D6.wav
192,192,31925,1,0,0:0:0:80:kick.wav
64,192,32075,1,0,0:0:0:80:snare.wav
448,192,32075,1,0,0:0:0:70:C6.wav
64,192,32225,1,0,0:0:0:80:kick.wav
192,192,32225,1,0,0:0:0:70:C6.wav
448,192,32375,1,0,0:0:0:80:kick.wav
192,192,32525,1,0,0:0:0:80:kick.wav
320,192,32525,1,0,0:0:0:70:D6.wav
64,192,32675,1,0,0:0:0:80:snare.wav
448,192,32675,1,0,0:0:0:0:
192,192,32825,1,0,0:0:0:80:kick.wav
320,192,32825,1,0,0:0:0:70:D6.wav
448,192,32975,1,0,0:0:0:80:kick.wav
64,192,33125,1,0,0:0:0:80:kick.wav
192,192,33125,1,0,0:0:0:70:D#6.wav
64,192,33275,1,0,0:0:0:80:snare.wav
448,192,33275,1,0,0:0:0:70:F6.wav
320,192,33425,1,0,0:0:0:80:kick.wav
448,192,33425,1,0,0:0:0:70:G6.wav
192,192,33575,1,0,0:0:0:80:kick.wav
64,192,33725,1,0,0:0:0:80:kick.wav
320,192,33725,1,0,0:0:0:70:D#6.wav
64,192,33875,1,0,0:0:0:80:snare.wav
448,192,33875,1,0,0:0:0:70:F6.wav
192,192,34025,1,0,0:0:0:80:kick.wav
448,192,34025,1,0,0:0:0:70:G6.wav
64,192,34175,1,0,0:0:0:80:crash.wav
320,192,34175,1,0,0:0:0:80:snare.wav
448,192,34175,1,0,0:0:0:70:G6.wav
64,192,34325,1,0,0:0:0:80:snare.wav
192,192,34325,1,0,0:0:0:70:G#6.wav
320,192,34400,1,0,0:0:0:70:G6.wav
448,192,34400,1,0,0:0:0:0:
64,192,34475,1,0,0:0:0:80:snare.wav
192,192,34475,1,0,0:0:0:70:D#6.wav
320,192,34625,1,0,0:0:0:80:snare.wav
448,192,34625,1,0,0:0:0:70:G6.wav
192,192,34775,1,0,0:0:0:80:snare.wav
320,192,34775,1,0,0:0:0:70:G#6.wav
64,192,34925,1,0,0:0:0:80:snare.wav
192,192,34925,1,0,0:0:0:70:D#6.wav
320,192,35075,1,0,0:0:0:80:snare.wav
448,192,35075,1,0,0:0:0:70:G6.wav
192,192,35225,1,0,0:0:0:80:snare.wav
320,192,35225,1,0,0:0:0:70:G#6.wav
64,192,35375,1,0,0:0:0:50:snare.wav
192,192,35375,1,0,0:0:0:70:D#6.wav
448,192,35450,1,0,0:0:0:50:snare.wav
64,192,35525,1,0,0:0:0:50:snare.wav
320,192,35525,1,0,0:0:0:70:G6.wav
192,192,35600,1,0,0:0:0:50:snare.wav
320,192,35675,1,0,0:0:0:80:snare.wav
448,192,35675,1,0,0:0:0:70:G#6.wav
64,192,35750,1,0,0:0:0:80:snare.wav
192,192,35750,1,0,0:0:0:70:G6.wav
320,192,35825,1,0,0:0:0:80:snare.wav
448,192,35825,1,0,0:0:0:70:D#6.wav
64,192,35900,1,0,0:0:0:80:snare.wav
192,192,35975,1,0,0:0:0:70:snare.wav
448,192,35975,1,0,0:0:0:70:G6.wav
320,192,36050,1,0,0:0:0:70:snare.wav
64,192,36125,1,0,0:0:0:70:snare.wav
192,192,36125,1,0,0:0:0:70:G#6.wav
320,192,36200,1,0,0:0:0:70:snare.wav
448,192,36200,1,0,0:0:0:70:G6.wav
64,192,36275,1,0,0:0:0:80:snare.wav
192,192,36275,1,0,0:0:0:70:D#6.wav
448,192,36350,1,0,0:0:0:80:snare.wav
64,192,36425,1,0,0:0:0:80:snare.wav
320,192,36425,1,0,0:0:0:70:A#5.wav
192,192,36500,1,0,0:0:0:80:snare.wav
64,192,36575,1,0,0:0:0:80:crash.wav
320,192,36575,1,0,0:0:0:80:kick.wav
448,192,36575,1,0,0:0:0:70:A#5.wav
192,192,36725,1,0,0:0:0:70:A#5.wav
320,192,36800,1,0,0:0:0:70:D#6.wav
448,192,36875,1,0,0:0:0:70:D6.wav
64,192,36950,1,0,0:0:0:70:A#5.wav
192,192,37025,1,0,0:0:0:80:crash.wav
320,192,37025,1,0,0:0:0:80:kick.wav
448,192,37025,1,0,0:0:0:70:D6.wav
64,192,37100,1,0,0:0:0:70:D#6.wav
320,192,37175,1,0,0:0:0:70:F6.wav
192,192,37250,1,0,0:0:0:70:D6.wav
448,192,37325,1,0,0:0:0:70:D#6.wav
320,192,37400,1,0,0:0:0:70:F6.wav
64,192,37475,1,0,0:0:0:80:crash.wav
192,192,37475,1,0,0:0:0:80:kick.wav
448,192,37475,1,0,0:0:0:50:snare.wav
320,192,37550,1,0,0:0:0:60:snare.wav
64,192,37625,1,0,0:0:0:70:snare.wav
448,192,37700,1,0,0:0:0:80:snare.wav
64,192,37775,1,0,0:0:0:80:crash.wav
192,192,37775,1,0,0:0:0:80:kick.wav
320,192,37775,1,0,0:0:0:70:A#6.wav
448,192,37850,1,0,0:0:0:70:F6.wav
192,192,37925,1,0,0:0:0:70:A#6.wav
320,192,38000,1,0,0:0:0:70:D#7.wav
64,192,38075,1,0,0:0:0:70:D7.wav
448,192,38150,1,0,0:0:0:70:A#6.wav
192,192,38225,1,0,0:0:0:70:D7.wav
64,192,38300,1,0,0:0:0:70:D#7.wav
448,192,38375,1,0,0:0:0:80:snare.wav
320,192,38412,1,0,0:0:0:0:
192,192,38450,1,0,0:0:0:80:snare.wav
64,192,38487,1,0,0:0:0:0:
448,192,38525,1,0,0:0:0:80:snare.wav
320,192,38562,1,0,0:0:0:0:
192,192,38600,1,0,0:0:0:80:snare.wav
64,192,38637,1,0,0:0:0:0:
320,192,38675,1,0,0:0:0:80:snare.wav
448,192,38675,1,0,0:0:0:70:D#6.wav
192,192,38750,1,0,0:0:0:80:snare.wav
64,192,38825,1,0,0:0:0:80:snare.wav
448,192,38825,1,0,0:0:0:70:F6.wav
320,192,38900,1,0,0:0:0:80:snare.wav
64,192,38975,1,0,0:0:0:80:crash.wav
192,192,38975,1,0,0:0:0:80:kick.wav
448,192,38975,1,0,0:0:0:70:G6.wav
320,192,39125,1,0,0:0:0:70:C6.wav
64,192,39275,1,0,0:0:0:80:snare.wav
320,192,39275,1,0,0:0:0:70:C6.wav
192,192,39350,1,0,0:0:0:70:D#6.wav
64,192,39425,1,0,0:0:0:70:G6.wav
448,192,39500,1,0,0:0:0:70:A#6.wav
192,192,39575,1,0,0:0:0:80:kick.wav
320,192,39575,1,0,0:0:0:70:G6.wav
64,192,39725,1,0,0:0:0:80:kick.wav
320,192,39800,1,0,0:0:0:70:G6.wav
64,192,39875,1,0,0:0:0:80:snare.wav
192,192,39875,1,0,0:0:0:70:G#6.wav
320,192,39950,1,0,0:0:0:70:G6.wav
448,192,40025,1,0,0:0:0:70:D#6.wav
64,192,40100,1,0,0:0:0:70:C6.wav
192,192,40175,1,0,0:0:0:80:kick.wav
320,192,40175,1,0,0:0:0:70:D6.wav
448,192,40325,1,0,0:0:0:80:kick.wav
320,192,40400,1,0,0:0:0:70:D6.wav
64,192,40475,1,0,0:0:0:80:snare.wav
192,192,40475,1,0,0:0:0:70:D#6.wav
320,192,40550,1,0,0:0:0:70:D6.wav
448,192,40625,1,0,0:0:0:70:D#6.wav
64,192,40700,1,0,0:0:0:70:F6.wav
192,192,40775,1,0,0:0:0:80:kick.wav
320,192,40775,1,0,0:0:0:70:A#6.wav
448,192,40850,1,0,0:0:0:70:D#7.wav
64,192,40925,1,0,0:0:0:80:kick.wav
320,192,41000,1,0,0:0:0:70:A#6.wav
64,192,41075,1,0,0:0:0:80:snare.wav
192,192,41075,1,0,0:0:0:70:F6.wav
320,192,41150,1,0,0:0:0:70:D#6.wav
448,192,41225,1,0,0:0:0:80:kick.wav
192,192,41300,1,0,0:0:0:70:D#6.wav
64,192,41375,1,0,0:0:0:80:crash.wav
320,192,41375,1,0,0:0:0:80:kick.wav
448,192,41375,1,0,0:0:0:70:D6.wav
192,192,41525,1,0,0:0:0:70:D6.wav
320,192,41600,1,0,0:0:0:70:G6.wav
64,192,41675,1,0,0:0:0:80:snare.wav
448,192,41675,1,0,0:0:0:70:B6.wav
320,192,41750,1,0,0:0:0:70:D6.wav
192,192,41825,1,0,0:0:0:70:G6.wav
64,192,41900,1,0,0:0:0:70:D7.wav
320,192,41975,1,0,0:0:0:80:kick.wav
448,192,41975,1,0,0:0:0:70:G7.wav
192,192,42050,1,0,0:0:0:70:F7.wav
320,192,42125,1,0,0:0:0:80:kick.wav
64,192,42200,1,0,0:0:0:70:D7.wav
192,192,42275,1,0,0:0:0:80:snare.wav
448,192,42275,1,0,0:0:0:70:D#7.wav
320,192,42350,1,0,0:0:0:70:D7.wav
192,192,42425,1,0,0:0:0:70:B6.wav
64,192,42500,1,0,0:0:0:70:G6.wav
320,192,42575,1,0,0:0:0:80:kick.wav
448,192,42575,1,0,0:0:0:70:C7.wav
192,192,42725,1,0,0:0:0:70:C6.wav
320,192,42800,1,0,0:0:0:70:D#6.wav
64,192,42875,1,0,0:0:0:80:snare.wav
448,192,42875,1,0,0:0:0:70:F6.wav
320,192,42950,1,0,0:0:0:70:D#6.wav
64,192,43025,1,0,0:0:0:70:F6.wav
192,192,43100,1,0,0:0:0:70:G6.wav
320,192,43175,1,0,0:0:0:80:kick.wav
448,192,43175,1,0,0:0:0:70:C7.wav
320,192,43250,1,0,0:0:0:70:C7.wav
448,192,43250,1,0,0:0:0:70:D#7.wav
64,192,43400,1,0,0:0:0:70:A#6.wav
192,192,43400,1,0,0:0:0:70:D7.wav
320,192,43475,1,0,0:0:0:80:snare.wav
448,192,43475,1,0,0:0:0:70:A#6.wav
192,192,43550,1,0,0:0:0:80:snare.wav
64,192,43625,1,0,0:0:0:80:snare.wav
448,192,43625,1,0,0:0:0:70:G6.wav
320,192,43700,1,0,0:0:0:80:snare.wav
64,192,43775,1,0,0:0:0:80:crash.wav
192,192,43775,1,0,0:0:0:80:kick.wav
448,192,43775,1,0,0:0:0:70:F6.wav
320,192,43925,1,0,0:0:0:70:F6.wav
192,192,44000,1,0,0:0:0:70:G6.wav
64,192,44075,1,0,0:0:0:80:snare.wav
320,192,44075,1,0,0:0:0:70:G#6.wav
448,192,44150,1,0,0:0:0:70:G6.wav
192,192,44225,1,0,0:0:0:70:F6.wav
64,192,44300,1,0,0:0:0:70:D#6.wav
320,192,44375,1,0,0:0:0:80:kick.wav
448,192,44375,1,0,0:0:0:70:C6.wav
192,192,44450,1,0,0:0:0:70:G#5.wav
320,192,44525,1,0,0:0:0:70:C6.wav
64,192,44600,1,0,0:0:0:70:D#6.wav
192,192,44675,1,0,0:0:0:80:snare.wav
448,192,44675,1,0,0:0:0:70:G#6.wav
320,192,44750,1,0,0:0:0:70:G6.wav
64,192,44825,1,0,0:0:0:70:G#6.wav
448,192,44900,1,0,0:0:0:70:C7.wav
64,192,44975,1,0,0:0:0:80:kick.wav
192,192,44975,1,0,0:0:0:70:G6.wav
320,192,45125,1,0,0:0:0:70:F6.wav
192,192,45200,1,0,0:0:0:70:D#6.wav
64,192,45275,1,0,0:0:0:80:snare.wav
448,192,45275,1,0,0:0:0:70:D6.wav
192,192,45350,1,0,0:0:0:70:D#6.wav
320,192,45425,1,0,0:0:0:70:F6.wav
448,192,45500,1,0,0:0:0:70:G6.wav
64,192,45575,1,0,0:0:0:80:kick.wav
192,192,45575,1,0,0:0:0:70:B6.wav
320,192,45650,1,0,0:0:0:70:G6.wav
64,192,45725,1,0,0:0:0:70:B6.wav
448,192,45800,1,0,0:0:0:70:D7.wav
64,192,45875,1,0,0:0:0:80:snare.wav
192,192,45875,1,0,0:0:0:70:G7.wav
320,192,45950,1,0,0:0:0:70:F7.wav
448,192,46025,1,0,0:0:0:70:D#7.wav
64,192,46100,1,0,0:0:0:70:D7.wav
192,192,46175,1,0,0:0:0:80:crash.wav
320,192,46175,1,0,0:0:0:80:kick.wav
448,192,46175,1,0,0:0:0:70:D#7.wav
64,192,46250,1,0,0:0:0:70:C7.wav
320,192,46325,1,0,0:0:0:70:G6.wav
192,192,46400,1,0,0:0:0:70:D#6.wav
320,192,46475,1,0,0:0:0:80:snare.wav
448,192,46475,1,0,0:0:0:70:C6.wav
64,192,46550,1,0,0:0:0:70:D#5.wav
192,192,46625,1,0,0:0:0:70:G5.wav
320,192,46700,1,0,0:0:0:70:C6.wav
64,192,46775,1,0,0:0:0:80:crash.wav
192,192,46775,1,0,0:0:0:80:kick.wav
448,192,46775,1,0,0:0:0:70:C6.wav
64,192,46850,1,0,0:0:0:70:C6.wav
192,192,46850,1,0,0:0:0:70:D#6.wav
320,192,47000,1,0,0:0:0:70:C6.wav
448,192,47000,1,0,0:0:0:70:F6.wav
64,192,47075,1,0,0:0:0:80:snare.wav
192,192,47075,1,0,0:0:0:70:C6.wav
320,192,47225,1,0,0:0:0:70:C6.wav
448,192,47225,1,0,0:0:0:70:G6.wav
64,192,47375,1,0,0:0:0:80:crash.wav
192,192,47375,1,0,0:0:0:80:kick.wav
448,192,47375,1,0,0:0:0:80:snare.wav
320,192,47450,1,0,0:0:0:70:F6.wav
64,192,47525,1,0,0:0:0:80:kick.wav
192,192,47600,1,0,0:0:0:70:G#5.wav
64,192,47675,1,0,0:0:0:80:crash.wav
320,192,47675,1,0,0:0:0:80:kick.wav
448,192,47675,1,0,0:0:0:80:snare.wav
192,192,47750,1,0,0:0:0:70:G#6.wav
320,192,47825,1,0,0:0:0:80:kick.wav
448,192,47900,1,0,0:0:0:70:C#6.wav
64,192,47975,1,0,0:0:0:80:snare.wav
192,192,47975,1,0,0:0:0:70:A#6.wav
320,192,48050,1,0,0:0:0:80:snare.wav
448,192,48050,1,0,0:0:0:70:G6.wav
64,192,48125,1,0,0:0:0:80:snare.wav
192,192,48125,1,0,0:0:0:70:D#6.wav
320,192,48200,1,0,0:0:0:80:snare.wav
64,192,48275,1,0,0:0:0:80:snare.wav
448,192,48275,1,0,0:0:0:70:D#7.wav
192,192,48350,1,0,0:0:0:80:snare.wav
320,192,48350,1,0,0:0:0:70:A#6.wav
64,192,48425,1,0,0:0:0:80:snare.wav
448,192,48425,1,0,0:0:0:70:G#6.wav
192,192,48500,1,0,0:0:0:80:snare.wav
64,192,48575,1,0,0:0:0:80:crash.wav
320,192,48575,1,0,0:0:0:80:kick.wav
448,192,48575,1,0,0:0:0:70:G6.wav
192,192,48725,1,0,0:0:0:70:C6.wav
192,192,48875,1,0,0:0:0:80:snare.wav
320,192,48875,1,0,0:0:0:70:C6.wav
64,192,48950,1,0,0:0:0:70:D#6.wav
448,192,49025,1,0,0:0:0:70:G6.wav
192,192,49100,1,0,0:0:0:70:A#6.wav
320,192,49175,1,0,0:0:0:80:kick.wav
448,192,49175,1,0,0:0:0:70:G6.wav
64,192,49325,1,0,0:0:0:80:kick.wav
192,192,49400,1,0,0:0:0:70:G6.wav
64,192,49475,1,0,0:0:0:80:snare.wav
320,192,49475,1,0,0:0:0:70:G#6.wav
192,192,49550,1,0,0:0:0:70:G6.wav
448,192,49625,1,0,0:0:0:70:D#6.wav
64,192,49700,1,0,0:0:0:70:C6.wav
192,192,49775,1,0,0:0:0:80:crash.wav
320,192,49775,1,0,0:0:0:80:kick.wav
448,192,49775,1,0,0:0:0:70:G6.wav
64,192,49925,1,0,0:0:0:80:kick.wav
64,192,50075,1,0,0:0:0:80:snare.wav
192,192,50075,1,0,0:0:0:70:B5.wav
320,192,50150,1,0,0:0:0:70:D#6.wav
448,192,50225,1,0,0:0:0:80:kick.wav
192,192,50300,1,0,0:0:0:70:G#6.wav
320,192,50375,1,0,0:0:0:80:snare.wav
448,192,50375,1,0,0:0:0:70:D#6.wav
64,192,50525,1,0,0:0:0:80:snare.wav
192,192,50600,1,0,0:0:0:80:snare.wav
448,192,50600,1,0,0:0:0:70:D#6.wav
320,192,50675,1,0,0:0:0:80:snare.wav
448,192,50750,1,0,0:0:0:80:snare.wav
64,192,50825,1,0,0:0:0:80:snare.wav
192,192,50825,1,0,0:0:0:70:D#6.wav
320,192,50900,1,0,0:0:0:80:snare.wav
64,192,50975,1,0,0:0:0:80:crash.wav
192,192,50975,1,0,0:0:0:80:kick.wav
448,192,50975,1,0,0:0:0:70:D#6.wav
320,192,51125,1,0,0:0:0:70:A#5.wav
64,192,51200,1,0,0:0:0:0:
192,192,51275,1,0,0:0:0:80:kick.wav
448,192,51275,1,0,0:0:0:70:D#6.wav
320,192,51350,1,0,0:0:0:0:
64,192,51425,1,0,0:0:0:80:crash.wav
192,192,51425,1,0,0:0:0:80:kick.wav
448,192,51425,1,0,0:0:0:70:G6.wav
192,192,51725,1,0,0:0:0:80:crash.wav
320,192,51725,1,0,0:0:0:80:kick.wav
448,192,51725,1,0,0:0:0:70:A#6.wav
64,192,52025,1,0,0:0:0:80:crash.wav
192,192,52025,1,0,0:0:0:80:kick.wav
320,192,52025,1,0,0:0:0:70:E6.wav
192,192,52325,1,0,0:0:0:80:kick.wav
64,192,52475,1,0,0:0:0:80:snare.wav
320,192,52475,1,0,0:0:0:70:C7.wav
448,192,52475,1,0,0:0:0:0:
320,192,52625,1,0,0:0:0:70:G6.wav
64,192,52775,1,0,0:0:0:80:snare.wav
192,192,52775,1,0,0:0:0:70:E6.wav
448,192,52775,1,0,0:0:0:0:
320,192,52850,1,0,0:0:0:80:snare.wav
64,192,52925,1,0,0:0:0:80:snare.wav
192,192,53000,1,0,0:0:0:80:snare.wav
320,192,53075,1,0,0:0:0:80:snare.wav
448,192,53075,1,0,0:0:0:70:E6.wav
64,192,53150,1,0,0:0:0:80:snare.wav
192,192,53150,1,0,0:0:0:70:D6.wav
320,192,53225,1,0,0:0:0:80:snare.wav
448,192,53225,1,0,0:0:0:70:E6.wav
192,192,53300,1,0,0:0:0:80:snare.wav
64,192,53375,1,0,0:0:0:80:crash.wav
320,192,53375,1,0,0:0:0:80:kick.wav
448,192,53375,1,0,0:0:0:70:G6.wav
192,192,53525,1,0,0:0:0:70:G#6.wav
320,192,53600,1,0,0:0:0:70:G6.wav
64,192,53675,1,0,0:0:0:80:snare.wav
192,192,53675,1,0,0:0:0:70:D#6.wav
64,192,53825,1,0,0:0:0:70:G6.wav
448,192,53825,1,0,0:0:0:70:A#6.wav
320,192,53975,1,0,0:0:0:80:kick.wav
448,192,53975,1,0,0:0:0:70:G#6.wav
192,192,54125,1,0,0:0:0:70:D#6.wav
320,192,54125,1,0,0:0:0:0:
64,192,54275,1,0,0:0:0:80:snare.wav
448,192,54275,1,0,0:0:0:70:G6.wav
64,192,54425,1,0,0:0:0:70:G#6.wav
192,192,54425,1,0,0:0:0:0:
192,192,54575,1,0,0:0:0:80:kick.wav
320,192,54575,1,0,0:0:0:70:D#6.wav
64,192,54725,1,0,0:0:0:70:G6.wav
448,192,54725,1,0,0:0:0:70:A#6.wav
320,192,54875,1,0,0:0:0:80:snare.wav
448,192,54875,1,0,0:0:0:70:G#6.wav
192,192,54950,1,0,0:0:0:70:G6.wav
320,192,55025,1,0,0:0:0:70:D#6.wav
64,192,55175,1,0,0:0:0:80:kick.wav
448,192,55175,1,0,0:0:0:70:G6.wav
192,192,55325,1,0,0:0:0:70:G#6.wav
320,192,55400,1,0,0:0:0:70:G6.wav
64,192,55475,1,0,0:0:0:80:snare.wav
192,192,55475,1,0,0:0:0:70:D#6.wav
448,192,55625,1,0,0:0:0:70:A#5.wav
64,192,55775,1,0,0:0:0:80:crash.wav
320,192,55775,1,0,0:0:0:80:kick.wav
448,192,55775,1,0,0:0:0:70:D#6.wav
192,192,55850,1,0,0:0:0:70:D6.wav
320,192,55925,1,0,0:0:0:70:D#6.wav
448,192,56000,1,0,0:0:0:70:F6.wav
64,192,56075,1,0,0:0:0:80:snare.wav
192,192,56075,1,0,0:0:0:70:G6.wav
320,192,56150,1,0,0:0:0:70:F6.wav
64,192,56225,1,0,0:0:0:70:G6.wav
320,192,56300,1,0,0:0:0:70:G#6.wav
64,192,56375,1,0,0:0:0:80:crash.wav
192,192,56375,1,0,0:0:0:80:kick.wav
448,192,56375,1,0,0:0:0:70:A#6.wav
320,192,56450,1,0,0:0:0:70:G#6.wav
192,192,56525,1,0,0:0:0:70:A#6.wav
64,192,56600,1,0,0:0:0:70:C7.wav
320,192,56675,1,0,0:0:0:80:snare.wav
448,192,56675,1,0,0:0:0:70:D7.wav
192,192,56750,1,0,0:0:0:70:C7.wav
448,192,56825,1,0,0:0:0:70:D7.wav
64,192,56900,1,0,0:0:0:70:D#7.wav
192,192,56975,1,0,0:0:0:80:crash.wav
320,192,56975,1,0,0:0:0:80:kick.wav
448,192,56975,1,0,0:0:0:80:snare.wav
64,192,57050,1,0,0:0:0:70:A#6.wav
320,192,57125,1,0,0:0:0:80:kick.wav
448,192,57200,1,0,0:0:0:70:D#7.wav
64,192,57275,1,0,0:0:0:80:crash.wav
192,192,57275,1,0,0:0:0:80:kick.wav
320,192,57275,1,0,0:0:0:80:snare.wav
448,192,57350,1,0,0:0:0:70:A#7.wav
192,192,57425,1,0,0:0:0:80:kick.wav
64,192,57500,1,0,0:0:0:70:D#8.wav
320,192,57575,1,0,0:0:0:80:snare.wav
448,192,57575,1,0,0:0:0:70:F8.wav
64,192,57650,1,0,0:0:0:80:snare.wav
192,192,57650,1,0,0:0:0:70:D#8.wav
320,192,57725,1,0,0:0:0:80:snare.wav
448,192,57725,1,0,0:0:0:70:D8.wav
64,192,57800,1,0,0:0:0:80:snare.wav
192,192,57800,1,0,0:0:0:70:A#7.wav
320,192,57875,1,0,0:0:0:80:snare.wav
448,192,57875,1,0,0:0:0:70:F7.wav
192,192,57950,1,0,0:0:0:80:snare.wav
64,192,58025,1,0,0:0:0:80:snare.wav
448,192,58025,1,0,0:0:0:70:D7.wav
320,192,58100,1,0,0:0:0:80:snare.wav
64,192,58175,1,0,0:0:0:80:crash.wav
192,192,58175,1,0,0:0:0:80:kick.wav
448,192,58175,1,0,0:0:0:70:D#7.wav
320,192,58325,1,0,0:0:0:70:A#6.wav
192,192,58475,1,0,0:0:0:70:D#7.wav
320,192,58625,1,0,0:0:0:70:F7.wav
64,192,58775,1,0,0:0:0:70:D#7.wav
192,192,58925,1,0,0:0:0:70:A#6.wav
448,192,58925,1,0,0:0:0:0:
64,192,59075,1,0,0:0:0:70:D#7.wav
320,192,59225,1,0,0:0:0:70:A#7.wav
448,192,59225,1,0,0:0:0:0:
192,192,59375,1,0,0:0:0:70:D#7.wav
64,192,59525,1,0,0:0:0:70:A#6.wav
320,192,59675,1,0,0:0:0:70:D#7.wav
448,192,59825,1,0,0:0:0:70:A#7.wav
64,192,59975,1,0,0:0:0:70:D#7.wav
192,192,60125,1,0,0:0:0:70:A#6.wav
448,192,60125,1,0,0:0:0:0:
320,192,60275,1,0,0:0:0:70:D#7.wav
64,192,60425,1,0,0:0:0:70:A#7.wav
448,192,60425,1,0,0:0:0:0:
192,192,60575,1,0,0:0:0:70:D#7.wav
320,192,60575,1,0,0:0:0:0:
64,192,60725,1,0,0:0:0:70:A#6.wav
192,192,60875,1,0,0:0:0:70:D#7.wav
320,192,61025,1,0,0:0:0:70:F7.wav
64,192,61175,1,0,0:0:0:70:D#7.wav
192,192,61325,1,0,0:0:0:70:A#6.wav
64,192,61475,1,0,0:0:0:70:D#7.wav
448,192,61625,1,0,0:0:0:70:A#7.wav
320,192,61700,1,0,0:0:0:0:
64,192,61775,1,0,0:0:0:70:D#7.wav
192,192,61925,1,0,0:0:0:70:A#6.wav
320,192,62075,1,0,0:0:0:70:A#7.wav
448,192,62075,1,0,0:0:0:70:D#7.wav
448,192,62225,1,0,0:0:0:70:A#7.wav
192,192,62375,1,0,0:0:0:70:G#7.wav
320,192,62375,1,0,0:0:0:70:D#7.wav
64,192,62525,1,0,0:0:0:70:A#6.wav
192,192,62600,1,0,0:0:0:0:
320,192,62675,1,0,0:0:0:70:G7.wav
448,192,62675,1,0,0:0:0:70:D#7.wav
64,192,62750,1,0,0:0:0:0:
448,192,62825,1,0,0:0:0:70:A#7.wav
64,192,62900,1,0,0:0:0:0:
192,192,62975,1,0,0:0:0:70:D#7.wav
320,192,62975,1,0,0:0:0:0:
448,192,62975,1,0,0:0:0:0:
64,192,63125,1,0,0:0:0:70:A#6.wav
192,192,63275,1,0,0:0:0:70:D#7.wav
320,192,63425,1,0,0:0:0:70:F7.wav
64,192,63575,1,0,0:0:0:70:D#7.wav
192,192,63725,1,0,0:0:0:70:A#6.wav
64,192,63875,1,0,0:0:0:70:D#7.wav
448,192,64025,1,0,0:0:0:70:A#7.wav
192,192,64175,1,0,0:0:0:70:D#7.wav
64,192,64325,1,0,0:0:0:70:A#6.wav
320,192,64475,1,0,0:0:0:70:D#7.wav
448,192,64625,1,0,0:0:0:70:A#7.wav
192,192,64775,1,0,0:0:0:70:D#7.wav
64,192,64925,1,0,0:0:0:70:A#6.wav
320,192,65075,1,0,0:0:0:70:D#7.wav
448,192,65225,1,0,0:0:0:70:A#7.wav
192,192,65375,1,0,0:0:0:70:D#7.wav
320,192,65375,1,0,0:0:0:0:
64,192,65525,1,0,0:0:0:70:A#6.wav
192,192,65675,1,0,0:0:0:70:D#7.wav
320,192,65825,1,0,0:0:0:70:F7.wav
64,192,65975,1,0,0:0:0:70:D#7.wav
192,192,66125,1,0,0:0:0:70:A#6.wav
64,192,66275,1,0,0:0:0:70:D#7.wav
448,192,66425,1,0,0:0:0:70:A#7.wav
192,192,66575,1,0,0:0:0:70:D#7.wav
320,192,66575,1,0,0:0:0:0:
64,192,66725,1,0,0:0:0:70:A#6.wav
320,192,66875,1,0,0:0:0:70:D#7.wav
448,192,67025,1,0,0:0:0:70:A#7.wav
192,192,67175,1,0,0:0:0:70:D#7.wav
64,192,67325,1,0,0:0:0:70:A#6.wav
448,192,67475,1,0,0:0:0:70:D#7.wav
320,192,67550,1,0,0:0:0:0:
64,192,67625,1,0,0:0:0:70:A#7.wav
192,192,67700,1,0,0:0:0:0:
64,192,67775,1,0,0:0:0:80:crash.wav
320,192,67775,1,0,0:0:0:80:kick.wav
448,192,67775,1,0,0:0:0:70:D#6.wav
192,192,67925,1,0,0:0:0:0:
448,192,68075,1,0,0:0:0:80:kick.wav
192,192,68225,1,0,0:0:0:70:G6.wav
320,192,68225,1,0,0:0:0:70:A#6.wav
64,192,68375,1,0,0:0:0:80:kick.wav
192,192,68525,1,0,0:0:0:0:
320,192,68675,1,0,0:0:0:80:kick.wav
448,192,68675,1,0,0:0:0:70:A#6.wav
64,192,68825,1,0,0:0:0:80:snare.wav
448,192,68825,1,0,0:0:0:0:
192,192,68975,1,0,0:0:0:80:kick.wav
320,192,68975,1,0,0:0:0:70:A#6.wav
64,192,69125,1,0,0:0:0:70:A#6.wav
320,192,69125,1,0,0:0:0:70:D#7.wav
192,192,69275,1,0,0:0:0:80:kick.wav
320,192,69275,1,0,0:0:0:70:A#6.wav
320,192,69425,1,0,0:0:0:70:A#6.wav
448,192,69425,1,0,0:0:0:70:G7.wav
64,192,69575,1,0,0:0:0:80:kick.wav
192,192,69575,1,0,0:0:0:70:F7.wav
448,192,69725,1,0,0:0:0:70:D#7.wav
64,192,69800,1,0,0:0:0:70:D7.wav
448,192,69875,1,0,0:0:0:80:kick.wav
64,192,69950,1,0,0:0:0:70:D7.wav
192,192,70025,1,0,0:0:0:70:A#6.wav
448,192,70100,1,0,0:0:0:70:G6.wav
192,192,70175,1,0,0:0:0:80:kick.wav
320,192,70175,1,0,0:0:0:70:D6.wav
448,192,70325,1,0,0:0:0:0:
64,192,70475,1,0,0:0:0:80:kick.wav
192,192,70475,1,0,0:0:0:70:C6.wav
64,192,70625,1,0,0:0:0:70:C6.wav
192,192,70625,1,0,0:0:0:70:D#6.wav
448,192,70775,1,0,0:0:0:80:kick.wav
64,192,70925,1,0,0:0:0:70:D6.wav
320,192,70925,1,0,0:0:0:70:F6.wav
192,192,71075,1,0,0:0:0:80:kick.wav
64,192,71225,1,0,0:0:0:80:snare.wav
448,192,71225,1,0,0:0:0:70:D6.wav
320,192,71375,1,0,0:0:0:80:kick.wav
64,192,71525,1,0,0:0:0:70:D#6.wav
192,192,71525,1,0,0:0:0:0:
192,192,71675,1,0,0:0:0:80:kick.wav
320,192,71675,1,0,0:0:0:70:F6.wav
320,192,71825,1,0,0:0:0:70:G6.wav
448,192,71825,1,0,0:0:0:0:
192,192,71975,1,0,0:0:0:80:kick.wav
64,192,72125,1,0,0:0:0:70:D#6.wav
320,192,72125,1,0,0:0:0:70:G6.wav
192,192,72275,1,0,0:0:0:80:kick.wav
448,192,72275,1,0,0:0:0:70:F6.wav
320,192,72425,1,0,0:0:0:70:G6.wav
448,192,72425,1,0,0:0:0:70:A#6.wav
64,192,72575,1,0,0:0:0:80:crash.wav
192,192,72575,1,0,0:0:0:80:kick.wav
320,192,72575,1,0,0:0:0:70:D#6.wav
448,192,72725,1,0,0:0:0:0:
64,192,72875,1,0,0:0:0:80:kick.wav
192,192,73025,1,0,0:0:0:70:G6.wav
320,192,73025,1,0,0:0:0:70:A#6.wav
448,192,73175,1,0,0:0:0:80:kick.wav
192,192,73325,1,0,0:0:0:0:
320,192,73475,1,0,0:0:0:80:kick.wav
448,192,73475,1,0,0:0:0:70:A#6.wav
64,192,73625,1,0,0:0:0:80:snare.wav
448,192,73625,1,0,0:0:0:0:
192,192,73775,1,0,0:0:0:80:kick.wav
320,192,73775,1,0,0:0:0:70:A#6.wav
64,192,73925,1,0,0:0:0:70:A#6.wav
320,192,73925,1,0,0:0:0:70:D#7.wav
192,192,74075,1,0,0:0:0:80:kick.wav
320,192,74075,1,0,0:0:0:70:A#6.wav
320,192,74225,1,0,0:0:0:70:A#6.wav
448,192,74225,1,0,0:0:0:70:G7.wav
64,192,74375,1,0,0:0:0:80:kick.wav
192,192,74375,1,0,0:0:0:70:F7.wav
448,192,74525,1,0,0:0:0:70:D#7.wav
64,192,74600,1,0,0:0:0:70:D7.wav
448,192,74675,1,0,0:0:0:80:kick.wav
64,192,74750,1,0,0:0:0:70:D7.wav
192,192,74825,1,0,0:0:0:70:A#6.wav
448,192,74900,1,0,0:0:0:70:G6.wav
192,192,74975,1,0,0:0:0:80:kick.wav
320,192,74975,1,0,0:0:0:70:D6.wav
64,192,75125,1,0,0:0:0:70:D#6.wav
320,192,75125,1,0,0:0:0:0:
448,192,75275,1,0,0:0:0:80:kick.wav
192,192,75425,1,0,0:0:0:70:F6.wav
320,192,75425,1,0,0:0:0:0:
64,192,75575,1,0,0:0:0:80:kick.wav
192,192,75725,1,0,0:0:0:70:F#6.wav
448,192,75725,1,0,0:0:0:0:
320,192,75875,1,0,0:0:0:80:kick.wav
64,192,76025,1,0,0:0:0:80:snare.wav
448,192,76025,1,0,0:0:0:70:G6.wav
64,192,76175,1,0,0:0:0:80:crash.wav
320,192,76175,1,0,0:0:0:80:kick.wav
448,192,76175,1,0,0:0:0:70:D7.wav
192,192,76250,1,0,0:0:0:70:D#7.wav
320,192,76325,1,0,0:0:0:70:D7.wav
64,192,76400,1,0,0:0:0:70:A#6.wav
192,192,76475,1,0,0:0:0:70:F6.wav
448,192,76550,1,0,0:0:0:70:G6.wav
320,192,76625,1,0,0:0:0:70:F6.wav
192,192,76700,1,0,0:0:0:70:D#6.wav
64,192,76775,1,0,0:0:0:70:D6.wav
320,192,76850,1,0,0:0:0:70:D#6.wav
448,192,76925,1,0,0:0:0:70:F6.wav
192,192,77000,1,0,0:0:0:70:D#6.wav
320,192,77075,1,0,0:0:0:50:snare.wav
64,192,77150,1,0,0:0:0:60:snare.wav
192,192,77225,1,0,0:0:0:70:snare.wav
448,192,77225,1,0,0:0:0:70:F6.wav
320,192,77300,1,0,0:0:0:80:snare.wav
64,192,77375,1,0,0:0:0:80:crash.wav
192,192,77375,1,0,0:0:0:80:kick.wav
448,192,77375,1,0,0:0:0:70:D#6.wav
320,192,77525,1,0,0:0:0:80:kick.wav
64,192,77675,1,0,0:0:0:80:snare.wav
448,192,77675,1,0,0:0:0:0:
192,192,77825,1,0,0:0:0:80:kick.wav
320,192,77825,1,0,0:0:0:70:G6.wav
448,192,77975,1,0,0:0:0:80:kick.wav
192,192,78125,1,0,0:0:0:80:kick.wav
64,192,78275,1,0,0:0:0:80:snare.wav
448,192,78275,1,0,0:0:0:70:A#6.wav
320,192,78425,1,0,0:0:0:80:kick.wav
64,192,78575,1,0,0:0:0:80:kick.wav
192,192,78575,1,0,0:0:0:70:A#6.wav
64,192,78725,1,0,0:0:0:80:kick.wav
320,192,78725,1,0,0:0:0:70:A#6.wav
64,192,78875,1,0,0:0:0:80:snare.wav
448,192,78875,1,0,0:0:0:70:A#6.wav
64,192,79025,1,0,0:0:0:80:kick.wav
192,192,79025,1,0,0:0:0:70:A#6.wav
320,192,79175,1,0,0:0:0:80:kick.wav
448,192,79175,1,0,0:0:0:70:F7.wav
192,192,79325,1,0,0:0:0:80:kick.wav
320,192,79400,1,0,0:0:0:70:D7.wav
64,192,79475,1,0,0:0:0:80:snare.wav
448,192,79475,1,0,0:0:0:70:D#7.wav
192,192,79550,1,0,0:0:0:70:D7.wav
320,192,79625,1,0,0:0:0:80:kick.wav
64,192,79700,1,0,0:0:0:70:G6.wav
192,192,79775,1,0,0:0:0:80:crash.wav
320,192,79775,1,0,0:0:0:80:kick.wav
448,192,79775,1,0,0:0:0:70:D6.wav
192,192,79925,1,0,0:0:0:80:kick.wav
64,192,80075,1,0,0:0:0:80:snare.wav
448,192,80075,1,0,0:0:0:70:C6.wav
64,192,80225,1,0,0:0:0:80:kick.wav
192,192,80225,1,0,0:0:0:70:C6.wav
448,192,80375,1,0,0:0:0:80:kick.wav
192,192,80525,1,0,0:0:0:80:kick.wav
320,192,80525,1,0,0:0:0:70:D6.wav
64,192,80675,1,0,0:0:0:80:snare.wav
448,192,80675,1,0,0:0:0:0:
192,192,80825,1,0,0:0:0:80:kick.wav
320,192,80825,1,0,0:0:0:70:D6.wav
448,192,80975,1,0,0:0:0:80:kick.wav
64,192,81125,1,0,0:0:0:80:kick.wav
192,192,81125,1,0,0:0:0:70:D#6.wav
64,192,81275,1,0,0:0:0:80:snare.wav
448,192,81275,1,0,0:0:0:70:F6.wav
320,192,81425,1,0,0:0:0:80:kick.wav
448,192,81425,1,0,0:0:0:70:G6.wav
192,192,81575,1,0,0:0:0:80:kick.wav
64,192,81725,1,0,0:0:0:80:kick.wav
320,192,81725,1,0,0:0:0:70:D#6.wav
64,192,81875,1,0,0:0:0:80:snare.wav
448,192,81875,1,0,0:0:0:70:F6.wav
192,192,82025,1,0,0:0:0:80:kick.wav
448,192,82025,1,0,0:0:0:70:G6.wav
64,192,82175,1,0,0:0:0:80:crash.wav
320,192,82175,1,0,0:0:0:80:snare.wav
448,192,82175,1,0,0:0:0:70:G6.wav
64,192,82325,1,0,0:0:0:80:snare.wav
192,192,82325,1,0,0:0:0:70:G#6.wav
320,192,82400,1,0,0:0:0:70:G6.wav
448,192,82400,1,0,0:0:0:0:
64,192,82475,1,0,0:0:0:80:snare.wav
192,192,82475,1,0,0:0:0:70:D#6.wav
320,192,82625,1,0,0:0:0:80:snare.wav
448,192,82625,1,0,0:0:0:70:G6.wav
192,192,82775,1,0,0:0:0:80:snare.wav
320,192,82775,1,0,0:0:0:70:G#6.wav
64,192,82925,1,0,0:0:0:80:snare.wav
192,192,82925,1,0,0:0:0:70:D#6.wav
320,192,83075,1,0,0:0:0:80:snare.wav
448,192,83075,1,0,0:0:0:70:G6.wav
192,192,83225,1,0,0:0:0:80:snare.wav
320,192,83225,1,0,0:0:0:70:G#6.wav
64,192,83375,1,0,0:0:0:50:snare.wav
192,192,83375,1,0,0:0:0:70:D#6.wav
448,192,83450,1,0,0:0:0:50:snare.wav
64,192,83525,1,0,0:0:0:50:snare.wav
320,192,83525,1,0,0:0:0:70:G6.wav
192,192,83600,1,0,0:0:0:50:snare.wav
320,192,83675,1,0,0:0:0:80:snare.wav
448,192,83675,1,0,0:0:0:70:G#6.wav
64,192,83750,1,0,0:0:0:80:snare.wav
192,192,83750,1,0,0:0:0:70:G6.wav
320,192,83825,1,0,0:0:0:80:snare.wav
448,192,83825,1,0,0:0:0:70:D#6.wav
64,192,83900,1,0,0:0:0:80:snare.wav
192,192,83975,1,0,0:0:0:70:snare.wav
448,192,83975,1,0,0:0:0:70:G6.wav
320,192,84050,1,0,0:0:0:70:snare.wav
64,192,84125,1,0,0:0:0:70:snare.wav
192,192,84125,1,0,0:0:0:70:G#6.wav
320,192,84200,1,0,0:0:0:70:snare.wav
448,192,84200,1,0,0:0:0:70:G6.wav
64,192,84275,1,0,0:0:0:80:snare.wav
192,192,84275,1,0,0:0:0:70:D#6.wav
448,192,84350,1,0,0:0:0:80:snare.wav
64,192,84425,1,0,0:0:0:80:snare.wav
320,192,84425,1,0,0:0:0:70:A#5.wav
192,192,84500,1,0,0:0:0:80:snare.wav
64,192,84575,1,0,0:0:0:80:crash.wav
320,192,84575,1,0,0:0:0:80:kick.wav
448,192,84575,1,0,0:0:0:70:A#5.wav
192,192,84725,1,0,0:0:0:70:A#5.wav
320,192,84800,1,0,0:0:0:70:D#6.wav
448,192,84875,1,0,0:0:0:70:D6.wav
64,192,84950,1,0,0:0:0:70:A#5.wav
192,192,85025,1,0,0:0:0:80:crash.wav
320,192,85025,1,0,0:0:0:80:kick.wav
448,192,85025,1,0,0:0:0:70:D6.wav
64,192,85100,1,0,0:0:0:70:D#6.wav
320,192,85175,1,0,0:0:0:70:F6.wav
192,192,85250,1,0,0:0:0:70:D6.wav
448,192,85325,1,0,0:0:0:70:D#6.wav
320,192,85400,1,0,0:0:0:70:F6.wav
64,192,85475,1,0,0:0:0:80:crash.wav
192,192,85475,1,0,0:0:0:80:kick.wav
448,192,85475,1,0,0:0:0:50:snare.wav
320,192,85550,1,0,0:0:0:60:snare.wav
64,192,85625,1,0,0:0:0:70:snare.wav
448,192,85700,1,0,0:0:0:80:snare.wav
64,192,85775,1,0,0:0:0:80:crash.wav
192,192,85775,1,0,0:0:0:80:kick.wav
320,192,85775,1,0,0:0:0:70:A#6.wav
448,192,85850,1,0,0:0:0:70:F6.wav
192,192,85925,1,0,0:0:0:70:A#6.wav
320,192,86000,1,0,0:0:0:70:D#7.wav
64,192,86075,1,0,0:0:0:70:D7.wav
448,192,86150,1,0,0:0:0:70:A#6.wav
192,192,86225,1,0,0:0:0:70:D7.wav
64,192,86300,1,0,0:0:0:70:D#7.wav
448,192,86375,1,0,0:0:0:80:snare.wav
320,192,86412,1,0,0:0:0:0:
192,192,86450,1,0,0:0:0:80:snare.wav
64,192,86487,1,0,0:0:0:0:
448,192,86525,1,0,0:0:0:80:snare.wav
320,192,86562,1,0,0:0:0:0:
192,192,86600,1,0,0:0:0:80:snare.wav
64,192,86637,1,0,0:0:0:0:
320,192,86675,1,0,0:0:0:80:snare.wav
448,192,86675,1,0,0:0:0:70:D#6.wav
192,192,86750,1,0,0:0:0:80:snare.wav
64,192,86825,1,0,0:0:0:80:snare.wav
448,192,86825,1,0,0:0:0:70:F6.wav
320,192,86900,1,0,0:0:0:80:snare.wav
64,192,86975,1,0,0:0:0:80:crash.wav
192,192,86975,1,0,0:0:0:80:kick.wav
448,192,86975,1,0,0:0:0:70:G6.wav
320,192,87125,1,0,0:0:0:70:C6.wav
64,192,87275,1,0,0:0:0:80:snare.wav
320,192,87275,1,0,0:0:0:70:C6.wav
192,192,87350,1,0,0:0:0:70:D#6.wav
64,192,87425,1,0,0:0:0:70:G6.wav
448,192,87500,1,0,0:0:0:70:A#6.wav
192,192,87575,1,0,0:0:0:80:kick.wav
320,192,87575,1,0,0:0:0:70:G6.wav
64,192,87725,1,0,0:0:0:80:kick.wav
320,192,87800,1,0,0:0:0:70:G6.wav
64,192,87875,1,0,0:0:0:80:snare.wav
192,192,87875,1,0,0:0:0:70:G#6.wav
320,192,87950,1,0,0:0:0:70:G6.wav
448,192,88025,1,0,0:0:0:70:D#6.wav
64,192,88100,1,0,0:0:0:70:C6.wav
192,192,88175,1,0,0:0:0:80:kick.wav
320,192,88175,1,0,0:0:0:70:D6.wav
448,192,88325,1,0,0:0:0:80:kick.wav
320,192,88400,1,0,0:0:0:70:D6.wav
64,192,88475,1,0,0:0:0:80:snare.wav
192,192,88475,1,0,0:0:0:70:D#6.wav
320,192,88550,1,0,0:0:0:70:D6.wav
448,192,88625,1,0,0:0:0:70:D#6.wav
64,192,88700,1,0,0:0:0:70:F6.wav
192,192,88775,1,0,0:0:0:80:kick.wav
320,192,88775,1,0,0:0:0:70:A#6.wav
448,192,88850,1,0,0:0:0:70:D#7.wav
64,192,88925,1,0,0:0:0:80:kick.wav
320,192,89000,1,0,0:0:0:70:A#6.wav
64,192,89075,1,0,0:0:0:80:snare.wav
192,192,89075,1,0,0:0:0:70:F6.wav
320,192,89150,1,0,0:0:0:70:D#6.wav
448,192,89225,1,0,0:0:0:80:kick.wav
192,192,89300,1,0,0:0:0:70:D#6.wav
64,192,89375,1,0,0:0:0:80:crash.wav
320,192,89375,1,0,0:0:0:80:kick.wav
448,192,89375,1,0,0:0:0:70:D6.wav
192,192,89525,1,0,0:0:0:70:D6.wav
320,192,89600,1,0,0:0:0:70:G6.wav
64,192,89675,1,0,0:0:0:80:snare.wav
448,192,89675,1,0,0:0:0:70:B6.wav
320,192,89750,1,0,0:0:0:70:D6.wav
192,192,89825,1,0,0:0:0:70:G6.wav
64,192,89900,1,0,0:0:0:70:D7.wav
320,192,89975,1,0,0:0:0:80:kick.wav
448,192,89975,1,0,0:0:0:70:G7.wav
192,192,90050,1,0,0:0:0:70:F7.wav
320,192,90125,1,0,0:0:0:80:kick.wav
64,192,90200,1,0,0:0:0:70:D7.wav
192,192,90275,1,0,0:0:0:80:snare.wav
448,192,90275,1,0,0:0:0:70:D#7.wav
320,192,90350,1,0,0:0:0:70:D7.wav
192,192,90425,1,0,0:0:0:70:B6.wav
64,192,90500,1,0,0:0:0:70:G6.wav
320,192,90575,1,0,0:0:0:80:kick.wav
448,192,90575,1,0,0:0:0:70:C7.wav
192,192,90725,1,0,0:0:0:70:C6.wav
320,192,90800,1,0,0:0:0:70:D#6.wav
64,192,90875,1,0,0:0:0:80:snare.wav
448,192,90875,1,0,0:0:0:70:F6.wav
320,192,90950,1,0,0:0:0:70:D#6.wav
64,192,91025,1,0,0:0:0:70:F6.wav
192,192,91100,1,0,0:0:0:70:G6.wav
320,192,91175,1,0,0:0:0:80:kick.wav
448,192,91175,1,0,0:0:0:70:C7.wav
320,192,91250,1,0,0:0:0:70:C7.wav
448,192,91250,1,0,0:0:0:70:D#7.wav
64,192,91400,1,0,0:0:0:70:A#6.wav
192,192,91400,1,0,0:0:0:70:D7.wav
320,192,91475,1,0,0:0:0:80:snare.wav
448,192,91475,1,0,0:0:0:70:A#6.wav
192,192,91550,1,0,0:0:0:80:snare.wav
64,192,91625,1,0,0:0:0:80:snare.wav
448,192,91625,1,0,0:0:0:70:G6.wav
320,192,91700,1,0,0:0:0:80:snare.wav
64,192,91775,1,0,0:0:0:80:crash.wav
192,192,91775,1,0,0:0:0:80:kick.wav
448,192,91775,1,0,0:0:0:70:F6.wav
320,192,91925,1,0,0:0:0:70:F6.wav
192,192,92000,1,0,0:0:0:70:G6.wav
64,192,92075,1,0,0:0:0:80:snare.wav
320,192,92075,1,0,0:0:0:70:G#6.wav
448,192,92150,1,0,0:0:0:70:G6.wav
192,192,92225,1,0,0:0:0:70:F6.wav
64,192,92300,1,0,0:0:0:70:D#6.wav
320,192,92375,1,0,0:0:0:80:kick.wav
448,192,92375,1,0,0:0:0:70:C6.wav
192,192,92450,1,0,0:0:0:70:G#5.wav
320,192,92525,1,0,0:0:0:70:C6.wav
64,192,92600,1,0,0:0:0:70:D#6.wav
192,192,92675,1,0,0:0:0:80:snare.wav
448,192,92675,1,0,0:0:0:70:G#6.wav
320,192,92750,1,0,0:0:0:70:G6.wav
64,192,92825,1,0,0:0:0:70:G#6.wav
448,192,92900,1,0,0:0:0:70:C7.wav
64,192,92975,1,0,0:0:0:80:kick.wav
192,192,92975,1,0,0:0:0:70:G6.wav
320,192,93125,1,0,0:0:0:70:F6.wav
192,192,93200,1,0,0:0:0:70:D#6.wav
64,192,93275,1,0,0:0:0:80:snare.wav
448,192,93275,1,0,0:0:0:70:D6.wav
192,192,93350,1,0,0:0:0:70:D#6.wav
320,192,93425,1,0,0:0:0:70:F6.wav
448,192,93500,1,0,0:0:0:70:G6.wav
64,192,93575,1,0,0:0:0:80:kick.wav
192,192,93575,1,0,0:0:0:70:B6.wav
320,192,93650,1,0,0:0:0:70:G6.wav
64,192,93725,1,0,0:0:0:70:B6.wav
448,192,93800,1,0,0:0:0:70:D7.wav
64,192,93875,1,0,0:0:0:80:snare.wav
192,192,93875,1,0,0:0:0:70:G7.wav
320,192,93950,1,0,0:0:0:70:F7.wav
448,192,94025,1,0,0:0:0:70:D#7.wav
64,192,94100,1,0,0:0:0:70:D7.wav
192,192,94175,1,0,0:0:0:80:crash.wav
320,192,94175,1,0,0:0:0:80:kick.wav
448,192,94175,1,0,0:0:0:70:D#7.wav
64,192,94250,1,0,0:0:0:70:C7.wav
320,192,94325,1,0,0:0:0:70:G6.wav
192,192,94400,1,0,0:0:0:70:D#6.wav
320,192,94475,1,0,0:0:0:80:snare.wav
448,192,94475,1,0,0:0:0:70:C6.wav
64,192,94550,1,0,0:0:0:70:D#5.wav
192,192,94625,1,0,0:0:0:70:G5.wav
320,192,94700,1,0,0:0:0:70:C6.wav
64,192,94775,1,0,0:0:0:80:crash.wav
192,192,94775,1,0,0:0:0:80:kick.wav
448,192,94775,1,0,0:0:0:70:C6.wav
64,192,94850,1,0,0:0:0:70:C6.wav
192,192,94850,1,0,0:0:0:70:D#6.wav
320,192,95000,1,0,0:0:0:70:C6.wav
448,192,95000,1,0,0:0:0:70:F6.wav
64,192,95075,1,0,0:0:0:80:snare.wav
192,192,95075,1,0,0:0:0:70:C6.wav
320,192,95225,1,0,0:0:0:70:C6.wav
448,192,95225,1,0,0:0:0:70:G6.wav
64,192,95375,1,0,0:0:0:80:crash.wav
192,192,95375,1,0,0:0:0:80:kick.wav
448,192,95375,1,0,0:0:0:80:snare.wav
320,192,95450,1,0,0:0:0:70:F6.wav
64,192,95525,1,0,0:0:0:80:kick.wav
192,192,95600,1,0,0:0:0:70:G#5.wav
64,192,95675,1,0,0:0:0:80:crash.wav
320,192,95675,1,0,0:0:0:80:kick.wav
448,192,95675,1,0,0:0:0:80:snare.wav
192,192,95750,1,0,0:0:0:70:G#6.wav
320,192,95825,1,0,0:0:0:80:kick.wav
448,192,95900,1,0,0:0:0:70:C#6.wav
64,192,95975,1,0,0:0:0:80:snare.wav
192,192,95975,1,0,0:0:0:70:A#6.wav
320,192,96050,1,0,0:0:0:80:snare.wav
448,192,96050,1,0,0:0:0:70:G6.wav
64,192,96125,1,0,0:0:0:80:snare.wav
192,192,96125,1,0,0:0:0:70:D#6.wav
320,192,96200,1,0,0:0:0:80:snare.wav
64,192,96275,1,0,0:0:0:80:snare.wav
448,192,96275,1,0,0:0:0:70:D#7.wav
192,192,96350,1,0,0:0:0:80:snare.wav
320,192,96350,1,0,0:0:0:70:A#6.wav
64,192,96425,1,0,0:0:0:80:snare.wav
448,192,96425,1,0,0:0:0:70:G#6.wav
192,192,96500,1,0,0:0:0:80:snare.wav
64,192,96575,1,0,0:0:0:80:crash.wav
320,192,96575,1,0,0:0:0:80:kick.wav
448,192,96575,1,0,0:0:0:70:G6.wav
192,192,96725,1,0,0:0:0:70:C6.wav
192,192,96875,1,0,0:0:0:80:snare.wav
320,192,96875,1,0,0:0:0:70:C6.wav
64,192,96950,1,0,0:0:0:70:D#6.wav
448,192,97025,1,0,0:0:0:70:G6.wav
192,192,97100,1,0,0:0:0:70:A#6.wav
320,192,97175,1,0,0:0:0:80:kick.wav
448,192,97175,1,0,0:0:0:70:G6.wav
64,192,97325,1,0,0:0:0:80:kick.wav
192,192,97400,1,0,0:0:0:70:G6.wav
64,192,97475,1,0,0:0:0:80:snare.wav
320,192,97475,1,0,0:0:0:70:G#6.wav
192,192,97550,1,0,0:0:0:70:G6.wav
448,192,97625,1,0,0:0:0:70:D#6.wav
64,192,97700,1,0,0:0:0:70:C6.wav
192,192,97775,1,0,0:0:0:80:crash.wav
320,192,97775,1,0,0:0:0:80:kick.wav
448,192,97775,1,0,0:0:0:70:G6.wav
64,192,97925,1,0,0:0:0:80:kick.wav
64,192,98075,1,0,0:0:0:80:snare.wav
192,192,98075,1,0,0:0:0:70:B5.wav
320,192,98150,1,0,0:0:0:70:D#6.wav
448,192,98225,1,0,0:0:0:80:kick.wav
192,192,98300,1,0,0:0:0:70:G#6.wav
320,192,98375,1,0,0:0:0:80:snare.wav
448,192,98375,1,0,0:0:0:70:D#6.wav
64,192,98525,1,0,0:0:0:80:snare.wav
192,192,98600,1,0,0:0:0:80:snare.wav
448,192,98600,1,0,0:0:0:70:D#6.wav
320,192,98675,1,0,0:0:0:80:snare.wav
448,192,98750,1,0,0:0:0:80:snare.wav
64,192,98825,1,0,0:0:0:80:snare.wav
192,192,98825,1,0,0:0:0:70:D#6.wav
320,192,98900,1,0,0:0:0:80:snare.wav
64,192,98975,1,0,0:0:0:80:crash.wav
192,192,98975,1,0,0:0:0:80:kick.wav
448,192,98975,1,0,0:0:0:70:D#6.wav
320,192,99125,1,0,0:0:0:70:A#5.wav
64,192,99200,1,0,0:0:0:0:
192,192,99275,1,0,0:0:0:80:kick.wav
448,192,99275,1,0,0:0:0:70:D#6.wav
320,192,99350,1,0,0:0:0:0:
64,192,99425,1,0,0:0:0:80:crash.wav
192,192,99425,1,0,0:0:0:80:kick.wav
448,192,99425,1,0,0:0:0:70:G6.wav
192,192,99725,1,0,0:0:0:80:crash.wav
320,192,99725,1,0,0:0:0:80:kick.wav
448,192,99725,1,0,0:0:0:70:A#6.wav
64,192,100025,1,0,0:0:0:80:crash.wav
192,192,100025,1,0,0:0:0:80:kick.wav
320,192,100025,1,0,0:0:0:70:A#6.wav
192,192,100325,1,0,0:0:0:80:kick.wav
64,192,100475,1,0,0:0:0:80:snare.wav
320,192,100475,1,0,0:0:0:70:C7.wav
448,192,100475,1,0,0:0:0:0:
320,192,100625,1,0,0:0:0:70:G6.wav
64,192,100775,1,0,0:0:0:80:snare.wav
192,192,100775,1,0,0:0:0:70:E6.wav
448,192,100775,1,0,0:0:0:0:
320,192,100850,1,0,0:0:0:80:snare.wav
64,192,100925,1,0,0:0:0:80:snare.wav
192,192,101000,1,0,0:0:0:80:snare.wav
320,192,101075,1,0,0:0:0:80:snare.wav
448,192,101075,1,0,0:0:0:70:E6.wav
64,192,101150,1,0,0:0:0:80:snare.wav
192,192,101150,1,0,0:0:0:70:D6.wav
320,192,101225,1,0,0:0:0:80:snare.wav
448,192,101225,1,0,0:0:0:70:E6.wav
192,192,101300,1,0,0:0:0:80:snare.wav
64,192,101375,1,0,0:0:0:80:crash.wav
320,192,101375,1,0,0:0:0:80:kick.wav
448,192,101375,1,0,0:0:0:70:G6.wav
192,192,101525,1,0,0:0:0:70:G#6.wav
320,192,101600,1,0,0:0:0:70:G6.wav
64,192,101675,1,0,0:0:0:80:snare.wav
192,192,101675,1,0,0:0:0:70:D#6.wav
64,192,101825,1,0,0:0:0:70:G6.wav
448,192,101825,1,0,0:0:0:70:A#6.wav
320,192,101975,1,0,0:0:0:80:kick.wav
448,192,101975,1,0,0:0:0:70:G#6.wav
192,192,102125,1,0,0:0:0:70:D#6.wav
320,192,102125,1,0,0:0:0:0:
64,192,102275,1,0,0:0:0:80:snare.wav
448,192,102275,1,0,0:0:0:70:G6.wav
64,192,102425,1,0,0:0:0:70:G#6.wav
192,192,102425,1,0,0:0:0:0:
192,192,102575,1,0,0:0:0:80:kick.wav
320,192,102575,1,0,0:0:0:70:D#6.wav
64,192,102725,1,0,0:0:0:70:G6.wav
448,192,102725,1,0,0:0:0:70:A#6.wav
320,192,102875,1,0,0:0:0:80:snare.wav
448,192,102875,1,0,0:0:0:70:G#6.wav
192,192,102950,1,0,0:0:0:70:G6.wav
320,192,103025,1,0,0:0:0:70:D#6.wav
64,192,103175,1,0,0:0:0:80:kick.wav
448,192,103175,1,0,0:0:0:70:G6.wav
192,192,103325,1,0,0:0:0:70:G#6.wav
320,192,103400,1,0,0:0:0:70:G6.wav
64,192,103475,1,0,0:0:0:80:snare.wav
192,192,103475,1,0,0:0:0:70:D#6.wav
448,192,103625,1,0,0:0:0:70:A#5.wav
64,192,103775,1,0,0:0:0:80:crash.wav
320,192,103775,1,0,0:0:0:80:kick.wav
448,192,103775,1,0,0:0:0:70:D#6.wav
192,192,103850,1,0,0:0:0:70:D6.wav
320,192,103925,1,0,0:0:0:70:D#6.wav
448,192,104000,1,0,0:0:0:70:F6.wav
64,192,104075,1,0,0:0:0:80:snare.wav
192,192,104075,1,0,0:0:0:70:G6.wav
320,192,104150,1,0,0:0:0:70:F6.wav
64,192,104225,1,0,0:0:0:70:G6.wav
320,192,104300,1,0,0:0:0:70:G#6.wav
64,192,104375,1,0,0:0:0:80:crash.wav
192,192,104375,1,0,0:0:0:80:kick.wav
448,192,104375,1,0,0:0:0:70:A#6.wav
320,192,104450,1,0,0:0:0:70:G#6.wav
192,192,104525,1,0,0:0:0:70:A#6.wav
64,192,104600,1,0,0:0:0:70:C7.wav
320,192,104675,1,0,0:0:0:80:snare.wav
448,192,104675,1,0,0:0:0:70:D7.wav
192,192,104750,1,0,0:0:0:70:C7.wav
448,192,104825,1,0,0:0:0:70:D7.wav
64,192,104900,1,0,0:0:0:70:D#7.wav
192,192,104975,1,0,0:0:0:80:crash.wav
320,192,104975,1,0,0:0:0:80:kick.wav
448,192,104975,1,0,0:0:0:80:snare.wav
64,192,105050,1,0,0:0:0:70:A#6.wav
320,192,105125,1,0,0:0:0:80:kick.wav
448,192,105200,1,0,0:0:0:70:D#7.wav
64,192,105275,1,0,0:0:0:80:crash.wav
192,192,105275,1,0,0:0:0:80:kick.wav
320,192,105275,1,0,0:0:0:80:snare.wav
448,192,105350,1,0,0:0:0:70:A#7.wav
192,192,105425,1,0,0:0:0:80:kick.wav
64,192,105500,1,0,0:0:0:70:D#8.wav
320,192,105575,1,0,0:0:0:80:snare.wav
448,192,105575,1,0,0:0:0:70:F8.wav
64,192,105650,1,0,0:0:0:80:snare.wav
192,192,105650,1,0,0:0:0:70:D#8.wav
320,192,105725,1,0,0:0:0:80:snare.wav
448,192,105725,1,0,0:0:0:70:D8.wav
64,192,105800,1,0,0:0:0:80:snare.wav
192,192,105800,1,0,0:0:0:70:A#7.wav
320,192,105875,1,0,0:0:0:80:snare.wav
448,192,105875,1,0,0:0:0:70:F7.wav
192,192,105950,1,0,0:0:0:80:snare.wav
64,192,106025,1,0,0:0:0:80:snare.wav
448,192,106025,1,0,0:0:0:70:D7.wav
320,192,106100,1,0,0:0:0:80:snare.wav
64,192,106175,1,0,0:0:0:80:crash.wav
192,192,106175,1,0,0:0:0:80:kick.wav
448,192,106175,1,0,0:0:0:70:D#7.wav
320,192,106325,1,0,0:0:0:70:A#6.wav
192,192,106475,1,0,0:0:0:70:D#7.wav
320,192,106625,1,0,0:0:0:70:F7.wav
64,192,106775,1,0,0:0:0:70:D#7.wav
192,192,106925,1,0,0:0:0:70:A#6.wav
448,192,106925,1,0,0:0:0:0:
64,192,107075,1,0,0:0:0:70:D#7.wav
320,192,107225,1,0,0:0:0:70:A#7.wav
448,192,107225,1,0,0:0:0:0:
192,192,107375,1,0,0:0:0:70:D#7.wav
64,192,107525,1,0,0:0:0:70:A#6.wav
320,192,107675,1,0,0:0:0:70:D#7.wav
448,192,107825,1,0,0:0:0:70:A#7.wav
64,192,107975,1,0,0:0:0:70:D#7.wav
192,192,108125,1,0,0:0:0:70:A#6.wav
448,192,108125,1,0,0:0:0:0:
320,192,108275,1,0,0:0:0:70:D#7.wav
64,192,108425,1,0,0:0:0:70:A#7.wav
448,192,108425,1,0,0:0:0:0:
192,192,108575,1,0,0:0:0:70:D#7.wav
320,192,108575,1,0,0:0:0:0:
64,192,108725,1,0,0:0:0:70:A#6.wav
192,192,108875,1,0,0:0:0:70:D#7.wav
320,192,109025,1,0,0:0:0:70:F7.wav
64,192,109175,1,0,0:0:0:70:D#7.wav
192,192,109325,1,0,0:0:0:70:A#6.wav
64,192,109475,1,0,0:0:0:70:D#7.wav
448,192,109625,1,0,0:0:0:70:A#7.wav
320,192,109700,1,0,0:0:0:0:
64,192,109775,1,0,0:0:0:70:D#7.wav
192,192,109925,1,0,0:0:0:70:A#6.wav
320,192,110075,1,0,0:0:0:70:A#7.wav
448,192,110075,1,0,0:0:0:70:D#7.wav
448,192,110225,1,0,0:0:0:70:A#7.wav
192,192,110375,1,0,0:0:0:70:G#7.wav
320,192,110375,1,0,0:0:0:70:D#7.wav
64,192,110525,1,0,0:0:0:70:A#6.wav
192,192,110600,1,0,0:0:0:0:
320,192,110675,1,0,0:0:0:70:G7.wav
448,192,110675,1,0,0:0:0:70:D#7.wav
64,192,110750,1,0,0:0:0:0:
448,192,110825,1,0,0:0:0:70:A#7.wav
64,192,110900,1,0,0:0:0:0:
192,192,110975,1,0,0:0:0:70:D#7.wav
320,192,110975,1,0,0:0:0:0:
448,192,110975,1,0,0:0:0:0:
64,192,111125,1,0,0:0:0:70:A#6.wav
192,192,111275,1,0,0:0:0:70:D#7.wav
320,192,111425,1,0,0:0:0:70:F7.wav
64,192,111575,1,0,0:0:0:70:D#7.wav
192,192,111725,1,0,0:0:0:70:A#6.wav
64,192,111875,1,0,0:0:0:70:D#7.wav
448,192,112025,1,0,0:0:0:70:A#7.wav
192,192,112175,1,0,0:0:0:70:D#7.wav
64,192,112325,1,0,0:0:0:70:A#6.wav
320,192,112475,1,0,0:0:0:70:D#7.wav
448,192,112625,1,0,0:0:0:70:A#7.wav
192,192,112775,1,0,0:0:0:70:D#7.wav
64,192,112925,1,0,0:0:0:70:A#6.wav
320,192,113075,1,0,0:0:0:70:D#7.wav
448,192,113225,1,0,0:0:0:70:A#7.wav
192,192,113375,1,0,0:0:0:70:D#7.wav
320,192,113375,1,0,0:0:0:0:
64,192,113525,1,0,0:0:0:70:A#6.wav
192,192,113675,1,0,0:0:0:70:D#7.wav
320,192,113825,1,0,0:0:0:70:F7.wav
64,192,113975,1,0,0:0:0:70:D#7.wav
192,192,114125,1,0,0:0:0:70:A#6.wav
64,192,114275,1,0,0:0:0:70:D#7.wav
448,192,114425,1,0,0:0:0:70:A#7.wav
192,192,114575,1,0,0:0:0:70:D#7.wav
320,192,114575,1,0,0:0:0:0:
64,192,114725,1,0,0:0:0:70:A#6.wav
320,192,114875,1,0,0:0:0:70:D#7.wav
448,192,115025,1,0,0:0:0:70:A#7.wav
192,192,115175,1,0,0:0:0:70:D#7.wav
64,192,115325,1,0,0:0:0:70:A#6.wav
320,192,115475,1,0,0:0:0:70:D#7.wav
448,192,115625,1,0,0:0:0:70:A#7.wav
64,192,115775,1,0,0:0:0:80:crash.wav
192,192,115775,1,0,0:0:0:80:kick.wav
320,192,115775,1,0,0:0:0:80:snare.wav
448,192,115925,1,0,0:0:0:70:A#6.wav
192,192,116075,1,0,0:0:0:20:snare.wav
64,192,116175,1,0,0:0:0:40:snare.wav
320,192,116175,1,0,0:0:0:0:
64,192,116275,1,0,0:0:0:60:snare.wav
192,192,116275,1,0,0:0:0:0:
320,192,116375,1,0,0:0:0:80:snare.wav
448,192,116375,1,0,0:0:0:70:D#7.wav
448,192,116525,1,0,0:0:0:70:A#6.wav
192,192,116675,1,0,0:0:0:20:snare.wav
64,192,116775,1,0,0:0:0:40:snare.wav
320,192,116775,1,0,0:0:0:0:
64,192,116875,1,0,0:0:0:60:snare.wav
192,192,116875,1,0,0:0:0:0:
320,192,116975,1,0,0:0:0:80:snare.wav
448,192,116975,1,0,0:0:0:70:D#7.wav
448,192,117125,1,0,0:0:0:70:A#6.wav
192,192,117275,1,0,0:0:0:20:snare.wav
64,192,117375,1,0,0:0:0:40:snare.wav
320,192,117375,1,0,0:0:0:0:
64,192,117475,1,0,0:0:0:60:snare.wav
192,192,117475,1,0,0:0:0:0:
320,192,117575,1,0,0:0:0:80:snare.wav
448,192,117575,1,0,0:0:0:70:D#7.wav
448,192,117725,1,0,0:0:0:70:A#6.wav
64,192,117875,1,0,0:0:0:20:snare.wav
192,192,117912,1,0,0:0:0:20:snare.wav
320,192,117950,1,0,0:0:0:20:snare.wav
448,192,117987,1,0,0:0:0:20:snare.wav
64,192,118025,1,0,0:0:0:20:snare.wav
192,192,118062,1,0,0:0:0:20:snare.wav
320,192,118100,1,0,0:0:0:20:snare.wav
448,192,118137,1,0,0:0:0:20:snare.wav
64,192,118175,1,0,0:0:0:80:crash.wav
192,192,118175,1,0,0:0:0:80:kick.wav
320,192,118325,1,0,0:0:0:70:A#6.wav
192,192,118475,1,0,0:0:0:20:snare.wav
64,192,118575,1,0,0:0:0:40:snare.wav
448,192,118575,1,0,0:0:0:0:
64,192,118675,1,0,0:0:0:60:snare.wav
320,192,118675,1,0,0:0:0:0:
192,192,118775,1,0,0:0:0:80:snare.wav
448,192,118775,1,0,0:0:0:70:D#7.wav
320,192,118925,1,0,0:0:0:70:A#6.wav
192,192,119075,1,0,0:0:0:20:snare.wav
64,192,119175,1,0,0:0:0:40:snare.wav
448,192,119175,1,0,0:0:0:0:
64,192,119275,1,0,0:0:0:60:snare.wav
320,192,119275,1,0,0:0:0:0:
192,192,119375,1,0,0:0:0:80:snare.wav
448,192,119375,1,0,0:0:0:70:D#7.wav
320,192,119525,1,0,0:0:0:70:A#6.wav
192,192,119675,1,0,0:0:0:20:snare.wav
64,192,119775,1,0,0:0:0:40:snare.wav
448,192,119775,1,0,0:0:0:0:
64,192,119875,1,0,0:0:0:60:snare.wav
320,192,119875,1,0,0:0:0:0:
192,192,119975,1,0,0:0:0:80:snare.wav
448,192,119975,1,0,0:0:0:70:G#7.wav
320,192,120125,1,0,0:0:0:70:A#6.wav
64,192,120275,1,0,0:0:0:20:snare.wav
192,192,120312,1,0,0:0:0:20:snare.wav
320,192,120350,1,0,0:0:0:20:snare.wav
448,192,120387,1,0,0:0:0:20:snare.wav
64,192,120425,1,0,0:0:0:20:snare.wav
192,192,120462,1,0,0:0:0:20:snare.wav
320,192,120500,1,0,0:0:0:20:snare.wav
448,192,120537,1,0,0:0:0:20:snare.wav
64,192,120575,1,0,0:0:0:80:crash.wav
192,192,120575,1,0,0:0:0:80:kick.wav
64,192,120725,1,0,0:0:0:70:A#6.wav
320,192,120875,1,0,0:0:0:20:snare.wav
192,192,120975,1,0,0:0:0:40:snare.wav
448,192,120975,1,0,0:0:0:0:
320,192,121075,1,0,0:0:0:60:snare.wav
448,192,121075,1,0,0:0:0:0:
64,192,121175,1,0,0:0:0:80:snare.wav
192,192,121175,1,0,0:0:0:70:D#7.wav
64,192,121325,1,0,0:0:0:70:A#6.wav
320,192,121475,1,0,0:0:0:20:snare.wav
192,192,121575,1,0,0:0:0:40:snare.wav
448,192,121575,1,0,0:0:0:0:
320,192,121675,1,0,0:0:0:60:snare.wav
448,192,121675,1,0,0:0:0:0:
64,192,121775,1,0,0:0:0:80:snare.wav
192,192,121775,1,0,0:0:0:70:D#7.wav
64,192,121925,1,0,0:0:0:70:A#6.wav
320,192,122075,1,0,0:0:0:20:snare.wav
192,192,122175,1,0,0:0:0:40:snare.wav
448,192,122175,1,0,0:0:0:0:
320,192,122275,1,0,0:0:0:60:snare.wav
448,192,122275,1,0,0:0:0:0:
64,192,122375,1,0,0:0:0:80:snare.wav
192,192,122375,1,0,0:0:0:70:D#7.wav
64,192,122525,1,0,0:0:0:70:A#6.wav
448,192,122675,1,0,0:0:0:20:snare.wav
320,192,122712,1,0,0:0:0:20:snare.wav
192,192,122750,1,0,0:0:0:20:snare.wav
64,192,122787,1,0,0:0:0:20:snare.wav
448,192,122825,1,0,0:0:0:20:snare.wav
320,192,122862,1,0,0:0:0:20:snare.wav
192,192,122900,1,0,0:0:0:20:snare.wav
64,192,122937,1,0,0:0:0:20:snare.wav
320,192,122975,1,0,0:0:0:80:crash.wav
448,192,122975,1,0,0:0:0:80:kick.wav
192,192,123125,1,0,0:0:0:70:A#6.wav
320,192,123275,1,0,0:0:0:20:snare.wav
64,192,123375,1,0,0:0:0:40:snare.wav
448,192,123375,1,0,0:0:0:0:
192,192,123475,1,0,0:0:0:60:snare.wav
448,192,123475,1,0,0:0:0:0:
64,192,123575,1,0,0:0:0:80:snare.wav
320,192,123575,1,0,0:0:0:70:D#7.wav
192,192,123725,1,0,0:0:0:70:A#6.wav
448,192,123875,1,0,0:0:0:20:snare.wav
64,192,123975,1,0,0:0:0:40:snare.wav
320,192,123975,1,0,0:0:0:0:
192,192,124075,1,0,0:0:0:60:snare.wav
448,192,124075,1,0,0:0:0:0:
64,192,124175,1,0,0:0:0:80:crash.wav
320,192,124175,1,0,0:0:0:80:kick.wav
448,192,124175,1,0,0:0:0:80:snare.wav
320,192,124775,1,0,0:0:0:80:snare.wav
448,192,124775,1,0,0:0:0:70:D#8.wav
64,192,124850,1,0,0:0:0:80:snare.wav
192,192,124850,1,0,0:0:0:70:D8.wav
320,192,124925,1,0,0:0:0:80:snare.wav
448,192,124925,1,0,0:0:0:70:A#7.wav
64,192,125000,1,0,0:0:0:80:snare.wav
192,192,125000,1,0,0:0:0:70:G7.wav
320,192,125075,1,0,0:0:0:80:snare.wav
448,192,125075,1,0,0:0:0:70:D#7.wav
192,192,125150,1,0,0:0:0:80:snare.wav
64,192,125225,1,0,0:0:0:80:snare.wav
448,192,125225,1,0,0:0:0:70:A#6.wav
320,192,125300,1,0,0:0:0:80:snare.wav
64,192,125375,1,0,0:0:0:80:crash.wav
192,192,125375,1,0,0:0:0:80:kick.wav
448,192,125375,1,0,0:0:0:0:
192,192,125525,1,0,0:0:0:80:snare.wav
320,192,125525,1,0,0:0:0:0:
448,192,125525,1,0,0:0:0:0:
64,192,125675,1,0,0:0:0:80:kick.wav
320,192,125675,1,0,0:0:0:0:
64,192,125825,1,0,0:0:0:80:snare.wav
192,192,125825,1,0,0:0:0:0:
448,192,125825,1,0,0:0:0:0:
192,192,125975,1,0,0:0:0:80:kick.wav
320,192,125975,1,0,0:0:0:0:
64,192,126125,1,0,0:0:0:80:snare.wav
320,192,126125,1,0,0:0:0:0:
448,192,126125,1,0,0:0:0:0:
192,192,126275,1,0,0:0:0:80:kick.wav
448,192,126275,1,0,0:0:0:0:
64,192,126425,1,0,0:0:0:80:snare.wav
192,192,126425,1,0,0:0:0:0:
320,192,126425,1,0,0:0:0:0:
64,192,126575,1,0,0:0:0:80:kick.wav
448,192,126575,1,0,0:0:0:0:
192,192,126725,1,0,0:0:0:80:snare.wav
320,192,126725,1,0,0:0:0:0:
448,192,126725,1,0,0:0:0:0:
64,192,126875,1,0,0:0:0:80:kick.wav
320,192,126875,1,0,0:0:0:0:
64,192,127025,1,0,0:0:0:80:snare.wav
192,192,127025,1,0,0:0:0:0:
448,192,127025,1,0,0:0:0:0:
192,192,127175,1,0,0:0:0:80:kick.wav
320,192,127175,1,0,0:0:0:0:
64,192,127325,1,0,0:0:0:80:snare.wav
320,192,127325,1,0,0:0:0:0:
448,192,127325,1,0,0:0:0:0:
192,192,127475,1,0,0:0:0:80:kick.wav
448,192,127475,1,0,0:0:0:0:
64,192,127625,1,0,0:0:0:80:snare.wav
192,192,127625,1,0,0:0:0:0:
320,192,127625,1,0,0:0:0:0:
64,192,127775,1,0,0:0:0:80:kick.wav
448,192,127775,1,0,0:0:0:0:
192,192,127925,1,0,0:0:0:80:snare.wav
320,192,127925,1,0,0:0:0:0:
448,192,127925,1,0,0:0:0:0:
64,192,128075,1,0,0:0:0:80:kick.wav
320,192,128075,1,0,0:0:0:0:
64,192,128225,1,0,0:0:0:80:snare.wav
192,192,128225,1,0,0:0:0:0:
448,192,128225,1,0,0:0:0:0:
320,192,128375,1,0,0:0:0:80:kick.wav
448,192,128375,1,0,0:0:0:0:
64,192,128525,1,0,0:0:0:80:snare.wav
192,192,128525,1,0,0:0:0:0:
320,192,128525,1,0,0:0:0:0:
64,192,128675,1,0,0:0:0:80:kick.wav
448,192,128675,1,0,0:0:0:0:
192,192,128825,1,0,0:0:0:80:snare.wav
320,192,128825,1,0,0:0:0:0:
448,192,128825,1,0,0:0:0:0:
64,192,128975,1,0,0:0:0:80:kick.wav
320,192,128975,1,0,0:0:0:0:
64,192,129125,1,0,0:0:0:80:snare.wav
192,192,129125,1,0,0:0:0:0:
448,192,129125,1,0,0:0:0:0:
192,192,129275,1,0,0:0:0:80:kick.wav
320,192,129275,1,0,0:0:0:0:
64,192,129425,1,0,0:0:0:80:snare.wav
320,192,129425,1,0,0:0:0:0:
448,192,129425,1,0,0:0:0:0:
64,192,129575,1,0,0:0:0:80:kick.wav
192,192,129575,1,0,0:0:0:0:
192,192,129725,1,0,0:0:0:80:snare.wav
320,192,129725,1,0,0:0:0:0:
448,192,129725,1,0,0:0:0:0:
64,192,129875,1,0,0:0:0:80:kick.wav
448,192,129875,1,0,0:0:0:0:
192,192,130025,1,0,0:0:0:80:snare.wav
320,192,130025,1,0,0:0:0:0:
64,192,130175,1,0,0:0:0:80:crash.wav
192,192,130175,1,0,0:0:0:80:kick.wav
320,192,130175,1,0,0:0:0:0:
448,192,130175,1,0,0:0:0:0:
64,192,130325,1,0,0:0:0:80:snare.wav
448,192,130325,1,0,0:0:0:0:
192,192,130475,1,0,0:0:0:80:kick.wav
320,192,130475,1,0,0:0:0:0:
64,192,130625,1,0,0:0:0:80:snare.wav
192,192,130625,1,0,0:0:0:0:
448,192,130625,1,0,0:0:0:0:
320,192,130775,1,0,0:0:0:80:kick.wav
448,192,130775,1,0,0:0:0:0:
64,192,130925,1,0,0:0:0:80:snare.wav
192,192,130925,1,0,0:0:0:0:
320,192,130925,1,0,0:0:0:0:
64,192,131075,1,0,0:0:0:80:kick.wav
448,192,131075,1,0,0:0:0:0:
192,192,131225,1,0,0:0:0:80:snare.wav
320,192,131225,1,0,0:0:0:0:
448,192,131225,1,0,0:0:0:0:
64,192,131375,1,0,0:0:0:80:kick.wav
192,192,131375,1,0,0:0:0:0:
64,192,131525,1,0,0:0:0:80:snare.wav
320,192,131525,1,0,0:0:0:0:
448,192,131525,1,0,0:0:0:0:
192,192,131675,1,0,0:0:0:80:kick.wav
448,192,131675,1,0,0:0:0:0:
64,192,131825,1,0,0:0:0:80:snare.wav
192,192,131825,1,0,0:0:0:0:
320,192,131825,1,0,0:0:0:0:
320,192,131975,1,0,0:0:0:80:kick.wav
448,192,131975,1,0,0:0:0:0:
64,192,132125,1,0,0:0:0:80:snare.wav
192,192,132125,1,0,0:0:0:0:
448,192,132125,1,0,0:0:0:0:
64,192,132275,1,0,0:0:0:80:kick.wav
320,192,132275,1,0,0:0:0:0:
192,192,132425,1,0,0:0:0:80:snare.wav
320,192,132425,1,0,0:0:0:0:
64,192,132575,1,0,0:0:0:80:kick.wav
192,192,132575,1,0,0:0:0:0:
448,192,132575,1,0,0:0:0:0:
64,192,132725,1,0,0:0:0:80:snare.wav
320,192,132725,1,0,0:0:0:0:
448,192,132725,1,0,0:0:0:0:
64,192,132875,1,0,0:0:0:80:kick.wav
192,192,132875,1,0,0:0:0:0:
320,192,132875,1,0,0:0:0:0:
192,192,133025,1,0,0:0:0:80:snare.wav
448,192,133025,1,0,0:0:0:0:
64,192,133175,1,0,0:0:0:80:kick.wav
320,192,133175,1,0,0:0:0:0:
448,192,133175,1,0,0:0:0:0:
64,192,133325,1,0,0:0:0:80:snare.wav
192,192,133325,1,0,0:0:0:0:
320,192,133325,1,0,0:0:0:0:
64,192,133475,1,0,0:0:0:80:kick.wav
192,192,133475,1,0,0:0:0:0:
448,192,133475,1,0,0:0:0:0:
320,192,133625,1,0,0:0:0:80:snare.wav
448,192,133625,1,0,0:0:0:0:
64,192,133775,1,0,0:0:0:80:crash.wav
192,192,133775,1,0,0:0:0:80:kick.wav
320,192,133775,1,0,0:0:0:0:
448,192,133775,1,0,0:0:0:0:
64,192,133925,1,0,0:0:0:80:snare.wav
192,192,133925,1,0,0:0:0:0:
64,192,134075,1,0,0:0:0:80:crash.wav
192,192,134075,1,0,0:0:0:80:kick.wav
320,192,134075,1,0,0:0:0:0:
448,192,134075,1,0,0:0:0:0:
320,192,134225,1,0,0:0:0:80:snare.wav
448,192,134225,1,0,0:0:0:0:
64,192,134375,1,0,0:0:0:80:snare.wav
192,192,134375,1,0,0:0:0:0:
320,192,134450,1,0,0:0:0:80:snare.wav
448,192,134450,1,0,0:0:0:0:
64,192,134525,1,0,0:0:0:80:snare.wav
192,192,134525,1,0,0:0:0:0:
320,192,134600,1,0,0:0:0:80:snare.wav
448,192,134600,1,0,0:0:0:0:
64,192,134675,1,0,0:0:0:80:snare.wav
192,192,134675,1,0,0:0:0:0:
320,192,134750,1,0,0:0:0:80:snare.wav
64,192,134825,1,0,0:0:0:80:snare.wav
448,192,134825,1,0,0:0:0:0:
192,192,134900,1,0,0:0:0:80:snare.wav
64,192,134975,1,0,0:0:0:80:crash.wav
320,192,134975,1,0,0:0:0:80:kick.wav
448,192,134975,1,0,0:0:0:0:
64,192,135125,1,0,0:0:0:80:snare.wav
192,192,135125,1,0,0:0:0:0:
448,192,135125,1,0,0:0:0:0:
192,192,135275,1,0,0:0:0:80:kick.wav
320,192,135275,1,0,0:0:0:0:
64,192,135425,1,0,0:0:0:80:snare.wav
320,192,135425,1,0,0:0:0:0:
448,192,135425,1,0,0:0:0:0:
192,192,135575,1,0,0:0:0:80:kick.wav
448,192,135575,1,0,0:0:0:0:
64,192,135725,1,0,0:0:0:80:snare.wav
192,192,135725,1,0,0:0:0:0:
320,192,135725,1,0,0:0:0:0:
64,192,135875,1,0,0:0:0:80:kick.wav
448,192,135875,1,0,0:0:0:0:
192,192,136025,1,0,0:0:0:80:snare.wav
320,192,136025,1,0,0:0:0:0:
448,192,136025,1,0,0:0:0:0:
64,192,136175,1,0,0:0:0:80:kick.wav
320,192,136175,1,0,0:0:0:0:
64,192,136325,1,0,0:0:0:80:snare.wav
192,192,136325,1,0,0:0:0:0:
448,192,136325,1,0,0:0:0:0:
320,192,136475,1,0,0:0:0:80:kick.wav
448,192,136475,1,0,0:0:0:0:
64,192,136625,1,0,0:0:0:80:snare.wav
192,192,136625,1,0,0:0:0:0:
320,192,136625,1,0,0:0:0:0:
192,192,136775,1,0,0:0:0:80:kick.wav
448,192,136775,1,0,0:0:0:0:
64,192,136925,1,0,0:0:0:80:snare.wav
320,192,136925,1,0,0:0:0:0:
448,192,136925,1,0,0:0:0:0:
64,192,137075,1,0,0:0:0:80:kick.wav
192,192,137075,1,0,0:0:0:0:
192,192,137225,1,0,0:0:0:80:snare.wav
320,192,137225,1,0,0:0:0:0:
448,192,137225,1,0,0:0:0:0:
64,192,137375,1,0,0:0:0:80:kick.wav
448,192,137375,1,0,0:0:0:0:
64,192,137525,1,0,0:0:0:80:snare.wav
192,192,137525,1,0,0:0:0:0:
320,192,137525,1,0,0:0:0:0:
192,192,137675,1,0,0:0:0:80:kick.wav
448,192,137675,1,0,0:0:0:0:
64,192,137825,1,0,0:0:0:80:snare.wav
320,192,137825,1,0,0:0:0:0:
448,192,137825,1,0,0:0:0:0:
64,192,137975,1,0,0:0:0:80:kick.wav
192,192,137975,1,0,0:0:0:0:
192,192,138125,1,0,0:0:0:80:snare.wav
320,192,138125,1,0,0:0:0:0:
448,192,138125,1,0,0:0:0:0:
320,192,138275,1,0,0:0:0:80:kick.wav
448,192,138275,1,0,0:0:0:0:
64,192,138425,1,0,0:0:0:80:snare.wav
192,192,138425,1,0,0:0:0:0:
64,192,138575,1,0,0:0:0:80:crash.wav
192,192,138575,1,0,0:0:0:80:kick.wav
320,192,138575,1,0,0:0:0:0:
448,192,138575,1,0,0:0:0:0:
320,192,138725,1,0,0:0:0:80:snare.wav
448,192,138725,1,0,0:0:0:0:
64,192,138875,1,0,0:0:0:80:crash.wav
192,192,138875,1,0,0:0:0:80:kick.wav
320,192,138875,1,0,0:0:0:0:
448,192,138875,1,0,0:0:0:0:
64,192,139025,1,0,0:0:0:80:snare.wav
192,192,139025,1,0,0:0:0:0:
320,192,139175,1,0,0:0:0:80:snare.wav
448,192,139175,1,0,0:0:0:0:
192,192,139250,1,0,0:0:0:80:snare.wav
320,192,139325,1,0,0:0:0:80:snare.wav
448,192,139325,1,0,0:0:0:0:
192,192,139400,1,0,0:0:0:80:snare.wav
64,192,139475,1,0,0:0:0:80:snare.wav
448,192,139475,1,0,0:0:0:0:
320,192,139550,1,0,0:0:0:80:snare.wav
64,192,139625,1,0,0:0:0:80:snare.wav
192,192,139625,1,0,0:0:0:0:
320,192,139700,1,0,0:0:0:80:snare.wav
64,192,139775,1,0,0:0:0:80:crash.wav
192,192,139775,1,0,0:0:0:80:snare.wav
448,192,139775,1,0,0:0:0:0:
64,192,139925,1,0,0:0:0:80:snare.wav
320,192,139925,1,0,0:0:0:0:
448,192,139925,1,0,0:0:0:0:
192,192,140075,1,0,0:0:0:80:snare.wav
320,192,140075,1,0,0:0:0:0:
64,192,140225,1,0,0:0:0:80:snare.wav
192,192,140225,1,0,0:0:0:0:
448,192,140225,1,0,0:0:0:0:
64,192,140375,1,0,0:0:0:80:snare.wav
320,192,140375,1,0,0:0:0:0:
448,192,140375,1,0,0:0:0:0:
192,192,140525,1,0,0:0:0:80:snare.wav
320,192,140525,1,0,0:0:0:0:
64,192,140675,1,0,0:0:0:80:snare.wav
192,192,140675,1,0,0:0:0:0:
448,192,140675,1,0,0:0:0:0:
64,192,140825,1,0,0:0:0:80:snare.wav
320,192,140825,1,0,0:0:0:0:
448,192,140825,1,0,0:0:0:0:
192,192,140975,1,0,0:0:0:80:snare.wav
320,192,140975,1,0,0:0:0:0:
448,192,141050,1,0,0:0:0:80:snare.wav
64,192,141125,1,0,0:0:0:80:snare.wav
320,192,141125,1,0,0:0:0:0:
192,192,141200,1,0,0:0:0:80:snare.wav
64,192,141275,1,0,0:0:0:80:snare.wav
448,192,141275,1,0,0:0:0:0:
192,192,141350,1,0,0:0:0:80:snare.wav
320,192,141425,1,0,0:0:0:80:snare.wav
448,192,141425,1,0,0:0:0:0:
64,192,141500,1,0,0:0:0:80:snare.wav
192,192,141575,1,0,0:0:0:80:snare.wav
448,192,141575,1,0,0:0:0:0:
320,192,141650,1,0,0:0:0:80:snare.wav
64,192,141725,1,0,0:0:0:80:snare.wav
448,192,141725,1,0,0:0:0:0:
320,192,141800,1,0,0:0:0:80:snare.wav
64,192,141875,1,0,0:0:0:80:snare.wav
192,192,141875,1,0,0:0:0:0:
448,192,141950,1,0,0:0:0:80:snare.wav
64,192,142025,1,0,0:0:0:80:snare.wav
320,192,142025,1,0,0:0:0:0:
192,192,142100,1,0,0:0:0:80:snare.wav
64,192,142175,1,0,0:0:0:80:crash.wav
320,192,142175,1,0,0:0:0:80:kick.wav
448,192,142175,1,0,0:0:0:0:
64,192,142325,1,0,0:0:0:80:kick.wav
192,192,142325,1,0,0:0:0:0:
320,192,142475,1,0,0:0:0:80:kick.wav
448,192,142475,1,0,0:0:0:0:
64,192,142625,1,0,0:0:0:80:crash.wav
192,192,142625,1,0,0:0:0:80:kick.wav
448,192,142625,1,0,0:0:0:0:
64,192,142775,1,0,0:0:0:80:kick.wav
320,192,142775,1,0,0:0:0:0:
192,192,142925,1,0,0:0:0:80:kick.wav
448,192,142925,1,0,0:0:0:0:
64,192,143075,1,0,0:0:0:80:crash.wav
320,192,143075,1,0,0:0:0:80:kick.wav
448,192,143075,1,0,0:0:0:0:
64,192,143225,1,0,0:0:0:80:snare.wav
192,192,143225,1,0,0:0:0:0:
320,192,143300,1,0,0:0:0:80:snare.wav
64,192,143375,1,0,0:0:0:80:crash.wav
192,192,143375,1,0,0:0:0:80:kick.wav
448,192,143375,1,0,0:0:0:0:
320,192,143525,1,0,0:0:0:0:
448,192,143525,1,0,0:0:0:0:
64,192,143675,1,0,0:0:0:0:
448,192,143675,1,0,0:0:0:0:
64,192,143825,1,0,0:0:0:0:
192,192,143825,1,0,0:0:0:0:
448,192,143975,1,0,0:0:0:80:snare.wav
320,192,144012,1,0,0:0:0:0:
192,192,144050,1,0,0:0:0:80:snare.wav
64,192,144087,1,0,0:0:0:0:
448,192,144125,1,0,0:0:0:80:snare.wav
320,192,144162,1,0,0:0:0:0:
192,192,144200,1,0,0:0:0:80:snare.wav
64,192,144237,1,0,0:0:0:0:
320,192,144275,1,0,0:0:0:80:snare.wav
448,192,144275,1,0,0:0:0:70:D#6.wav
192,192,144350,1,0,0:0:0:80:snare.wav
64,192,144425,1,0,0:0:0:80:snare.wav
448,192,144425,1,0,0:0:0:70:F6.wav
320,192,144500,1,0,0:0:0:80:snare.wav
64,192,144575,1,0,0:0:0:80:crash.wav
192,192,144575,1,0,0:0:0:80:kick.wav
448,192,144575,1,0,0:0:0:70:G6.wav
320,192,144725,1,0,0:0:0:70:C6.wav
64,192,144875,1,0,0:0:0:80:snare.wav
320,192,144875,1,0,0:0:0:70:C6.wav
192,192,144950,1,0,0:0:0:70:D#6.wav
64,192,145025,1,0,0:0:0:70:G6.wav
448,192,145100,1,0,0:0:0:70:A#6.wav
192,192,145175,1,0,0:0:0:80:kick.wav
320,192,145175,1,0,0:0:0:70:G6.wav
64,192,145325,1,0,0:0:0:80:kick.wav
320,192,145400,1,0,0:0:0:70:G6.wav
64,192,145475,1,0,0:0:0:80:snare.wav
192,192,145475,1,0,0:0:0:70:G#6.wav
320,192,145550,1,0,0:0:0:70:G6.wav
448,192,145625,1,0,0:0:0:70:D#6.wav
64,192,145700,1,0,0:0:0:70:C6.wav
192,192,145775,1,0,0:0:0:80:kick.wav
320,192,145775,1,0,0:0:0:70:D6.wav
448,192,145925,1,0,0:0:0:80:kick.wav
320,192,146000,1,0,0:0:0:70:D6.wav
64,192,146075,1,0,0:0:0:80:snare.wav
192,192,146075,1,0,0:0:0:70:D#6.wav
320,192,146150,1,0,0:0:0:70:D6.wav
448,192,146225,1,0,0:0:0:70:D#6.wav
64,192,146300,1,0,0:0:0:70:F6.wav
192,192,146375,1,0,0:0:0:80:kick.wav
320,192,146375,1,0,0:0:0:70:A#6.wav
448,192,146450,1,0,0:0:0:70:D#7.wav
64,192,146525,1,0,0:0:0:80:kick.wav
320,192,146600,1,0,0:0:0:70:A#6.wav
64,192,146675,1,0,0:0:0:80:snare.wav
192,192,146675,1,0,0:0:0:70:F6.wav
320,192,146750,1,0,0:0:0:70:D#6.wav
448,192,146825,1,0,0:0:0:80:kick.wav
192,192,146900,1,0,0:0:0:70:D#6.wav
64,192,146975,1,0,0:0:0:80:crash.wav
320,192,146975,1,0,0:0:0:80:kick.wav
448,192,146975,1,0,0:0:0:70:D6.wav
192,192,147125,1,0,0:0:0:70:D6.wav
320,192,147200,1,0,0:0:0:70:G6.wav
64,192,147275,1,0,0:0:0:80:snare.wav
448,192,147275,1,0,0:0:0:70:B6.wav
320,192,147350,1,0,0:0:0:70:D6.wav
192,192,147425,1,0,0:0:0:70:G6.wav
64,192,147500,1,0,0:0:0:70:D7.wav
320,192,147575,1,0,0:0:0:80:kick.wav
448,192,147575,1,0,0:0:0:70:G7.wav
192,192,147650,1,0,0:0:0:70:F7.wav
320,192,147725,1,0,0:0:0:80:kick.wav
64,192,147800,1,0,0:0:0:70:D7.wav
192,192,147875,1,0,0:0:0:80:snare.wav
448,192,147875,1,0,0:0:0:70:D#7.wav
320,192,147950,1,0,0:0:0:70:D7.wav
192,192,148025,1,0,0:0:0:70:B6.wav
64,192,148100,1,0,0:0:0:70:G6.wav
320,192,148175,1,0,0:0:0:80:kick.wav
448,192,148175,1,0,0:0:0:70:C7.wav
192,192,148325,1,0,0:0:0:70:C6.wav
320,192,148400,1,0,0:0:0:70:D#6.wav
64,192,148475,1,0,0:0:0:80:snare.wav
448,192,148475,1,0,0:0:0:70:F6.wav
320,192,148550,1,0,0:0:0:70:D#6.wav
64,192,148625,1,0,0:0:0:70:F6.wav
192,192,148700,1,0,0:0:0:70:G6.wav
320,192,148775,1,0,0:0:0:80:kick.wav
448,192,148775,1,0,0:0:0:70:C7.wav
320,192,148850,1,0,0:0:0:70:C7.wav
448,192,148850,1,0,0:0:0:70:D#7.wav
64,192,149000,1,0,0:0:0:70:A#6.wav
192,192,149000,1,0,0:0:0:70:D7.wav
320,192,149075,1,0,0:0:0:80:snare.wav
448,192,149075,1,0,0:0:0:70:A#6.wav
192,192,149150,1,0,0:0:0:80:snare.wav
64,192,149225,1,0,0:0:0:80:snare.wav
448,192,149225,1,0,0:0:0:70:G6.wav
320,192,149300,1,0,0:0:0:80:snare.wav
64,192,149375,1,0,0:0:0:80:crash.wav
192,192,149375,1,0,0:0:0:80:kick.wav
448,192,149375,1,0,0:0:0:70:F6.wav
320,192,149525,1,0,0:0:0:70:F6.wav
192,192,149600,1,0,0:0:0:70:G6.wav
64,192,149675,1,0,0:0:0:80:snare.wav
320,192,149675,1,0,0:0:0:70:G#6.wav
448,192,149750,1,0,0:0:0:70:G6.wav
192,192,149825,1,0,0:0:0:70:F6.wav
64,192,149900,1,0,0:0:0:70:D#6.wav
320,192,149975,1,0,0:0:0:80:kick.wav
448,192,149975,1,0,0:0:0:70:C6.wav
192,192,150050,1,0,0:0:0:70:G#5.wav
320,192,150125,1,0,0:0:0:70:C6.wav
64,192,150200,1,0,0:0:0:70:D#6.wav
192,192,150275,1,0,0:0:0:80:snare.wav
448,192,150275,1,0,0:0:0:70:G#6.wav
320,192,150350,1,0,0:0:0:70:G6.wav
64,192,150425,1,0,0:0:0:70:G#6.wav
448,192,150500,1,0,0:0:0:70:C7.wav
64,192,150575,1,0,0:0:0:80:kick.wav
192,192,150575,1,0,0:0:0:70:G6.wav
320,192,150725,1,0,0:0:0:70:F6.wav
192,192,150800,1,0,0:0:0:70:D#6.wav
64,192,150875,1,0,0:0:0:80:snare.wav
448,192,150875,1,0,0:0:0:70:D6.wav
192,192,150950,1,0,0:0:0:70:D#6.wav
320,192,151025,1,0,0:0:0:70:F6.wav
448,192,151100,1,0,0:0:0:70:G6.wav
64,192,151175,1,0,0:0:0:80:kick.wav
192,192,151175,1,0,0:0:0:70:B6.wav
320,192,151250,1,0,0:0:0:70:G6.wav
64,192,151325,1,0,0:0:0:70:B6.wav
448,192,151400,1,0,0:0:0:70:D7.wav
64,192,151475,1,0,0:0:0:80:snare.wav
192,192,151475,1,0,0:0:0:70:G7.wav
320,192,151550,1,0,0:0:0:70:F7.wav
448,192,151625,1,0,0:0:0:70:D#7.wav
64,192,151700,1,0,0:0:0:70:D7.wav
192,192,151775,1,0,0:0:0:80:crash.wav
320,192,151775,1,0,0:0:0:80:kick.wav
448,192,151775,1,0,0:0:0:70:D#7.wav
64,192,151850,1,0,0:0:0:70:C7.wav
320,192,151925,1,0,0:0:0:70:G6.wav
192,192,152000,1,0,0:0:0:70:D#6.wav
320,192,152075,1,0,0:0:0:80:snare.wav
448,192,152075,1,0,0:0:0:70:C6.wav
64,192,152150,1,0,0:0:0:70:D#5.wav
192,192,152225,1,0,0:0:0:70:G5.wav
320,192,152300,1,0,0:0:0:70:C6.wav
64,192,152375,1,0,0:0:0:80:crash.wav
192,192,152375,1,0,0:0:0:80:kick.wav
448,192,152375,1,0,0:0:0:70:C6.wav
64,192,152450,1,0,0:0:0:70:C6.wav
192,192,152450,1,0,0:0:0:70:D#6.wav
320,192,152600,1,0,0:0:0:70:C6.wav
448,192,152600,1,0,0:0:0:70:F6.wav
64,192,152675,1,0,0:0:0:80:snare.wav
192,192,152675,1,0,0:0:0:70:C6.wav
320,192,152825,1,0,0:0:0:70:C6.wav
448,192,152825,1,0,0:0:0:70:G6.wav
64,192,152975,1,0,0:0:0:80:crash.wav
192,192,152975,1,0,0:0:0:80:kick.wav
448,192,152975,1,0,0:0:0:80:snare.wav
320,192,153050,1,0,0:0:0:70:F6.wav
64,192,153125,1,0,0:0:0:80:kick.wav
192,192,153200,1,0,0:0:0:70:G#5.wav
64,192,153275,1,0,0:0:0:80:crash.wav
320,192,153275,1,0,0:0:0:80:kick.wav
448,192,153275,1,0,0:0:0:80:snare.wav
192,192,153350,1,0,0:0:0:70:G#6.wav
320,192,153425,1,0,0:0:0:80:kick.wav
448,192,153500,1,0,0:0:0:70:C#6.wav
64,192,153575,1,0,0:0:0:80:snare.wav
192,192,153575,1,0,0:0:0:70:A#6.wav
320,192,153650,1,0,0:0:0:80:snare.wav
448,192,153650,1,0,0:0:0:70:G6.wav
64,192,153725,1,0,0:0:0:80:snare.wav
192,192,153725,1,0,0:0:0:70:D#6.wav
320,192,153800,1,0,0:0:0:80:snare.wav
64,192,153875,1,0,0:0:0:80:snare.wav
448,192,153875,1,0,0:0:0:70:D#7.wav
192,192,153950,1,0,0:0:0:80:snare.wav
320,192,153950,1,0,0:0:0:70:A#6.wav
64,192,154025,1,0,0:0:0:80:snare.wav
448,192,154025,1,0,0:0:0:70:G#6.wav
192,192,154100,1,0,0:0:0:80:snare.wav
64,192,154175,1,0,0:0:0:80:crash.wav
320,192,154175,1,0,0:0:0:80:kick.wav
448,192,154175,1,0,0:0:0:70:G6.wav
192,192,154325,1,0,0:0:0:70:C6.wav
192,192,154475,1,0,0:0:0:80:snare.wav
320,192,154475,1,0,0:0:0:70:C6.wav
64,192,154550,1,0,0:0:0:70:D#6.wav
448,192,154625,1,0,0:0:0:70:G6.wav
192,192,154700,1,0,0:0:0:70:A#6.wav
320,192,154775,1,0,0:0:0:80:kick.wav
448,192,154775,1,0,0:0:0:70:G6.wav
64,192,154925,1,0,0:0:0:80:kick.wav
192,192,155000,1,0,0:0:0:70:G6.wav
64,192,155075,1,0,0:0:0:80:snare.wav
320,192,155075,1,0,0:0:0:70:G#6.wav
192,192,155150,1,0,0:0:0:70:G6.wav
448,192,155225,1,0,0:0:0:70:D#6.wav
64,192,155300,1,0,0:0:0:70:C6.wav
192,192,155375,1,0,0:0:0:80:crash.wav
320,192,155375,1,0,0:0:0:80:kick.wav
448,192,155375,1,0,0:0:0:70:G6.wav
64,192,155525,1,0,0:0:0:80:kick.wav
64,192,155675,1,0,0:0:0:80:snare.wav
192,192,155675,1,0,0:0:0:70:B5.wav
320,192,155750,1,0,0:0:0:70:D#6.wav
448,192,155825,1,0,0:0:0:80:kick.wav
192,192,155900,1,0,0:0:0:70:G#6.wav
320,192,155975,1,0,0:0:0:80:snare.wav
448,192,155975,1,0,0:0:0:70:D#6.wav
64,192,156125,1,0,0:0:0:80:snare.wav
192,192,156200,1,0,0:0:0:80:snare.wav
448,192,156200,1,0,0:0:0:70:D#6.wav
320,192,156275,1,0,0:0:0:80:snare.wav
448,192,156350,1,0,0:0:0:80:snare.wav
64,192,156425,1,0,0:0:0:80:snare.wav
192,192,156425,1,0,0:0:0:70:D#6.wav
320,192,156500,1,0,0:0:0:80:snare.wav
64,192,156575,1,0,0:0:0:80:crash.wav
192,192,156575,1,0,0:0:0:80:kick.wav
448,192,156575,1,0,0:0:0:70:D#6.wav
320,192,156725,1,0,0:0:0:70:A#5.wav
64,192,156800,1,0,0:0:0:0:
192,192,156875,1,0,0:0:0:80:kick.wav
448,192,156875,1,0,0:0:0:70:D#6.wav
320,192,156950,1,0,0:0:0:0:
64,192,157025,1,0,0:0:0:80:crash.wav
192,192,157025,1,0,0:0:0:80:kick.wav
448,192,157025,1,0,0:0:0:70:G6.wav
192,192,157325,1,0,0:0:0:80:crash.wav
320,192,157325,1,0,0:0:0:80:kick.wav
448,192,157325,1,0,0:0:0:70:A#6.wav
64,192,157625,1,0,0:0:0:80:crash.wav
192,192,157625,1,0,0:0:0:80:kick.wav
320,192,157625,1,0,0:0:0:70:A#6.wav
192,192,157925,1,0,0:0:0:80:kick.wav
64,192,158075,1,0,0:0:0:80:snare.wav
320,192,158075,1,0,0:0:0:70:C7.wav
448,192,158075,1,0,0:0:0:0:
320,192,158225,1,0,0:0:0:70:G6.wav
64,192,158375,1,0,0:0:0:80:snare.wav
192,192,158375,1,0,0:0:0:70:E6.wav
448,192,158375,1,0,0:0:0:0:
320,192,158450,1,0,0:0:0:80:snare.wav
64,192,158525,1,0,0:0:0:80:snare.wav
192,192,158600,1,0,0:0:0:80:snare.wav
320,192,158675,1,0,0:0:0:80:snare.wav
448,192,158675,1,0,0:0:0:70:E6.wav
64,192,158750,1,0,0:0:0:80:snare.wav
192,192,158750,1,0,0:0:0:70:D6.wav
320,192,158825,1,0,0:0:0:80:snare.wav
448,192,158825,1,0,0:0:0:70:E6.wav
192,192,158900,1,0,0:0:0:80:snare.wav
64,192,158975,1,0,0:0:0:80:crash.wav
320,192,158975,1,0,0:0:0:80:kick.wav
448,192,158975,1,0,0:0:0:70:G6.wav
192,192,159125,1,0,0:0:0:70:G#6.wav
320,192,159200,1,0,0:0:0:70:G6.wav
64,192,159275,1,0,0:0:0:80:snare.wav
192,192,159275,1,0,0:0:0:70:D#6.wav
64,192,159425,1,0,0:0:0:70:G6.wav
448,192,159425,1,0,0:0:0:70:A#6.wav
320,192,159575,1,0,0:0:0:80:kick.wav
448,192,159575,1,0,0:0:0:70:G#6.wav
192,192,159725,1,0,0:0:0:70:D#6.wav
320,192,159725,1,0,0:0:0:0:
64,192,159875,1,0,0:0:0:80:snare.wav
448,192,159875,1,0,0:0:0:70:G6.wav
64,192,160025,1,0,0:0:0:70:G#6.wav
192,192,160025,1,0,0:0:0:0:
192,192,160175,1,0,0:0:0:80:kick.wav
320,192,160175,1,0,0:0:0:70:D#6.wav
64,192,160325,1,0,0:0:0:70:G6.wav
448,192,160325,1,0,0:0:0:70:A#6.wav
320,192,160475,1,0,0:0:0:80:snare.wav
448,192,160475,1,0,0:0:0:70:G#6.wav
192,192,160550,1,0,0:0:0:70:G6.wav
320,192,160625,1,0,0:0:0:70:D#6.wav
64,192,160775,1,0,0:0:0:80:kick.wav
448,192,160775,1,0,0:0:0:70:G6.wav
192,192,160925,1,0,0:0:0:70:G#6.wav
320,192,161000,1,0,0:0:0:70:G6.wav
64,192,161075,1,0,0:0:0:80:snare.wav
192,192,161075,1,0,0:0:0:70:D#6.wav
448,192,161225,1,0,0:0:0:70:A#5.wav
64,192,161375,1,0,0:0:0:80:crash.wav
320,192,161375,1,0,0:0:0:80:kick.wav
448,192,161375,1,0,0:0:0:70:D#6.wav
192,192,161450,1,0,0:0:0:70:D6.wav
320,192,161525,1,0,0:0:0:70:D#6.wav
448,192,161600,1,0,0:0:0:70:F6.wav
64,192,161675,1,0,0:0:0:80:snare.wav
192,192,161675,1,0,0:0:0:70:G6.wav
320,192,161750,1,0,0:0:0:70:F6.wav
64,192,161825,1,0,0:0:0:70:G6.wav
320,192,161900,1,0,0:0:0:70:G#6.wav
64,192,161975,1,0,0:0:0:80:crash.wav
192,192,161975,1,0,0:0:0:80:kick.wav
448,192,161975,1,0,0:0:0:70:A#6.wav
320,192,162050,1,0,0:0:0:70:G#6.wav
192,192,162125,1,0,0:0:0:70:A#6.wav
64,192,162200,1,0,0:0:0:70:C7.wav
320,192,162275,1,0,0:0:0:80:snare.wav
448,192,162275,1,0,0:0:0:70:D7.wav
192,192,162350,1,0,0:0:0:70:C7.wav
448,192,162425,1,0,0:0:0:70:D7.wav
64,192,162500,1,0,0:0:0:70:D#7.wav
192,192,162575,1,0,0:0:0:80:crash.wav
320,192,162575,1,0,0:0:0:80:kick.wav
448,192,162575,1,0,0:0:0:80:snare.wav
64,192,162650,1,0,0:0:0:70:A#6.wav
320,192,162725,1,0,0:0:0:80:kick.wav
448,192,162800,1,0,0:0:0:70:D#7.wav
64,192,162875,1,0,0:0:0:80:crash.wav
192,192,162875,1,0,0:0:0:80:kick.wav
320,192,162875,1,0,0:0:0:80:snare.wav
448,192,162950,1,0,0:0:0:70:A#7.wav
192,192,163025,1,0,0:0:0:80:kick.wav
64,192,163100,1,0,0:0:0:70:D#8.wav
320,192,163175,1,0,0:0:0:80:snare.wav
448,192,163175,1,0,0:0:0:70:F8.wav
64,192,163250,1,0,0:0:0:80:snare.wav
192,192,163250,1,0,0:0:0:70:D#8.wav
320,192,163325,1,0,0:0:0:80:snare.wav
448,192,163325,1,0,0:0:0:70:D8.wav
64,192,163400,1,0,0:0:0:80:snare.wav
192,192,163400,1,0,0:0:0:70:A#7.wav
320,192,163475,1,0,0:0:0:80:snare.wav
448,192,163475,1,0,0:0:0:70:F7.wav
192,192,163550,1,0,0:0:0:80:snare.wav
64,192,163625,1,0,0:0:0:80:snare.wav
448,192,163625,1,0,0:0:0:70:D7.wav
320,192,163700,1,0,0:0:0:80:snare.wav
64,192,163775,1,0,0:0:0:80:crash.wav
192,192,163775,1,0,0:0:0:80:kick.wav
448,192,163775,1,0,0:0:0:80:snare.wav
320,192,163925,1,0,0:0:0:80:snare.wav
64,192,164075,1,0,0:0:0:80:kick.wav
448,192,164075,1,0,0:0:0:80:snare.wav
192,192,164225,1,0,0:0:0:80:snare.wav
64,192,164375,1,0,0:0:0:80:kick.wav
320,192,164375,1,0,0:0:0:80:snare.wav
448,192,164375,1,0,0:0:0:0:
192,192,164450,1,0,0:0:0:80:snare.wav
320,192,164525,1,0,0:0:0:80:snare.wav
192,192,164600,1,0,0:0:0:80:snare.wav
64,192,164675,1,0,0:0:0:80:kick.wav
448,192,164675,1,0,0:0:0:80:snare.wav
320,192,164750,1,0,0:0:0:80:snare.wav
64,192,164825,1,0,0:0:0:80:snare.wav
192,192,164825,1,0,0:0:0:70:G#6.wav
320,192,164900,1,0,0:0:0:80:snare.wav
64,192,164975,1,0,0:0:0:80:crash.wav
192,192,164975,1,0,0:0:0:80:kick.wav
448,192,164975,1,0,0:0:0:70:A#6.wav
320,192,165125,1,0,0:0:0:70:D#6.wav
64,192,165275,1,0,0:0:0:80:snare.wav
320,192,165275,1,0,0:0:0:70:D#6.wav
192,192,165350,1,0,0:0:0:70:F#6.wav
64,192,165425,1,0,0:0:0:70:A#6.wav
448,192,165500,1,0,0:0:0:70:C#7.wav
192,192,165575,1,0,0:0:0:80:kick.wav
320,192,165575,1,0,0:0:0:70:A#6.wav
64,192,165725,1,0,0:0:0:80:kick.wav
320,192,165800,1,0,0:0:0:70:A#6.wav
64,192,165875,1,0,0:0:0:80:snare.wav
192,192,165875,1,0,0:0:0:70:B6.wav
320,192,165950,1,0,0:0:0:70:A#6.wav
448,192,166025,1,0,0:0:0:70:F#6.wav
64,192,166100,1,0,0:0:0:70:D#6.wav
192,192,166175,1,0,0:0:0:80:kick.wav
320,192,166175,1,0,0:0:0:70:F6.wav
448,192,166325,1,0,0:0:0:80:kick.wav
320,192,166400,1,0,0:0:0:70:F6.wav
64,192,166475,1,0,0:0:0:80:snare.wav
192,192,166475,1,0,0:0:0:70:F#6.wav
320,192,166550,1,0,0:0:0:70:F6.wav
448,192,166625,1,0,0:0:0:70:F#6.wav
64,192,166700,1,0,0:0:0:70:G#6.wav
192,192,166775,1,0,0:0:0:80:kick.wav
320,192,166775,1,0,0:0:0:70:C#7.wav
448,192,166850,1,0,0:0:0:70:F#7.wav
64,192,166925,1,0,0:0:0:80:kick.wav
320,192,167000,1,0,0:0:0:70:C#7.wav
64,192,167075,1,0,0:0:0:80:snare.wav
192,192,167075,1,0,0:0:0:70:G#6.wav
320,192,167150,1,0,0:0:0:70:F#6.wav
448,192,167225,1,0,0:0:0:80:kick.wav
192,192,167300,1,0,0:0:0:70:F#6.wav
64,192,167375,1,0,0:0:0:80:crash.wav
320,192,167375,1,0,0:0:0:80:kick.wav
448,192,167375,1,0,0:0:0:70:F6.wav
192,192,167525,1,0,0:0:0:70:F6.wav
320,192,167600,1,0,0:0:0:70:A#6.wav
64,192,167675,1,0,0:0:0:80:snare.wav
448,192,167675,1,0,0:0:0:70:D7.wav
320,192,167750,1,0,0:0:0:70:F6.wav
192,192,167825,1,0,0:0:0:70:A#6.wav
64,192,167900,1,0,0:0:0:70:F7.wav
320,192,167975,1,0,0:0:0:80:kick.wav
448,192,167975,1,0,0:0:0:70:A#7.wav
192,192,168050,1,0,0:0:0:70:G#7.wav
320,192,168125,1,0,0:0:0:80:kick.wav
64,192,168200,1,0,0:0:0:70:F7.wav
192,192,168275,1,0,0:0:0:80:snare.wav
448,192,168275,1,0,0:0:0:70:F#7.wav
320,192,168350,1,0,0:0:0:70:F7.wav
192,192,168425,1,0,0:0:0:70:D7.wav
64,192,168500,1,0,0:0:0:70:A#6.wav
320,192,168575,1,0,0:0:0:80:kick.wav
448,192,168575,1,0,0:0:0:70:D#7.wav
192,192,168725,1,0,0:0:0:70:D#6.wav
320,192,168800,1,0,0:0:0:70:F#6.wav
64,192,168875,1,0,0:0:0:80:snare.wav
448,192,168875,1,0,0:0:0:70:G#6.wav
320,192,168950,1,0,0:0:0:70:F#6.wav
64,192,169025,1,0,0:0:0:70:G#6.wav
192,192,169100,1,0,0:0:0:70:A#6.wav
320,192,169175,1,0,0:0:0:80:kick.wav
448,192,169175,1,0,0:0:0:70:C#7.wav
320,192,169250,1,0,0:0:0:70:C#7.wav
448,192,169250,1,0,0:0:0:70:F#7.wav
64,192,169400,1,0,0:0:0:70:C#7.wav
192,192,169400,1,0,0:0:0:70:F7.wav
320,192,169475,1,0,0:0:0:80:snare.wav
448,192,169475,1,0,0:0:0:70:C#7.wav
192,192,169550,1,0,0:0:0:80:snare.wav
64,192,169625,1,0,0:0:0:80:snare.wav
448,192,169625,1,0,0:0:0:70:A#6.wav
320,192,169700,1,0,0:0:0:80:snare.wav
64,192,169775,1,0,0:0:0:80:crash.wav
192,192,169775,1,0,0:0:0:80:kick.wav
448,192,169775,1,0,0:0:0:70:G#6.wav
320,192,169925,1,0,0:0:0:70:G#6.wav
192,192,170000,1,0,0:0:0:70:A#6.wav
64,192,170075,1,0,0:0:0:80:snare.wav
320,192,170075,1,0,0:0:0:70:B6.wav
448,192,170150,1,0,0:0:0:70:A#6.wav
192,192,170225,1,0,0:0:0:70:G#6.wav
64,192,170300,1,0,0:0:0:70:F#6.wav
320,192,170375,1,0,0:0:0:80:kick.wav
448,192,170375,1,0,0:0:0:70:D#6.wav
192,192,170450,1,0,0:0:0:70:B5.wav
320,192,170525,1,0,0:0:0:70:D#6.wav
64,192,170600,1,0,0:0:0:70:F#6.wav
192,192,170675,1,0,0:0:0:80:snare.wav
448,192,170675,1,0,0:0:0:70:B6.wav
320,192,170750,1,0,0:0:0:70:A#6.wav
64,192,170825,1,0,0:0:0:70:B6.wav
448,192,170900,1,0,0:0:0:70:D#7.wav
64,192,170975,1,0,0:0:0:80:kick.wav
192,192,170975,1,0,0:0:0:70:A#6.wav
320,192,171125,1,0,0:0:0:70:G#6.wav
192,192,171200,1,0,0:0:0:70:F#6.wav
64,192,171275,1,0,0:0:0:80:snare.wav
448,192,171275,1,0,0:0:0:70:F6.wav
192,192,171350,1,0,0:0:0:70:F#6.wav
320,192,171425,1,0,0:0:0:70:G#6.wav
448,192,171500,1,0,0:0:0:70:A#6.wav
64,192,171575,1,0,0:0:0:80:kick.wav
192,192,171575,1,0,0:0:0:70:D7.wav
320,192,171650,1,0,0:0:0:70:A#6.wav
64,192,171725,1,0,0:0:0:70:D7.wav
448,192,171800,1,0,0:0:0:70:F7.wav
64,192,171875,1,0,0:0:0:80:snare.wav
192,192,171875,1,0,0:0:0:70:A#7.wav
320,192,171950,1,0,0:0:0:70:G#7.wav
448,192,172025,1,0,0:0:0:70:F#7.wav
64,192,172100,1,0,0:0:0:70:F7.wav
192,192,172175,1,0,0:0:0:80:crash.wav
320,192,172175,1,0,0:0:0:80:kick.wav
448,192,172175,1,0,0:0:0:70:F#7.wav
64,192,172250,1,0,0:0:0:70:D#7.wav
320,192,172325,1,0,0:0:0:70:A#6.wav
192,192,172400,1,0,0:0:0:70:F#6.wav
320,192,172475,1,0,0:0:0:80:snare.wav
448,192,172475,1,0,0:0:0:70:D#6.wav
64,192,172550,1,0,0:0:0:70:F#5.wav
192,192,172625,1,0,0:0:0:70:A#5.wav
320,192,172700,1,0,0:0:0:70:D#6.wav
64,192,172775,1,0,0:0:0:80:crash.wav
192,192,172775,1,0,0:0:0:80:kick.wav
448,192,172775,1,0,0:0:0:70:D#6.wav
64,192,172850,1,0,0:0:0:70:D#6.wav
192,192,172850,1,0,0:0:0:70:F#6.wav
320,192,173000,1,0,0:0:0:70:D#6.wav
448,192,173000,1,0,0:0:0:70:G#6.wav
64,192,173075,1,0,0:0:0:80:snare.wav
192,192,173075,1,0,0:0:0:70:D#6.wav
320,192,173225,1,0,0:0:0:70:D#6.wav
448,192,173225,1,0,0:0:0:70:A#6.wav
64,192,173375,1,0,0:0:0:80:crash.wav
192,192,173375,1,0,0:0:0:80:kick.wav
448,192,173375,1,0,0:0:0:80:snare.wav
320,192,173450,1,0,0:0:0:70:G#6.wav
64,192,173525,1,0,0:0:0:80:kick.wav
192,192,173600,1,0,0:0:0:70:B5.wav
64,192,173675,1,0,0:0:0:80:crash.wav
320,192,173675,1,0,0:0:0:80:kick.wav
448,192,173675,1,0,0:0:0:80:snare.wav
192,192,173750,1,0,0:0:0:70:B5.wav
320,192,173825,1,0,0:0:0:80:kick.wav
448,192,173900,1,0,0:0:0:70:E6.wav
64,192,173975,1,0,0:0:0:80:snare.wav
192,192,173975,1,0,0:0:0:70:C#7.wav
320,192,174050,1,0,0:0:0:80:snare.wav
448,192,174050,1,0,0:0:0:70:A#6.wav
64,192,174125,1,0,0:0:0:80:snare.wav
192,192,174125,1,0,0:0:0:70:F#6.wav
320,192,174200,1,0,0:0:0:80:snare.wav
64,192,174275,1,0,0:0:0:80:snare.wav
448,192,174275,1,0,0:0:0:70:F#7.wav
192,192,174350,1,0,0:0:0:80:snare.wav
320,192,174350,1,0,0:0:0:70:C#7.wav
64,192,174425,1,0,0:0:0:80:snare.wav
448,192,174425,1,0,0:0:0:70:B5.wav
192,192,174500,1,0,0:0:0:80:snare.wav
64,192,174575,1,0,0:0:0:80:crash.wav
320,192,174575,1,0,0:0:0:80:kick.wav
448,192,174575,1,0,0:0:0:70:A#6.wav
192,192,174725,1,0,0:0:0:70:D#6.wav
192,192,174875,1,0,0:0:0:80:snare.wav
320,192,174875,1,0,0:0:0:70:D#6.wav
64,192,174950,1,0,0:0:0:70:F#6.wav
448,192,175025,1,0,0:0:0:70:A#6.wav
192,192,175100,1,0,0:0:0:70:C#7.wav
320,192,175175,1,0,0:0:0:80:kick.wav
448,192,175175,1,0,0:0:0:70:A#6.wav
64,192,175325,1,0,0:0:0:80:kick.wav
192,192,175400,1,0,0:0:0:70:A#6.wav
64,192,175475,1,0,0:0:0:80:snare.wav
320,192,175475,1,0,0:0:0:70:B6.wav
192,192,175550,1,0,0:0:0:70:A#6.wav
448,192,175625,1,0,0:0:0:70:F#6.wav
64,192,175700,1,0,0:0:0:70:D#6.wav
192,192,175775,1,0,0:0:0:80:crash.wav
320,192,175775,1,0,0:0:0:80:kick.wav
448,192,175775,1,0,0:0:0:70:A#6.wav
64,192,175925,1,0,0:0:0:80:kick.wav
64,192,176075,1,0,0:0:0:80:snare.wav
192,192,176075,1,0,0:0:0:70:D6.wav
320,192,176150,1,0,0:0:0:70:F#6.wav
448,192,176225,1,0,0:0:0:80:kick.wav
192,192,176300,1,0,0:0:0:70:B6.wav
320,192,176375,1,0,0:0:0:80:snare.wav
448,192,176375,1,0,0:0:0:70:F#6.wav
64,192,176525,1,0,0:0:0:80:snare.wav
192,192,176600,1,0,0:0:0:80:snare.wav
448,192,176600,1,0,0:0:0:70:F#6.wav
320,192,176675,1,0,0:0:0:80:snare.wav
448,192,176750,1,0,0:0:0:80:snare.wav
64,192,176825,1,0,0:0:0:80:snare.wav
192,192,176825,1,0,0:0:0:70:F#6.wav
320,192,176900,1,0,0:0:0:80:snare.wav
64,192,176975,1,0,0:0:0:80:crash.wav
192,192,176975,1,0,0:0:0:80:kick.wav
448,192,176975,1,0,0:0:0:70:F#6.wav
320,192,177125,1,0,0:0:0:70:C#6.wav
64,192,177200,1,0,0:0:0:0:
192,192,177275,1,0,0:0:0:80:kick.wav
448,192,177275,1,0,0:0:0:70:F#6.wav
320,192,177350,1,0,0:0:0:0:
64,192,177425,1,0,0:0:0:80:crash.wav
192,192,177425,1,0,0:0:0:80:kick.wav
448,192,177425,1,0,0:0:0:70:A#6.wav
192,192,177725,1,0,0:0:0:80:crash.wav
320,192,177725,1,0,0:0:0:80:kick.wav
448,192,177725,1,0,0:0:0:70:C#7.wav
64,192,178025,1,0,0:0:0:80:crash.wav
192,192,178025,1,0,0:0:0:80:kick.wav
320,192,178025,1,0,0:0:0:70:G6.wav
192,192,178325,1,0,0:0:0:80:kick.wav
64,192,178475,1,0,0:0:0:80:snare.wav
320,192,178475,1,0,0:0:0:70:D#7.wav
448,192,178475,1,0,0:0:0:0:
320,192,178625,1,0,0:0:0:70:A#6.wav
64,192,178775,1,0,0:0:0:80:snare.wav
192,192,178775,1,0,0:0:0:70:G6.wav
448,192,178775,1,0,0:0:0:0:
320,192,178850,1,0,0:0:0:80:snare.wav
64,192,178925,1,0,0:0:0:80:snare.wav
192,192,179000,1,0,0:0:0:80:snare.wav
320,192,179075,1,0,0:0:0:80:snare.wav
448,192,179075,1,0,0:0:0:70:G6.wav
64,192,179150,1,0,0:0:0:80:snare.wav
192,192,179150,1,0,0:0:0:70:F6.wav
320,192,179225,1,0,0:0:0:80:snare.wav
448,192,179225,1,0,0:0:0:70:G6.wav
192,192,179300,1,0,0:0:0:80:snare.wav
64,192,179375,1,0,0:0:0:80:crash.wav
320,192,179375,1,0,0:0:0:80:kick.wav
448,192,179375,1,0,0:0:0:70:A#6.wav
192,192,179525,1,0,0:0:0:70:B6.wav
320,192,179600,1,0,0:0:0:70:A#6.wav
64,192,179675,1,0,0:0:0:80:snare.wav
192,192,179675,1,0,0:0:0:70:F#6.wav
64,192,179825,1,0,0:0:0:70:A#6.wav
448,192,179825,1,0,0:0:0:70:C#7.wav
320,192,179975,1,0,0:0:0:80:kick.wav
448,192,179975,1,0,0:0:0:70:B6.wav
192,192,180125,1,0,0:0:0:70:F#6.wav
320,192,180125,1,0,0:0:0:0:
64,192,180275,1,0,0:0:0:80:snare.wav
448,192,180275,1,0,0:0:0:70:A#6.wav
64,192,180425,1,0,0:0:0:70:B6.wav
192,192,180425,1,0,0:0:0:0:
192,192,180575,1,0,0:0:0:80:kick.wav
320,192,180575,1,0,0:0:0:70:F#6.wav
64,192,180725,1,0,0:0:0:70:A#6.wav
448,192,180725,1,0,0:0:0:70:C#7.wav
320,192,180875,1,0,0:0:0:80:snare.wav
448,192,180875,1,0,0:0:0:70:B6.wav
192,192,180950,1,0,0:0:0:70:A#6.wav
320,192,181025,1,0,0:0:0:70:F#6.wav
64,192,181175,1,0,0:0:0:80:kick.wav
448,192,181175,1,0,0:0:0:70:A#6.wav
192,192,181325,1,0,0:0:0:70:B6.wav
320,192,181400,1,0,0:0:0:70:A#6.wav
64,192,181475,1,0,0:0:0:80:snare.wav
192,192,181475,1,0,0:0:0:70:F#6.wav
448,192,181625,1,0,0:0:0:70:C#6.wav
64,192,181775,1,0,0:0:0:80:crash.wav
320,192,181775,1,0,0:0:0:80:kick.wav
448,192,181775,1,0,0:0:0:70:F#6.wav
192,192,181850,1,0,0:0:0:70:F6.wav
320,192,181925,1,0,0:0:0:70:F#6.wav
448,192,182000,1,0,0:0:0:70:G#6.wav
64,192,182075,1,0,0:0:0:80:snare.wav
192,192,182075,1,0,0:0:0:70:A#6.wav
320,192,182150,1,0,0:0:0:70:G#6.wav
64,192,182225,1,0,0:0:0:70:A#6.wav
320,192,182300,1,0,0:0:0:70:B6.wav
64,192,182375,1,0,0:0:0:80:crash.wav
192,192,182375,1,0,0:0:0:80:kick.wav
448,192,182375,1,0,0:0:0:70:C#7.wav
320,192,182450,1,0,0:0:0:70:B6.wav
192,192,182525,1,0,0:0:0:70:C#7.wav
64,192,182600,1,0,0:0:0:70:D#7.wav
320,192,182675,1,0,0:0:0:80:snare.wav
448,192,182675,1,0,0:0:0:70:F7.wav
192,192,182750,1,0,0:0:0:70:D#7.wav
448,192,182825,1,0,0:0:0:70:F7.wav
64,192,182900,1,0,0:0:0:70:F#7.wav
192,192,182975,1,0,0:0:0:80:crash.wav
320,192,182975,1,0,0:0:0:80:kick.wav
448,192,182975,1,0,0:0:0:80:snare.wav
64,192,183050,1,0,0:0:0:70:C#7.wav
320,192,183125,1,0,0:0:0:80:kick.wav
448,192,183200,1,0,0:0:0:70:F#7.wav
64,192,183275,1,0,0:0:0:80:crash.wav
192,192,183275,1,0,0:0:0:80:kick.wav
320,192,183275,1,0,0:0:0:80:snare.wav
448,192,183350,1,0,0:0:0:70:C#8.wav
192,192,183425,1,0,0:0:0:80:kick.wav
64,192,183500,1,0,0:0:0:70:F#8.wav
320,192,183575,1,0,0:0:0:80:snare.wav
448,192,183575,1,0,0:0:0:70:G#8.wav
64,192,183650,1,0,0:0:0:80:snare.wav
192,192,183650,1,0,0:0:0:70:F#8.wav
320,192,183725,1,0,0:0:0:80:snare.wav
448,192,183725,1,0,0:0:0:70:F8.wav
64,192,183800,1,0,0:0:0:80:snare.wav
192,192,183800,1,0,0:0:0:70:C#8.wav
320,192,183875,1,0,0:0:0:80:snare.wav
448,192,183875,1,0,0:0:0:70:G#7.wav
192,192,183950,1,0,0:0:0:80:snare.wav
64,192,184025,1,0,0:0:0:80:snare.wav
448,192,184025,1,0,0:0:0:70:F7.wav
320,192,184100,1,0,0:0:0:80:snare.wav
64,192,184175,1,0,0:0:0:80:crash.wav
192,192,184175,1,0,0:0:0:80:kick.wav
448,192,184175,1,0,0:0:0:0:
192,192,184325,1,0,0:0:0:80:snare.wav
320,192,184325,1,0,0:0:0:0:
448,192,184325,1,0,0:0:0:0:
64,192,184475,1,0,0:0:0:80:kick.wav
320,192,184475,1,0,0:0:0:0:
64,192,184625,1,0,0:0:0:80:snare.wav
192,192,184625,1,0,0:0:0:0:
448,192,184625,1,0,0:0:0:0:
192,192,184775,1,0,0:0:0:80:kick.wav
320,192,184775,1,0,0:0:0:0:
64,192,184925,1,0,0:0:0:80:snare.wav
320,192,184925,1,0,0:0:0:0:
448,192,184925,1,0,0:0:0:0:
192,192,185075,1,0,0:0:0:80:kick.wav
448,192,185075,1,0,0:0:0:0:
64,192,185225,1,0,0:0:0:80:snare.wav
192,192,185225,1,0,0:0:0:0:
320,192,185225,1,0,0:0:0:0:
64,192,185375,1,0,0:0:0:80:kick.wav
448,192,185375,1,0,0:0:0:0:
192,192,185525,1,0,0:0:0:80:snare.wav
320,192,185525,1,0,0:0:0:0:
448,192,185525,1,0,0:0:0:0:
64,192,185675,1,0,0:0:0:80:kick.wav
320,192,185675,1,0,0:0:0:0:
64,192,185825,1,0,0:0:0:80:snare.wav
192,192,185825,1,0,0:0:0:0:
448,192,185825,1,0,0:0:0:0:
192,192,185975,1,0,0:0:0:80:kick.wav
320,192,185975,1,0,0:0:0:0:
64,192,186125,1,0,0:0:0:80:snare.wav
320,192,186125,1,0,0:0:0:0:
448,192,186125,1,0,0:0:0:0:
192,192,186275,1,0,0:0:0:80:kick.wav
448,192,186275,1,0,0:0:0:0:
64,192,186425,1,0,0:0:0:80:snare.wav
192,192,186425,1,0,0:0:0:0:
320,192,186425,1,0,0:0:0:0:
64,192,186575,1,0,0:0:0:80:kick.wav
448,192,186575,1,0,0:0:0:0:
192,192,186725,1,0,0:0:0:80:snare.wav
320,192,186725,1,0,0:0:0:0:
448,192,186725,1,0,0:0:0:0:
64,192,186875,1,0,0:0:0:80:kick.wav
320,192,186875,1,0,0:0:0:0:
64,192,187025,1,0,0:0:0:80:snare.wav
192,192,187025,1,0,0:0:0:0:
448,192,187025,1,0,0:0:0:0:
320,192,187175,1,0,0:0:0:80:kick.wav
448,192,187175,1,0,0:0:0:0:
64,192,187325,1,0,0:0:0:80:snare.wav
192,192,187325,1,0,0:0:0:0:
320,192,187325,1,0,0:0:0:0:
64,192,187475,1,0,0:0:0:80:kick.wav
448,192,187475,1,0,0:0:0:0:
192,192,187625,1,0,0:0:0:80:snare.wav
320,192,187625,1,0,0:0:0:0:
448,192,187625,1,0,0:0:0:0:
64,192,187775,1,0,0:0:0:80:kick.wav
320,192,187775,1,0,0:0:0:0:
64,192,187925,1,0,0:0:0:80:snare.wav
192,192,187925,1,0,0:0:0:0:
448,192,187925,1,0,0:0:0:0:
192,192,188075,1,0,0:0:0:80:kick.wav
320,192,188075,1,0,0:0:0:0:
64,192,188225,1,0,0:0:0:80:snare.wav
320,192,188225,1,0,0:0:0:0:
448,192,188225,1,0,0:0:0:0:
64,192,188375,1,0,0:0:0:80:kick.wav
192,192,188375,1,0,0:0:0:0:
192,192,188525,1,0,0:0:0:80:snare.wav
320,192,188525,1,0,0:0:0:0:
448,192,188525,1,0,0:0:0:0:
64,192,188675,1,0,0:0:0:80:kick.wav
448,192,188675,1,0,0:0:0:0:
192,192,188825,1,0,0:0:0:80:snare.wav
320,192,188825,1,0,0:0:0:0:
64,192,188975,1,0,0:0:0:80:crash.wav
192,192,188975,1,0,0:0:0:80:kick.wav
320,192,188975,1,0,0:0:0:0:
448,192,188975,1,0,0:0:0:0:
64,192,189125,1,0,0:0:0:80:snare.wav
448,192,189125,1,0,0:0:0:0:
192,192,189275,1,0,0:0:0:80:kick.wav
320,192,189275,1,0,0:0:0:0:
64,192,189425,1,0,0:0:0:80:snare.wav
192,192,189425,1,0,0:0:0:0:
448,192,189425,1,0,0:0:0:0:
320,192,189575,1,0,0:0:0:80:kick.wav
448,192,189575,1,0,0:0:0:0:
64,192,189725,1,0,0:0:0:80:snare.wav
192,192,189725,1,0,0:0:0:0:
320,192,189725,1,0,0:0:0:0:
64,192,189875,1,0,0:0:0:80:kick.wav
448,192,189875,1,0,0:0:0:0:
192,192,190025,1,0,0:0:0:80:snare.wav
320,192,190025,1,0,0:0:0:0:
448,192,190025,1,0,0:0:0:0:
64,192,190175,1,0,0:0:0:80:kick.wav
192,192,190175,1,0,0:0:0:0:
64,192,190325,1,0,0:0:0:80:snare.wav
320,192,190325,1,0,0:0:0:0:
448,192,190325,1,0,0:0:0:0:
192,192,190475,1,0,0:0:0:80:kick.wav
448,192,190475,1,0,0:0:0:0:
64,192,190625,1,0,0:0:0:80:snare.wav
192,192,190625,1,0,0:0:0:0:
320,192,190625,1,0,0:0:0:0:
320,192,190775,1,0,0:0:0:80:kick.wav
448,192,190775,1,0,0:0:0:0:
64,192,190925,1,0,0:0:0:80:snare.wav
192,192,190925,1,0,0:0:0:0:
448,192,190925,1,0,0:0:0:0:
64,192,191075,1,0,0:0:0:80:kick.wav
320,192,191075,1,0,0:0:0:0:
192,192,191225,1,0,0:0:0:80:snare.wav
320,192,191225,1,0,0:0:0:0:
64,192,191375,1,0,0:0:0:80:kick.wav
192,192,191375,1,0,0:0:0:0:
448,192,191375,1,0,0:0:0:0:
64,192,191525,1,0,0:0:0:80:snare.wav
320,192,191525,1,0,0:0:0:0:
448,192,191525,1,0,0:0:0:0:
64,192,191675,1,0,0:0:0:80:kick.wav
192,192,191675,1,0,0:0:0:0:
320,192,191675,1,0,0:0:0:0:
192,192,191825,1,0,0:0:0:80:snare.wav
448,192,191825,1,0,0:0:0:0:
64,192,191975,1,0,0:0:0:80:kick.wav
320,192,191975,1,0,0:0:0:0:
448,192,191975,1,0,0:0:0:0:
64,192,192125,1,0,0:0:0:80:snare.wav
192,192,192125,1,0,0:0:0:0:
320,192,192125,1,0,0:0:0:0:
64,192,192275,1,0,0:0:0:80:kick.wav
192,192,192275,1,0,0:0:0:0:
448,192,192275,1,0,0:0:0:0:
320,192,192425,1,0,0:0:0:80:snare.wav
448,192,192425,1,0,0:0:0:0:
64,192,192575,1,0,0:0:0:80:crash.wav
192,192,192575,1,0,0:0:0:80:kick.wav
320,192,192575,1,0,0:0:0:0:
448,192,192575,1,0,0:0:0:0:
64,192,192725,1,0,0:0:0:80:snare.wav
192,192,192725,1,0,0:0:0:0:
64,192,192875,1,0,0:0:0:80:crash.wav
192,192,192875,1,0,0:0:0:80:kick.wav
320,192,192875,1,0,0:0:0:0:
448,192,192875,1,0,0:0:0:0:
320,192,193025,1,0,0:0:0:80:snare.wav
448,192,193025,1,0,0:0:0:0:
64,192,193175,1,0,0:0:0:80:snare.wav
192,192,193175,1,0,0:0:0:0:
320,192,193250,1,0,0:0:0:80:snare.wav
448,192,193250,1,0,0:0:0:0:
64,192,193325,1,0,0:0:0:80:snare.wav
192,192,193325,1,0,0:0:0:0:
320,192,193400,1,0,0:0:0:80:snare.wav
448,192,193400,1,0,0:0:0:0:
64,192,193475,1,0,0:0:0:80:snare.wav
192,192,193475,1,0,0:0:0:0:
320,192,193550,1,0,0:0:0:80:snare.wav
64,192,193625,1,0,0:0:0:80:snare.wav
448,192,193625,1,0,0:0:0:0:
192,192,193700,1,0,0:0:0:80:snare.wav
64,192,193775,1,0,0:0:0:80:crash.wav
320,192,193775,1,0,0:0:0:80:kick.wav
448,192,193775,1,0,0:0:0:0:
64,192,193925,1,0,0:0:0:80:snare.wav
192,192,193925,1,0,0:0:0:0:
448,192,193925,1,0,0:0:0:0:
192,192,194075,1,0,0:0:0:80:kick.wav
320,192,194075,1,0,0:0:0:0:
64,192,194225,1,0,0:0:0:80:snare.wav
320,192,194225,1,0,0:0:0:0:
448,192,194225,1,0,0:0:0:0:
192,192,194375,1,0,0:0:0:80:kick.wav
448,192,194375,1,0,0:0:0:0:
64,192,194525,1,0,0:0:0:80:snare.wav
192,192,194525,1,0,0:0:0:0:
320,192,194525,1,0,0:0:0:0:
64,192,194675,1,0,0:0:0:80:kick.wav
448,192,194675,1,0,0:0:0:0:
192,192,194825,1,0,0:0:0:80:snare.wav
320,192,194825,1,0,0:0:0:0:
448,192,194825,1,0,0:0:0:0:
64,192,194975,1,0,0:0:0:80:kick.wav
320,192,194975,1,0,0:0:0:0:
64,192,195125,1,0,0:0:0:80:snare.wav
192,192,195125,1,0,0:0:0:0:
448,192,195125,1,0,0:0:0:0:
320,192,195275,1,0,0:0:0:80:kick.wav
448,192,195275,1,0,0:0:0:0:
64,192,195425,1,0,0:0:0:80:snare.wav
192,192,195425,1,0,0:0:0:0:
320,192,195425,1,0,0:0:0:0:
192,192,195575,1,0,0:0:0:80:kick.wav
448,192,195575,1,0,0:0:0:0:
64,192,195725,1,0,0:0:0:80:snare.wav
320,192,195725,1,0,0:0:0:0:
448,192,195725,1,0,0:0:0:0:
64,192,195875,1,0,0:0:0:80:kick.wav
192,192,195875,1,0,0:0:0:0:
192,192,196025,1,0,0:0:0:80:snare.wav
320,192,196025,1,0,0:0:0:0:
448,192,196025,1,0,0:0:0:0:
64,192,196175,1,0,0:0:0:80:kick.wav
448,192,196175,1,0,0:0:0:0:
64,192,196325,1,0,0:0:0:80:snare.wav
192,192,196325,1,0,0:0:0:0:
320,192,196325,1,0,0:0:0:0:
192,192,196475,1,0,0:0:0:80:kick.wav
448,192,196475,1,0,0:0:0:0:
64,192,196625,1,0,0:0:0:80:snare.wav
320,192,196625,1,0,0:0:0:0:
448,192,196625,1,0,0:0:0:0:
64,192,196775,1,0,0:0:0:80:kick.wav
192,192,196775,1,0,0:0:0:0:
192,192,196925,1,0,0:0:0:80:snare.wav
320,192,196925,1,0,0:0:0:0:
448,192,196925,1,0,0:0:0:0:
320,192,197075,1,0,0:0:0:80:kick.wav
448,192,197075,1,0,0:0:0:0:
64,192,197225,1,0,0:0:0:80:snare.wav
192,192,197225,1,0,0:0:0:0:
64,192,197375,1,0,0:0:0:80:crash.wav
192,192,197375,1,0,0:0:0:80:kick.wav
320,192,197375,1,0,0:0:0:0:
448,192,197375,1,0,0:0:0:0:
320,192,197525,1,0,0:0:0:80:snare.wav
448,192,197525,1,0,0:0:0:0:
64,192,197675,1,0,0:0:0:80:crash.wav
192,192,197675,1,0,0:0:0:80:kick.wav
320,192,197675,1,0,0:0:0:0:
448,192,197675,1,0,0:0:0:0:
64,192,197825,1,0,0:0:0:80:snare.wav
192,192,197825,1,0,0:0:0:0:
320,192,197975,1,0,0:0:0:80:snare.wav
448,192,197975,1,0,0:0:0:0:
192,192,198050,1,0,0:0:0:80:snare.wav
320,192,198125,1,0,0:0:0:80:snare.wav
448,192,198125,1,0,0:0:0:0:
192,192,198200,1,0,0:0:0:80:snare.wav
64,192,198275,1,0,0:0:0:80:snare.wav
448,192,198275,1,0,0:0:0:0:
320,192,198350,1,0,0:0:0:80:snare.wav
64,192,198425,1,0,0:0:0:80:snare.wav
192,192,198425,1,0,0:0:0:0:
320,192,198500,1,0,0:0:0:80:snare.wav
64,192,198575,1,0,0:0:0:80:crash.wav
192,192,198575,1,0,0:0:0:80:snare.wav
448,192,198575,1,0,0:0:0:0:
64,192,198725,1,0,0:0:0:80:snare.wav
320,192,198725,1,0,0:0:0:0:
448,192,198725,1,0,0:0:0:0:
192,192,198875,1,0,0:0:0:80:snare.wav
320,192,198875,1,0,0:0:0:0:
64,192,199025,1,0,0:0:0:80:snare.wav
192,192,199025,1,0,0:0:0:0:
448,192,199025,1,0,0:0:0:0:
64,192,199175,1,0,0:0:0:80:snare.wav
320,192,199175,1,0,0:0:0:0:
448,192,199175,1,0,0:0:0:0:
192,192,199325,1,0,0:0:0:80:snare.wav
320,192,199325,1,0,0:0:0:0:
64,192,199475,1,0,0:0:0:80:snare.wav
192,192,199475,1,0,0:0:0:0:
448,192,199475,1,0,0:0:0:0:
64,192,199625,1,0,0:0:0:80:snare.wav
320,192,199625,1,0,0:0:0:0:
448,192,199625,1,0,0:0:0:0:
192,192,199775,1,0,0:0:0:80:snare.wav
320,192,199775,1,0,0:0:0:0:
448,192,199850,1,0,0:0:0:80:snare.wav
64,192,199925,1,0,0:0:0:80:snare.wav
320,192,199925,1,0,0:0:0:0:
192,192,200000,1,0,0:0:0:80:snare.wav
64,192,200075,1,0,0:0:0:80:snare.wav
448,192,200075,1,0,0:0:0:0:
192,192,200150,1,0,0:0:0:80:snare.wav
320,192,200225,1,0,0:0:0:80:snare.wav
448,192,200225,1,0,0:0:0:0:
64,192,200300,1,0,0:0:0:80:snare.wav
192,192,200375,1,0,0:0:0:80:snare.wav
448,192,200375,1,0,0:0:0:0:
320,192,200450,1,0,0:0:0:80:snare.wav
64,192,200525,1,0,0:0:0:80:snare.wav
448,192,200525,1,0,0:0:0:0:
320,192,200600,1,0,0:0:0:80:snare.wav
64,192,200675,1,0,0:0:0:80:snare.wav
192,192,200675,1,0,0:0:0:0:
448,192,200750,1,0,0:0:0:80:snare.wav
64,192,200825,1,0,0:0:0:80:snare.wav
320,192,200825,1,0,0:0:0:0:
192,192,200900,1,0,0:0:0:80:snare.wav
64,192,200975,1,0,0:0:0:80:crash.wav
320,192,200975,1,0,0:0:0:80:kick.wav
448,192,200975,1,0,0:0:0:0:
64,192,201125,1,0,0:0:0:80:kick.wav
192,192,201125,1,0,0:0:0:0:
320,192,201275,1,0,0:0:0:80:kick.wav
448,192,201275,1,0,0:0:0:0:
64,192,201425,1,0,0:0:0:80:crash.wav
192,192,201425,1,0,0:0:0:80:kick.wav
448,192,201425,1,0,0:0:0:0:
64,192,201575,1,0,0:0:0:80:kick.wav
320,192,201575,1,0,0:0:0:0:
192,192,201725,1,0,0:0:0:80:kick.wav
448,192,201725,1,0,0:0:0:0:
64,192,201875,1,0,0:0:0:80:crash.wav
320,192,201875,1,0,0:0:0:80:kick.wav
448,192,201875,1,0,0:0:0:0:
64,192,202025,1,0,0:0:0:80:snare.wav
192,192,202025,1,0,0:0:0:0:
320,192,202100,1,0,0:0:0:80:snare.wav
64,192,202175,1,0,0:0:0:80:crash.wav
192,192,202175,1,0,0:0:0:80:kick.wav
448,192,202175,1,0,0:0:0:0:
320,192,202325,1,0,0:0:0:0:
448,192,202325,1,0,0:0:0:0:
64,192,202475,1,0,0:0:0:0:
448,192,202475,1,0,0:0:0:0:
64,192,202625,1,0,0:0:0:0:
192,192,202625,1,0,0:0:0:0:
320,192,202775,1,0,0:0:0:80:snare.wav
448,192,202775,1,0,0:0:0:0:
64,192,202850,1,0,0:0:0:80:snare.wav
192,192,202850,1,0,0:0:0:0:
320,192,202925,1,0,0:0:0:80:snare.wav
448,192,202925,1,0,0:0:0:0:
64,192,203000,1,0,0:0:0:80:snare.wav
192,192,203000,1,0,0:0:0:0:
320,192,203075,1,0,0:0:0:80:snare.wav
448,192,203075,1,0,0:0:0:0:
192,192,203150,1,0,0:0:0:80:snare.wav
64,192,203225,1,0,0:0:0:80:snare.wav
448,192,203225,1,0,0:0:0:0:
320,192,203300,1,0,0:0:0:80:snare.wav
64,192,203375,1,0,0:0:0:80:crash.wav
192,192,203375,1,0,0:0:0:80:kick.wav
448,192,203375,1,0,0:0:0:70:F#7.wav
320,192,203525,1,0,0:0:0:70:C#7.wav
192,192,203675,1,0,0:0:0:70:F#7.wav
320,192,203825,1,0,0:0:0:70:G#7.wav
64,192,203975,1,0,0:0:0:70:F#7.wav
192,192,204125,1,0,0:0:0:70:C#7.wav
64,192,204275,1,0,0:0:0:70:F#7.wav
320,192,204425,1,0,0:0:0:70:C#8.wav
448,192,204425,1,0,0:0:0:0:
192,192,204575,1,0,0:0:0:70:F#7.wav
64,192,204725,1,0,0:0:0:70:C#7.wav
320,192,204875,1,0,0:0:0:70:F#7.wav
448,192,205025,1,0,0:0:0:70:C#8.wav
64,192,205175,1,0,0:0:0:70:F#7.wav
192,192,205325,1,0,0:0:0:70:C#7.wav
448,192,205325,1,0,0:0:0:0:
320,192,205475,1,0,0:0:0:70:F#7.wav
64,192,205625,1,0,0:0:0:70:C#8.wav
448,192,205625,1,0,0:0:0:0:
192,192,205775,1,0,0:0:0:70:F#7.wav
320,192,205775,1,0,0:0:0:0:
64,192,205925,1,0,0:0:0:70:C#7.wav
192,192,206075,1,0,0:0:0:70:F#7.wav
320,192,206225,1,0,0:0:0:70:G#7.wav
64,192,206375,1,0,0:0:0:70:F#7.wav
192,192,206525,1,0,0:0:0:70:C#7.wav
64,192,206675,1,0,0:0:0:70:F#7.wav
448,192,206825,1,0,0:0:0:70:C#8.wav
320,192,206900,1,0,0:0:0:0:
64,192,206975,1,0,0:0:0:70:F#7.wav
192,192,207125,1,0,0:0:0:70:C#7.wav
320,192,207275,1,0,0:0:0:70:C#8.wav
448,192,207275,1,0,0:0:0:70:F#7.wav
448,192,207425,1,0,0:0:0:70:C#8.wav
192,192,207575,1,0,0:0:0:70:B7.wav
320,192,207575,1,0,0:0:0:70:F#7.wav
64,192,207725,1,0,0:0:0:70:C#7.wav
192,192,207800,1,0,0:0:0:0:
320,192,207875,1,0,0:0:0:70:A#7.wav
448,192,207875,1,0,0:0:0:70:F#7.wav
64,192,207950,1,0,0:0:0:0:
448,192,208025,1,0,0:0:0:70:C#8.wav
64,192,208100,1,0,0:0:0:0:
192,192,208175,1,0,0:0:0:70:F#7.wav
320,192,208175,1,0,0:0:0:0:
448,192,208175,1,0,0:0:0:0:
64,192,208325,1,0,0:0:0:70:C#7.wav
192,192,208475,1,0,0:0:0:70:F#7.wav
320,192,208625,1,0,0:0:0:70:G#7.wav
64,192,208775,1,0,0:0:0:70:F#7.wav
192,192,208925,1,0,0:0:0:70:C#7.wav
64,192,209075,1,0,0:0:0:70:F#7.wav
448,192,209225,1,0,0:0:0:70:C#8.wav
192,192,209375,1,0,0:0:0:70:F#7.wav
64,192,209525,1,0,0:0:0:70:C#7.wav
320,192,209675,1,0,0:0:0:70:F#7.wav
448,192,209825,1,0,0:0:0:70:C#8.wav
192,192,209975,1,0,0:0:0:70:F#7.wav
64,192,210125,1,0,0:0:0:70:C#7.wav
320,192,210275,1,0,0:0:0:70:F#7.wav
448,192,210425,1,0,0:0:0:70:C#8.wav
192,192,210575,1,0,0:0:0:70:F#7.wav
320,192,210575,1,0,0:0:0:0:
64,192,210725,1,0,0:0:0:70:C#7.wav
192,192,210875,1,0,0:0:0:70:F#7.wav
320,192,211025,1,0,0:0:0:70:G#7.wav
64,192,211175,1,0,0:0:0:70:F#7.wav
192,192,211325,1,0,0:0:0:70:C#7.wav
64,192,211475,1,0,0:0:0:70:F#7.wav
448,192,211625,1,0,0:0:0:70:C#8.wav
192,192,211775,1,0,0:0:0:60:F#7.wav
320,192,211775,1,0,0:0:0:0:
64,192,211925,1,0,0:0:0:60:C#7.wav
320,192,212075,1,0,0:0:0:60:F#7.wav
448,192,212225,1,0,0:0:0:60:C#8.wav
192,192,212375,1,0,0:0:0:60:F#7.wav
64,192,212525,1,0,0:0:0:60:C#7.wav
320,192,212675,1,0,0:0:0:60:F#7.wav
448,192,212825,1,0,0:0:0:60:C#8.wav
192,192,212975,1,0,0:0:0:50:F#7.wav
320,192,212975,1,0,0:0:0:0:
64,192,213125,1,0,0:0:0:50:C#7.wav
192,192,213275,1,0,0:0:0:50:F#7.wav
320,192,213425,1,0,0:0:0:50:G#7.wav
64,192,213575,1,0,0:0:0:50:F#7.wav
192,192,213725,1,0,0:0:0:50:C#7.wav
64,192,213875,1,0,0:0:0:50:F#7.wav
448,192,214025,1,0,0:0:0:50:C#8.wav
192,192,214175,1,0,0:0:0:50:F#7.wav
64,192,214325,1,0,0:0:0:50:C#7.wav
320,192,214475,1,0,0:0:0:50:F#7.wav
448,192,214625,1,0,0:0:0:50:C#8.wav
192,192,214775,1,0,0:0:0:50:F#7.wav
64,192,214925,1,0,0:0:0:50:C#7.wav
320,192,215075,1,0,0:0:0:50:F#7.wav
448,192,215225,1,0,0:0:0:50:C#8.wav
192,192,215375,1,0,0:0:0:50:F#7.wav
320,192,215375,1,0,0:0:0:0:
64,192,215525,1,0,0:0:0:50:C#7.wav
192,192,215675,1,0,0:0:0:50:F#7.wav
320,192,215825,1,0,0:0:0:50:G#7.wav
64,192,215975,1,0,0:0:0:50:F#7.wav
192,192,216125,1,0,0:0:0:50:C#7.wav
64,192,216275,1,0,0:0:0:50:F#7.wav
448,192,216425,1,0,0:0:0:50:C#8.wav
64,192,216575,1,0,0:0:0:50:F#7.wav
192,192,216725,1,0,0:0:0:50:C#7.wav
320,192,216875,1,0,0:0:0:50:C#8.wav
448,192,216875,1,0,0:0:0:50:F#7.wav
448,192,217025,1,0,0:0:0:50:C#8.wav
192,192,217175,1,0,0:0:0:50:B7.wav
320,192,217175,1,0,0:0:0:50:F#7.wav
64,192,217325,1,0,0:0:0:50:C#7.wav
320,192,217475,1,0,0:0:0:50:A#7.wav
448,192,217475,1,0,0:0:0:50:F#7.wav
320,192,217625,1,0,0:0:0:50:C#8.wav
192,192,217775,1,0,0:0:0:50:F#7.wav
448,192,217775,1,0,0:0:0:0:
64,192,217925,1,0,0:0:0:50:C#7.wav
192,192,218075,1,0,0:0:0:50:F#7.wav
320,192,218225,1,0,0:0:0:50:G#7.wav
64,192,218375,1,0,0:0:0:50:F#7.wav
192,192,218525,1,0,0:0:0:50:C#7.wav
64,192,218675,1,0,0:0:0:50:F#7.wav
448,192,218825,1,0,0:0:0:50:C#8.wav
192,192,218975,1,0,0:0:0:50:F#7.wav
64,192,219125,1,0,0:0:0:50:C#7.wav
320,192,219275,1,0,0:0:0:50:F#7.wav
448,192,219425,1,0,0:0:0:50:C#8.wav
192,192,219575,1,0,0:0:0:50:F#7.wav
64,192,219725,1,0,0:0:0:50:C#7.wav
320,192,219875,1,0,0:0:0:50:F#7.wav
448,192,220025,1,0,0:0:0:50:C#8.wav
192,192,220175,1,0,0:0:0:50:F#7.wav
320,192,220175,1,0,0:0:0:0:
64,192,220325,1,0,0:0:0:50:C#7.wav
192,192,220475,1,0,0:0:0:50:F#7.wav
320,192,220625,1,0,0:0:0:50:G#7.wav
64,192,220775,1,0,0:0:0:50:F#7.wav
192,192,220925,1,0,0:0:0:50:C#7.wav
64,192,221075,1,0,0:0:0:50:F#7.wav
448,192,221225,1,0,0:0:0:50:C#8.wav
64,192,221375,1,0,0:0:0:50:F#8.wav
448,192,221375,1,0,0:0:0:0:
448,192,221975,1,0,0:0:0:50:F#8.wav
320,192,222050,1,0,0:0:0:50:F8.wav
448,192,222125,1,0,0:0:0:50:C#8.wav
192,192,222200,1,0,0:0:0:50:A#7.wav
320,192,222275,1,0,0:0:0:50:F#7.wav
64,192,222350,1,0,0:0:0:50:F7.wav
192,192,222425,1,0,0:0:0:50:C#7.wav
64,192,222500,1,0,0:0:0:50:A#6.wav
