osu file format v14

[General]
AudioFilename: audio.mp3
AudioLeadIn: 0
PreviewTime: 98899
Countdown: 0
SampleSet: Soft
StackLeniency: 0.4
Mode: 0
LetterboxInBreaks: 0
WidescreenStoryboard: 1

[Editor]
Bookmarks: 18350,116600
DistanceSpacing: 1.5
BeatDivisor: 8
GridSize: 4
TimelineZoom: 2.1

[Metadata]
Title:Infinity Heaven
TitleUnicode:Infinity Heaven
Artist:HyuN
ArtistUnicode:HyuN
Creator:Niva
Version:Hard
Source:BMS
Tags:osu! mappers' guild featured artist pishifat PandaHero Mirash Arcaea KRUX hyunesis HyuN_Inofixion crystal cappuccino never ending story
BeatmapID:1863247
BeatmapSetID:891345

[Difficulty]
HPDrainRate:5.5
CircleSize:3.5
OverallDifficulty:5.5
ApproachRate:7.5
SliderMultiplier:1.45
SliderTickRate:2

[Events]
//Background and Video events
0,0,"1.jpg",0,0
//Break Periods
//Storyboard Layer 0 (Background)
//Storyboard Layer 1 (Fail)
//Storyboard Layer 2 (Pass)
//Storyboard Layer 3 (Foreground)
//Storyboard Sound Samples

[TimingPoints]
725,375,4,2,1,35,1,0
725,-125,4,2,1,35,0,0
8131,-125,4,2,1,15,0,0
8225,-125,4,2,1,35,0,0
12725,-111.111111111111,4,2,1,50,0,0
13287,-111.111111111111,4,2,2,50,0,0
13381,-111.111111111111,4,2,1,50,0,0
14787,-111.111111111111,4,2,2,50,0,0
14881,-111.111111111111,4,2,1,50,0,0
16287,-111.111111111111,4,2,2,50,0,0
16381,-111.111111111111,4,2,1,50,0,0
17787,-111.111111111111,4,2,2,50,0,0
17881,-111.111111111111,4,2,1,50,0,0
19287,-111.111111111111,4,2,2,50,0,0
19381,-111.111111111111,4,2,1,50,0,0
20787,-111.111111111111,4,2,2,50,0,0
20881,-111.111111111111,4,2,1,50,0,0
21725,-111.111111111111,4,2,3,50,0,0
23225,-125,4,2,1,50,0,0
23975,-111.111111111111,4,2,1,50,0,0
24725,-100,4,2,1,60,0,0
48725,-100,4,2,1,70,0,1
72725,-111.111111111111,4,2,1,45,0,0
84725,-111.111111111111,4,2,1,60,0,0
87162,-111.111111111111,4,2,2,60,0,0
87256,-111.111111111111,4,2,1,60,0,0
87537,-111.111111111111,4,2,2,60,0,0
87631,-111.111111111111,4,2,1,60,0,0
90162,-111.111111111111,4,2,2,60,0,0
90256,-111.111111111111,4,2,1,60,0,0
90537,-111.111111111111,4,2,2,60,0,0
90631,-111.111111111111,4,2,1,60,0,0
93162,-111.111111111111,4,2,2,60,0,0
93256,-111.111111111111,4,2,1,60,0,0
93537,-111.111111111111,4,2,2,60,0,0
93631,-111.111111111111,4,2,1,60,0,0
94662,-111.111111111111,4,2,2,60,0,0
94756,-111.111111111111,4,2,1,60,0,0
95037,-111.111111111111,4,2,2,60,0,0
95131,-111.111111111111,4,2,1,60,0,0
96725,-111.111111111111,4,2,3,60,0,0
98975,-125,4,2,1,45,0,0
99256,-100,4,2,1,5,0,0
99350,-100,4,2,1,45,0,0
99631,-100,4,2,1,5,0,0
99725,-100,4,2,1,75,0,1
115381,-100,4,2,1,75,0,0
115475,-100,4,2,2,75,0,1
115521,-100,4,2,2,5,0,0
115756,-100,4,2,2,75,0,0
115803,-100,4,2,2,5,0,0
116037,-100,4,2,2,75,0,0
116084,-100,4,2,2,5,0,0
116225,-100,4,2,2,75,0,1
116271,-100,4,2,2,5,0,0
116506,-100,4,2,2,75,0,0
116553,-100,4,2,2,5,0,0
116787,-100,4,2,2,75,0,0
116834,-100,4,2,2,5,0,0
116975,-100,4,2,2,75,0,1
117021,-100,4,2,2,5,0,0
117256,-100,4,2,2,75,0,0
117303,-100,4,2,2,5,0,0
117537,-100,4,2,1,75,0,0
117725,-100,4,2,1,75,0,1
123725,-125,4,2,3,50,0,0
123818,-125,4,2,1,35,0,0
131131,-125,4,2,1,15,0,0
131225,-125,4,2,1,35,0,0
143131,-125,4,2,1,15,0,0
143225,-125,4,2,1,35,0,0
145475,-125,4,2,1,35,0,0
146225,-125,4,2,1,35,0,0
146975,-125,4,2,1,35,0,0

[Colours]
Combo1 : 255,253,174
Combo2 : 151,255,255
Combo3 : 43,253,190

[HitObjects]
359,232,725,6,0,P|372:274|354:316,2,87,6|0|2,1:2|0:0|0:0,0:0:0:0:
359,232,1850,1,2,0:0:0:0:
377,148,2037,1,0,0:0:0:0:
397,64,2225,6,0,P|426:31|472:26,2,87,2|0|2,0:0|0:0|0:0,0:0:0:0:
397,64,3350,1,2,0:0:0:0:
315,91,3537,1,0,0:0:0:0:
232,116,3725,6,0,P|189:106|161:69,2,87,2|0|2,0:0|0:0|0:0,0:0:0:0:
232,116,4850,1,2,0:0:0:0:
296,174,5037,1,0,0:0:0:0:
359,233,5225,6,0,P|372:274|354:316,2,87,2|0|2,0:0|0:0|0:0,0:0:0:0:
296,174,5975,2,0,L|229:174,1,58,2|0,0:0|0:0,0:0:0:0:
152,193,6350,2,0,L|81:193,1,58,2|0,0:0|0:0,0:0:0:0:
33,130,6725,6,0,P|20:88|38:46,2,87,2|0|2,0:0|0:0|0:0,0:0:0:0:
33,130,7850,2,0,L|131:129,1,87,2|0,0:0|0:0,0:0:0:0:
137,168,8225,6,0,P|166:135|212:130,2,87,2|0|2,0:0|0:0|0:0,0:0:0:0:
48,149,8975,2,0,L|54:224,1,58,2|0,0:0|0:0,0:0:0:0:
60,293,9350,2,0,L|65:359,1,58,2|0,0:0|0:0,0:0:0:0:
151,321,9725,6,0,P|192:336|235:319,1,87,2|0,0:0|0:0,0:0:0:0:
347,384,10287,1,2,0:0:0:0:
347,384,10475,2,0,P|380:356|387:310,1,87,2|0,0:0|0:0,0:0:0:0:
505,258,11037,1,2,0:0:0:0:
505,258,11225,6,0,P|497:214|461:186,1,87,2|0,0:0|0:0,0:0:0:0:
511,65,11787,1,2,0:0:0:0:
511,65,11975,2,0,L|445:65,1,58,2|0,0:0|0:0,0:0:0:0:
365,65,12350,2,0,L|296:65,1,58,2|0,0:0|0:0,0:0:0:0:
206,30,12725,5,6,1:2:0:0:
206,30,12912,2,0,P|253:74|254:146,1,130.499996017456,2|2,0:3|0:3,0:0:0:0:
227,227,13475,1,8,0:2:0:0:
138,192,13662,2,0,P|90:147|89:75,1,130.499996017456,2|2,0:3|0:3,0:0:0:0:
173,28,14225,5,2,1:2:0:0:
173,28,14412,2,0,B|214:28|214:28|237:37|237:37|262:28|262:28|311:28,1,130.499996017456,2|2,0:3|1:3,0:0:0:0:
394,12,14975,1,8,0:2:0:0:
413,104,15162,1,2,1:3:0:0:
319,120,15350,2,0,L|332:195,1,65.2499980087281,10|2,0:2|0:3,0:0:0:0:
296,271,15725,5,2,1:2:0:0:
296,271,15912,2,0,P|346:238|423:237,1,130.499996017456,2|2,0:3|0:3,0:0:0:0:
503,271,16475,1,8,0:2:0:0:
493,176,16662,2,0,P|485:113|477:35,1,130.499996017456,2|2,0:3|0:3,0:0:0:0:
379,11,17225,5,2,1:2:0:0:
379,11,17412,2,0,P|319:31|255:11,1,130.499996017456,2|2,0:3|1:2,0:0:0:0:
166,45,17975,1,10,0:2:0:0:
241,102,18162,1,2,1:3:0:0:
151,134,18350,2,0,L|141:208,1,65.2499980087281,10|2,0:2|0:3,0:0:0:0:
74,277,18725,5,2,1:2:0:0:
74,277,18912,2,0,P|132:303|196:287,1,130.499996017456,2|2,0:3|0:3,0:0:0:0:
285,320,19475,1,8,0:2:0:0:
374,352,19662,2,0,B|421:350|421:350|454:365|454:365|510:362,1,130.499996017456,2|2,0:3|0:3,0:0:0:0:
492,256,20225,5,2,1:2:0:0:
492,256,20412,2,0,P|486:192|480:117,1,130.499996017456,2|2,0:3|0:3,0:0:0:0:
507,33,20975,1,10,0:2:0:0:
415,56,21162,1,2,1:3:0:0:
322,33,21350,1,10,0:2:0:0:
230,59,21537,1,2,1:3:0:0:
230,59,21631,1,0,1:2:0:0:
230,59,21725,5,6,1:2:0:0:
230,59,23225,6,0,P|209:111|239:175,1,116,0|0,1:2|1:2,0:0:0:0:
422,252,23975,2,0,P|446:193|406:124,1,130.499996017456,0|0,1:2|1:2,0:0:0:0:
326,151,24537,1,0,0:0:0:0:
316,153,24631,1,0,0:0:0:0:
306,155,24725,6,0,L|221:155,1,72.5,4|0,1:2|0:0,0:0:0:0:
136,120,25100,1,10,0:0:0:0:
69,197,25287,2,0,P|64:279|136:317,1,145,0|2,1:2|1:2,0:0:0:0:
199,361,25850,2,0,L|281:357,1,72.5,10|0,0:0|0:0,0:0:0:0:
390,384,26225,6,0,L|385:305,1,72.5,0|0,1:2|1:2,0:0:0:0:
379,209,26600,1,8,0:0:0:0:
419,115,26787,2,0,P|365:158|265:148,1,145,2|0,1:2|1:2,0:0:0:0:
191,184,27350,2,0,L|194:112,1,72.5,10|2,0:0|0:0,0:0:0:0:
84,160,27725,6,0,L|12:160,1,72.5,0|0,1:2|0:0,0:0:0:0:
36,259,28100,1,10,0:0:0:0:
64,357,28287,2,0,P|127:322|205:329,1,145,0|2,1:2|1:2,0:0:0:0:
292,285,28850,2,0,P|302:319|323:348,1,72.5,10|0,0:0|1:2,0:0:0:0:
197,326,29225,5,0,1:2:0:0:
211,220,29412,1,2,1:2:0:0:
211,220,29600,2,0,P|234:198|250:160,1,72.5,10|0,0:0|1:2,0:0:0:0:
105,236,29975,2,0,P|112:266|137:299,1,72.5,2|0,0:0|1:2,0:0:0:0:
143,139,30350,2,0,P|112:130|71:135,1,72.5,10|0,0:0|1:2,0:0:0:0:
62,127,30631,1,0,1:2:0:0:
52,119,30725,6,0,B|40:85|40:85|52:46,1,72.5,2|0,1:2|0:0,0:0:0:0:
144,8,31100,1,10,0:0:0:0:
237,48,31287,2,0,B|286:46|286:46|328:64|328:64|381:62,1,145,0|2,1:2|1:2,0:0:0:0:
472,21,31850,2,0,L|477:105,1,72.5,10|0,0:0|1:2,0:0:0:0:
411,190,32225,6,0,L|416:274,1,72.5,0|0,1:2|1:2,0:0:0:0:
422,364,32600,1,8,0:0:0:0:
331,317,32787,2,0,B|290:317|290:317|261:328|261:328|233:317|233:317|180:317,1,145,2|0,1:2|1:2,0:0:0:0:
87,318,33350,2,0,L|9:319,1,72.5,10|2,0:0|1:2,0:0:0:0:
46,212,33725,6,0,L|41:138,1,72.5,0|0,1:2|0:0,0:0:0:0:
118,72,34100,1,10,0:0:0:0:
194,4,34287,2,0,P|261:28|334:4,1,145,0|2,1:2|1:2,0:0:0:0:
411,69,34850,2,0,L|497:69,1,72.5,10|0,0:0|1:2,0:0:0:0:
448,173,35225,5,8,0:0:0:0:
505,257,35412,1,10,0:0:0:0:
444,338,35600,1,10,0:0:0:0:
349,300,35787,1,8,0:0:0:0:
346,202,35975,2,0,L|340:139,3,36.25,10|8|8|8,0:0|0:0|0:0|0:0,0:0:0:0:
295,149,36350,2,0,L|306:88,3,36.25,10|8|8|8,0:0|0:0|0:0|0:0,0:0:0:0:
298,62,36725,6,0,P|352:83|408:70,1,108.75,6|2,1:2|0:0,0:0:0:0:
449,60,37100,1,8,0:0:0:0:
464,160,37287,2,0,P|475:231|491:323,1,145,2|0,1:2|1:2,0:0:0:0:
416,375,37850,2,0,L|339:375,1,72.5,10|0,0:0|1:2,0:0:0:0:
240,314,38225,6,0,L|158:314,1,72.5,2|0,1:2|1:2,0:0:0:0:
124,342,38506,1,2,0:0:0:0:
124,342,38600,1,8,0:0:0:0:
65,258,38787,2,0,P|91:192|57:128,1,145,2|0,1:2|1:2,0:0:0:0:
88,31,39350,2,0,L|8:37,1,72.5,10|0,0:0|1:2,0:0:0:0:
176,81,39725,6,0,L|288:72,1,108.75,2|2,1:2|0:0,0:0:0:0:
331,52,40100,1,8,0:0:0:0:
427,20,40287,2,0,P|492:49|501:122,1,145,2|0,1:2|1:2,0:0:0:0:
477,215,40850,2,0,L|488:311,1,72.5,10|0,0:0|1:2,0:0:0:0:
383,360,41225,5,0,1:2:0:0:
368,261,41412,1,2,1:2:0:0:
368,261,41600,2,0,P|332:269|297:261,1,72.5,10|0,0:0|1:2,0:0:0:0:
194,299,41975,2,0,P|204:333|229:359,1,72.5,2|0,0:0|1:2,0:0:0:0:
86,278,42350,2,0,P|97:242|121:216,1,72.5,10|0,0:0|1:2,0:0:0:0:
115,205,42631,1,0,1:2:0:0:
109,193,42725,6,0,P|159:213|231:200,1,108.75,2|2,1:2|0:0,0:0:0:0:
261,193,43100,1,8,0:0:0:0:
332,266,43287,2,0,B|377:266|377:266|403:275|403:275|431:266|431:266|479:266,1,145,2|0,1:2|1:2,0:0:0:0:
503,167,43850,2,0,L|497:89,1,72.5,10|0,0:0|1:2,0:0:0:0:
373,137,44225,6,0,L|367:59,1,72.5,2|0,1:2|1:2,0:0:0:0:
364,13,44506,1,2,0:0:0:0:
364,13,44600,1,8,0:0:0:0:
267,46,44787,2,0,P|199:69|133:45,1,145,2|0,1:2|1:2,2:1:0:0:
35,76,45350,2,0,L|39:-4,1,72.5,10|0,0:0|1:2,0:0:0:0:
90,163,45725,6,0,L|85:275,1,108.75,2|2,1:2|0:0,0:0:0:0:
64,318,46100,1,8,0:0:0:0:
155,362,46287,2,0,B|204:359|204:359|245:377|245:377|303:374,1,145,2|0,1:2|1:2,0:0:0:0:
398,384,46850,2,0,P|431:379|471:384,1,72.5,10|0,0:0|1:2,0:0:0:0:
428,272,47225,5,8,0:0:0:0:
328,294,47412,1,10,0:0:0:0:
275,206,47600,1,10,0:0:0:0:
340,127,47787,1,8,0:0:0:0:
432,172,47975,2,0,L|474:170,3,36.25,10|8|8|8,0:0|0:0|0:0|0:0,0:0:0:0:
449,123,48350,2,8,L|497:122,3,36.25,10|8|0|0,0:0|0:0|0:0|0:0,0:0:0:0:
466,75,48725,6,0,P|426:98|343:83,1,108.75,6|0,1:2|0:0,0:0:0:0:
315,82,49100,1,8,0:0:0:0:
221,121,49287,1,0,0:0:0:0:
125,158,49475,2,0,L|34:153,1,72.5,0|0,1:2|0:0,0:0:0:0:
46,256,49850,2,0,L|118:259,1,72.5,8|0,0:0|0:0,0:0:0:0:
178,357,50225,6,0,P|233:315|295:316,1,108.75,2|0,1:2|0:0,0:0:0:0:
309,344,50600,1,8,0:0:0:0:
325,243,50787,1,0,0:0:0:0:
402,309,50975,2,0,B|430:315|454:328|454:328|477:315|506:308,1,108.75,2|0,1:2|0:0,0:0:0:0:
512,257,51350,1,8,0:0:0:0:
492,156,51537,1,0,1:2:0:0:
465,46,51725,6,0,P|411:60|355:44,1,108.75,2|0,1:2|0:0,0:0:0:0:
311,31,52100,1,8,0:0:0:0:
211,54,52287,1,0,0:0:0:0:
110,34,52475,2,0,L|114:118,1,72.5,0|0,1:2|0:0,0:0:0:0:
61,194,52850,2,0,L|65:278,1,72.5,8|0,0:0|0:0,0:0:0:0:
33,375,53225,6,0,P|85:358|144:364,1,108.75,2|0,1:2|0:0,0:0:0:0:
178,330,53600,1,8,0:0:0:0:
270,373,53787,1,0,0:0:0:0:
358,321,53975,2,0,L|351:229,1,72.5,2|0,1:2|0:0,0:0:0:0:
302,159,54350,1,8,0:0:0:0:
336,59,54537,1,0,1:2:0:0:
334,47,54631,1,0,1:2:0:0:
332,35,54725,6,0,P|380:60|439:57,1,108.75,2|0,1:2|0:0,0:0:0:0:
483,45,55100,1,8,0:0:0:0:
497,145,55287,1,0,0:0:0:0:
511,246,55475,2,0,L|508:335,1,72.5,0|0,1:2|0:0,0:0:0:0:
410,288,55850,2,0,L|407:377,1,72.5,8|0,0:0|0:0,0:0:0:0:
295,326,56225,6,0,P|241:326|174:326,1,108.75,2|0,1:2|0:0,0:0:0:0:
142,352,56600,1,8,0:0:0:0:
107,256,56787,2,0,P|31:251|-7:180,1,145,2|0,0:0|0:0,0:0:0:0:
55,114,57350,2,0,L|51:39,1,72.5,10|0,0:0|1:2,0:0:0:0:
169,72,57725,6,0,B|211:70|211:70|237:82|237:82|282:80,1,108.75,2|0,0:0|0:0,0:0:0:0:
317,52,58100,1,8,0:0:0:0:
399,111,58287,2,0,P|418:177|360:216,1,145,2|0,0:0|0:0,0:0:0:0:
298,295,58850,2,0,L|303:371,1,72.5,10|0,0:0|0:0,0:0:0:0:
189,339,59225,6,0,L|115:343,1,72.5,2|0,1:2|0:0,0:0:0:0:
107,247,59600,2,0,L|35:251,1,72.5,10|0,0:0|0:0,0:0:0:0:
179,143,59975,2,0,L|105:147,1,72.5,2|0,1:2|0:0,0:0:0:0:
98,47,60350,2,0,L|26:51,1,72.5,10|0,0:0|1:2,0:0:0:0:
16,45,60631,1,0,1:2:0:0:
6,40,60725,6,0,P|-22:94|-9:150,1,108.75,6|0,1:2|0:0,0:0:0:0:
10,184,61100,1,8,0:0:0:0:
111,170,61287,1,0,0:0:0:0:
212,158,61475,2,0,L|285:158,1,72.5,0|0,1:2|0:0,0:0:0:0:
370,104,61850,2,0,L|398:190,1,72.5,8|0,0:0|0:0,0:0:0:0:
479,257,62225,6,0,P|422:268|376:311,1,108.75,2|0,1:2|0:0,0:0:0:0:
363,346,62600,1,8,0:0:0:0:
261,334,62787,1,0,0:0:0:0:
158,325,62975,2,0,P|103:325|44:325,1,108.75,2|0,1:2|0:0,0:0:0:0:
5,352,63350,1,8,0:0:0:0:
10,250,63537,1,0,1:2:0:0:
17,135,63725,6,0,P|66:150|121:135,1,108.75,2|0,1:2|0:0,0:0:0:0:
163,108,64100,1,8,0:0:0:0:
261,134,64287,1,0,0:0:0:0:
360,110,64475,2,0,L|366:197,1,72.5,0|0,1:2|0:0,0:0:0:0:
372,284,64850,2,0,L|378:371,1,72.5,8|0,0:0|0:0,0:0:0:0:
267,333,65225,6,0,P|220:344|157:320,1,108.75,2|0,1:2|0:0,0:0:0:0:
116,345,65600,1,8,0:0:0:0:
79,249,65787,1,0,0:0:0:0:
149,174,65975,2,0,L|232:174,1,72.5,2|0,1:2|0:0,0:0:0:0:
319,205,66350,1,8,0:0:0:0:
415,172,66537,1,0,1:2:0:0:
413,160,66631,1,0,1:2:0:0:
410,149,66725,6,0,L|400:75,1,72.5,10|0,0:0|0:0,0:0:0:0:
308,127,67100,2,0,L|227:127,1,72.5,8|0,0:0|0:0,0:0:0:0:
283,224,67475,2,0,L|293:298,1,72.5,8|0,0:0|0:0,0:0:0:0:
385,246,67850,2,0,L|466:246,1,72.5,8|0,0:0|0:0,0:0:0:0:
415,134,68225,6,0,L|403:48,1,72.5,10|0,0:0|0:0,0:0:0:0:
296,108,68600,2,0,L|202:108,1,72.5,8|0,0:0|0:0,0:0:0:0:
267,221,68975,2,0,L|278:306,1,72.5,10|0,0:0|0:0,0:0:0:0:
385,246,69350,2,0,L|478:246,1,72.5,8|0,0:0|0:0,0:0:0:0:
283,300,69725,5,10,0:0:0:0:
283,300,69912,1,8,0:0:0:0:
283,300,70100,2,0,L|236:380,1,72.5,8|8,0:0|0:0,0:0:0:0:
292,185,70475,1,8,0:0:0:0:
292,185,70662,1,8,0:0:0:0:
292,185,70850,2,0,L|245:104,1,72.5,8|8,0:0|0:0,0:0:0:0:
180,241,71225,5,10,0:0:0:0:
97,300,71412,1,8,0:0:0:0:
18,234,71600,1,8,0:0:0:0:
52,138,71787,1,8,0:0:0:0:
154,142,71975,2,0,L|150:98,3,36.25,8|8|8|8,0:0|0:0|0:0|0:0,0:0:0:0:
199,130,72350,2,0,L|195:82,3,36.25,8|8|8|8,0:0|0:0|0:0|0:0,0:0:0:0:
242,122,72725,6,0,P|325:166|407:120,1,195.749994026184,4|0,1:2|0:0,0:0:0:0:
415,111,73381,1,0,0:0:0:0:
422,101,73475,2,0,L|429:173,1,65.2499980087281,2|0,0:0|0:0,0:0:0:0:
439,260,73850,2,0,L|446:332,1,65.2499980087281,2|2,0:0|0:0,0:0:0:0:
344,269,74225,6,0,B|341:241|341:241|346:220|346:220|338:201|338:201|335:170,2,97.8749970130921,2|2|0,1:2|0:0|0:0,0:0:0:0:
393,350,74975,2,0,P|335:321|263:325,1,130.499996017456,2|2,0:0|0:0,0:0:0:0:
175,316,75537,1,0,0:0:0:0:
79,264,75725,6,0,L|74:370,2,97.8749970130921,2|2|0,1:2|0:0|0:0,0:0:0:0:
37,178,76475,2,0,P|94:208|165:188,1,130.499996017456,2|2,0:0|0:0,0:0:0:0:
242,155,77037,1,0,0:0:0:0:
329,224,77225,6,0,B|365:221|365:221|391:230|391:230|427:229,2,97.8749970130921,2|2|0,1:2|0:0|0:0,0:0:0:0:
262,292,77975,2,0,P|205:302|149:253,1,130.499996017456,2|2,0:0|0:0,0:0:0:0:
161,164,78537,1,0,0:0:0:0:
169,68,78725,5,2,1:2:0:0:
169,68,79100,2,0,L|163:4,2,65.2499980087281,0|0|2,0:0|0:0|0:0,0:0:0:0:
256,105,79662,1,0,0:0:0:0:
343,68,79850,2,0,L|349:4,1,65.2499980087281,2|2,0:0|0:0,0:0:0:0:
429,122,80225,6,0,L|435:186,1,65.2499980087281,2|0,1:2|0:0,0:0:0:0:
412,279,80600,1,2,0:0:0:0:
317,288,80787,1,0,0:0:0:0:
268,205,80975,2,0,L|189:212,1,65.2499980087281,2|0,0:0|0:0,0:0:0:0:
107,205,81350,2,0,L|23:212,1,65.2499980087281,2|0,0:0|0:0,0:0:0:0:
159,128,81725,6,0,B|146:183|163:222|163:222|183:265|172:319,1,195.749994026184,2|0,1:2|0:0,0:0:0:0:
165,331,82381,1,0,0:0:0:0:
157,341,82475,2,0,L|224:349,1,65.2499980087281,2|0,0:0|0:0,0:0:0:0:
317,341,82850,2,0,L|384:349,1,65.2499980087281,2|0,0:0|0:0,0:0:0:0:
477,342,83225,5,2,1:2:0:0:
477,340,83787,1,0,0:0:0:0:
474,327,83880,1,0,0:0:0:0:
471,314,83975,2,0,P|483:283|512:257,1,65.2499980087281,2|0,0:0|0:0,0:0:0:0:
418,221,84350,2,0,P|397:195|389:156,1,65.2499980087281,2|0,0:0|0:0,0:0:0:0:
289,212,84725,6,0,B|253:212|253:212|225:219|225:219|197:212|197:212|139:212,1,130.499996017456,6|2,1:2|0:0,0:0:0:0:
66,226,85287,1,2,0:3:0:0:
53,131,85475,2,0,L|43:61,1,65.2499980087281,10|2,0:0|0:3,0:0:0:0:
138,55,85850,2,0,L|148:125,1,65.2499980087281,2|2,0:0|0:3,0:0:0:0:
250,83,86225,6,0,P|309:108|373:83,1,130.499996017456,2|2,1:2|0:0,0:0:0:0:
450,38,86787,1,2,1:3:0:0:
450,133,86975,2,0,L|449:219,1,65.2499980087281,10|2,0:0|1:2,0:0:0:0:
447,293,87350,2,0,L|446:379,1,65.2499980087281,10|2,0:0|0:3,0:0:0:0:
336,337,87725,6,0,P|272:347|205:313,1,130.499996017456,2|2,1:2|0:0,0:0:0:0:
121,346,88287,1,2,0:3:0:0:
28,320,88475,2,0,L|1:252,1,65.2499980087281,10|2,0:0|0:3,0:0:0:0:
77,198,88850,2,0,L|51:124,1,65.2499980087281,2|2,0:2|0:3,0:0:0:0:
31,39,89225,6,0,P|75:84|154:80,1,130.499996017456,2|2,1:2|0:0,0:0:0:0:
224,44,89787,1,2,1:3:0:0:
305,94,89975,2,0,B|318:124|318:124|307:157,1,65.2499980087281,10|2,0:0|1:3,0:0:0:0:
266,240,90350,2,0,B|253:270|253:270|264:303,1,65.2499980087281,10|2,0:0|0:3,0:0:0:0:
353,370,90725,6,0,P|416:377|474:338,1,130.499996017456,2|2,1:2|0:0,0:0:0:0:
460,247,91287,1,2,0:3:0:0:
452,151,91475,2,0,L|377:158,1,65.2499980087281,10|2,0:0|0:3,0:0:0:0:
292,147,91850,2,0,L|217:154,1,65.2499980087281,2|2,0:0|0:3,0:0:0:0:
125,204,92225,6,0,P|63:215|8:173,1,130.499996017456,2|2,1:2|0:0,0:0:0:0:
60,95,92787,1,2,0:3:0:0:
106,11,92975,2,0,L|179:11,1,65.2499980087281,10|2,0:0|1:3,0:0:0:0:
258,49,93350,1,10,0:0:0:0:
346,84,93537,1,2,1:3:0:0:
357,88,93631,1,0,1:2:0:0:
368,92,93725,6,0,P|343:151|375:216,1,130.499996017456,2|2,1:2|0:0,0:0:0:0:
331,296,94287,1,2,0:3:0:0:
293,384,94475,2,0,B|215:384,1,65.2499980087281,10|2,0:0|0:3,0:0:0:0:
139,348,94850,2,0,L|70:348,1,65.2499980087281,2|2,0:0|0:3,0:0:0:0:
109,240,95225,6,0,P|117:210|106:174,1,65.2499980087281,2|0,1:2|0:0,0:0:0:0:
192,316,95600,2,0,P|162:324|136:351,1,65.2499980087281,0|0,1:2|0:0,0:0:0:0:
216,208,95975,2,0,P|237:229|274:238,1,65.2499980087281,0|0,1:2|0:0,0:0:0:0:
365,302,96350,1,0,1:2:0:0:
287,375,96537,1,0,1:2:0:0:
287,375,96631,1,0,1:2:0:0:
287,375,96725,5,4,1:2:0:0:
287,375,98975,6,0,P|346:372|417:368,1,116,2|2,0:0|0:0,0:0:0:0:
185,267,99725,6,0,P|126:270|58:274,1,108.75,6|0,1:2|0:0,0:0:0:0:
30,294,100100,1,8,0:0:0:0:
17,192,100287,1,0,0:0:0:0:
3,90,100475,2,0,P|55:110|108:102,1,108.75,2|0,1:2|0:0,0:0:0:0:
155,87,100850,1,8,0:0:0:0:
227,158,101037,1,0,0:0:0:0:
315,234,101225,6,0,B|357:232|357:232|381:245|381:245|431:243,1,108.75,2|0,1:2|0:0,0:0:0:0:
467,262,101600,1,8,0:0:0:0:
512,163,101787,1,0,0:0:0:0:
441,88,101975,2,0,L|348:91,1,72.5,2|0,1:2|0:0,0:0:0:0:
276,45,102350,2,0,L|262:125,1,72.5,10|0,0:0|1:2,0:0:0:0:
290,236,102725,6,0,P|245:212|181:215,1,108.75,2|0,1:2|0:0,0:0:0:0:
139,228,103100,1,8,0:0:0:0:
57,166,103287,1,0,0:0:0:0:
145,114,103475,2,0,L|150:6,2,108.75,2|2|2,1:2|0:0|0:0,0:0:0:0:
261,66,104225,6,0,B|286:60|314:66|314:66|343:74|368:68,1,108.75,2|0,1:2|0:0,0:0:0:0:
410,39,104600,1,8,0:0:0:0:
434,137,104787,1,0,0:0:0:0:
463,235,104975,2,0,L|459:327,1,72.5,2|0,1:2|0:0,0:0:0:0:
365,347,105350,1,10,0:0:0:0:
269,311,105537,1,0,1:2:0:0:
257,305,105631,1,0,1:2:0:0:
246,297,105725,6,0,P|195:309|131:290,1,108.75,6|0,1:2|0:0,0:0:0:0:
100,327,106100,1,8,0:0:0:0:
92,225,106287,1,0,0:0:0:0:
82,122,106475,2,0,B|50:122|50:122|28:131|28:131|5:122|5:122|-29:122,2,108.75,2|2|2,1:2|0:0|0:0,0:0:0:0:
175,64,107225,6,0,P|181:98|198:132,1,72.5,4|0,1:2|0:0,0:0:0:0:
289,191,107600,2,0,P|258:207|230:234,1,72.5,10|0,0:0|0:0,0:0:0:0:
204,342,107975,2,0,P|179:318|144:300,1,72.5,2|0,1:2|0:0,0:0:0:0:
49,336,108350,1,10,0:0:0:0:
56,234,108537,1,0,1:2:0:0:
47,114,108725,6,0,P|94:137|159:130,1,108.75,6|0,1:2|0:0,0:0:0:0:
199,124,109100,1,8,0:0:0:0:
218,224,109287,1,0,0:0:0:0:
298,161,109475,2,0,P|354:161|423:161,1,108.75,4|0,1:2|0:0,0:0:0:0:
452,183,109850,1,10,0:0:0:0:
462,81,110037,1,2,0:0:0:0:
366,6,110225,6,0,P|314:6|257:6,1,108.75,6|0,1:2|0:0,0:0:0:0:
206,6,110600,1,8,0:0:0:0:
117,57,110787,1,2,0:0:0:0:
28,107,110975,2,0,L|33:179,1,72.5,4|0,1:2|0:0,0:0:0:0:
41,281,111350,2,0,L|46:353,1,72.5,10|2,0:0|1:2,0:0:0:0:
39,365,111631,1,0,1:2:0:0:
30,375,111725,6,0,P|77:355|152:358,1,108.75,6|0,1:2|0:0,0:0:0:0:
184,364,112100,1,8,0:0:0:0:
277,323,112287,1,0,0:0:0:0:
370,365,112475,2,0,P|428:370|480:343,1,108.75,2|0,1:2|0:0,0:0:0:0:
508,313,112850,1,8,0:0:0:0:
500,211,113037,1,0,0:0:0:0:
490,93,113225,6,0,L|483:2,1,72.5,6|0,1:2|0:0,0:0:0:0:
386,50,113600,2,0,L|393:141,1,72.5,10|0,0:0|0:0,0:0:0:0:
363,220,113975,2,0,L|461:213,1,72.5,6|0,1:2|0:0,0:0:0:0:
431,317,114350,2,0,L|333:324,1,72.5,10|2,0:0|1:2,0:0:0:0:
345,323,114631,1,0,1:2:0:0:
331,324,114725,6,0,L|250:329,1,72.5,4|0,1:2|0:0,0:0:0:0:
152,351,115100,1,8,0:0:0:0:
153,337,115193,1,8,0:0:0:0:
154,323,115287,1,8,0:0:0:0:
155,309,115381,1,8,0:0:0:0:
157,295,115475,6,0,P|104:322|47:317,1,108.75,6|6,1:2|1:2,0:0:0:0:
195,179,116037,1,6,1:2:0:0:
195,179,116225,6,0,P|145:146|120:94,1,108.75,6|6,1:2|1:2,0:0:0:0:
309,134,116787,1,6,1:2:0:0:
309,134,116975,6,0,P|312:74|344:27,1,108.75,6|6,1:2|1:2,0:0:0:0:
430,168,117537,1,0,1:2:0:0:
430,168,117631,1,0,1:2:0:0:
430,168,117725,6,0,P|439:206|425:249,1,72.5,6|0,1:2|0:2,0:0:0:0:
507,306,118100,2,0,P|486:339|446:359,1,72.5,8|0,0:0|0:0,0:0:0:0:
359,322,118475,2,0,P|324:310|275:311,1,72.5,10|0,0:0|0:0,0:0:0:0:
187,327,118850,2,0,P|153:343|119:378,1,72.5,8|0,0:0|0:0,0:0:0:0:
221,230,119225,6,0,P|215:197|206:148,1,72.5,6|0,1:2|0:0,0:0:0:0:
258,338,119600,2,0,P|220:332|175:326,1,72.5,10|0,0:0|0:0,0:0:0:0:
385,319,119975,2,0,P|367:354|348:394,1,72.5,10|0,0:0|0:0,0:0:0:0:
419,209,120350,2,0,P|448:237|479:266,1,72.5,10|0,0:0|0:0,0:0:0:0:
325,142,120725,5,6,1:2:0:0:
325,142,120912,1,8,0:0:0:0:
325,142,121100,2,0,L|322:59,1,72.5,8|8,0:0|0:0,0:0:0:0:
297,257,121475,1,4,1:2:0:0:
297,257,121662,1,8,0:0:0:0:
297,257,121850,2,0,L|377:254,1,72.5,8|8,0:0|0:0,0:0:0:0:
183,281,122225,6,0,L|181:239,3,36.25,6|8|8|8,1:2|0:0|0:0|0:0,0:0:0:0:
142,225,122600,2,0,L|163:189,3,36.25,8|8|8|8,0:0|0:0|0:0|0:0,0:0:0:0:
149,149,122975,2,8,L|192:141,3,36.25,4|8|8|8,1:2|0:0|0:0|0:0,0:0:0:0:
188,93,123350,2,8,L|226:109,3,36.25,4|8|0|8,1:2|0:0|0:0|0:0,0:0:0:0:
262,119,123725,6,0,P|304:129|348:118,2,87,6|0|2,1:2|0:0|0:0,0:0:0:0:
262,119,124850,1,2,0:0:0:0:
273,204,125037,1,0,0:0:0:0:
239,284,125225,6,0,P|261:319|304:340,2,87,2|0|2,0:0|0:0|0:0,0:0:0:0:
239,284,126350,1,2,0:0:0:0:
153,296,126537,1,0,0:0:0:0:
66,284,126725,6,0,P|56:322|67:370,2,87,2|0|2,0:0|0:0|0:0,0:0:0:0:
66,284,127849,1,2,0:0:0:0:
153,296,128037,1,0,0:0:0:0:
239,306,128225,6,0,P|278:307|322:285,2,87,2|0|2,0:0|0:0|0:0,0:0:0:0:
178,368,128975,2,0,P|153:352|134:330,1,58,2|0,0:0|0:0,0:0:0:0:
49,345,129350,2,0,P|42:316|45:287,1,58,2|0,0:0|0:0,0:0:0:0:
0,208,129725,6,0,P|29:175|36:132,2,87,2|0|2,0:0|0:0|0:0,0:0:0:0:
0,208,130850,2,0,L|96:204,1,87,2|0,0:0|0:0,0:0:0:0:
122,229,131225,6,0,P|169:240|207:229,2,87,2|0|2,0:0|0:0|0:0,0:0:0:0:
165,148,131975,2,0,L|160:83,1,58,2|0,0:0|0:0,0:0:0:0:
251,102,132350,2,0,L|246:37,1,58,2|2,0:0|0:0,0:0:0:0:
337,63,132725,6,0,P|364:91|412:105,1,87,2|0,0:0|0:0,0:0:0:0:
341,216,133287,1,2,0:0:0:0:
341,216,133475,2,0,P|330:253|342:301,1,87,2|0,0:0|0:0,0:0:0:0:
210,310,134037,1,2,0:0:0:0:
210,310,134225,6,0,P|172:319|136:353,1,87,2|0,0:0|0:0,0:0:0:0:
77,215,134787,1,2,0:0:0:0:
77,215,134975,2,0,L|73:151,1,58,2|0,0:0|0:0,0:0:0:0:
68,70,135350,2,0,L|64:6,1,58,2|0,0:0|0:0,0:0:0:0:
154,36,135725,6,0,P|197:40|246:17,2,87,2|0|2,0:0|0:0|0:0,0:0:0:0:
154,36,136850,1,2,0:0:0:0:
160,122,137037,1,0,0:0:0:0:
169,208,137225,6,0,P|126:212|77:189,2,87,2|0|2,0:0|0:0|0:0,0:0:0:0:
169,208,138350,1,2,0:0:0:0:
175,294,138537,1,0,0:0:0:0:
180,381,138725,6,0,P|225:382|272:362,2,87,2|0|2,0:0|0:0|0:0,0:0:0:0:
180,381,139850,1,2,0:0:0:0:
184,294,140037,1,0,0:0:0:0:
104,330,140225,6,0,P|60:332|21:315,2,87,2|0|2,0:0|0:0|0:0,0:0:0:0:
184,294,140975,2,0,L|260:294,1,58,2|0,0:0|0:0,0:0:0:0:
322,328,141350,2,0,L|390:328,1,58,2|0,0:0|0:0,0:0:0:0:
464,294,141725,6,0,P|475:253|461:209,2,87,2|0|2,0:0|0:0|0:0,0:0:0:0:
465,294,142850,2,0,L|377:295,1,87,2|0,0:0|0:0,0:0:0:0:
385,337,143225,6,0,P|345:319|298:321,2,87,2|0|2,0:0|0:0|0:0,0:0:0:0:
435,261,143975,2,0,L|430:200,1,58,2|0,0:0|0:0,0:0:0:0:
485,131,144350,2,0,L|480:70,1,58,2|0,0:0|0:0,0:0:0:0:
412,12,144725,6,0,P|370:21|326:11,1,87,2|0,0:0|0:0,0:0:0:0:
343,141,145287,1,2,0:0:0:0:
343,141,145475,2,0,P|302:127|269:97,1,87,2|0,0:0|0:0,0:0:0:0:
224,220,146037,1,2,0:0:0:0:
224,220,146225,6,0,P|195:188|181:145,1,87,2|0,0:0|0:0,0:0:0:0:
83,232,146787,1,2,0:0:0:0:
83,232,146975,2,0,P|74:189|83:145,1,87,2|0,0:0|0:0,0:0:0:0:
144,32,147537,1,2,0:0:0:0:
