osu file format v14

[General]
AudioFilename: audio.mp3
AudioLeadIn: 0
PreviewTime: 98899
Countdown: 0
SampleSet: Soft
StackLeniency: 0.4
Mode: 0
LetterboxInBreaks: 0
WidescreenStoryboard: 1

[Editor]
Bookmarks: 18350,116600
DistanceSpacing: 0.8
BeatDivisor: 4
GridSize: 4
TimelineZoom: 2.1

[Metadata]
Title:Infinity Heaven
TitleUnicode:Infinity Heaven
Artist:HyuN
ArtistUnicode:HyuN
Creator:Niva
Version:Ad Infinitum
Source:BMS
Tags:osu! mappers' guild featured artist pishifat PandaHero Mirash Arcaea KRUX hyunesis HyuN_Inofixion crystal cappuccino never ending story
BeatmapID:1863246
BeatmapSetID:891345

[Difficulty]
HPDrainRate:6
CircleSize:4.8
OverallDifficulty:8
ApproachRate:9
SliderMultiplier:1.9
SliderTickRate:2

[Events]
//Background and Video events
0,0,"1.jpg",0,0
//Break Periods
//Storyboard Layer 0 (Background)
//Storyboard Layer 1 (Fail)
//Storyboard Layer 2 (Pass)
//Storyboard Layer 3 (Foreground)
//Storyboard Sound Samples

[TimingPoints]
725,375,4,2,1,35,1,0
725,-166.666666666667,4,2,1,35,0,0
8131,-166.666666666667,4,2,1,15,0,0
8225,-166.666666666667,4,2,1,35,0,0
12725,-133.333333333333,4,2,1,50,0,0
13287,-133.333333333333,4,2,2,50,0,0
13381,-133.333333333333,4,2,1,50,0,0
14787,-133.333333333333,4,2,2,50,0,0
14881,-133.333333333333,4,2,1,50,0,0
16287,-133.333333333333,4,2,2,50,0,0
16381,-133.333333333333,4,2,1,50,0,0
17787,-133.333333333333,4,2,2,50,0,0
17881,-133.333333333333,4,2,1,50,0,0
19287,-133.333333333333,4,2,2,50,0,0
19381,-133.333333333333,4,2,1,50,0,0
20787,-133.333333333333,4,2,2,50,0,0
20881,-133.333333333333,4,2,1,50,0,0
21725,-133.333333333333,4,2,3,50,0,0
23225,-133.333333333333,4,2,1,50,0,0
24725,-117.647058823529,4,2,1,60,0,0
48725,-100,4,2,1,70,0,1
72725,-133.333333333333,4,2,1,45,0,0
84725,-117.647058823529,4,2,1,60,0,0
87162,-117.647058823529,4,2,2,60,0,0
87256,-117.647058823529,4,2,1,60,0,0
87537,-117.647058823529,4,2,2,60,0,0
87631,-117.647058823529,4,2,1,60,0,0
90162,-117.647058823529,4,2,2,60,0,0
90256,-117.647058823529,4,2,1,60,0,0
90537,-117.647058823529,4,2,2,60,0,0
90631,-117.647058823529,4,2,1,60,0,0
93162,-117.647058823529,4,2,2,60,0,0
93256,-117.647058823529,4,2,1,60,0,0
93537,-117.647058823529,4,2,2,60,0,0
93631,-117.647058823529,4,2,1,60,0,0
94662,-117.647058823529,4,2,2,60,0,0
94756,-117.647058823529,4,2,1,60,0,0
95037,-117.647058823529,4,2,2,60,0,0
95131,-117.647058823529,4,2,1,60,0,0
96725,-117.647058823529,4,2,3,60,0,0
98975,-200,4,2,1,45,0,0
99256,-200,4,2,1,5,0,0
99350,-200,4,2,1,45,0,0
99631,-200,4,2,1,5,0,0
99725,-100,4,2,1,75,0,1
115381,-100,4,2,1,75,0,0
115475,-100,4,2,2,75,0,1
115521,-100,4,2,2,5,0,0
115756,-100,4,2,2,75,0,0
115803,-100,4,2,2,5,0,0
116037,-100,4,2,2,75,0,0
116084,-100,4,2,2,5,0,0
116225,-100,4,2,2,75,0,1
116271,-100,4,2,2,5,0,0
116506,-100,4,2,2,75,0,0
116553,-100,4,2,2,5,0,0
116787,-100,4,2,2,75,0,0
116834,-100,4,2,2,5,0,0
116975,-100,4,2,2,75,0,1
117021,-100,4,2,2,5,0,0
117256,-100,4,2,2,75,0,0
117303,-100,4,2,2,5,0,0
117537,-100,4,2,1,75,0,0
117725,-100,4,2,1,75,0,1
123725,-166.666666666667,4,2,3,50,0,0
123748,-166.666666666667,4,2,1,35,0,0
131131,-166.666666666667,4,2,1,15,0,0
131225,-166.666666666667,4,2,1,35,0,0
143131,-166.666666666667,4,2,1,15,0,0
143225,-166.666666666667,4,2,1,35,0,0
145475,-200,4,2,1,35,0,0
146225,-250,4,2,1,35,0,0
146975,-333.333333333333,4,2,1,35,0,0

[Colours]
Combo1 : 255,253,174
Combo2 : 151,255,255
Combo3 : 43,253,190

[HitObjects]
278,91,725,6,0,P|293:52|274:7,2,85.4999973907472,6|0|2,1:2|0:0|0:0,0:0:0:0:
278,91,1850,1,2,0:0:0:0:
292,169,2037,1,0,0:0:0:0:
312,249,2225,6,0,P|270:255|241:294,2,85.4999973907472,2|0|2,0:0|0:0|0:0,0:0:0:0:
312,249,3350,1,2,0:0:0:0:
372,192,3537,1,0,0:0:0:0:
435,136,3725,6,0,P|461:168|509:174,2,85.4999973907472,2|0|2,0:0|0:0|0:0,0:0:0:0:
435,136,4850,1,2,0:0:0:0:
356,114,5037,1,0,0:0:0:0:
278,91,5225,6,0,P|317:76|337:31,2,85.4999973907472,2|0|2,0:0|0:0|0:0,0:0:0:0:
191,65,5975,1,2,0:0:0:0:
209,153,6162,1,0,0:0:0:0:
228,245,6350,1,2,0:0:0:0:
250,349,6537,1,0,0:0:0:0:
359,287,6725,6,0,P|399:286|434:252,2,85.4999973907472,2|0|2,0:0|0:0|0:0,0:0:0:0:
359,287,7850,2,0,P|317:281|266:274,1,85.4999973907472,2|0,0:0|0:0,0:0:0:0:
243,271,8225,6,0,P|271:299|274:342,2,85.4999973907472,2|0|2,0:0|0:0|0:0,0:0:0:0:
144,251,8975,1,2,0:0:0:0:
238,250,9162,1,0,0:0:0:0:
149,271,9350,1,2,0:0:0:0:
56,251,9537,1,0,0:0:0:0:
8,158,9725,5,2,0:0:0:0:
46,347,10006,1,0,0:0:0:0:
191,218,10287,1,2,0:0:0:0:
78,247,10475,5,2,0:0:0:0:
215,258,10756,1,0,0:0:0:0:
352,269,11037,1,2,0:0:0:0:
280,329,11225,5,2,0:0:0:0:
447,263,11506,1,0,0:0:0:0:
259,218,11787,1,2,0:0:0:0:
343,171,11975,5,2,0:0:0:0:
329,293,12162,1,0,0:0:0:0:
277,227,12350,1,2,0:0:0:0:
424,275,12537,1,0,0:0:0:0:
221,317,12725,5,6,1:2:0:0:
227,159,12912,2,0,P|159:172|94:138,1,142.500005435944,2|2,0:3|0:3,0:2:0:0:
75,105,13381,1,0,0:2:0:0:
75,105,13475,1,8,0:2:0:0:
276,85,13662,2,0,P|275:158|275:238,1,142.500005435944,2|2,0:3|0:3,0:2:0:0:
129,306,14225,5,2,1:2:0:0:
239,383,14412,2,0,P|301:352|374:355,1,142.500005435944,2|2,0:3|1:3,0:2:0:0:
413,367,14881,1,2,0:3:0:0:
413,367,14975,1,8,0:0:0:0:
352,232,15162,1,2,1:3:0:0:
506,182,15350,2,0,P|503:219|501:253,1,71.2500027179719,10|2,0:2|0:3,0:2:0:0:
381,122,15725,5,2,1:2:0:0:
429,2,15912,2,0,P|366:33|292:20,1,142.500005435944,2|2,0:3|0:3,0:2:0:0:
262,2,16381,1,0,0:2:0:0:
262,2,16475,1,8,0:2:0:0:
184,120,16662,2,0,B|144:120|144:120|114:129|114:129|84:120|84:120|44:120,1,142.500005435944,2|2,0:3|0:3,0:2:0:0:
166,23,17225,5,2,1:2:0:0:
280,120,17412,2,0,P|249:193|181:215,1,142.500005435944,2|2,0:3|1:2,0:2:0:0:
150,215,17881,1,0,0:2:0:0:
150,215,17975,1,8,0:0:0:0:
182,370,18162,1,2,1:3:0:0:
365,272,18350,2,0,L|293:272,1,71.2500027179719,10|2,0:2|0:3,0:2:0:0:
336,81,18725,5,2,1:2:0:0:
330,190,18912,2,0,P|285:238|213:237,1,142.500005435944,2|2,0:3|0:3,0:2:0:0:
171,221,19381,1,0,0:2:0:0:
171,221,19475,1,8,0:2:0:0:
38,169,19662,2,0,P|41:240|43:311,1,142.500005435944,2|2,0:3|0:3,0:2:0:0:
113,60,20225,5,2,1:2:0:0:
228,124,20412,2,0,P|294:143|365:108,1,142.500005435944,2|2,0:3|0:3,0:2:0:0:
396,89,20881,1,0,0:2:0:0:
396,89,20975,1,10,0:2:0:0:
508,209,21162,1,2,1:3:0:0:
485,120,21350,1,10,0:2:0:0:
455,282,21537,1,2,1:3:0:0:
455,282,21631,1,0,1:2:0:0:
455,282,21725,5,6,1:2:0:0:
455,282,23225,5,0,1:2:0:0:
57,282,23600,1,0,1:2:0:0:
455,282,23975,1,0,1:2:0:0:
57,282,24350,1,0,1:2:0:0:
192,194,24537,1,0,0:0:0:0:
195,186,24631,1,0,0:0:0:0:
197,180,24725,5,4,1:2:0:0:
199,212,24818,1,0,0:0:0:0:
201,244,24912,1,0,0:0:0:0:
203,275,25006,1,0,0:0:0:0:
206,307,25100,1,10,0:0:0:0:
325,371,25287,2,0,P|406:377|461:313,1,161.500003080368,0|2,1:2|1:2,0:0:0:0:
460,282,25756,1,0,0:0:0:0:
460,282,25850,1,10,0:0:0:0:
272,301,26037,1,0,0:0:0:0:
85,319,26225,5,0,1:2:0:0:
87,287,26318,1,0,0:0:0:0:
89,254,26412,2,0,L|92:206,2,40.375000770092,0|0|8,1:2|0:0|0:0,0:0:0:0:
47,107,26787,2,0,P|102:160|187:150,1,161.500003080368,2|0,1:2|1:2,0:0:0:0:
215,129,27256,1,0,0:0:0:0:
215,129,27350,1,10,0:0:0:0:
323,300,27537,1,2,0:0:0:0:
458,136,27725,5,0,1:2:0:0:
434,159,27819,1,0,0:0:0:0:
404,172,27913,1,0,0:0:0:0:
372,175,28007,1,0,0:0:0:0:
340,166,28100,1,10,0:0:0:0:
241,322,28287,2,0,B|298:317|298:317|342:335|342:335|407:330,1,161.500003080368,0|2,1:2|1:2,0:0:0:0:
439,326,28756,1,0,0:0:0:0:
439,326,28850,1,10,0:0:0:0:
274,233,29037,1,0,1:2:0:0:
419,133,29225,5,0,1:2:0:0:
439,326,29412,1,2,1:2:0:0:
512,266,29600,1,10,0:0:0:0:
342,193,29787,1,0,1:2:0:0:
353,282,29975,1,2,0:0:0:0:
503,177,30162,1,0,1:2:0:0:
363,200,30350,1,10,0:0:0:0:
224,224,30537,1,0,1:2:0:0:
236,228,30631,1,0,1:2:0:0:
248,232,30725,5,2,1:2:0:0:
216,244,30818,1,0,0:0:0:0:
182,245,30912,1,0,0:0:0:0:
151,229,31006,1,0,0:0:0:0:
130,201,31100,1,10,0:0:0:0:
236,71,31287,2,0,B|276:65|312:88|312:88|349:112|393:107,1,161.500003080368,0|2,1:2|1:2,0:0:0:0:
429,98,31756,1,0,0:0:0:0:
429,98,31850,1,10,0:0:0:0:
458,265,32037,1,0,1:2:0:0:
291,196,32225,5,0,1:2:0:0:
259,199,32318,1,0,0:0:0:0:
226,203,32412,2,0,L|232:149,2,40.375000770092,0|0|8,1:2|0:0|0:0,0:0:0:0:
169,363,32787,2,0,P|237:323|323:336,1,161.500003080368,2|0,1:2|1:2,0:0:0:0:
353,350,33256,1,0,0:0:0:0:
353,350,33350,1,10,0:0:0:0:
496,259,33537,1,2,1:2:0:0:
346,167,33725,5,0,1:2:0:0:
345,134,33818,1,0,0:0:0:0:
344,101,33912,1,0,0:0:0:0:
343,68,34006,1,0,0:0:0:0:
342,35,34100,1,10,0:0:0:0:
196,120,34287,2,0,P|119:139|55:92,1,161.500003080368,0|2,1:2|1:2,0:0:0:0:
39,57,34756,1,0,0:0:0:0:
39,57,34850,1,10,0:0:0:0:
21,203,35037,1,0,1:2:0:0:
3,350,35225,6,0,L|43:346,1,40.375000770092,8|0,0:0|0:0,0:0:0:0:
189,282,35412,2,0,L|148:277,1,40.375000770092,10|0,0:0|0:0,0:0:0:0:
21,203,35600,2,0,L|74:199,1,40.375000770092,10|0,0:0|0:0,0:0:0:0:
173,108,35787,2,0,L|127:103,1,40.375000770092,8|0,0:0|0:0,0:0:0:0:
29,21,35975,1,10,0:0:0:0:
41,20,36068,1,8,0:0:0:0:
54,19,36162,1,8,0:0:0:0:
67,17,36256,1,8,0:0:0:0:
82,14,36350,2,0,P|64:31|51:57,1,40.375000770092,10|8,0:0|0:0,0:0:0:0:
1,142,36537,2,0,P|7:160|19:177,1,40.375000770092,8|8,0:0|0:0,0:0:0:0:
37,305,36725,6,0,P|71:285|130:282,1,80.750001540184,6|0,1:2|0:0,0:0:0:0:
151,284,37006,1,2,0:0:0:0:
151,284,37100,1,8,0:0:0:0:
248,162,37287,2,0,P|305:216|386:206,1,161.500003080368,2|0,1:2|1:2,0:0:0:0:
485,139,37850,1,10,0:0:0:0:
498,261,38037,1,0,1:2:0:0:
334,127,38225,6,0,P|330:89|326:46,1,80.750001540184,2|0,1:2|1:2,0:0:0:0:
322,6,38506,1,2,0:0:0:0:
322,6,38600,1,8,0:0:0:0:
252,174,38787,2,0,P|330:164|403:212,1,161.500003080368,2|0,1:2|1:2,0:0:0:0:
478,70,39350,1,10,0:0:0:0:
326,46,39537,1,0,1:2:0:0:
166,6,39725,6,0,P|168:46|170:98,1,80.750001540184,2|0,1:2|0:0,0:0:0:0:
172,127,40006,1,2,0:0:0:0:
172,127,40100,1,8,0:0:0:0:
114,275,40287,2,0,B|168:271|168:271|215:291|215:291|276:286,1,161.500003080368,2|0,1:2|1:2,0:0:0:0:
446,218,40850,1,10,0:0:0:0:
379,301,41037,1,0,1:2:0:0:
420,113,41225,5,0,1:2:0:0:
446,218,41412,1,2,1:2:0:0:
476,319,41600,1,10,0:0:0:0:
379,301,41787,1,0,1:2:0:0:
491,204,41975,1,2,0:0:0:0:
474,354,42162,1,0,1:2:0:0:
352,266,42350,2,0,P|310:268|268:269,1,80.750001540184,10|0,0:0|1:2,0:0:0:0:
242,241,42631,1,0,1:2:0:0:
242,241,42725,6,0,P|261:283|256:323,1,80.750001540184,2|0,1:2|0:0,0:0:0:0:
249,356,43006,1,2,0:0:0:0:
249,356,43100,1,8,0:0:0:0:
86,279,43287,2,0,P|87:199|88:113,1,161.500003080368,2|0,1:2|1:2,0:0:0:0:
0,222,43850,1,10,0:0:0:0:
86,371,44037,1,0,1:2:0:0:
206,236,44225,6,0,L|293:232,1,80.750001540184,2|0,1:2|1:2,0:0:0:0:
324,217,44506,1,2,0:0:0:0:
324,217,44600,1,8,0:0:0:0:
488,297,44787,2,0,P|502:220|447:165,1,161.500003080368,2|0,1:2|1:2,2:2:0:0:
500,14,45350,1,10,0:0:0:0:
346,46,45537,1,0,1:2:0:0:
138,86,45725,6,0,P|179:88|225:90,1,80.750001540184,2|0,1:2|0:0,0:0:0:0:
253,68,46006,1,2,0:0:0:0:
253,68,46100,1,8,0:0:0:0:
376,175,46287,2,0,P|326:241|222:229,1,161.500003080368,2|0,1:2|1:2,0:0:0:0:
97,226,46850,1,10,0:0:0:0:
158,353,47037,1,0,1:2:0:0:
249,205,47225,6,0,L|253:253,1,40.375000770092,8|0,0:0|0:0,0:0:0:0:
337,371,47412,2,0,L|340:330,1,40.375000770092,10|0,0:0|0:0,0:0:0:0:
269,191,47600,2,0,L|273:239,1,40.375000770092,10|0,0:0|0:0,0:0:0:0:
357,358,47787,2,0,L|360:317,1,40.375000770092,8|0,0:0|0:0,0:0:0:0:
416,214,47975,1,10,0:0:0:0:
402,212,48068,1,8,0:0:0:0:
391,211,48162,1,8,0:0:0:0:
378,209,48256,1,8,0:0:0:0:
366,207,48350,2,8,L|368:166,1,40.375000770092,10|8,0:0|0:0,0:0:0:0:
381,346,48537,2,8,L|384:305,1,40.375000770092
256,336,48725,5,6,1:2:0:0:
223,356,48818,1,0,0:0:0:0:
186,361,48912,1,0,0:0:0:0:
150,348,49006,1,0,0:0:0:0:
125,320,49100,1,8,0:0:0:0:
114,285,49193,1,0,0:0:0:0:
121,248,49287,1,0,0:0:0:0:
143,218,49381,1,0,0:0:0:0:
142,179,49475,5,0,1:2:0:0:
175,198,49569,1,0,0:0:0:0:
211,202,49663,1,0,0:0:0:0:
247,191,49756,1,0,0:0:0:0:
275,168,49850,1,8,0:0:0:0:
292,134,49944,1,0,0:0:0:0:
295,98,50038,1,0,0:0:0:0:
283,63,50131,1,0,0:0:0:0:
253,39,50225,6,0,L|249:-9,3,47.5,2|0|0|0,1:2|0:0|0:0|0:0,0:0:0:0:
275,168,50600,2,0,L|233:194,3,47.5,8|0|0|0,0:0|0:0|0:0|0:0,0:0:0:0:
365,83,50975,2,0,L|460:104,1,95,2|0,1:2|0:0,0:0:0:0:
372,249,51350,1,8,0:0:0:0:
512,200,51537,1,0,1:2:0:0:
433,332,51725,5,2,1:2:0:0:
411,363,51818,1,0,0:0:0:0:
375,375,51912,1,0,0:0:0:0:
337,371,52006,1,0,0:0:0:0:
303,354,52100,1,8,0:0:0:0:
265,349,52193,1,0,0:0:0:0:
227,357,52287,1,0,0:0:0:0:
200,383,52381,1,0,0:0:0:0:
164,368,52475,5,0,1:2:0:0:
129,382,52568,1,0,0:0:0:0:
91,384,52662,1,0,0:0:0:0:
55,371,52756,1,0,0:0:0:0:
30,341,52850,1,8,0:0:0:0:
22,303,52943,1,0,0:0:0:0:
28,265,53037,1,0,0:0:0:0:
53,237,53131,1,0,0:0:0:0:
87,220,53225,6,0,L|82:158,3,47.5,2|0|0|0,1:2|0:0|0:0|0:0,0:0:0:0:
166,320,53600,2,0,L|163:374,3,47.5,8|0|0|0,0:0|0:0|0:0|0:0,0:0:0:0:
253,228,53975,2,0,P|301:238|346:229,1,95,2|0,1:2|0:0,0:0:0:0:
498,296,54350,1,8,0:0:0:0:
484,128,54537,1,0,1:2:0:0:
485,139,54631,1,0,1:2:0:0:
485,151,54725,5,2,1:2:0:0:
458,180,54818,1,0,0:0:0:0:
424,196,54912,1,0,0:0:0:0:
385,195,55006,1,0,0:0:0:0:
349,179,55100,1,8,0:0:0:0:
324,150,55193,1,0,0:0:0:0:
315,113,55287,1,0,0:0:0:0:
322,74,55381,1,0,0:0:0:0:
343,42,55475,5,0,1:2:0:0:
345,79,55568,1,0,0:0:0:0:
350,116,55662,1,0,0:0:0:0:
353,153,55756,1,0,0:0:0:0:
357,190,55850,1,8,0:0:0:0:
360,227,55943,1,0,0:0:0:0:
364,264,56037,1,0,0:0:0:0:
368,301,56131,1,0,0:0:0:0:
372,338,56225,6,0,P|394:292|479:269,1,142.5,2|0,1:2|0:0,0:0:0:0:
512,287,56600,1,8,0:0:0:0:
281,287,56787,2,0,B|150:287|150:287|208:266,1,190,2|0,0:0|0:0,0:0:0:0:
318,116,57350,1,10,0:0:0:0:
211,153,57537,1,0,1:2:0:0:
402,189,57725,6,0,P|437:252|431:322,1,142.5,2|0,0:0|0:0,0:0:0:0:
414,360,58100,1,8,0:0:0:0:
304,167,58287,2,0,P|397:156|506:144,1,190,2|0,0:0|0:0,0:0:0:0:
220,49,58850,2,0,P|174:54|126:59,1,95,10|0,0:0|0:0,0:0:0:0:
231,252,59225,6,0,P|201:215|194:169,1,95,2|0,1:2|0:0,0:0:0:0:
411,194,59600,2,0,P|394:237|357:266,1,95,10|0,0:0|0:0,0:0:0:0:
268,64,59975,2,0,P|314:56|365:80,1,95,2|0,1:2|0:0,0:0:0:0:
177,192,60350,1,10,0:0:0:0:
117,46,60537,1,0,1:2:0:0:
111,33,60631,1,0,1:2:0:0:
105,20,60725,5,6,1:2:0:0:
85,52,60818,1,0,0:0:0:0:
79,89,60912,1,0,0:0:0:0:
87,127,61006,1,0,0:0:0:0:
109,158,61100,1,8,0:0:0:0:
141,179,61193,1,0,0:0:0:0:
178,186,61287,1,0,0:0:0:0:
215,179,61381,1,0,0:0:0:0:
250,167,61475,5,0,1:2:0:0:
287,160,61569,1,0,0:0:0:0:
324,167,61663,1,0,0:0:0:0:
356,188,61756,1,0,0:0:0:0:
378,219,61850,1,8,0:0:0:0:
386,257,61944,1,0,0:0:0:0:
380,294,62038,1,0,0:0:0:0:
360,326,62131,1,0,0:0:0:0:
329,347,62225,6,0,L|326:289,3,47.5,2|0|0|0,1:2|0:0|0:0|0:0,0:0:0:0:
185,244,62600,2,0,L|186:186,3,47.5,8|0|0|0,0:0|0:0|0:0|0:0,0:0:0:0:
317,126,62975,2,0,P|315:80|312:27,1,95,2|0,1:2|0:0,0:0:0:0:
415,225,63350,1,8,0:0:0:0:
253,212,63537,1,0,1:2:0:0:
88,200,63725,5,2,1:2:0:0:
77,236,63818,1,0,0:0:0:0:
81,274,63912,1,0,0:0:0:0:
99,309,64006,1,0,0:0:0:0:
126,335,64100,1,8,0:0:0:0:
161,350,64193,1,0,0:0:0:0:
200,351,64287,1,0,0:0:0:0:
237,340,64381,1,0,0:0:0:0:
272,354,64475,5,0,1:2:0:0:
269,316,64568,1,0,0:0:0:0:
267,277,64662,1,0,0:0:0:0:
265,238,64756,1,0,0:0:0:0:
263,199,64850,1,8,0:0:0:0:
262,161,64943,1,0,0:0:0:0:
259,122,65037,1,0,0:0:0:0:
256,83,65131,1,0,0:0:0:0:
253,44,65225,6,0,P|276:53|321:51,3,47.5,2|0|0|0,1:2|0:0|0:0|0:0,0:0:0:0:
183,178,65600,2,0,P|167:160|158:138,3,47.5,8|0|0|0,0:0|0:0|0:0|0:0,0:0:0:0:
28,123,65975,2,0,P|14:166|21:215,1,95,2|0,1:2|0:0,0:0:0:0:
163,281,66350,1,8,0:0:0:0:
0,374,66537,1,0,1:2:0:0:
0,374,66631,1,0,1:2:0:0:
0,374,66725,6,0,P|50:377|95:380,1,95,10|0,0:0|0:0,0:0:0:0:
120,195,67100,2,0,P|142:239|162:280,1,95,8|0,0:0|0:0,0:0:0:0:
335,211,67475,2,0,P|307:252|282:290,1,95,8|0,0:0|0:0,0:0:0:0:
229,148,67850,1,8,0:0:0:0:
59,277,68037,1,0,0:0:0:0:
34,29,68225,6,0,P|56:73|76:114,1,95,10|0,0:0|0:0,0:0:0:0:
243,45,68600,2,0,P|215:86|190:123,1,95,8|0,0:0|0:0,0:0:0:0:
328,226,68975,2,0,P|281:222|233:219,1,95,10|0,0:0|0:0,0:0:0:0:
370,103,69350,1,8,0:0:0:0:
477,285,69537,1,0,0:0:0:0:
253,362,69725,6,0,P|282:361|312:360,1,47.5,10|0,0:0|0:0,0:0:0:0:
267,245,69912,2,0,P|291:258|319:272,1,47.5,8|0,0:0|0:0,0:0:0:0:
353,149,70100,2,0,P|367:173|384:199,1,47.5,8|0,0:0|0:0,0:0:0:0:
484,117,70287,2,0,L|486:176,1,47.5,8|0,0:0|0:0,0:0:0:0:
491,310,70475,6,0,L|490:261,1,47.5,8|0,0:0|0:0,0:0:0:0:
355,284,70662,2,0,P|368:263|379:243,1,47.5,8|0,0:0|0:0,0:0:0:0:
255,182,70850,2,0,P|274:172|297:159,1,47.5,8|0,0:0|0:0,0:0:0:0:
238,41,71037,2,0,L|285:42,1,47.5,8|0,0:0|0:0,0:0:0:0:
424,76,71225,6,0,L|416:6,1,47.5,10|0,0:0|0:0,0:0:0:0:
302,206,71412,2,0,L|294:136,1,47.5,8|0,0:0|0:0,0:0:0:0:
446,233,71600,2,0,L|438:163,1,47.5,8|0,0:0|0:0,0:0:0:0:
323,366,71787,2,0,L|315:296,1,47.5,8|0,0:0|0:0,0:0:0:0:
171,283,71975,5,8,0:0:0:0:
128,291,72068,1,8,0:0:0:0:
87,284,72162,1,8,0:0:0:0:
51,260,72256,1,8,0:0:0:0:
26,226,72350,1,8,0:0:0:0:
19,183,72443,1,8,0:0:0:0:
27,143,72537,1,8,0:0:0:0:
51,107,72631,1,8,0:0:0:0:
86,85,72725,6,0,P|157:152|273:141,1,213.750008153916,4|0,1:2|0:0,0:0:0:0:
302,126,73381,1,0,0:0:0:0:
302,126,73475,1,2,0:0:0:0:
319,254,73662,1,0,0:0:0:0:
442,238,73850,1,2,0:0:0:0:
425,110,74037,1,2,0:0:0:0:
279,194,74225,6,0,P|242:193|198:192,1,71.2500027179719,2|0,1:2|0:2,0:0:0:0:
171,175,74506,2,0,P|177:242|147:274,1,106.875004076958,2|0,0:0|0:0,0:0:0:0:
117,283,74881,1,0,0:0:0:0:
117,283,74975,2,0,L|121:332,3,35.625001358986,2|0|0|0,0:0|0:0|0:0|0:0,0:0:0:0:
33,256,75350,2,0,L|8:280,3,35.625001358986,2|0|0|0,0:0|0:0|0:0|0:0,0:0:0:0:
63,147,75725,6,0,P|73:116|52:70,1,71.2500027179719,2|0,1:2|0:2,0:0:0:0:
44,45,76006,2,0,P|95:48|156:51,1,106.875004076958,2|0,0:0|0:0,0:0:0:0:
277,3,76475,1,2,0:0:0:0:
256,141,76662,1,0,0:0:0:0:
261,165,76756,1,0,0:0:0:0:
278,183,76850,1,2,0:0:0:0:
299,194,76943,1,0,0:0:0:0:
323,195,77037,1,0,0:0:0:0:
347,187,77131,1,0,0:0:0:0:
367,173,77225,6,0,P|366:214|366:258,1,71.2500027179719,2|0,1:2|0:0,0:0:0:0:
389,281,77506,2,0,P|331:290|291:343,1,106.875004076958,2|0,0:0|0:0,0:0:0:0:
286,360,77881,1,0,0:0:0:0:
286,360,77975,1,2,0:0:0:0:
187,280,78162,1,0,0:0:0:0:
162,281,78256,1,0,0:0:0:0:
137,282,78350,1,2,0:0:0:0:
112,283,78443,1,0,0:0:0:0:
87,284,78537,1,0,0:0:0:0:
62,286,78631,1,0,0:0:0:0:
40,288,78725,5,2,1:2:0:0:
40,288,79100,1,0,0:0:0:0:
98,354,79287,1,0,0:0:0:0:
171,229,79475,1,2,0:0:0:0:
84,210,79662,1,0,0:0:0:0:
180,317,79850,2,0,P|218:315|257:313,1,71.2500027179719,2|2,0:0|0:0,0:0:0:0:
42,352,80225,6,0,L|21:382,3,35.625001358986,2|0|0|0,1:2|0:0|0:0|0:0,0:0:0:0:
99,242,80600,2,0,L|83:208,3,35.625001358986,2|0|0|0,0:0|0:0|0:0|0:0,0:0:0:0:
166,349,80975,1,2,0:0:0:0:
190,352,81068,1,0,0:0:0:0:
214,354,81162,1,0,0:0:0:0:
238,357,81256,1,0,0:0:0:0:
258,373,81350,1,2,0:0:0:0:
270,343,81443,1,0,0:0:0:0:
296,324,81537,1,0,0:0:0:0:
327,320,81631,1,2,0:0:0:0:
358,327,81725,6,0,P|446:326|493:212,1,213.750008153916,2|0,1:2|0:0,0:0:0:0:
485,183,82381,1,0,0:0:0:0:
485,183,82475,1,2,0:0:0:0:
322,197,82662,1,0,0:0:0:0:
442,97,82850,1,2,0:0:0:0:
404,245,83037,1,2,0:0:0:0:
349,106,83225,5,2,1:2:0:0:
349,106,83787,1,0,0:0:0:0:
345,94,83880,1,0,0:0:0:0:
340,81,83974,1,2,0:0:0:0:
333,182,84162,1,0,0:0:0:0:
328,282,84350,1,2,0:0:0:0:
321,384,84537,1,0,0:0:0:0:
213,326,84725,5,6,1:2:0:0:
185,329,84818,1,0,0:0:0:0:
156,332,84912,1,2,0:3:0:0:
128,336,85006,1,0,0:0:0:0:
99,339,85100,2,0,P|110:321|115:297,3,40.375000770092,2|0|2|0,0:0|0:0|0:3|0:0,0:0:0:0:
114,274,85475,1,10,0:0:0:0:
106,246,85568,1,0,0:0:0:0:
86,225,85662,1,2,0:3:0:0:
62,209,85756,1,0,0:0:0:0:
33,206,85850,2,0,L|37:159,3,40.375000770092,2|0|2|0,0:0|0:0|0:3|0:0,0:0:0:0:
29,132,86225,5,2,1:2:0:0:
56,151,86318,1,0,0:0:0:0:
89,161,86412,1,2,0:3:0:0:
124,160,86506,1,0,0:0:0:0:
157,147,86600,1,2,0:0:0:0:
182,123,86693,1,0,0:0:0:0:
199,93,86787,1,2,1:3:0:0:
204,59,86881,1,0,0:0:0:0:
198,25,86975,5,10,0:0:0:0:
196,16,87068,1,0,0:0:0:0:
194,7,87162,2,0,P|212:20|245:26,1,40.375000770092,2|0,1:2|0:0,0:0:0:0:
274,121,87350,2,0,P|292:113|306:99,1,40.375000770092,10|0,0:0|0:0,0:0:0:0:
416,123,87537,2,0,P|418:104|413:84,1,40.375000770092,2|0,0:3|0:0,0:0:0:0:
360,220,87725,5,2,1:2:0:0:
363,247,87818,1,0,0:0:0:0:
365,275,87912,1,2,0:3:0:0:
366,303,88006,1,0,0:0:0:0:
369,331,88100,2,0,P|350:320|327:316,3,40.375000770092,2|0|2|0,0:0|0:0|0:3|0:0,0:0:0:0:
315,293,88475,1,10,0:0:0:0:
300,317,88568,1,0,0:0:0:0:
275,330,88662,1,2,0:3:0:0:
246,331,88756,1,0,0:0:0:0:
218,326,88850,2,0,L|173:326,3,40.375000770092,2|0|2|0,0:2|0:0|0:3|0:0,0:0:0:0:
142,337,89225,5,2,1:2:0:0:
157,304,89318,1,0,0:0:0:0:
154,267,89412,1,2,0:3:0:0:
135,235,89506,1,0,0:0:0:0:
103,216,89600,1,2,0:0:0:0:
68,207,89693,1,0,0:0:0:0:
44,178,89787,1,2,1:3:0:0:
39,141,89881,1,0,0:0:0:0:
50,106,89975,5,10,0:0:0:0:
57,99,90068,1,0,0:0:0:0:
66,92,90162,2,0,P|64:71|60:43,1,40.375000770092,2|0,1:3|0:0,0:0:0:0:
100,183,90350,2,0,P|81:197|60:212,1,40.375000770092,10|0,0:0|0:0,0:0:0:0:
165,102,90537,2,0,P|187:111|210:121,1,40.375000770092,2|2,0:3|0:0,0:0:0:0:
284,203,90725,5,2,1:2:0:0:
311,201,90818,1,0,0:0:0:0:
339,200,90912,1,2,0:3:0:0:
367,200,91006,1,0,0:0:0:0:
395,198,91100,2,0,L|447:196,3,40.375000770092,2|0|2|0,0:0|0:0|0:3|0:0,0:0:0:0:
462,203,91475,1,10,0:0:0:0:
448,178,91568,1,0,0:0:0:0:
450,149,91662,1,2,0:3:0:0:
463,124,91756,1,0,0:0:0:0:
487,110,91850,2,0,L|481:60,3,40.375000770092,2|0|2|0,0:0|0:0|0:3|0:0,0:0:0:0:
475,34,92225,5,2,1:2:0:0:
450,60,92318,1,0,0:0:0:0:
415,71,92412,1,2,0:3:0:0:
378,68,92506,1,0,0:0:0:0:
347,48,92600,1,2,0:0:0:0:
314,32,92693,1,0,0:0:0:0:
277,30,92787,1,2,0:3:0:0:
241,40,92881,1,0,0:0:0:0:
219,69,92975,5,10,0:0:0:0:
220,80,93068,1,0,0:0:0:0:
221,92,93162,2,0,L|227:147,1,40.375000770092,2|0,1:3|0:0,0:0:0:0:
159,248,93350,2,0,L|203:215,1,40.375000770092,10|0,0:0|0:0,0:0:0:0:
324,228,93537,2,0,L|273:205,1,40.375000770092,2|0,1:3|1:2,0:2:0:0:
253,322,93725,5,2,1:2:0:0:
269,345,93818,1,0,0:0:0:0:
290,364,93912,1,2,0:3:0:0:
316,376,94006,1,0,0:0:0:0:
345,381,94100,1,2,0:0:0:0:
373,378,94193,1,0,0:0:0:0:
400,367,94287,1,2,0:3:0:0:
423,350,94381,1,0,0:0:0:0:
434,324,94475,6,0,L|441:373,1,40.375000770092,10|0,0:0|0:0,0:0:0:0:
356,233,94662,2,0,L|350:281,1,40.375000770092,2|0,0:3|0:0,0:0:0:0:
454,151,94850,2,0,L|461:200,1,40.375000770092,2|0,0:0|0:0,0:0:0:0:
358,73,95037,2,0,L|352:121,1,40.375000770092,2|0,0:3|0:0,0:0:0:0:
425,9,95225,6,0,P|357:45|271:24,1,161.500003080368,2|0,1:2|1:2,0:0:0:0:
158,85,95787,1,0,0:0:0:0:
265,244,95975,2,0,P|262:205|258:162,1,80.750001540184,0|0,1:2|0:0,0:0:0:0:
249,16,96350,1,0,1:2:0:0:
115,97,96537,5,0,1:2:0:0:
115,97,96631,1,0,1:2:0:0:
115,97,96725,1,4,1:2:0:0:
115,97,98975,6,0,P|110:136|83:165,1,71.25,2|0,0:0|0:0,0:0:0:0:
7,128,99350,2,0,P|11:88|38:59,1,71.25,2|0,0:0|0:0,0:0:0:0:
106,19,99725,5,6,1:2:0:0:
129,48,99818,1,0,0:0:0:0:
160,72,99912,1,0,0:0:0:0:
194,87,100006,1,0,0:0:0:0:
231,95,100100,1,8,0:0:0:0:
270,95,100193,1,0,0:0:0:0:
307,86,100287,1,0,0:0:0:0:
342,69,100381,1,0,0:0:0:0:
372,46,100475,5,2,1:2:0:0:
374,83,100568,1,0,0:0:0:0:
377,120,100662,1,0,0:0:0:0:
381,157,100756,1,0,0:0:0:0:
385,194,100850,1,8,0:0:0:0:
387,231,100943,1,0,0:0:0:0:
390,268,101037,1,0,0:0:0:0:
394,305,101131,1,0,0:0:0:0:
397,342,101225,6,0,L|343:342,3,47.5,2|0|0|0,1:2|0:0|0:0|0:0,0:0:0:0:
256,316,101600,2,0,L|256:377,3,47.5,8|0|0|0,0:0|0:0|0:0|0:0,0:0:0:0:
163,344,101975,2,0,P|111:344|65:344,1,95,2|0,1:2|0:0,0:0:0:0:
0,241,102350,1,10,0:0:0:0:
96,163,102537,1,0,1:2:0:0:
163,344,102725,5,2,1:2:0:0:
199,351,102818,1,0,0:0:0:0:
233,336,102912,1,0,0:0:0:0:
255,305,103006,1,0,0:0:0:0:
257,267,103100,1,8,0:0:0:0:
237,234,103193,1,0,0:0:0:0:
204,214,103287,1,0,0:0:0:0:
165,219,103381,1,0,0:0:0:0:
132,240,103475,6,0,P|153:202|139:151,1,95,2|0,1:2|0:0,0:0:0:0:
121,121,103756,1,2,0:0:0:0:
121,121,103850,1,8,0:0:0:0:
10,261,104037,1,2,0:0:0:0:
168,371,104225,5,2,1:2:0:0:
205,368,104318,1,0,0:0:0:0:
242,364,104412,1,0,0:0:0:0:
279,360,104506,1,0,0:0:0:0:
308,336,104600,1,8,0:0:0:0:
329,367,104693,1,0,0:0:0:0:
365,378,104787,1,0,0:0:0:0:
402,371,104881,1,0,0:0:0:0:
430,345,104975,5,2,1:2:0:0:
437,186,105162,1,0,0:0:0:0:
436,199,105256,1,0,0:0:0:0:
436,212,105350,1,10,0:0:0:0:
308,336,105537,1,0,1:2:0:0:
307,322,105631,1,0,1:2:0:0:
306,309,105725,5,6,1:2:0:0:
278,334,105818,1,0,0:0:0:0:
242,343,105912,1,0,0:0:0:0:
206,334,106006,1,0,0:0:0:0:
178,310,106100,1,8,0:0:0:0:
164,276,106193,1,0,0:0:0:0:
168,239,106287,1,0,0:0:0:0:
189,208,106381,1,0,0:0:0:0:
223,192,106475,6,0,P|178:189|141:156,1,95,2|0,1:2|0:0,0:0:0:0:
125,122,106756,1,2,0:0:0:0:
125,122,106850,1,8,0:0:0:0:
252,20,107037,1,2,0:0:0:0:
351,154,107225,6,0,L|350:257,1,95,4|0,1:2|0:0,0:0:0:0:
407,370,107600,2,0,P|360:371|312:372,1,95,10|0,0:0|0:0,0:0:0:0:
129,278,107975,2,0,P|177:277|228:276,1,95,2|0,1:2|0:0,0:0:0:0:
323,172,108350,1,10,0:0:0:0:
175,85,108537,1,0,1:2:0:0:
36,179,108725,5,6,1:2:0:0:
39,216,108818,1,0,0:0:0:0:
41,254,108912,1,0,0:0:0:0:
43,292,109006,1,0,0:0:0:0:
47,329,109100,2,0,P|23:315|4:307,3,47.5,8|0|0|0,0:0|0:0|0:0|0:0,0:0:0:0:
135,367,109475,5,4,1:2:0:0:
161,340,109568,1,0,0:0:0:0:
197,329,109662,1,0,0:0:0:0:
234,333,109756,1,0,0:0:0:0:
267,350,109850,2,0,L|321:345,1,47.5,10|0,0:0|0:0,0:0:0:0:
393,338,110037,2,0,L|447:333,1,47.5,2|0,0:0|0:0,0:0:0:0:
497,278,110225,6,0,P|452:284|407:257,1,95,6|0,1:2|0:0,0:0:0:0:
389,228,110506,1,0,0:0:0:0:
389,228,110600,1,8,0:0:0:0:
382,97,110787,1,2,0:0:0:0:
146,170,110975,6,0,L|263:166,1,95,4|0,1:2|0:0,0:0:0:0:
286,168,111256,1,0,0:0:0:0:
286,168,111350,1,10,0:0:0:0:
341,379,111537,1,2,1:2:0:0:
341,365,111631,1,0,1:2:0:0:
342,349,111725,5,6,1:2:0:0:
305,358,111818,1,0,0:0:0:0:
266,357,111912,1,0,0:0:0:0:
232,338,112006,1,0,0:0:0:0:
208,308,112100,1,8,0:0:0:0:
199,271,112193,1,0,0:0:0:0:
201,232,112287,1,0,0:0:0:0:
216,197,112381,1,0,0:0:0:0:
215,158,112475,5,2,1:2:0:0:
245,180,112568,1,0,0:0:0:0:
282,187,112662,1,0,0:0:0:0:
319,183,112756,1,0,0:0:0:0:
354,167,112850,1,8,0:0:0:0:
373,134,112943,1,0,0:0:0:0:
385,97,113037,1,0,0:0:0:0:
378,59,113131,1,0,0:0:0:0:
354,29,113225,6,0,P|330:29|307:22,3,47.5,6|0|0|0,1:2|0:0|0:0|0:0,0:0:0:0:
256,155,113600,2,0,P|244:134|238:111,3,47.5,10|0|0|0,0:0|0:0|0:0|0:0,0:0:0:0:
129,75,113975,2,0,P|104:115|100:162,1,95,6|0,1:2|0:0,0:0:0:0:
211,6,114350,1,10,0:0:0:0:
335,103,114537,1,2,1:2:0:0:
333,88,114631,1,0,1:2:0:0:
331,74,114725,5,4,1:2:0:0:
318,109,114818,1,0,0:0:0:0:
287,127,114912,1,0,0:0:0:0:
249,125,115006,1,0,0:0:0:0:
216,107,115100,5,8,0:0:0:0:
217,154,115193,1,8,0:0:0:0:
221,201,115287,1,8,0:0:0:0:
224,248,115381,1,8,0:0:0:0:
228,295,115475,6,0,L|230:335,1,23.75,6|0,1:2|0:0,0:0:0:0:
143,186,115756,2,0,L|107:167,1,23.75,6|0,1:2|0:0,0:0:0:0:
296,170,116037,2,0,L|329:148,1,23.75,6|0,1:2|0:0,0:0:0:0:
349,277,116225,6,0,L|327:266,1,23.75,6|0,1:2|0:0,0:0:0:0:
212,90,116506,2,0,L|213:113,1,23.75,6|0,1:2|0:0,0:0:0:0:
112,291,116787,2,0,L|131:278,1,23.75,6|0,1:2|0:0,0:0:0:0:
76,188,116975,6,0,L|46:190,1,23.75,6|0,1:2|0:0,0:0:0:0:
254,240,117256,2,0,L|224:242,1,23.75,6|0,1:2|0:0,0:0:0:0:
428,302,117537,1,0,1:2:0:0:
415,303,117631,1,0,1:2:0:0:
400,304,117725,6,0,P|443:277|460:221,1,95,6|0,1:2|0:2,0:2:0:0:
255,298,118100,2,0,P|256:348|296:391,1,95,8|0,0:0|0:0,0:0:0:0:
334,170,118475,2,0,P|289:146|232:159,1,95,10|0,0:0|0:0,0:0:0:0:
401,304,118850,1,8,0:0:0:0:
430,82,119037,1,0,0:0:0:0:
247,189,119225,6,0,P|287:165|334:170,1,95,6|0,1:2|0:0,0:0:0:0:
188,304,119600,2,0,P|147:280|128:237,1,95,10|0,0:0|0:0,0:0:0:0:
310,300,119975,2,0,P|309:347|281:385,1,95,10|0,0:0|0:0,0:0:0:0:
252,211,120350,1,10,0:0:0:0:
222,39,120537,1,0,0:0:0:0:
39,65,120725,6,0,P|66:65|93:59,1,47.5,6|0,1:2|0:0,0:0:0:0:
92,177,120912,2,0,P|115:163|135:144,1,47.5,8|0,0:0|0:0,0:0:0:0:
196,251,121100,2,0,P|209:227|217:201,1,47.5,8|0,0:0|0:0,0:0:0:0:
330,263,121287,2,0,P|330:236|324:209,1,47.5,8|0,0:0|0:0,0:0:0:0:
366,49,121475,6,0,P|361:72|362:96,1,47.5,4|0,1:2|0:0,0:0:0:0:
234,74,121662,2,0,P|241:96|254:116,1,47.5,8|0,0:0|0:0,0:0:0:0:
136,172,121850,2,0,P|153:187|174:198,1,47.5,8|0,0:0|0:0,0:0:0:0:
106,305,122037,2,0,P|129:310|153:309,1,47.5,8|0,0:0|0:0,0:0:0:0:
298,268,122225,5,6,1:2:0:0:
303,309,122318,1,8,0:0:0:0:
330,341,122412,1,8,0:0:0:0:
371,353,122506,1,8,0:0:0:0:
411,341,122600,1,8,0:0:0:0:
438,308,122693,1,8,0:0:0:0:
443,266,122787,1,8,0:0:0:0:
423,228,122881,1,8,0:0:0:0:
387,208,122975,5,4,1:2:0:0:
387,208,123068,1,8,0:0:0:0:
387,208,123162,2,8,P|373:237|374:263,1,47.5
372,86,123350,1,4,1:2:0:0:
372,86,123443,1,8,0:0:0:0:
372,86,123537,2,8,P|403:82|426:69,1,47.5
268,159,123725,6,0,P|254:118|226:87,2,85.4999973907472,6|0|2,1:2|0:0|0:0,0:0:0:0:
268,159,124850,1,2,0:0:0:0:
275,243,125037,1,0,0:0:0:0:
196,203,125225,6,0,P|163:174|123:161,2,85.4999973907472,2|0|2,0:0|0:0|0:0,0:0:0:0:
196,203,126350,1,2,0:0:0:0:
244,272,126537,1,0,0:0:0:0:
158,280,126725,6,0,P|116:271|71:277,2,85.4999973907472,2|0|2,0:0|0:0|0:0,0:0:0:0:
158,280,127850,1,2,0:0:0:0:
240,301,128037,1,0,0:0:0:0:
320,320,128225,6,0,P|292:284|285:242,2,85.4999973907472,2|0|2,0:0|0:0|0:0,0:0:0:0:
457,358,128975,1,2,0:0:0:0:
379,384,129162,1,0,0:0:0:0:
373,249,129350,1,2,0:0:0:0:
452,275,129537,1,0,0:0:0:0:
297,226,129725,6,0,P|334:208|353:163,2,85.4999973907472,2|0|2,0:0|0:0|0:0,0:0:0:0:
297,226,130850,2,0,P|253:223|204:219,1,85.4999973907472,2|0,0:0|0:0,0:0:0:0:
174,216,131225,6,0,P|205:244|207:305,2,85.4999973907472,2|0|2,0:0|0:0|0:0,0:0:0:0:
89,141,131975,1,2,0:0:0:0:
168,137,132162,1,0,0:0:0:0:
95,220,132350,1,2,0:0:0:0:
19,303,132537,1,2,0:0:0:0:
123,384,132725,5,2,0:0:0:0:
220,278,133006,1,0,0:0:0:0:
89,188,133287,1,2,0:0:0:0:
134,259,133475,5,2,0:0:0:0:
294,236,133756,1,0,0:0:0:0:
454,216,134037,1,2,0:0:0:0:
371,190,134225,5,2,0:0:0:0:
220,278,134506,1,0,0:0:0:0:
384,345,134787,1,2,0:0:0:0:
442,265,134975,5,2,0:0:0:0:
373,190,135162,1,0,0:0:0:0:
421,102,135350,1,2,0:0:0:0:
493,178,135537,1,0,0:0:0:0:
409,299,135725,6,0,P|447:282|488:291,2,85.4999973907472,2|0|2,0:0|0:0|0:0,0:0:0:0:
409,299,136850,1,2,0:0:0:0:
325,283,137037,1,0,0:0:0:0:
240,269,137225,6,0,P|254:230|290:207,2,85.4999973907472,2|0|2,0:0|0:0|0:0,0:0:0:0:
240,269,138350,1,2,0:0:0:0:
156,253,138537,1,0,0:0:0:0:
71,239,138725,6,0,P|53:201|62:159,2,85.4999973907472,2|0|2,0:0|0:0|0:0,0:0:0:0:
71,239,139850,1,2,0:0:0:0:
156,253,140037,1,0,0:0:0:0:
240,269,140225,6,0,P|202:287|183:325,2,85.4999973907472,2|0|2,0:0|0:0|0:0,0:0:0:0:
326,282,140975,1,2,0:0:0:0:
305,193,141162,1,0,0:0:0:0:
285,102,141350,1,2,0:0:0:0:
265,7,141537,1,0,0:0:0:0:
400,130,141725,6,0,P|381:93|387:52,2,85.4999973907472,2|0|2,0:0|0:0|0:0,0:0:0:0:
400,130,142850,2,0,P|395:176|390:225,1,85.4999973907472,2|0,0:0|0:0,0:0:0:0:
382,247,143225,6,0,P|419:226|460:232,2,85.4999973907472,2|0|2,0:0|0:0|0:0,0:0:0:0:
325,370,143975,1,2,0:0:0:0:
303,240,144162,1,0,0:0:0:0:
394,326,144350,1,2,0:0:0:0:
261,311,144537,1,0,0:0:0:0:
115,298,144725,6,0,P|74:283|52:248,2,85.4999973907472,2|0|2,0:0|0:0|0:0,0:0:0:0:
149,188,145475,6,0,P|140:154|153:122,2,71.25,2|0|2,0:0|0:0|0:0,0:0:0:0:
296,115,146225,6,0,P|270:125|254:148,2,57,2|0|2,0:0|0:0|0:0,0:0:0:0:
379,212,146975,6,0,P|360:202|339:198,2,42.7499986953736,2|0|2,0:0|0:0|0:0,0:0:0:0:
