osu file format v14

[General]
AudioFilename: audio.mp3
AudioLeadIn: 0
PreviewTime: 98881
Countdown: 0
SampleSet: Soft
StackLeniency: 0.7
Mode: 2
LetterboxInBreaks: 0
WidescreenStoryboard: 1

[Editor]
Bookmarks: 84725,111725
DistanceSpacing: 0.8
BeatDivisor: 4
GridSize: 32
TimelineZoom: 2.1

[Metadata]
Title:Infinity Heaven
TitleUnicode:Infinity Heaven
Artist:HyuN
ArtistUnicode:HyuN
Creator:Jemzuu
Version:Salad
Source:osu!
Tags:ajamez jbh jbhyperion mbomb magic bomb niva osu! mappers' guild featured artist Arcaea KRUX hyunesis HyuN_Inofixion never ending story forevermore piano instrumental electronic video game bms
BeatmapID:2249173
BeatmapSetID:1074464

[Difficulty]
HPDrainRate:4
CircleSize:3
OverallDifficulty:7
ApproachRate:7
SliderMultiplier:1.5
SliderTickRate:1

[Events]
//Background and Video events
0,0,"pawel-czerwinski-snrPBiLzZaE-unsplash.jpg",0,0
//Break Periods
//Storyboard Layer 0 (Background)
//Storyboard Layer 1 (Fail)
//Storyboard Layer 2 (Pass)
//Storyboard Layer 3 (Foreground)
//Storyboard Layer 4 (Overlay)
//Storyboard Sound Samples

[TimingPoints]
730,375,4,2,1,35,1,0
730,-100,4,2,1,35,0,0
8136,-100,4,2,1,15,0,0
8230,-100,4,2,1,35,0,0
12730,-100,4,2,1,50,0,0
13292,-100,4,2,2,50,0,0
13386,-100,4,2,1,50,0,0
14792,-100,4,2,2,50,0,0
14886,-100,4,2,1,50,0,0
16292,-100,4,2,2,50,0,0
16386,-100,4,2,1,50,0,0
17792,-100,4,2,2,50,0,0
17886,-100,4,2,1,50,0,0
19292,-100,4,2,2,50,0,0
19386,-100,4,2,1,50,0,0
20792,-100,4,2,2,50,0,0
20886,-100,4,2,1,50,0,0
21730,-100,4,2,3,50,0,0
23230,-100,4,1,1,50,0,0
24730,-100,4,2,1,60,0,0
48730,-100,4,2,1,70,0,1
72730,-100,4,2,1,45,0,0
84730,-100,4,2,1,60,0,0
87167,-100,4,2,2,60,0,0
87261,-100,4,2,1,60,0,0
87542,-100,4,2,2,60,0,0
87636,-100,4,2,1,60,0,0
90167,-100,4,2,2,60,0,0
90261,-100,4,2,1,60,0,0
90542,-100,4,2,2,60,0,0
90636,-100,4,2,1,60,0,0
93167,-100,4,2,2,60,0,0
93261,-100,4,2,1,60,0,0
93542,-100,4,2,2,60,0,0
93636,-100,4,2,1,60,0,0
94667,-100,4,2,2,60,0,0
94761,-100,4,2,1,60,0,0
95042,-100,4,2,2,60,0,0
95136,-100,4,2,1,60,0,0
96730,-100,4,2,3,60,0,0
96917,-100,4,2,3,15,0,0
97292,-100,4,2,3,25,0,0
97667,-100,4,2,3,30,0,0
97855,-100,4,2,3,40,0,0
98042,-100,4,2,3,45,0,0
98230,-100,4,2,3,55,0,0
98417,-100,4,2,3,65,0,0
98605,-100,4,2,3,70,0,0
98792,-100,4,2,3,5,0,0
98980,-100,4,2,1,45,0,0
99261,-100,4,2,1,5,0,0
99355,-100,4,2,1,45,0,0
99636,-100,4,2,1,5,0,0
99730,-100,4,2,1,75,0,1
115386,-100,4,2,1,75,0,0
115480,-100,4,2,2,75,0,1
115526,-100,4,2,2,5,0,0
115761,-100,4,2,2,75,0,0
115808,-100,4,2,2,5,0,0
116042,-100,4,2,2,75,0,0
116089,-100,4,2,2,5,0,0
116230,-100,4,2,2,75,0,1
116276,-100,4,2,2,5,0,0
116511,-100,4,2,2,75,0,0
116558,-100,4,2,2,5,0,0
116792,-100,4,2,2,75,0,0
116839,-100,4,2,2,5,0,0
116980,-100,4,2,2,75,0,1
117026,-100,4,2,2,5,0,0
117261,-100,4,2,2,75,0,0
117308,-100,4,2,2,5,0,0
117542,-100,4,2,1,75,0,0
117730,-100,4,2,1,75,0,1
123730,-100,4,2,3,50,0,0
123753,-100,4,2,1,35,0,0
131136,-100,4,2,1,15,0,0
131230,-100,4,2,1,35,0,0
143136,-100,4,2,1,15,0,0
143230,-100,4,2,1,35,0,0
145480,-100,4,2,1,35,0,0
146230,-100,4,2,1,35,0,0
146980,-100,4,2,1,35,0,0

[Colours]
Combo1 : 149,149,255
Combo2 : 255,174,215
Combo3 : 164,209,255

[HitObjects]
430,338,730,6,0,L|449:196,2,112.5,6|0|2,1:2|0:0|0:0,0:0:0:0:
231,357,1855,2,0,L|142:353,1,75,2|0,0:0|0:0,0:0:0:0:
235,293,2230,2,0,L|372:269,2,112.5,2|0|2,0:0|0:0|0:0,0:0:0:0:
41,293,3355,2,0,L|44:202,1,75,2|0,0:0|0:0,0:0:0:0:
137,183,3730,2,0,L|14:114,2,112.5,2|0|2,0:0|0:0|0:0,0:0:0:0:
340,251,4855,2,0,L|243:261,1,75,2|0,0:0|0:0,0:0:0:0:
348,286,5230,6,0,L|475:284,1,112.5,2|0,0:0|0:0,0:0:0:0:
339,357,5792,1,2,0:0:0:0:
419,348,5980,1,2,0:0:0:0:
359,305,6167,1,0,0:0:0:0:
343,233,6355,1,2,0:0:0:0:
385,169,6542,1,0,0:0:0:0:
461,152,6730,6,0,L|477:30,1,112.5,2|0,0:0|0:0,0:0:0:0:
329,29,7292,2,0,P|238:33|178:168,1,225,2|2,0:0|0:0,0:0:0:0:
353,253,8230,6,0,L|225:268,1,112.5,2|0,0:0|0:0,0:0:0:0:
112,316,8792,1,2,0:0:0:0:
188,340,8980,1,2,0:0:0:0:
228,278,9167,1,0,0:0:0:0:
215,206,9355,1,2,0:0:0:0:
157,162,9542,1,0,0:0:0:0:
84,170,9730,6,0,L|15:72,2,112.5,2|0|2,0:0|0:0|0:0,0:0:0:0:
168,173,10480,2,0,L|233:71,2,112.5,2|0|2,0:0|0:0|0:0,0:0:0:0:
253,198,11230,6,0,L|375:202,2,112.5,2|0|2,0:0|0:0|0:0,0:0:0:0:
184,221,11979,1,2,0:0:0:0:
155,288,12167,1,0,0:0:0:0:
185,354,12354,1,2,0:0:0:0:
254,376,12542,1,0,0:0:0:0:
438,364,12730,6,0,L|453:231,1,112.5,6|0,1:2|0:0,0:0:0:0:
310,231,13292,2,0,L|293:149,1,75,2|8,0:3|0:2,0:0:0:0:
475,89,13855,2,0,L|390:60,1,75,0|2,0:0|0:3,0:0:0:0:
321,42,14230,2,0,L|441:29,2,112.5,2|0|2,1:2|0:0|1:3,0:0:0:0:
237,24,14980,2,0,L|313:6,1,75,8|2,0:0|1:3,0:0:0:0:
395,28,15355,1,10,0:2:0:0:
86,72,15730,6,0,P|95:122|167:153,1,112.5,2|0,1:2|0:0,0:0:0:0:
279,189,16292,2,0,L|197:207,1,75,2|8,0:3|0:2,0:0:0:0:
49,225,16855,2,0,L|44:322,1,75,0|2,0:0|0:3,0:0:0:0:
222,347,17230,2,0,L|342:367,2,112.5,2|0|2,1:2|0:0|1:2,0:0:0:0:
303,301,17980,2,0,L|218:281,1,75,8|2,0:0|1:3,0:0:0:0:
146,281,18355,1,10,0:2:0:0:
465,279,18730,6,0,L|488:149,2,112.5,2|0|2,1:2|0:0|0:3,0:0:0:0:
370,291,19480,2,0,P|446:303|482:366,1,150,8|0,0:2|0:0,0:0:0:0:
303,359,20230,2,0,L|174:309,2,112.5,2|0|2,1:2|0:0|0:3,0:0:0:0:
372,339,20979,1,10,0:2:0:0:
400,272,21167,1,2,1:3:0:0:
365,208,21354,1,10,0:2:0:0:
294,196,21542,1,2,1:3:0:0:
95,221,21730,5,6,1:2:0:0:
256,192,22105,12,0,23230,1:2:0:0:
100,222,23605,5,0,1:2:0:0:
259,169,23980,1,0,1:2:0:0:
96,120,24355,2,0,L|173:102,1,75,0|0,1:2|0:0,0:0:0:0:
379,90,24730,6,0,P|399:137|330:198,1,150,4|10,1:2|0:0,0:0:0:0:
252,207,25292,1,0,1:2:0:0:
421,280,25667,2,0,L|510:288,2,75,2|10|0,1:2|0:0|0:0,0:0:0:0:
335,352,26230,2,0,L|312:197,1,150,0|8,1:2|0:0,0:0:0:0:
395,185,26792,1,2,1:2:0:0:
220,204,27167,2,0,L|121:188,1,75,0|10,1:2|0:0,0:0:0:0:
223,127,27542,1,2,0:0:0:0:
48,102,27730,5,0,1:2:0:0:
191,43,28105,2,0,L|206:120,1,75,10|0,0:0|1:2,0:0:0:0:
32,199,28667,2,0,L|122:207,2,75,2|10|0,1:2|0:0|1:2,0:0:0:0:
217,285,29230,1,0,1:2:0:0:
296,334,29417,6,0,P|328:261|274:204,1,150,2|0,1:2|1:2,0:0:0:0:
221,186,29979,1,2,0:0:0:0:
200,117,30167,1,0,1:2:0:0:
242,59,30354,1,10,0:0:0:0:
315,59,30542,1,0,1:2:0:0:
491,109,30730,6,0,P|488:191|416:253,1,150,2|10,1:2|0:0,0:0:0:0:
363,248,31292,1,0,1:2:0:0:
191,271,31667,2,0,L|217:354,1,75,2|10,1:2|0:0,0:0:0:0:
298,357,32042,1,0,1:2:0:0:
391,354,32230,5,0,1:2:0:0:
422,288,32417,1,0,1:2:0:0:
391,222,32605,1,8,0:0:0:0:
321,205,32792,1,2,1:2:0:0:
194,92,33167,2,0,L|292:73,2,75,0|10|2,1:2|0:0|1:2,0:0:0:0:
24,119,33730,6,0,P|23:175|101:216,1,150,0|10,1:2|0:0,0:0:0:0:
175,211,34292,1,0,1:2:0:0:
22,317,34667,1,2,1:2:0:0:
105,334,34855,2,0,L|120:238,1,75,10|0,0:0|1:2,0:0:0:0:
303,226,35230,5,8,0:0:0:0:
225,190,35417,2,0,P|170:168|66:170,1,150,10|8,0:0|0:0,0:0:0:0:
29,116,35979,1,10,0:0:0:0:
47,46,36167,1,8,0:0:0:0:
116,27,36355,1,10,0:0:0:0:
153,27,36448,1,8,0:0:0:0:
191,26,36542,1,8,0:0:0:0:
383,96,36730,6,0,L|415:220,2,112.5,6|2|2,1:2|0:0|1:2,0:0:0:0:
195,222,37667,1,0,1:2:0:0:
280,213,37855,2,0,L|255:311,1,75,10|0,0:0|1:2,0:0:0:0:
174,316,38230,2,0,L|74:232,2,112.5,2|2|2,1:2|0:0|1:2,0:0:0:0:
349,352,39167,1,0,1:2:0:0:
264,343,39355,2,0,L|256:245,1,75,10|0,0:0|1:2,0:0:0:0:
434,293,39730,6,0,P|451:241|437:165,1,112.5,2|2,1:2|0:0,0:0:0:0:
314,160,40292,2,0,L|470:135,1,150,2|0,1:2|1:2,0:0:0:0:
386,90,40855,2,0,L|305:75,1,75,10|0,0:0|1:2,0:0:0:0:
226,35,41230,6,0,L|345:11,2,112.5,0|0|0,1:2|0:0|1:2,0:0:0:0:
155,48,41979,1,2,0:0:0:0:
127,114,42167,1,0,1:2:0:0:
168,174,42354,1,10,0:0:0:0:
240,172,42542,1,0,1:2:0:0:
59,255,42730,6,0,L|33:134,2,112.5,2|2|2,1:2|0:0|1:2,0:0:0:0:
234,340,43667,1,0,1:2:0:0:
151,342,43855,2,0,L|136:258,1,75,10|0,0:0|1:2,0:0:0:0:
232,239,44230,2,0,L|362:271,2,112.5,2|2|2,1:2|0:0|1:2,0:0:0:0:
414,219,45167,1,0,1:2:0:0:
330,204,45355,2,0,L|314:124,1,75,10|0,0:0|1:2,0:0:0:0:
134,67,45730,6,0,L|262:40,1,112.5,2|2,1:2|0:0,0:0:0:0:
375,103,46292,2,0,P|372:154|269:199,1,150,2|0,1:2|1:2,0:0:0:0:
375,239,46855,1,10,0:0:0:0:
371,325,47042,1,0,1:2:0:0:
188,339,47230,5,8,0:0:0:0:
107,333,47417,2,0,P|97:251|133:184,1,150,10|8,0:0|0:0,0:0:0:0:
205,151,47980,1,10,0:0:0:0:
286,131,48167,1,8,0:0:0:0:
203,90,48355,1,10,0:0:0:0:
115,82,48542,1,8,0:0:0:0:
300,42,48730,6,0,L|418:56,1,112.5,6|0,1:2|0:0,0:0:0:0:
274,148,49292,2,0,L|190:153,1,75,0|0,0:0|1:2,0:0:0:0:
367,248,49855,2,0,L|466:256,1,75,8|0,0:0|0:0,0:0:0:0:
268,338,50230,6,0,L|139:320,1,112.5,2|0,1:2|0:0,0:0:0:0:
18,226,50792,1,0,0:0:0:0:
99,182,50980,2,0,L|262:164,1,150,2|8,1:2|0:0,0:0:0:0:
160,139,51542,1,0,1:2:0:0:
335,76,51730,6,0,L|450:65,2,112.5,2|0|0,1:2|0:0|0:0,0:0:0:0:
255,62,52480,1,0,1:2:0:0:
421,149,52855,2,0,L|505:148,1,75,8|0,0:0|0:0,0:0:0:0:
326,215,53230,6,0,L|202:205,1,112.5,2|0,1:2|0:0,0:0:0:0:
345,311,53792,1,0,0:0:0:0:
250,340,53980,2,0,L|235:264,1,75,2|0,1:2|0:0,0:0:0:0:
137,257,54355,2,0,L|112:163,1,75,8|0,0:0|1:2,0:0:0:0:
294,148,54730,6,0,P|237:110|174:104,1,112.5,2|0,1:2|0:0,0:0:0:0:
59,76,55292,1,0,0:0:0:0:
139,28,55480,2,0,P|202:11|277:49,1,150,0|8,1:2|0:0,0:0:0:0:
198,97,56042,1,0,0:0:0:0:
27,153,56230,6,0,L|17:278,2,112.5,2|0|2,1:2|0:0|0:0,0:0:0:0:
105,117,56980,1,0,0:0:0:0:
283,319,57355,2,0,L|199:307,1,75,10|0,0:0|1:2,0:0:0:0:
41,326,57730,6,0,P|93:295|169:289,1,112.5,2|0,0:0|0:0,0:0:0:0:
285,280,58292,2,0,L|295:182,1,75,2|0,0:0|0:0,0:0:0:0:
111,148,58855,2,0,L|215:131,1,75,10|0,0:0|0:0,0:0:0:0:
365,107,59230,5,2,1:2:0:0:
474,172,59511,1,0,0:0:0:0:
374,236,59792,1,0,0:0:0:0:
286,264,59980,2,0,L|273:174,1,75,2|0,1:2|0:0,0:0:0:0:
374,330,60355,2,0,L|461:340,1,75,10|0,0:0|1:2,0:0:0:0:
267,358,60730,6,0,L|127:343,1,112.5,6|0,1:2|0:0,0:0:0:0:
294,284,61292,1,0,0:0:0:0:
208,274,61480,2,0,P|185:214|243:155,1,150,0|8,1:2|0:0,0:0:0:0:
318,153,62042,1,0,0:0:0:0:
140,98,62230,6,0,L|6:81,2,112.5,2|0|0,1:2|0:0|0:0,0:0:0:0:
224,86,62980,1,2,1:2:0:0:
49,204,63355,2,0,L|142:217,1,75,8|0,0:0|1:2,0:0:0:0:
298,207,63730,6,0,P|323:280|299:342,1,112.5,2|0,1:2|0:0,0:0:0:0:
175,358,64292,1,0,0:0:0:0:
254,329,64480,2,0,P|322:319|373:251,1,150,0|8,1:2|0:0,0:0:0:0:
286,238,65042,1,0,0:0:0:0:
470,243,65230,6,0,L|490:107,2,112.5,2|0|0,1:2|0:0|0:0,0:0:0:0:
388,272,65980,1,2,1:2:0:0:
306,289,66167,1,0,0:0:0:0:
385,315,66355,1,8,0:0:0:0:
467,326,66542,1,0,1:2:0:0:
294,360,66730,6,0,P|245:360|128:315,1,150,10|8,0:0|0:0,0:0:0:0:
331,273,67480,2,0,P|280:270|164:224,1,150,8|8,0:0|0:0,0:0:0:0:
272,204,68042,1,0,0:0:0:0:
95,211,68230,6,0,P|63:182|97:81,1,150,10|8,0:0|0:0,0:0:0:0:
256,40,68980,2,0,P|274:91|204:158,1,150,10|8,0:0|0:0,0:0:0:0:
130,169,69542,1,0,0:0:0:0:
320,219,69730,6,0,L|424:231,1,75,10|8,0:0|0:0,0:0:0:0:
317,264,70105,2,0,L|231:272,1,75,8|8,0:0|0:0,0:0:0:0:
314,266,70479,1,8,0:0:0:0:
349,203,70667,1,8,0:0:0:0:
316,139,70854,1,8,0:0:0:0:
245,131,71042,1,8,0:0:0:0:
55,176,71230,5,10,0:0:0:0:
135,217,71417,2,0,P|193:224|233:310,1,150,8|8,0:0|0:0,0:0:0:0:
156,318,71980,2,0,L|243:335,1,75,8|8,0:0|0:0,0:0:0:0:
411,207,72355,2,0,L|325:193,1,75,8|8,0:0|0:0,0:0:0:0:
138,155,72730,5,4,1:2:0:0:
138,155,72917,1,0,0:0:0:0:
294,116,73292,1,0,0:0:0:0:
373,105,73480,2,0,P|435:117|486:202,1,150,2|2,0:0|0:0,0:0:0:0:
400,219,74042,1,2,0:0:0:0:
484,289,74230,5,2,1:2:0:0:
484,289,74417,1,0,0:2:0:0:
310,353,74792,1,0,0:0:0:0:
226,362,74980,2,0,P|235:291|312:233,1,150,2|2,0:0|0:0,0:0:0:0:
209,222,75542,1,0,0:0:0:0:
124,212,75730,5,2,1:2:0:0:
124,212,75917,1,0,0:2:0:0:
297,116,76292,1,0,0:0:0:0:
218,85,76480,2,0,P|75:58|43:68,1,150,2|2,0:0|0:0,0:0:0:0:
157,75,77042,1,0,0:0:0:0:
64,86,77230,5,2,1:2:0:0:
64,86,77417,1,0,0:0:0:0:
228,174,77792,1,0,0:0:0:0:
305,194,77980,2,0,P|297:237|190:265,1,150,2|2,0:0|0:0,0:0:0:0:
118,268,78542,1,0,0:0:0:0:
213,290,78730,5,2,1:2:0:0:
213,290,78917,2,0,L|221:381,1,75,0|0,0:0|0:0,0:0:0:0:
298,375,79292,1,0,0:0:0:0:
372,359,79480,1,2,0:0:0:0:
212,279,79855,2,0,L|304:264,1,75,2|2,0:0|0:0,0:0:0:0:
205,235,80230,5,2,1:2:0:0:
205,235,80417,2,0,L|195:137,1,75,0|2,0:0|0:0,0:0:0:0:
117,135,80792,1,0,0:0:0:0:
33,117,80980,2,0,P|28:179|102:235,1,150,2|2,0:0|0:0,0:0:0:0:
175,240,81542,1,0,0:0:0:0:
74,253,81730,5,2,1:2:0:0:
74,253,81917,1,0,0:0:0:0:
251,342,82292,1,0,0:0:0:0:
163,340,82480,2,0,P|206:289|293:276,1,150,2|2,0:0|0:0,0:0:0:0:
365,279,83042,1,2,0:0:0:0:
445,291,83230,5,2,1:2:0:0:
445,291,83417,1,0,0:0:0:0:
285,219,83792,2,0,L|374:204,1,75,0|2,0:0|0:0,0:0:0:0:
443,202,84167,1,0,0:0:0:0:
389,134,84355,1,2,0:0:0:0:
303,115,84542,1,0,0:0:0:0:
113,123,84730,6,0,L|110:284,1,150,6|2,1:2|0:0,0:0:0:0:
198,286,85292,1,2,0:3:0:0:
110,311,85480,1,10,0:0:0:0:
283,211,85855,2,0,L|200:194,1,75,2|2,0:0|0:3,0:0:0:0:
39,190,86230,6,0,P|70:118|134:93,1,150,2|2,1:2|0:0,0:0:0:0:
220,94,86792,1,2,1:3:0:0:
50,104,86980,2,0,L|29:14,2,75,10|2|10,0:0|1:2|0:0,0:0:0:0:
345,178,87730,6,0,P|275:209|186:202,1,150,2|2,1:2|0:0,0:0:0:0:
282,247,88292,1,2,0:3:0:0:
374,268,88480,2,0,P|456:271|482:333,1,150,10|2,0:0|0:2,0:0:0:0:
401,353,89042,1,2,0:3:0:0:
220,355,89230,2,0,P|197:297|266:235,1,150,2|2,1:2|0:0,0:0:0:0:
337,228,89792,1,2,1:3:0:0:
154,190,89980,2,0,L|67:171,2,75,10|2|10,0:0|1:3|0:0,0:0:0:0:
467,96,90730,6,0,P|485:175|439:228,1,150,2|2,1:2|0:0,0:0:0:0:
360,228,91292,1,2,0:3:0:0:
266,226,91480,1,10,0:0:0:0:
336,238,91667,1,2,0:3:0:0:
367,304,91855,1,2,0:0:0:0:
330,366,92042,1,2,0:3:0:0:
153,366,92230,6,0,P|97:355|38:275,1,150,2|2,1:2|0:0,0:0:0:0:
118,249,92792,1,2,0:3:0:0:
203,237,92980,2,0,L|218:148,1,75,10|2,0:0|1:3,0:0:0:0:
48,160,93355,2,0,L|33:80,1,75,10|2,0:0|1:3,0:0:0:0:
207,49,93730,6,0,P|316:60|352:118,1,150,2|2,1:2|0:0,0:0:0:0:
164,136,94480,1,10,0:0:0:0:
128,198,94667,1,2,0:3:0:0:
166,259,94855,1,2,0:0:0:0:
237,256,95042,1,2,0:3:0:0:
415,326,95230,6,0,L|430:159,1,150,2|0,1:2|1:2,0:0:0:0:
246,240,95980,2,0,L|225:73,1,150,0|0,1:2|1:2,0:0:0:0:
308,71,96542,1,0,1:2:0:0:
135,43,96730,5,4,1:2:0:0:
256,192,97105,12,2,99355,0:0:0:0:
418,82,99730,6,0,P|451:135|389:193,1,150,6|8,1:2|0:0,0:0:0:0:
316,198,100292,1,0,0:0:0:0:
222,204,100480,2,0,L|197:365,1,150,2|8,1:2|0:0,0:0:0:0:
281,365,101042,1,2,0:0:0:0:
106,345,101230,2,0,P|79:245|105:227,1,150,2|8,1:2|0:0,0:0:0:0:
276,106,101980,2,0,L|194:98,1,75,2|0,1:2|0:0,0:0:0:0:
114,45,102355,2,0,L|207:31,1,75,10|2,0:0|1:2,0:0:0:0:
370,44,102730,6,0,L|391:199,1,150,2|8,1:2|0:0,0:0:0:0:
225,255,103480,1,2,1:2:0:0:
181,198,103667,1,0,0:0:0:0:
211,134,103855,1,8,0:0:0:0:
282,132,104042,1,2,0:0:0:0:
466,269,104230,6,0,L|474:105,1,150,2|8,1:2|0:0,0:0:0:0:
297,68,104980,1,2,1:2:0:0:
368,82,105167,1,0,0:0:0:0:
402,145,105355,1,10,0:0:0:0:
376,213,105542,1,0,1:2:0:0:
187,244,105730,6,0,L|35:221,1,150,6|8,1:2|0:0,0:0:0:0:
227,142,106480,2,0,P|272:164|283:273,1,150,2|8,1:2|0:0,0:0:0:0:
252,279,106948,1,0,0:0:0:0:
208,287,107042,1,2,0:0:0:0:
30,306,107230,6,0,P|35:220|77:175,1,150,4|10,1:2|0:0,0:0:0:0:
261,142,107980,2,0,P|219:112|105:95,1,150,2|10,1:2|0:0,0:0:0:0:
81,68,108448,1,0,0:0:0:0:
125,49,108542,1,2,1:2:0:0:
308,50,108730,6,0,P|352:64|392:184,1,150,6|8,1:2|0:0,0:0:0:0:
92,184,109480,2,0,P|75:256|148:317,1,150,4|10,1:2|0:0,0:0:0:0:
208,331,110042,1,2,0:0:0:0:
401,349,110230,6,0,P|460:330|473:229,1,150,6|8,1:2|0:0,0:0:0:0:
398,224,110792,1,2,0:0:0:0:
220,162,110980,2,0,L|206:80,1,75,4|0,1:2|0:0,0:0:0:0:
299,54,111355,2,0,L|205:49,1,75,10|2,0:0|1:2,0:0:0:0:
38,112,111730,6,0,P|23:147|96:218,1,150,6|8,1:2|0:0,0:0:0:0:
268,316,112480,2,0,L|183:309,1,75,2|0,1:2|0:0,0:0:0:0:
97,261,112855,2,0,L|185:250,1,75,8|0,0:0|0:0,0:0:0:0:
361,235,113230,5,6,1:2:0:0:
320,172,113417,1,0,0:0:0:0:
258,132,113605,1,10,0:0:0:0:
184,122,113792,1,0,0:0:0:0:
363,116,113980,2,0,L|384:21,1,75,6|0,1:2|0:0,0:0:0:0:
279,45,114355,2,0,L|257:-50,1,75,10|2,0:0|1:2,0:0:0:0:
457,15,114730,6,0,P|483:68|474:180,1,150,4|8,1:2|0:0,0:0:0:0:
442,174,115198,1,8,0:0:0:0:
399,180,115292,1,8,0:0:0:0:
218,247,115480,6,0,L|354:260,2,112.5,6|6|6,1:2|1:2|1:2,0:0:0:0:
26,320,116230,2,0,P|55:244|105:217,1,112.5,6|6,1:2|1:2,0:0:0:0:
190,209,116792,1,6,1:2:0:0:
385,214,116980,2,0,P|348:162|280:141,1,112.5,6|6,1:2|1:2,0:0:0:0:
179,116,117542,1,0,1:2:0:0:
365,38,117730,6,0,P|423:46|496:120,1,150,6|8,1:2|0:0,0:0:0:0:
325,183,118480,1,10,0:0:0:0:
489,227,118855,1,8,0:0:0:0:
178,310,119230,6,0,P|159:227|209:164,1,150,6|10,1:2|0:0,0:0:0:0:
376,162,119980,1,10,0:0:0:0:
408,97,120167,1,0,0:0:0:0:
374,33,120355,1,10,0:0:0:0:
303,21,120542,1,0,0:0:0:0:
114,80,120730,6,0,P|132:152|201:180,1,150,6|8,1:2|0:0,0:0:0:0:
281,197,121292,1,8,0:0:0:0:
99,271,121480,2,0,L|10:258,1,75,4|8,1:2|0:0,0:0:0:0:
97,296,121855,2,0,L|190:303,1,75,8|8,0:0|0:0,0:0:0:0:
361,358,122230,5,6,1:2:0:0:
289,362,122417,1,8,0:0:0:0:
252,301,122605,1,8,0:0:0:0:
287,240,122792,1,8,0:0:0:0:
467,184,122980,2,0,L|384:158,1,75,4|8,1:2|0:0,0:0:0:0:
216,93,123355,2,0,L|315:73,1,75,4|8,1:2|0:0,0:0:0:0:
483,68,123730,5,6,1:2:0:0:
256,192,124105,12,0,129355,0:0:0:0:
129,258,129730,6,0,L|99:135,2,112.5,2|0|2,0:0|0:0|0:0,0:0:0:0:
367,327,130855,1,2,0:0:0:0:
210,344,131230,2,0,L|76:337,2,112.5,2|0|2,0:0|0:0|0:0,0:0:0:0:
281,328,131979,1,2,0:0:0:0:
325,269,132167,1,0,0:0:0:0:
320,196,132354,1,2,0:0:0:0:
268,144,132542,1,2,0:0:0:0:
195,138,132729,5,2,0:0:0:0:
319,90,133011,1,0,0:0:0:0:
439,71,133292,1,2,0:0:0:0:
357,41,133480,2,0,L|213:42,2,112.5,2|0|2,0:0|0:0|0:0,0:0:0:0:
269,82,134230,5,2,0:0:0:0:
146,152,134511,1,0,0:0:0:0:
277,225,134792,1,2,0:0:0:0:
201,252,134980,1,2,0:0:0:0:
123,275,135167,1,0,0:0:0:0:
208,326,135355,1,2,0:0:0:0:
294,342,135542,1,0,0:0:0:0:
201,354,135730,6,0,L|62:330,1,112.5,2|0,0:0|0:0,0:0:0:0:
69,219,136292,1,2,0:0:0:0:
299,173,136855,2,0,L|208:153,1,75,2|0,0:0|0:0,0:0:0:0:
323,282,137230,6,0,L|462:258,1,112.5,2|0,0:0|0:0,0:0:0:0:
455,147,137792,1,2,0:0:0:0:
257,86,138355,2,0,L|159:73,1,75,2|0,0:0|0:0,0:0:0:0:
275,163,138730,6,0,L|143:147,1,112.5,2|0,0:0|0:0,0:0:0:0:
48,210,139292,1,2,0:0:0:0:
264,308,139855,2,0,L|341:297,1,75,2|0,0:0|0:0,0:0:0:0:
248,340,140230,6,0,L|101:329,1,112.5,2|0,0:0|0:0,0:0:0:0:
272,267,140792,1,2,0:0:0:0:
195,255,140980,2,0,L|232:186,1,75,2|0,0:0|0:0,0:0:0:0:
311,171,141355,2,0,L|393:155,1,75,2|0,0:0|0:0,0:0:0:0:
467,152,141730,6,0,P|472:97|444:29,1,112.5,2|0,0:0|0:0,0:0:0:0:
332,34,142292,1,2,0:0:0:0:
115,100,142855,1,2,0:0:0:0:
296,166,143230,6,0,P|284:215|213:266,1,112.5,2|0,0:0|0:0,0:0:0:0:
115,284,143792,1,2,0:0:0:0:
199,311,143980,2,0,L|217:227,1,75,2|0,0:0|0:0,0:0:0:0:
134,198,144355,2,0,L|47:180,1,75,2|0,0:0|0:0,0:0:0:0:
245,135,144730,6,0,L|364:119,2,112.5,2|0|2,0:0|0:0|0:0,0:0:0:0:
328,179,145480,2,0,L|466:191,2,112.5,2|0|2,0:0|0:0|0:0,0:0:0:0:
235,218,146230,2,0,L|116:202,2,112.5,2|0|2,0:0|0:0|0:0,0:0:0:0:
152,262,146980,2,0,L|14:274,1,112.5,2|0,0:0|0:0,0:0:0:0:
281,346,147542,5,2,0:0:0:0:
