osu file format v14

[General]
AudioFilename: audio.mp3
AudioLeadIn: 0
PreviewTime: 98881
Countdown: 0
SampleSet: Soft
StackLeniency: 0.7
Mode: 2
LetterboxInBreaks: 0
WidescreenStoryboard: 1

[Editor]
Bookmarks: 84725,111725
DistanceSpacing: 0.8
BeatDivisor: 4
GridSize: 8
TimelineZoom: 2.1

[Metadata]
Title:Infinity Heaven
TitleUnicode:Infinity Heaven
Artist:HyuN
ArtistUnicode:HyuN
Creator:Jemzuu
Version:MBomb's Rain
Source:osu!
Tags:ajamez jbh jbhyperion mbomb magic bomb niva osu! mappers' guild featured artist Arcaea KRUX hyunesis HyuN_Inofixion never ending story forevermore piano instrumental electronic video game bms
BeatmapID:2249172
BeatmapSetID:1074464

[Difficulty]
HPDrainRate:6
CircleSize:4
OverallDifficulty:8.8
ApproachRate:8.8
SliderMultiplier:1.8
SliderTickRate:2

[Events]
//Background and Video events
0,0,"pawel-czerwinski-snrPBiLzZaE-unsplash.jpg",0,0
//Break Periods
//Storyboard Layer 0 (Background)
//Storyboard Layer 1 (Fail)
//Storyboard Layer 2 (Pass)
//Storyboard Layer 3 (Foreground)
//Storyboard Layer 4 (Overlay)
//Storyboard Sound Samples

[TimingPoints]
730,375,4,2,1,35,1,0
730,-100,4,2,1,35,0,0
8136,-100,4,2,1,15,0,0
8230,-100,4,2,1,35,0,0
12730,-100,4,2,1,50,0,0
13292,-100,4,2,2,50,0,0
13386,-100,4,2,1,50,0,0
14792,-100,4,2,2,50,0,0
14886,-100,4,2,1,50,0,0
16292,-100,4,2,2,50,0,0
16386,-100,4,2,1,50,0,0
17792,-100,4,2,2,50,0,0
17886,-100,4,2,1,50,0,0
19292,-100,4,2,2,50,0,0
19386,-100,4,2,1,50,0,0
20792,-100,4,2,2,50,0,0
20886,-100,4,2,1,50,0,0
21730,-100,4,2,3,50,0,0
23230,-100,4,2,1,50,0,0
24730,-100,4,2,1,60,0,0
48730,-100,4,2,1,70,0,1
72730,-100,4,2,1,45,0,0
84730,-100,4,2,1,60,0,0
87167,-100,4,2,2,60,0,0
87261,-100,4,2,1,60,0,0
87542,-100,4,2,2,60,0,0
87636,-100,4,2,1,60,0,0
90167,-100,4,2,2,60,0,0
90261,-100,4,2,1,60,0,0
90542,-100,4,2,2,60,0,0
90636,-100,4,2,1,60,0,0
93167,-100,4,2,2,60,0,0
93261,-100,4,2,1,60,0,0
93542,-100,4,2,2,60,0,0
93636,-100,4,2,1,60,0,0
94667,-100,4,2,2,60,0,0
94761,-100,4,2,1,60,0,0
95042,-100,4,2,2,60,0,0
95136,-100,4,2,1,60,0,0
96730,-100,4,2,3,60,0,0
96917,-100,4,2,3,15,0,0
97292,-100,4,2,3,25,0,0
97667,-100,4,2,3,30,0,0
97855,-100,4,2,3,40,0,0
98042,-100,4,2,3,45,0,0
98230,-100,4,2,3,55,0,0
98417,-100,4,2,3,65,0,0
98605,-100,4,2,3,70,0,0
98792,-100,4,2,3,5,0,0
98980,-100,4,2,1,45,0,0
99261,-100,4,2,1,5,0,0
99355,-100,4,2,1,45,0,0
99636,-100,4,2,1,5,0,0
99730,-100,4,2,1,75,0,1
115386,-100,4,2,1,75,0,0
115480,-100,4,2,2,75,0,1
115526,-100,4,2,2,5,0,0
115761,-100,4,2,2,75,0,0
115808,-100,4,2,2,5,0,0
116042,-100,4,2,2,75,0,0
116089,-100,4,2,2,5,0,0
116230,-100,4,2,2,75,0,1
116276,-100,4,2,2,5,0,0
116511,-100,4,2,2,75,0,0
116558,-100,4,2,2,5,0,0
116792,-100,4,2,2,75,0,0
116839,-100,4,2,2,5,0,0
116980,-100,4,2,2,75,0,1
117026,-100,4,2,2,5,0,0
117261,-100,4,2,2,75,0,0
117308,-100,4,2,2,5,0,0
117542,-100,4,2,1,75,0,0
117730,-100,4,2,1,75,0,1
123730,-100,4,2,3,50,0,0
123753,-100,4,2,1,35,0,0
131136,-100,4,2,1,15,0,0
131230,-100,4,2,1,35,0,0
143136,-100,4,2,1,15,0,0
143230,-100,4,2,1,35,0,0
145480,-100,4,2,1,35,0,0
146230,-100,4,2,1,35,0,0
146980,-100,4,2,1,35,0,0

[Colours]
Combo1 : 149,149,255
Combo2 : 255,174,215
Combo3 : 164,209,255

[HitObjects]
128,192,730,5,6,1:2:0:0:
256,192,1011,1,0,0:0:0:0:
384,192,1292,1,2,0:0:0:0:
128,192,1855,2,0,L|128:96,1,90,2|0,0:0|0:0,0:0:0:0:
312,192,2230,5,2,0:0:0:0:
184,192,2511,1,0,0:0:0:0:
56,192,2792,1,2,0:0:0:0:
344,192,3355,2,0,P|408:160|408:120,1,90,2|0,0:0|0:0,0:0:0:0:
216,192,3730,5,2,0:0:0:0:
88,192,4011,1,0,0:0:0:0:
216,192,4292,1,2,0:0:0:0:
472,192,4855,2,0,L|376:192,1,90,2|0,0:0|0:0,0:0:0:0:
176,192,5230,5,2,0:0:0:0:
320,192,5511,1,0,0:0:0:0:
176,192,5792,1,2,0:0:0:0:
72,192,5980,2,0,L|168:192,1,90,2|0,0:0|0:0,0:0:0:0:
48,192,6355,2,0,L|144:192,1,90,2|0,0:0|0:0,0:0:0:0:
336,192,6730,5,2,0:0:0:0:
464,192,7011,1,0,0:0:0:0:
312,192,7292,2,0,P|232:160|240:72,1,180,2|0,0:0|0:0,0:0:0:0:
440,192,7855,1,2,0:0:0:0:
112,192,8230,5,2,0:0:0:0:
256,192,8511,1,0,0:0:0:0:
88,192,8792,1,2,0:0:0:0:
200,192,8980,2,0,L|296:192,1,90,2|0,0:0|0:0,0:0:0:0:
168,192,9355,2,0,L|72:192,1,90,2|0,0:0|0:0,0:0:0:0:
272,192,9730,6,0,P|360:176|392:120,2,135,2|0|2,0:0|0:0|0:0,0:0:0:0:
80,192,10480,1,2,0:0:0:0:
208,192,10761,1,0,0:0:0:0:
336,192,11042,1,2,0:0:0:0:
136,192,11230,6,0,P|72:176|40:112,2,135,2|0|2,0:0|0:0|0:0,0:0:0:0:
328,192,11980,2,0,L|392:120,1,90,2|0,0:0|0:0,0:0:0:0:
184,192,12355,2,0,L|120:120,1,90,2|0,0:0|0:0,0:0:0:0:
392,192,12730,6,0,P|472:176|488:120,2,135,6|0|2,1:2|0:0|0:3,0:0:0:0:
200,192,13480,2,0,P|144:168|216:112,1,180,8|0,0:2|0:0,0:0:0:0:
320,192,14042,1,2,0:3:0:0:
128,192,14230,6,0,P|56:184|24:112,1,135,2|0,1:2|0:0,0:0:0:0:
200,192,14792,1,2,1:3:0:0:
392,192,14980,2,0,L|288:192,1,90,8|2,0:0|1:3,0:0:0:0:
488,192,15355,2,0,L|392:192,1,90,10|2,0:2|0:3,0:0:0:0:
200,192,15730,6,0,P|112:176|88:112,2,135,2|0|2,1:2|0:0|0:3,0:0:0:0:
392,192,16480,2,0,P|376:136|256:96,1,180,8|0,0:2|0:0,0:0:0:0:
160,192,17042,1,2,0:3:0:0:
352,192,17230,6,0,P|392:168|336:128,1,135,2|0,1:2|0:0,0:0:0:0:
176,192,17792,1,2,1:2:0:0:
368,192,17980,2,0,L|264:192,1,90,8|2,0:0|1:3,0:0:0:0:
86,192,18355,2,0,L|182:192,1,90,10|2,0:2|0:3,0:0:0:0:
368,192,18730,6,0,P|416:160|368:128,1,135,2|0,1:2|0:0,0:0:0:0:
224,192,19292,1,2,0:3:0:0:
416,192,19480,1,8,0:2:0:0:
96,192,19855,2,0,L|96:96,1,90,0|2,0:0|0:3,0:0:0:0:
296,192,20230,6,0,P|392:168|416:136,1,135,2|0,1:2|0:0,0:0:0:0:
248,192,20792,1,2,0:3:0:0:
64,192,20980,2,0,L|160:192,1,90,10|2,0:2|1:3,0:0:0:0:
352,192,21355,1,10,0:2:0:0:
152,192,21542,2,0,L|152:128,1,45,2|0,1:3|1:2,0:0:0:0:
320,192,21730,5,6,1:2:0:0:
440,192,22011,1,0,0:0:0:0:
320,192,22292,1,0,0:0:0:0:
128,192,22480,1,0,0:0:0:0:
248,192,22761,1,0,0:0:0:0:
128,192,23042,1,0,0:0:0:0:
320,192,23230,5,0,1:2:0:0:
488,192,23605,1,0,1:2:0:0:
320,192,23980,1,0,1:2:0:0:
488,192,24355,2,0,P|448:144|400:144,1,90,0|0,1:2|0:0,0:0:0:0:
360,192,24636,1,0,0:0:0:0:
192,192,24730,5,4,1:2:0:0:
136,192,24823,1,0,0:0:0:0:
136,192,24917,1,0,0:0:0:0:
192,192,25011,1,0,0:0:0:0:
320,192,25105,2,0,P|400:168|416:128,2,90,10|0|0,0:0|1:2|0:0,0:0:0:0:
208,192,25667,1,2,1:2:0:0:
392,192,25855,2,0,L|488:192,1,90,10|0,0:0|0:0,0:0:0:0:
224,192,26230,6,0,L|168:192,1,45,0|0,1:2|0:0,0:0:0:0:
224,192,26417,2,0,L|280:192,1,45,0|0,1:2|0:0,0:0:0:0:
224,192,26605,1,8,0:0:0:0:
40,192,26792,2,0,L|40:96,1,90,2|0,1:2|0:0,0:0:0:0:
144,192,27167,1,0,1:2:0:0:
328,192,27355,1,10,0:0:0:0:
144,192,27542,1,2,0:0:0:0:
424,192,27730,5,0,1:2:0:0:
480,192,27823,1,0,0:0:0:0:
480,192,27917,1,0,0:0:0:0:
424,192,28011,1,0,0:0:0:0:
296,192,28105,2,0,P|232:176|216:128,2,90,10|0|0,0:0|1:2|0:0,0:0:0:0:
400,192,28667,1,2,1:2:0:0:
208,192,28855,2,0,P|158:173|136:136,1,90,10|0,0:0|1:2,0:0:0:0:
400,192,29230,5,0,1:2:0:0:
232,192,29417,2,0,L|136:192,2,90,2|10|0,1:2|0:0|1:2,0:0:0:0:
416,192,29980,2,0,L|312:192,1,90,2|0,0:0|1:2,0:0:0:0:
144,192,30355,2,0,L|256:192,1,90,10|0,0:0|1:2,0:0:0:0:
280,192,30636,1,0,1:2:0:0:
104,192,30730,5,2,1:2:0:0:
48,192,30823,1,0,0:0:0:0:
24,192,30917,1,0,0:0:0:0:
48,192,31011,1,0,0:0:0:0:
176,192,31105,1,10,0:0:0:0:
280,192,31292,2,0,L|376:192,1,90,0|0,1:2|0:0,0:0:0:0:
256,192,31667,1,2,1:2:0:0:
72,192,31855,2,0,L|176:192,1,90,10|0,0:0|1:2,0:0:0:0:
424,192,32230,6,0,L|424:144,1,45,0|0,1:2|0:0,0:0:0:0:
368,192,32417,2,0,L|368:144,1,45,0|0,1:2|0:0,0:0:0:0:
424,192,32605,1,8,0:0:0:0:
240,192,32792,2,0,L|240:96,1,90,2|0,1:2|0:0,0:0:0:0:
344,192,33167,1,0,1:2:0:0:
160,192,33355,1,10,0:0:0:0:
344,192,33542,1,2,1:2:0:0:
80,192,33730,5,0,1:2:0:0:
32,192,33823,1,0,0:0:0:0:
80,192,33917,1,0,0:0:0:0:
136,192,34011,1,0,0:0:0:0:
264,192,34105,2,0,P|336:176|352:144,2,90,10|0|0,0:0|1:2|0:0,0:0:0:0:
144,192,34667,1,2,1:2:0:0:
336,192,34855,2,0,L|432:192,1,90,10|0,0:0|1:2,0:0:0:0:
168,192,35230,5,8,0:0:0:0:
336,192,35417,2,0,L|440:192,2,90,10|10|8,0:0|0:0|0:0,0:0:0:0:
72,192,35980,1,10,0:0:0:0:
72,192,36073,1,8,0:0:0:0:
120,192,36167,1,8,0:0:0:0:
176,192,36261,1,8,0:0:0:0:
344,192,36355,1,10,0:0:0:0:
400,192,36448,1,8,0:0:0:0:
400,192,36542,1,8,0:0:0:0:
344,192,36636,1,8,0:0:0:0:
176,192,36730,6,0,P|104:184|72:120,2,135,6|2|2,1:2|0:0|1:2,0:0:0:0:
280,192,37480,1,0,0:0:0:0:
280,192,37573,1,0,0:0:0:0:
224,192,37667,1,0,1:2:0:0:
168,192,37761,1,0,0:0:0:0:
40,192,37855,2,0,P|64:144|104:136,1,90,10|0,0:0|1:2,0:0:0:0:
352,192,38230,6,0,P|440:184|472:136,2,135,2|2|2,1:2|0:0|1:2,0:0:0:0:
248,192,38980,1,0,0:0:0:0:
200,192,39073,1,0,0:0:0:0:
248,192,39167,1,0,1:2:0:0:
296,192,39261,1,0,0:0:0:0:
168,192,39355,2,0,P|104:176|88:144,1,90,10|0,0:0|1:2,0:0:0:0:
360,192,39730,6,0,P|384:152|320:112,1,135,2|2,1:2|0:0,0:0:0:0:
168,192,40292,1,2,1:2:0:0:
272,192,40480,2,0,L|272:136,1,45,0|0,0:0|0:0,0:0:0:0:
216,192,40667,2,0,L|216:144,1,45,0|0,1:2|0:0,0:0:0:0:
344,192,40855,2,0,P|408:176|424:152,1,90,10|0,0:0|1:2,0:0:0:0:
152,192,41230,6,0,P|72:168|64:144,1,90,0|2,1:2|1:2,0:0:0:0:
128,192,41511,1,0,0:0:0:0:
256,192,41605,2,0,P|308:165|328:136,1,90,10|0,0:0|1:2,0:0:0:0:
136,192,41980,2,0,L|240:192,1,90,2|0,0:0|1:2,0:0:0:0:
38,192,42355,2,0,P|58:156|112:144,1,90,10|0,0:0|1:2,0:0:0:0:
160,192,42636,1,0,1:2:0:0:
336,192,42730,6,0,P|424:160|432:112,2,135,2|2|2,1:2|0:0|1:2,0:0:0:0:
432,192,43480,1,0,0:0:0:0:
480,192,43573,1,0,0:0:0:0:
432,192,43667,1,0,1:2:0:0:
376,192,43761,1,0,0:0:0:0:
248,192,43855,1,10,0:0:0:0:
344,192,44042,1,0,1:2:0:0:
72,192,44230,6,0,P|24:160|80:128,1,135,2|2,1:2|0:0,0:0:0:0:
216,192,44792,1,2,1:2:0:0:
312,192,44980,1,0,0:0:0:0:
256,192,45073,1,0,0:0:0:0:
200,192,45167,1,0,1:2:0:0:
256,192,45261,1,0,0:0:0:0:
384,192,45355,2,0,P|408:144|384:136,1,90,10|0,0:0|1:2,0:0:0:0:
120,192,45730,6,0,L|56:192,2,45,2|0|0,1:2|0:0|0:0,0:0:0:0:
184,192,46011,2,0,L|248:192,2,45,2|8|0,0:0|0:0|0:0,0:0:0:0:
64,192,46292,2,0,L|16:192,1,45,2|0,1:2|0:0,0:0:0:0:
80,192,46480,2,0,L|144:192,1,45,0|0,0:0|0:0,0:0:0:0:
64,192,46667,2,0,L|16:192,1,45,0|0,1:2|0:0,0:0:0:0:
144,192,46855,2,0,L|168:152,1,45,10|0,0:0|0:0,0:0:0:0:
40,192,47042,2,0,L|16:152,1,45,0|0,1:2|0:0,0:0:0:0:
200,192,47230,5,8,0:0:0:0:
312,192,47417,1,10,0:0:0:0:
120,192,47605,1,10,0:0:0:0:
16,192,47792,1,8,0:0:0:0:
288,192,47980,1,10,0:0:0:0:
344,192,48073,1,8,0:0:0:0:
288,192,48167,1,8,0:0:0:0:
232,192,48261,1,8,0:0:0:0:
408,192,48355,1,10,0:0:0:0:
464,192,48448,1,8,0:0:0:0:
464,192,48542,1,8,0:0:0:0:
408,192,48636,1,8,0:0:0:0:
200,192,48730,6,0,P|144:176|152:104,1,135,6|0,1:2|0:0,0:0:0:0:
200,192,49105,1,8,0:0:0:0:
392,192,49292,1,0,0:0:0:0:
448,192,49386,1,0,0:0:0:0:
448,192,49480,1,0,1:2:0:0:
392,192,49573,1,0,0:0:0:0:
448,192,49667,1,0,0:0:0:0:
392,192,49761,1,0,0:0:0:0:
264,192,49855,2,0,L|264:144,1,45,8|0,0:0|0:0,0:0:0:0:
320,192,50042,2,0,L|320:136,1,45,0|0,0:0|0:0,0:0:0:0:
136,192,50230,6,0,P|136:160|224:104,1,135,2|0,1:2|0:0,0:0:0:0:
264,192,50605,1,8,0:0:0:0:
80,192,50792,1,0,0:0:0:0:
136,192,50886,1,0,0:0:0:0:
192,192,50980,1,2,1:2:0:0:
136,192,51073,1,0,0:0:0:0:
80,192,51167,1,0,0:0:0:0:
136,192,51261,1,0,0:0:0:0:
264,192,51355,2,0,L|288:152,1,45,8|0,0:0|0:0,0:0:0:0:
160,192,51542,2,0,L|136:152,1,45,0|0,1:2|0:0,0:0:0:0:
320,192,51730,6,0,P|392:168|384:96,1,135,2|0,1:2|0:0,0:0:0:0:
344,192,52105,1,8,0:0:0:0:
144,192,52292,1,0,0:0:0:0:
80,192,52386,1,0,0:0:0:0:
48,192,52480,1,0,1:2:0:0:
48,192,52573,1,0,0:0:0:0:
80,192,52667,1,0,0:0:0:0:
144,192,52761,1,0,0:0:0:0:
272,192,52855,2,0,L|320:192,1,45,8|0,0:0|0:0,0:0:0:0:
264,192,53042,2,0,L|216:192,1,45,0|0,0:0|0:0,0:0:0:0:
395,192,53230,6,0,L|451:192,2,45,2|0|0,1:2|0:0|0:0,0:0:0:0:
272,192,53511,2,0,L|216:192,2,45,0|8|0,0:0|0:0|0:0,0:0:0:0:
395,192,53792,2,0,L|451:192,1,45,0|0,0:0|0:0,0:0:0:0:
275,192,53980,1,2,1:2:0:0:
219,192,54073,1,0,0:0:0:0:
219,192,54167,1,0,0:0:0:0:
275,192,54261,1,0,0:0:0:0:
152,192,54355,2,0,L|120:152,1,45,8|0,0:0|0:0,0:0:0:0:
248,192,54542,2,0,L|296:192,1,45,0|0,1:2|1:2,0:0:0:0:
104,192,54730,6,0,P|64:160|120:120,1,135,2|0,1:2|0:0,0:0:0:0:
168,192,55105,1,8,0:0:0:0:
360,192,55292,2,0,L|360:128,1,45,0|0,0:0|0:0,0:0:0:0:
300,192,55480,2,0,L|300:136,1,45,0|0,1:2|0:0,0:0:0:0:
240,192,55667,2,0,L|240:128,1,45,0|0,0:0|0:0,0:0:0:0:
376,192,55855,2,0,L|448:192,1,45,8|0,0:0|0:0,0:0:0:0:
376,192,56042,2,0,L|320:192,1,45,0|0,0:0|0:0,0:0:0:0:
160,192,56230,6,0,P|144:136|200:96,1,135,2|0,1:2|0:0,0:0:0:0:
256,192,56605,1,8,0:0:0:0:
56,192,56792,2,0,L|0:192,1,45,2|0,0:0|0:0,0:0:0:0:
80,192,56980,2,0,L|136:192,1,45,0|0,0:0|0:0,0:0:0:0:
56,192,57167,2,0,L|8:192,1,45,0|0,0:0|0:0,0:0:0:0:
184,192,57355,2,0,L|232:160,1,45,10|0,0:0|0:0,0:0:0:0:
96,192,57542,2,0,L|56:160,1,45,0|0,1:2|0:0,0:0:0:0:
240,192,57730,6,0,P|304:176|360:104,1,135,2|0,0:0|0:0,0:0:0:0:
288,192,58105,1,8,0:0:0:0:
24,192,58292,2,0,L|96:192,1,45,2|0,0:0|0:0,0:0:0:0:
128,192,58480,2,0,L|72:192,1,45
24,192,58667,2,0,L|80:192,1,45,0|0,0:0|0:0,0:0:0:0:
240,192,58855,1,10,0:0:0:0:
144,192,59042,1,0,0:0:0:0:
408,192,59230,6,0,P|472:176|472:96,1,135,2|0,1:2|0:0,0:0:0:0:
432,192,59605,1,8,0:0:0:0:
248,192,59792,1,0,0:0:0:0:
432,192,59980,2,0,L|432:144,1,45,2|0,1:2|0:0,0:0:0:0:
376,192,60167,1,0,0:0:0:0:
312,192,60261,1,0,0:0:0:0:
184,192,60355,2,0,L|144:160,1,45,10|0,0:0|0:0,0:0:0:0:
272,192,60542,2,0,L|312:160,1,45,0|0,1:2|1:2,0:0:0:0:
128,192,60730,6,0,P|72:184|56:112,1,135,6|0,1:2|0:0,0:0:0:0:
112,192,61105,1,8,0:0:0:0:
312,192,61292,1,0,0:0:0:0:
368,192,61386,1,0,0:0:0:0:
392,192,61480,1,0,1:2:0:0:
392,192,61573,1,0,0:0:0:0:
368,192,61667,1,0,0:0:0:0:
312,192,61761,1,0,0:0:0:0:
184,192,61855,2,0,L|184:128,1,45,8|0,0:0|0:0,0:0:0:0:
240,192,62042,2,0,L|240:144,1,45,0|0,0:0|0:0,0:0:0:0:
424,192,62230,6,0,P|464:144|416:128,1,135,2|0,1:2|0:0,0:0:0:0:
360,192,62605,1,8,0:0:0:0:
168,192,62792,1,0,0:0:0:0:
112,192,62886,1,0,0:0:0:0:
168,192,62980,1,2,1:2:0:0:
112,192,63073,1,0,0:0:0:0:
56,192,63167,1,0,0:0:0:0:
112,192,63261,1,0,0:0:0:0:
240,192,63355,2,0,L|288:152,1,45,8|0,0:0|0:0,0:0:0:0:
152,192,63542,2,0,L|112:160,1,45,0|0,1:2|0:0,0:0:0:0:
296,192,63730,6,0,P|344:160|296:136,1,135,2|0,1:2|0:0,0:0:0:0:
240,192,64105,1,8,0:0:0:0:
432,192,64292,1,0,0:0:0:0:
376,192,64386,1,0,0:0:0:0:
320,192,64480,1,0,1:2:0:0:
376,192,64573,1,0,0:0:0:0:
432,192,64667,1,0,0:0:0:0:
376,192,64761,1,0,0:0:0:0:
248,192,64855,2,0,L|248:128,1,45,8|0,0:0|0:0,0:0:0:0:
304,192,65042,2,0,L|304:136,1,45,0|0,0:0|0:0,0:0:0:0:
128,192,65230,6,0,L|72:192,2,45,2|0|0,1:2|0:0|0:0,0:0:0:0:
256,192,65511,1,0,0:0:0:0:
304,192,65605,1,8,0:0:0:0:
304,192,65698,1,0,0:0:0:0:
176,192,65792,2,0,L|128:192,1,45,0|0,0:0|0:0,0:0:0:0:
256,192,65980,2,0,L|312:192,1,45,2|0,1:2|0:0,0:0:0:0:
240,192,66167,2,0,L|184:192,1,45,0|0,0:0|0:0,0:0:0:0:
320,192,66355,2,0,L|352:152,1,45,8|0,0:0|0:0,0:0:0:0:
224,192,66542,2,0,L|192:152,1,45,0|0,1:2|1:2,0:0:0:0:
376,192,66730,6,0,P|448:152|440:104,1,135,10|0,0:0|0:0,0:0:0:0:
312,192,67105,1,8,0:0:0:0:
128,192,67292,2,0,L|128:128,1,45,0|0,0:0|0:0,0:0:0:0:
256,192,67480,1,8,0:0:0:0:
312,192,67573,1,0,0:0:0:0:
336,192,67667,1,0,0:0:0:0:
312,192,67761,1,0,0:0:0:0:
184,192,67855,1,8,0:0:0:0:
128,192,67948,1,0,0:0:0:0:
184,192,68042,1,0,0:0:0:0:
240,192,68136,1,0,0:0:0:0:
64,192,68230,6,0,P|24:168|80:120,1,135,10|0,0:0|0:0,0:0:0:0:
200,192,68605,1,8,0:0:0:0:
384,192,68792,2,0,L|384:144,1,45,0|0,0:0|0:0,0:0:0:0:
256,192,68980,1,10,0:0:0:0:
200,192,69073,1,0,0:0:0:0:
200,192,69167,1,0,0:0:0:0:
256,192,69261,1,0,0:0:0:0:
384,192,69355,2,0,L|440:192,1,45,8|0,0:0|0:0,0:0:0:0:
384,192,69542,1,0,0:0:0:0:
328,192,69636,1,0,0:0:0:0:
144,192,69730,6,0,P|88:176|88:136,1,90,10|8,0:0|0:0,0:0:0:0:
144,192,70011,1,0,0:0:0:0:
272,192,70105,1,8,0:0:0:0:
96,192,70292,2,0,L|96:136,1,45,8|0,0:0|0:0,0:0:0:0:
224,192,70480,2,0,L|264:160,1,45,8|0,0:0|0:0,0:0:0:0:
208,192,70667,2,0,L|168:160,1,45,8|0,0:0|0:0,0:0:0:0:
304,192,70855,2,0,L|336:160,1,45,8|0,0:0|0:0,0:0:0:0:
208,192,71042,2,0,L|176:160,1,45,8|0,0:0|0:0,0:0:0:0:
360,192,71230,6,0,L|416:192,2,45,10|0|8,0:0|0:0|0:0,0:0:0:0:
256,192,71511,1,0,0:0:0:0:
160,192,71605,2,0,L|120:160,1,45,8|0,0:0|0:0,0:0:0:0:
248,192,71792,2,0,L|288:160,1,45,8|0,0:0|0:0,0:0:0:0:
104,192,71980,1,8,0:0:0:0:
48,192,72073,1,8,0:0:0:0:
48,192,72167,1,8,0:0:0:0:
104,192,72261,1,8,0:0:0:0:
280,192,72355,2,0,L|352:192,1,45,8|8,0:0|0:0,0:0:0:0:
152,192,72542,2,0,L|96:192,1,45,8|8,0:0|0:0,0:0:0:0:
296,192,72730,5,4,1:2:0:0:
296,192,73292,1,0,0:0:0:0:
248,192,73386,1,0,0:0:0:0:
200,192,73480,1,2,0:0:0:0:
296,192,73667,1,0,0:0:0:0:
200,192,73855,1,2,0:0:0:0:
392,192,74042,1,2,0:0:0:0:
200,192,74230,6,0,P|128:176|104:112,1,135,2|2,1:2|0:0,0:0:0:0:
256,192,74792,2,0,L|256:144,1,45,0|0,0:0|0:0,0:0:0:0:
192,192,74980,1,2,0:0:0:0:
144,192,75073,1,0,0:0:0:0:
144,192,75167,1,0,0:0:0:0:
192,192,75261,1,0,0:0:0:0:
128,192,75355,1,2,0:0:0:0:
80,192,75448,1,0,0:0:0:0:
80,192,75542,1,0,0:0:0:0:
128,192,75636,1,0,0:0:0:0:
256,192,75730,6,0,P|320:176|320:88,1,135,2|2,1:2|0:0,0:0:0:0:
184,192,76292,1,0,0:0:0:0:
376,192,76480,1,2,0:0:0:0:
272,192,76667,1,0,0:0:0:0:
224,192,76761,1,0,0:0:0:0:
176,192,76855,1,2,0:0:0:0:
224,192,76948,1,0,0:0:0:0:
176,192,77042,1,0,0:0:0:0:
176,192,77136,1,0,0:0:0:0:
304,192,77230,6,0,P|368:176|392:112,1,135,2|2,1:2|0:0,0:0:0:0:
248,192,77792,2,0,L|248:128,1,45,0|0,0:0|0:0,0:0:0:0:
304,192,77980,1,2,0:0:0:0:
208,192,78167,1,0,0:0:0:0:
160,192,78261,1,0,0:0:0:0:
208,192,78355,1,2,0:0:0:0:
256,192,78448,1,0,0:0:0:0:
304,192,78542,1,0,0:0:0:0:
256,192,78636,1,0,0:0:0:0:
128,192,78730,6,0,P|64:168|128:104,1,180,2|0,1:2|0:0,0:0:0:0:
208,192,79292,1,0,0:0:0:0:
312,192,79480,2,0,L|208:192,1,90,2|0,0:0|0:0,0:0:0:0:
408,192,79855,2,0,L|312:192,1,90,2|2,0:0|0:0,0:0:0:0:
120,192,80230,5,2,1:2:0:0:
72,192,80323,1,0,0:0:0:0:
120,192,80417,1,0,0:0:0:0:
168,192,80511,1,0,0:0:0:0:
216,192,80605,1,2,0:0:0:0:
264,192,80698,1,0,0:0:0:0:
264,192,80792,1,0,0:0:0:0:
216,192,80886,1,0,0:0:0:0:
272,192,80980,1,2,0:0:0:0:
320,192,81073,1,0,0:0:0:0:
320,192,81167,1,0,0:0:0:0:
272,192,81261,1,0,0:0:0:0:
144,192,81355,2,0,L|120:152,1,45,2|0,0:0|0:0,0:0:0:0:
248,192,81542,2,0,L|272:152,1,45,0|2,0:0|0:0,0:0:0:0:
96,192,81730,5,2,1:2:0:0:
96,192,82292,1,0,0:0:0:0:
144,192,82386,1,0,0:0:0:0:
192,192,82480,1,2,0:0:0:0:
96,192,82667,1,0,0:0:0:0:
208,192,82855,1,2,0:0:0:0:
16,192,83042,1,2,0:0:0:0:
296,192,83230,6,0,P|352:152|280:104,1,180,2|0,1:2|0:0,0:0:0:0:
184,192,83792,2,0,L|152:160,2,45,0|0|2,0:0|0:0|0:0,0:0:0:0:
280,192,84167,1,0,0:0:0:0:
184,192,84355,1,2,0:0:0:0:
88,192,84542,1,0,0:0:0:0:
360,192,84730,5,6,1:2:0:0:
416,192,84823,1,0,0:0:0:0:
416,192,84917,1,2,0:3:0:0:
360,192,85011,1,0,0:0:0:0:
304,192,85105,1,2,0:0:0:0:
304,192,85198,1,0,0:0:0:0:
360,192,85292,1,2,0:3:0:0:
360,192,85386,1,0,0:0:0:0:
232,192,85480,1,10,0:0:0:0:
176,192,85573,1,0,0:0:0:0:
232,192,85667,1,2,0:3:0:0:
288,192,85761,1,0,0:0:0:0:
232,192,85855,1,2,0:0:0:0:
288,192,85948,1,0,0:0:0:0:
344,192,86042,1,2,0:3:0:0:
288,192,86136,1,0,0:0:0:0:
112,192,86230,5,2,1:2:0:0:
56,192,86323,1,0,0:0:0:0:
24,192,86417,1,2,0:3:0:0:
24,192,86511,1,0,0:0:0:0:
152,192,86605,2,0,L|208:160,1,45,2|0,0:0|0:0,0:0:0:0:
64,192,86792,2,0,L|24:168,1,45,2|0,1:3|0:0,0:0:0:0:
152,192,86980,2,0,L|200:168,1,45,10|0,0:0|0:0,0:0:0:0:
64,192,87167,2,0,L|16:168,1,45,2|0,1:2|0:0,0:0:0:0:
152,192,87355,1,10,0:0:0:0:
200,192,87448,1,0,0:0:0:0:
200,192,87542,1,2,0:3:0:0:
152,192,87636,1,0,0:0:0:0:
328,192,87730,5,2,1:2:0:0:
384,192,87823,1,0,0:0:0:0:
408,192,87917,1,2,0:3:0:0:
352,192,88011,1,0,0:0:0:0:
296,192,88105,2,0,L|240:192,1,45,2|0,0:0|0:0,0:0:0:0:
312,192,88292,2,0,L|360:192,1,45,2|0,0:3|0:0,0:0:0:0:
232,192,88480,1,10,0:0:0:0:
192,192,88573,1,0,0:0:0:0:
168,192,88667,1,2,0:3:0:0:
160,192,88761,1,0,0:0:0:0:
288,192,88855,1,2,0:2:0:0:
336,192,88948,1,0,0:0:0:0:
357,192,89042,1,2,0:3:0:0:
336,192,89136,1,0,0:0:0:0:
152,192,89230,5,2,1:2:0:0:
152,192,89323,1,0,0:0:0:0:
200,192,89417,1,2,0:3:0:0:
256,192,89511,1,0,0:0:0:0:
384,192,89605,2,0,L|416:160,1,45,2|0,0:0|0:0,0:0:0:0:
288,192,89792,2,0,L|256:160,1,45,2|0,1:3|0:0,0:0:0:0:
432,192,89980,2,0,L|464:160,1,45,10|0,0:0|0:0,0:0:0:0:
344,192,90167,2,0,L|312:160,1,45,2|0,1:3|0:0,0:0:0:0:
488,192,90355,2,0,L|488:144,1,45,10|0,0:0|0:0,0:0:0:0:
312,192,90542,2,0,L|240:192,1,45,2|2,0:3|0:0,0:0:0:0:
440,192,90730,5,2,1:2:0:0:
496,192,90823,1,0,0:0:0:0:
440,192,90917,1,2,0:3:0:0:
392,192,91011,1,0,0:0:0:0:
440,192,91105,1,2,0:0:0:0:
440,192,91198,1,0,0:0:0:0:
392,192,91292,1,2,0:3:0:0:
336,192,91386,1,0,0:0:0:0:
208,192,91480,1,10,0:0:0:0:
152,192,91573,1,0,0:0:0:0:
152,192,91667,1,2,0:3:0:0:
208,192,91761,1,0,0:0:0:0:
152,192,91855,1,2,0:0:0:0:
112,192,91948,1,0,0:0:0:0:
112,192,92042,1,2,0:3:0:0:
152,192,92136,1,0,0:0:0:0:
328,192,92230,6,0,L|376:192,1,45,2|0,1:2|0:0,0:0:0:0:
312,192,92417,1,2,0:3:0:0:
312,192,92511,1,0,0:0:0:0:
368,192,92605,1,2,0:0:0:0:
416,192,92698,1,0,0:0:0:0:
416,192,92792,1,2,0:3:0:0:
368,192,92886,1,0,0:0:0:0:
240,192,92980,2,0,L|192:168,1,45,10|0,0:0|0:0,0:0:0:0:
328,192,93167,2,0,L|376:168,1,45,2|0,1:3|0:0,0:0:0:0:
240,192,93355,2,0,L|200:168,1,45,10|0,0:0|0:0,0:0:0:0:
328,192,93542,1,2,1:3:0:0:
384,192,93636,1,0,1:2:0:0:
208,192,93730,5,2,1:2:0:0:
152,192,93823,1,0,0:0:0:0:
112,192,93917,1,2,0:3:0:0:
96,192,94011,1,0,0:0:0:0:
152,192,94105,1,2,0:0:0:0:
200,192,94198,1,0,0:0:0:0:
232,192,94292,1,2,0:3:0:0:
232,192,94386,1,0,0:0:0:0:
104,192,94480,2,0,L|56:192,1,45,10|0,0:0|0:0,0:0:0:0:
104,192,94667,1,2,0:3:0:0:
168,192,94761,1,0,0:0:0:0:
296,192,94855,2,0,L|328:160,1,45,2|0,0:0|0:0,0:0:0:0:
200,192,95042,2,0,L|168:160,1,45,2|0,0:3|0:0,0:0:0:0:
352,192,95230,5,2,1:2:0:0:
168,192,95605,1,0,1:2:0:0:
496,192,95980,1,0,1:2:0:0:
168,192,96355,1,0,1:2:0:0:
168,192,96542,1,0,1:2:0:0:
224,192,96636,1,0,1:2:0:0:
408,192,96730,5,4,1:2:0:0:
256,192,96917,12,0,98792,0:0:0:0:
304,192,98980,5,2,0:0:0:0:
488,192,99355,1,2,0:0:0:0:
56,192,99730,5,6,1:2:0:0:
56,192,99823,1,0,0:0:0:0:
112,192,99917,1,0,0:0:0:0:
168,192,100011,1,0,0:0:0:0:
112,192,100105,1,8,0:0:0:0:
56,192,100198,1,0,0:0:0:0:
56,192,100292,1,0,0:0:0:0:
112,192,100386,1,0,0:0:0:0:
288,192,100480,1,2,1:2:0:0:
344,192,100573,1,0,0:0:0:0:
376,192,100667,1,0,0:0:0:0:
376,192,100761,1,2,0:0:0:0:
248,192,100855,1,8,0:0:0:0:
192,192,100948,1,0,0:0:0:0:
192,192,101042,1,2,0:0:0:0:
248,192,101136,1,0,0:0:0:0:
416,192,101230,5,2,1:2:0:0:
472,192,101323,1,0,0:0:0:0:
472,192,101417,1,0,0:0:0:0:
416,192,101511,1,0,0:0:0:0:
288,192,101605,1,8,0:0:0:0:
232,192,101698,1,0,0:0:0:0:
288,192,101792,1,0,0:0:0:0:
232,192,101886,1,0,0:0:0:0:
64,192,101980,1,2,1:2:0:0:
32,192,102073,1,0,0:0:0:0:
64,192,102167,1,0,0:0:0:0:
120,192,102261,1,2,0:0:0:0:
288,192,102355,2,0,L|320:160,1,45,10|0,0:0|0:0,0:0:0:0:
200,192,102542,2,0,L|168:160,1,45,2|0,1:2|0:0,0:0:0:0:
344,192,102730,5,2,1:2:0:0:
376,192,102823,1,0,0:0:0:0:
400,192,102917,1,0,0:0:0:0:
416,192,103011,1,0,0:0:0:0:
376,192,103105,1,8,0:0:0:0:
336,192,103198,1,0,0:0:0:0:
376,192,103292,1,0,0:0:0:0:
400,192,103386,1,0,0:0:0:0:
272,192,103480,2,0,L|208:192,2,45,2|0|0,1:2|0:0|0:0,0:0:0:0:
400,192,103761,2,0,L|472:192,2,45,2|8|0,0:0|0:0|0:0,0:0:0:0:
272,192,104042,2,0,L|216:192,1,45,2|0,0:0|0:0,0:0:0:0:
400,192,104230,5,2,1:2:0:0:
456,192,104323,1,0,0:0:0:0:
400,192,104417,1,0,0:0:0:0:
344,192,104511,1,0,0:0:0:0:
400,192,104605,1,8,0:0:0:0:
456,192,104698,1,0,0:0:0:0:
400,192,104792,1,0,0:0:0:0:
344,192,104886,1,0,0:0:0:0:
176,192,104980,2,0,L|176:144,1,45,2|0,1:2|0:0,0:0:0:0:
232,192,105167,2,0,L|232:136,1,45,0|0,0:0|0:0,0:0:0:0:
104,192,105355,2,0,L|56:160,1,45,10|0,0:0|0:0,0:0:0:0:
192,192,105542,2,0,L|240:160,1,45,0|0,1:2|1:2,0:0:0:0:
56,192,105730,5,6,1:2:0:0:
24,192,105823,1,0,0:0:0:0:
24,192,105917,1,0,0:0:0:0:
56,192,106011,1,0,0:0:0:0:
112,192,106105,1,8,0:0:0:0:
56,192,106198,1,0,0:0:0:0:
56,192,106292,1,0,0:0:0:0:
112,192,106386,1,0,0:0:0:0:
240,192,106480,2,0,L|288:192,2,45,2|0|0,1:2|0:0|0:0,0:0:0:0:
296,192,106761,1,2,0:0:0:0:
344,192,106855,1,8,0:0:0:0:
296,192,106948,1,0,0:0:0:0:
168,192,107042,2,0,L|136:152,1,45,2|0,0:0|0:0,0:0:0:0:
320,192,107230,5,4,1:2:0:0:
368,192,107323,1,0,0:0:0:0:
400,192,107417,1,0,0:0:0:0:
416,192,107511,1,0,0:0:0:0:
288,192,107605,2,0,L|240:192,1,45,10|0,0:0|0:0,0:0:0:0:
304,192,107792,2,0,L|352:192,1,45,0|0,0:0|0:0,0:0:0:0:
176,192,107980,1,2,1:2:0:0:
128,192,108073,1,0,0:0:0:0:
176,192,108167,1,0,0:0:0:0:
224,192,108261,1,2,0:0:0:0:
56,192,108355,1,10,0:0:0:0:
16,192,108448,1,0,0:0:0:0:
40,192,108542,1,2,1:2:0:0:
96,192,108636,1,0,0:0:0:0:
264,192,108730,5,6,1:2:0:0:
320,192,108823,1,0,0:0:0:0:
352,192,108917,1,0,0:0:0:0:
320,192,109011,1,0,0:0:0:0:
264,192,109105,1,8,0:0:0:0:
216,192,109198,1,0,0:0:0:0:
216,192,109292,1,0,0:0:0:0:
264,192,109386,1,0,0:0:0:0:
96,192,109480,1,4,1:2:0:0:
40,192,109573,1,0,0:0:0:0:
40,192,109667,1,0,0:0:0:0:
96,192,109761,1,0,0:0:0:0:
224,192,109855,2,0,L|272:168,1,45,10|0,0:0|0:0,0:0:0:0:
96,192,110042,2,0,L|48:160,1,45,2|0,0:0|0:0,0:0:0:0:
240,192,110230,5,6,1:2:0:0:
296,192,110323,1,0,0:0:0:0:
328,192,110417,1,0,0:0:0:0:
328,192,110511,1,0,0:0:0:0:
296,192,110605,1,8,0:0:0:0:
240,192,110698,1,0,0:0:0:0:
72,192,110792,2,0,L|48:152,1,45,2|0,0:0|0:0,0:0:0:0:
224,192,110980,2,0,L|272:192,1,45,4|0,1:2|0:0,0:0:0:0:
208,192,111167,2,0,L|160:192,1,45,0|0,0:0|0:0,0:0:0:0:
336,192,111355,2,0,L|376:160,1,45,10|0,0:0|0:0,0:0:0:0:
248,192,111542,2,0,L|216:160,1,45,2|0,1:2|1:2,0:0:0:0:
392,192,111730,5,6,1:2:0:0:
448,192,111823,1,0,0:0:0:0:
448,192,111917,1,0,0:0:0:0:
392,192,112011,1,0,0:0:0:0:
336,192,112105,1,8,0:0:0:0:
288,192,112198,1,0,0:0:0:0:
288,192,112292,1,0,0:0:0:0:
336,192,112386,1,0,0:0:0:0:
160,192,112480,1,2,1:2:0:0:
104,192,112573,1,0,0:0:0:0:
88,192,112667,1,0,0:0:0:0:
144,192,112761,1,0,0:0:0:0:
272,192,112855,1,8,0:0:0:0:
328,192,112948,1,0,0:0:0:0:
272,192,113042,1,0,0:0:0:0:
328,192,113136,1,0,0:0:0:0:
480,192,113230,5,6,1:2:0:0:
496,192,113323,1,0,0:0:0:0:
448,192,113417,1,0,0:0:0:0:
392,192,113511,1,0,0:0:0:0:
264,192,113605,1,10,0:0:0:0:
224,192,113698,1,0,0:0:0:0:
224,192,113792,1,0,0:0:0:0:
264,192,113886,1,0,0:0:0:0:
432,192,113980,1,6,1:2:0:0:
432,192,114073,1,0,0:0:0:0:
376,192,114167,1,0,0:0:0:0:
320,192,114261,1,0,0:0:0:0:
152,192,114355,1,10,0:0:0:0:
104,192,114448,1,0,0:0:0:0:
152,192,114542,1,2,1:2:0:0:
200,192,114636,1,0,1:2:0:0:
32,192,114730,5,4,1:2:0:0:
32,192,114823,1,0,0:0:0:0:
32,192,114917,1,0,0:0:0:0:
80,192,115011,1,0,0:0:0:0:
208,192,115105,2,0,L|248:152,1,45,8|8,0:0|0:0,0:0:0:0:
112,192,115292,2,0,L|72:152,1,45,8|8,0:0|0:0,0:0:0:0:
256,192,115480,5,6,1:2:0:0:
112,192,115761,1,6,1:2:0:0:
376,192,116042,1,6,1:2:0:0:
112,192,116230,5,6,1:2:0:0:
256,192,116511,1,6,1:2:0:0:
112,192,116792,1,6,1:2:0:0:
392,192,116980,1,6,1:2:0:0:
168,192,117261,1,6,1:2:0:0:
416,192,117542,2,0,L|416:144,1,45,0|0,1:2|1:2,0:0:0:0:
240,192,117730,5,6,1:2:0:0:
184,192,117823,1,0,0:0:0:0:
152,192,117917,1,0,0:2:0:0:
184,192,118011,1,0,0:0:0:0:
312,192,118105,2,0,L|312:144,1,45,8|0,0:0|0:0,0:0:0:0:
256,192,118292,2,0,L|256:128,1,45,0|0,0:0|0:0,0:0:0:0:
88,192,118480,1,10,0:0:0:0:
40,192,118573,1,0,0:0:0:0:
88,192,118667,1,0,0:0:0:0:
136,192,118761,1,0,0:0:0:0:
88,192,118855,1,8,0:0:0:0:
40,192,118948,1,0,0:0:0:0:
88,192,119042,1,0,0:0:0:0:
136,192,119136,1,0,0:0:0:0:
312,192,119230,5,6,1:2:0:0:
368,192,119323,1,0,0:0:0:0:
368,192,119417,1,0,0:0:0:0:
368,192,119511,1,0,0:0:0:0:
240,192,119605,1,10,0:0:0:0:
184,192,119698,1,0,0:0:0:0:
240,192,119792,1,0,0:0:0:0:
296,192,119886,1,0,0:0:0:0:
168,192,119980,1,10,0:0:0:0:
112,192,120073,1,0,0:0:0:0:
112,192,120167,1,0,0:0:0:0:
168,192,120261,1,0,0:0:0:0:
344,192,120355,1,10,0:0:0:0:
344,192,120448,1,0,0:0:0:0:
296,192,120542,1,0,0:0:0:0:
240,192,120636,1,0,0:0:0:0:
64,192,120730,6,0,L|64:144,1,45,6|0,1:2|0:0,0:0:0:0:
128,192,120917,2,0,L|128:128,1,45,8|0,0:0|0:0,0:0:0:0:
64,192,121105,2,0,L|64:144,1,45,8|0,0:0|0:0,0:0:0:0:
128,192,121292,2,0,L|128:144,1,45,8|0,0:0|0:0,0:0:0:0:
288,192,121480,2,0,L|328:168,1,45,4|0,1:2|0:0,0:0:0:0:
200,192,121667,2,0,L|160:168,1,45,8|0,0:0|0:0,0:0:0:0:
288,192,121855,2,0,L|328:168,1,45,8|0,0:0|0:0,0:0:0:0:
200,192,122042,2,0,L|160:168,1,45,8|0,0:0|0:0,0:0:0:0:
344,192,122230,5,6,1:2:0:0:
400,192,122323,1,8,0:0:0:0:
440,192,122417,1,8,0:0:0:0:
456,192,122511,1,8,0:0:0:0:
280,192,122605,1,8,0:0:0:0:
232,192,122698,1,8,0:0:0:0:
200,192,122792,1,8,0:0:0:0:
184,192,122886,1,8,0:0:0:0:
360,192,122980,1,4,1:2:0:0:
416,192,123073,1,8,0:0:0:0:
360,192,123167,1,8,0:0:0:0:
304,192,123261,1,8,0:0:0:0:
480,192,123355,1,4,1:2:0:0:
480,192,123448,1,8,0:0:0:0:
432,192,123542,1,8,0:0:0:0:
376,192,123636,1,8,0:0:0:0:
200,192,123730,5,6,1:2:0:0:
72,192,124011,1,0,0:0:0:0:
200,192,124292,1,2,0:0:0:0:
456,192,124855,2,0,L|352:192,1,90,2|0,0:0|0:0,0:0:0:0:
176,192,125230,5,2,0:0:0:0:
304,192,125511,1,0,0:0:0:0:
432,192,125792,1,2,0:0:0:0:
192,192,126355,2,0,L|152:112,1,90,2|0,0:0|0:0,0:0:0:0:
344,192,126730,5,2,0:0:0:0:
472,192,127011,1,0,0:0:0:0:
344,192,127292,1,2,0:0:0:0:
88,192,127855,2,0,L|184:192,1,90,2|0,0:0|0:0,0:0:0:0:
368,192,128230,5,2,0:0:0:0:
224,192,128511,1,0,0:0:0:0:
368,192,128792,1,2,0:0:0:0:
176,192,128980,2,0,L|80:192,1,90,2|0,0:0|0:0,0:0:0:0:
192,192,129355,2,0,L|88:192,1,90,2|0,0:0|0:0,0:0:0:0:
296,192,129730,6,0,P|344:160|304:104,1,135,2|0,0:0|0:0,0:0:0:0:
160,192,130292,2,0,P|120:160|216:104,1,180,2|0,0:0|0:0,0:0:0:0:
376,192,130855,1,2,0:0:0:0:
56,192,131230,6,0,P|88:152|176:136,1,135,2|0,0:0|0:0,0:0:0:0:
408,192,131792,1,2,0:0:0:0:
304,192,131980,2,0,L|248:120,1,90,2|0,0:0|0:0,0:0:0:0:
352,192,132355,2,0,L|448:192,1,90,2|2,0:0|0:0,0:0:0:0:
248,192,132730,6,0,P|152:160|136:112,2,135,2|0|2,0:0|0:0|0:0,0:0:0:0:
352,192,133480,1,2,0:0:0:0:
224,192,133761,1,0,0:0:0:0:
96,192,134042,1,2,0:0:0:0:
288,192,134230,6,0,P|384:168|400:112,2,135,2|0|2,0:0|0:0|0:0,0:0:0:0:
96,192,134980,2,0,L|192:192,1,90,2|0,0:0|0:0,0:0:0:0:
80,192,135355,2,0,L|176:192,1,90,2|0,0:0|0:0,0:0:0:0:
432,192,135730,6,0,P|448:160|360:128,1,135,2|0,0:0|0:0,0:0:0:0:
240,192,136292,1,2,0:0:0:0:
472,192,136855,2,0,L|376:192,1,90,2|0,0:0|0:0,0:0:0:0:
192,192,137230,6,0,P|128:160|144:104,1,135,2|0,0:0|0:0,0:0:0:0:
280,192,137792,1,2,0:0:0:0:
40,192,138355,2,0,L|40:88,1,90,2|0,0:0|0:0,0:0:0:0:
232,192,138730,5,2,0:0:0:0:
360,192,139011,1,0,0:0:0:0:
232,192,139292,1,2,0:0:0:0:
16,192,139855,2,0,L|136:192,1,90,2|0,0:0|0:0,0:0:0:0:
304,192,140230,6,0,L|160:192,2,135,2|0|2,0:0|0:0|0:0,0:0:0:0:
496,192,140980,2,0,L|400:192,3,90,2|0|2|0,0:0|0:0|0:0|0:0,0:0:0:0:
216,192,141730,6,0,P|168:144|216:112,1,135,2|0,0:0|0:0,0:0:0:0:
360,192,142292,2,0,P|424:160|352:128,1,180,2|0,0:0|0:0,0:0:0:0:
168,192,142855,1,2,0:0:0:0:
456,192,143230,6,0,P|488:160|424:112,1,135,2|0,0:0|0:0,0:0:0:0:
160,192,143792,1,2,0:0:0:0:
48,192,143980,2,0,L|160:192,1,90,2|0,0:0|0:0,0:0:0:0:
250,192,144355,2,0,L|154:192,1,90,2|0,0:0|0:0,0:0:0:0:
344,192,144730,6,0,P|440:160|456:112,2,135,2|0|2,0:0|0:0|0:0,0:0:0:0:
152,192,145480,1,2,0:0:0:0:
280,192,145761,1,0,0:0:0:0:
408,192,146042,1,2,0:0:0:0:
216,192,146230,6,0,P|144:176|112:96,2,135,2|0|2,0:0|0:0|0:0,0:0:0:0:
408,192,146980,2,0,P|456:152|408:120,1,135,2|0,0:0|0:0,0:0:0:0:
136,200,147542,1,2,0:0:0:0:
