osu file format v14

[General]
AudioFilename: audio.mp3
AudioLeadIn: 0
PreviewTime: 98881
Countdown: 0
SampleSet: Soft
StackLeniency: 0.7
Mode: 2
LetterboxInBreaks: 0
WidescreenStoryboard: 0

[Editor]
Bookmarks: 84725,111725
DistanceSpacing: 0.8
BeatDivisor: 4
GridSize: 32
TimelineZoom: 2.1

[Metadata]
Title:Infinity Heaven
TitleUnicode:Infinity Heaven
Artist:HyuN
ArtistUnicode:HyuN
Creator:Jemzuu
Version:Aeternum
Source:osu!
Tags:ajamez jbh jbhyperion mbomb magic bomb niva osu! mappers' guild featured artist Arcaea KRUX hyunesis HyuN_Inofixion never ending story forevermore piano instrumental electronic video game bms
BeatmapID:2248527
BeatmapSetID:1074464

[Difficulty]
HPDrainRate:6
CircleSize:4.5
OverallDifficulty:9
ApproachRate:9
SliderMultiplier:1.9
SliderTickRate:2

[Events]
//Background and Video events
0,0,"pawel-czerwinski-snrPBiLzZaE-unsplash.jpg",0,0
//Break Periods
//Storyboard Layer 0 (Background)
//Storyboard Layer 1 (Fail)
//Storyboard Layer 2 (Pass)
//Storyboard Layer 3 (Foreground)
//Storyboard Layer 4 (Overlay)
//Storyboard Sound Samples

[TimingPoints]
730,375,4,2,1,35,1,0
730,-100,4,2,1,35,0,0
8136,-100,4,2,1,15,0,0
8230,-100,4,2,1,35,0,0
12730,-100,4,2,1,50,0,0
13292,-100,4,2,2,50,0,0
13386,-100,4,2,1,50,0,0
14792,-100,4,2,2,50,0,0
14886,-100,4,2,1,50,0,0
16292,-100,4,2,2,50,0,0
16386,-100,4,2,1,50,0,0
17792,-100,4,2,2,50,0,0
17886,-100,4,2,1,50,0,0
19292,-100,4,2,2,50,0,0
19386,-100,4,2,1,50,0,0
20792,-100,4,2,2,50,0,0
20886,-100,4,2,1,50,0,0
21730,-100,4,2,3,50,0,0
23230,-100,4,2,1,50,0,0
24730,-100,4,2,1,60,0,0
48730,-83.3333333333333,4,2,1,70,0,1
72730,-100,4,2,1,45,0,0
84730,-100,4,2,1,60,0,0
87167,-100,4,2,2,60,0,0
87261,-100,4,2,1,60,0,0
87542,-100,4,2,2,60,0,0
87636,-100,4,2,1,60,0,0
90167,-100,4,2,2,60,0,0
90261,-100,4,2,1,60,0,0
90542,-100,4,2,2,60,0,0
90636,-100,4,2,1,60,0,0
93167,-100,4,2,2,60,0,0
93261,-100,4,2,1,60,0,0
93542,-100,4,2,2,60,0,0
93636,-100,4,2,1,60,0,0
94667,-100,4,2,2,60,0,0
94761,-100,4,2,1,60,0,0
95042,-100,4,2,2,60,0,0
95136,-100,4,2,1,60,0,0
96730,-100,4,2,3,60,0,0
96917,-100,4,2,3,15,0,0
97292,-100,4,2,3,25,0,0
97667,-100,4,2,3,30,0,0
97855,-100,4,2,3,40,0,0
98042,-100,4,2,3,45,0,0
98230,-100,4,2,3,55,0,0
98417,-100,4,2,3,65,0,0
98605,-100,4,2,3,70,0,0
98792,-100,4,2,3,5,0,0
98980,-100,4,2,1,45,0,0
99261,-100,4,2,1,5,0,0
99355,-100,4,2,1,45,0,0
99636,-100,4,2,1,5,0,0
99730,-83.3333333333333,4,2,1,75,0,1
115386,-100,4,2,1,75,0,0
115480,-83.3333333333333,4,2,2,75,0,1
115526,-100,4,2,2,5,0,0
115761,-100,4,2,2,75,0,0
115808,-100,4,2,2,5,0,0
116042,-100,4,2,2,75,0,0
116089,-100,4,2,2,5,0,0
116230,-100,4,2,2,75,0,1
116276,-100,4,2,2,5,0,0
116511,-100,4,2,2,75,0,0
116558,-100,4,2,2,5,0,0
116792,-100,4,2,2,75,0,0
116839,-100,4,2,2,5,0,0
116980,-83.3333333333333,4,2,2,75,0,1
117026,-100,4,2,2,5,0,0
117261,-100,4,2,2,75,0,0
117308,-100,4,2,2,5,0,0
117542,-100,4,2,1,75,0,0
117730,-83.3333333333333,4,2,1,75,0,1
123730,-100,4,2,3,50,0,0
123753,-100,4,2,1,35,0,0
131136,-100,4,2,1,15,0,0
131230,-100,4,2,1,35,0,0
143136,-100,4,2,1,15,0,0
143230,-100,4,2,1,35,0,0
145480,-100,4,2,1,35,0,0
146230,-100,4,2,1,35,0,0
146980,-100,4,2,1,35,0,0

[Colours]
Combo1 : 149,149,255
Combo2 : 255,174,215
Combo3 : 164,209,255

[HitObjects]
450,328,730,6,0,L|303:291,2,142.5,6|0|2,1:2|0:0|0:0,0:0:0:0:
214,192,1855,2,0,L|348:173,1,95,2|0,0:0|0:0,0:0:0:0:
111,59,2230,2,0,L|267:82,2,142.5,2|0|2,0:0|0:0|0:0,0:0:0:0:
352,177,3355,2,0,L|454:186,1,95,2|0,0:0|0:0,0:0:0:0:
239,336,3730,5,2,0:0:0:0:
346,358,3917,2,0,L|361:309,2,47.5,0|0|0,0:0|0:0|0:0,0:0:0:0:
161,265,4292,1,2,0:0:0:0:
335,143,4855,2,0,L|226:131,1,95,2|0,0:0|0:0,0:0:0:0:
417,77,5230,6,0,L|268:53,1,142.5,2|0,0:0|0:0,0:0:0:0:
321,38,5605,1,0,0:0:0:0:
455,19,5792,1,2,0:0:0:0:
321,38,5980,1,2,0:0:0:0:
286,131,6167,1,0,0:0:0:0:
348,213,6355,1,2,0:0:0:0:
463,212,6542,1,0,0:0:0:0:
275,309,6730,5,2,0:0:0:0:
390,369,6917,1,0,0:0:0:0:
342,371,7010,1,0,0:0:0:0:
295,374,7104,1,0,0:0:0:0:
130,331,7292,2,0,P|163:270|365:203,1,285,2|2,0:0|0:0,0:0:0:0:
18,99,8230,6,0,L|176:69,1,142.5,2|0,0:0|0:0,0:0:0:0:
168,96,8605,1,0,0:0:0:0:
44,173,8792,1,2,0:0:0:0:
181,211,8980,2,0,L|208:331,1,95,2|0,0:0|0:0,0:0:0:0:
344,309,9355,2,0,L|372:407,1,95,2|0,0:0|0:0,0:0:0:0:
188,346,9730,5,2,0:0:0:0:
308,326,9917,1,0,0:0:0:0:
352,312,10010,1,0,0:0:0:0:
380,275,10104,1,0,0:0:0:0:
256,236,10292,1,2,0:0:0:0:
440,185,10480,2,0,L|403:45,1,142.5,2|0,0:0|0:0,0:0:0:0:
228,45,11042,1,2,0:0:0:0:
405,32,11230,6,0,L|383:154,1,95,2|0,0:0|0:0,0:0:0:0:
341,134,11510,1,0,0:0:0:0:
294,142,11604,1,0,0:0:0:0:
450,212,11792,1,2,0:0:0:0:
296,314,11980,1,2,0:0:0:0:
249,236,12167,1,0,0:0:0:0:
292,156,12355,1,2,0:0:0:0:
382,153,12542,1,0,0:0:0:0:
100,89,12730,6,0,L|235:67,1,95,6|2,1:2|0:3,0:0:0:0:
222,107,13011,1,0,0:0:0:0:
197,140,13105,1,0,0:0:0:0:
44,173,13292,1,2,0:3:0:0:
212,227,13480,2,0,L|235:335,1,95,8|2,0:2|0:3,0:0:0:0:
59,369,13855,2,0,L|182:378,1,95,0|2,0:0|0:3,0:0:0:0:
349,221,14230,6,0,L|237:229,1,95,2|2,1:2|0:3,0:0:0:0:
215,198,14511,1,0,0:0:0:0:
253,173,14605,1,0,0:0:0:0:
408,138,14792,1,2,1:3:0:0:
217,74,14980,2,0,L|240:167,1,95,8|2,0:0|1:3,0:0:0:0:
490,349,15355,2,0,L|379:356,1,95,10|2,0:2|0:3,0:0:0:0:
137,350,15730,5,2,1:2:0:0:
274,308,15917,2,0,L|243:250,1,47.5,2|0,0:3|0:0,0:0:0:0:
205,245,16105,2,0,L|70:231,1,95,0|2,0:0|0:3,0:0:0:0:
302,102,16480,2,0,L|315:209,1,95,8|2,0:2|0:3,0:0:0:0:
184,239,16855,1,0,0:0:0:0:
316,302,17042,1,2,0:3:0:0:
36,339,17230,6,0,L|152:315,1,95,2|2,1:2|0:3,0:0:0:0:
175,326,17510,1,0,0:0:0:0:
222,334,17604,1,0,0:0:0:0:
52,226,17792,1,2,1:2:0:0:
246,156,17980,1,8,0:0:0:0:
112,126,18167,1,2,1:3:0:0:
367,91,18355,1,10,0:2:0:0:
233,61,18542,1,2,0:3:0:0:
497,161,18730,5,2,1:2:0:0:
383,191,18917,1,2,0:3:0:0:
338,205,19010,1,0,0:0:0:0:
314,244,19104,1,0,0:0:0:0:
457,300,19292,1,2,0:3:0:0:
263,359,19480,2,0,L|252:261,1,95,8|2,0:2|0:3,0:0:0:0:
422,202,19855,2,0,L|437:97,1,95,0|2,0:0|0:3,0:0:0:0:
160,62,20230,6,0,L|277:47,1,95,2|2,1:2|0:3,0:0:0:0:
207,56,20510,1,0,0:0:0:0:
160,63,20604,1,0,0:0:0:0:
19,99,20792,1,2,0:3:0:0:
218,186,20980,2,0,L|339:195,1,95,10|2,0:2|1:3,0:0:0:0:
137,251,21355,1,10,0:2:0:0:
414,333,21542,2,0,L|350:338,1,47.5,2|0,1:3|1:2,0:0:0:0:
133,349,21730,6,0,P|61:329|29:253,2,142.5,6|0|0,1:2|0:0|0:0,0:0:0:0:
320,291,22480,2,0,P|317:222|252:176,1,142.5,0|0,0:0|0:0,0:0:0:0:
75,140,23042,1,0,0:0:0:0:
276,75,23230,6,0,L|488:115,3,190,0|0|0|0,1:2|1:2|1:2|1:2,0:0:0:0:
263,178,24542,2,0,L|194:187,1,47.5,0|0,0:0|0:0,0:0:0:0:
421,275,24730,6,0,P|476:287|497:334,1,95,4|0,1:2|0:0,0:0:0:0:
447,346,25011,1,0,0:0:0:0:
392,354,25105,1,10,0:0:0:0:
207,310,25292,1,0,1:2:0:0:
255,281,25386,1,0,0:0:0:0:
310,273,25480,1,0,0:0:0:0:
256,237,25573,1,0,0:0:0:0:
191,237,25667,5,2,1:2:0:0:
450,205,25855,1,10,0:0:0:0:
499,195,25948,1,0,0:0:0:0:
448,157,26042,2,0,L|383:147,1,47.5,0|0,0:0|0:0,0:0:0:0:
188,102,26230,5,0,1:2:0:0:
327,58,26417,1,0,1:2:0:0:
203,9,26605,1,8,0:0:0:0:
31,197,26792,2,0,L|151:189,1,95,2|0,1:2|0:0,0:0:0:0:
264,218,27167,1,0,1:2:0:0:
70,297,27355,2,0,L|182:302,1,95,10|2,0:0|0:0,0:0:0:0:
447,359,27730,6,0,L|327:360,1,95,0|0,1:2|0:0,0:0:0:0:
291,347,28011,1,0,0:0:0:0:
354,320,28105,2,0,L|466:315,1,95,10|0,0:0|1:2,0:0:0:0:
393,288,28386,1,0,0:0:0:0:
277,266,28480,2,0,L|259:187,1,47.5
345,203,28667,2,0,L|363:137,1,47.5,2|0,1:2|0:0,0:0:0:0:
170,133,28855,2,0,L|200:86,1,47.5,10|0,0:0|0:0,0:0:0:0:
273,70,29042,2,0,L|328:57,1,47.5,0|0,1:2|0:0,0:0:0:0:
120,40,29230,6,0,L|16:27,1,95,0|2,1:2|1:2,0:0:0:0:
218,181,29605,1,10,0:0:0:0:
89,203,29792,1,0,1:2:0:0:
295,280,29980,2,0,L|410:290,1,95,2|0,0:0|1:2,0:0:0:0:
180,344,30355,1,10,0:0:0:0:
454,226,30542,2,0,L|393:220,1,47.5,0|0,1:2|1:2,0:0:0:0:
183,142,30730,6,0,L|306:129,1,95,2|0,1:2|0:0,0:0:0:0:
83,267,31105,2,0,L|25:262,2,47.5,10|0|0,0:0|0:0|1:2,0:0:0:0:
269,304,31480,2,0,L|217:311,1,47.5,0|0,0:0|0:0,0:0:0:0:
163,359,31667,2,0,L|232:366,1,47.5,2|0,1:2|0:0,0:0:0:0:
403,265,31855,2,0,L|353:258,1,47.5,10|0,0:0|0:0,0:0:0:0:
264,204,32042,2,0,L|318:195,1,47.5,0|0,1:2|0:0,0:0:0:0:
494,162,32230,6,0,L|481:104,1,47.5,0|0,1:2|0:0,0:0:0:0:
415,98,32417,1,0,1:2:0:0:
246,97,32605,2,0,L|272:40,1,47.5,8|0,0:0|0:0,0:0:0:0:
341,42,32792,1,2,1:2:0:0:
157,201,32980,2,0,L|90:194,1,47.5,0|0,0:0|0:0,0:0:0:0:
161,221,33167,2,0,L|228:209,1,47.5,0|0,1:2|0:0,0:0:0:0:
19,323,33355,2,0,L|123:331,1,95,10|2,0:0|1:2,0:0:0:0:
409,352,33730,5,0,1:2:0:0:
349,334,33823,1,0,0:0:0:0:
309,286,33917,1,0,0:0:0:0:
122,220,34105,1,10,0:0:0:0:
182,202,34198,1,0,0:0:0:0:
222,154,34292,1,0,1:2:0:0:
48,112,34480,2,0,L|36:67,1,47.5,0|0,0:0|0:0,0:0:0:0:
252,65,34667,2,0,L|263:7,1,47.5,2|0,1:2|0:0,0:0:0:0:
175,32,34855,2,0,L|229:17,1,47.5,10|0,0:0|0:0,0:0:0:0:
133,118,35042,2,0,L|85:113,1,47.5,0|0,1:2|0:0,0:0:0:0:
318,185,35230,5,8,0:0:0:0:
454,233,35417,1,10,0:0:0:0:
297,297,35605,1,10,0:0:0:0:
135,310,35792,1,8,0:0:0:0:
343,383,35980,1,10,0:0:0:0:
389,375,36073,1,8,0:0:0:0:
423,343,36167,1,8,0:0:0:0:
432,297,36261,1,8,0:0:0:0:
222,243,36355,2,0,L|205:174,1,47.5,10|8,0:0|0:0,0:0:0:0:
302,151,36542,2,0,L|230:137,1,47.5,8|8,0:0|0:0,0:0:0:0:
21,65,36730,6,0,L|126:47,1,95,6|0,1:2|0:0,0:0:0:0:
186,30,37011,2,0,L|125:22,1,47.5,2|8,0:0|0:0,0:0:0:0:
311,281,37292,2,0,L|115:249,1,190,2|0,1:2|1:2,0:0:0:0:
314,180,37855,1,10,0:0:0:0:
179,141,38042,1,0,1:2:0:0:
498,109,38230,6,0,L|385:91,1,95,2|0,1:2|1:2,0:0:0:0:
481,40,38511,2,0,L|409:29,1,47.5,2|8,0:0|0:0,0:0:0:0:
246,87,38792,2,0,P|207:138|312:179,1,190,2|0,1:2|1:2,0:0:0:0:
447,293,39355,2,0,L|338:297,1,95,10|0,0:0|1:2,0:0:0:0:
43,358,39730,6,0,L|167:343,1,95,2|0,1:2|0:0,0:0:0:0:
63,286,40011,2,0,L|153:267,1,47.5,2|8,0:0|0:0,0:0:0:0:
281,232,40292,2,0,P|242:167|124:144,1,190,2|0,1:2|1:2,0:0:0:0:
311,83,40855,2,0,L|385:78,2,47.5,10|0|0,0:0|0:0|1:2,0:0:0:0:
25,53,41230,6,0,L|58:103,1,47.5,0|0,1:2|0:0,0:0:0:0:
115,113,41417,1,2,1:2:0:0:
212,135,41511,2,0,L|161:198,1,47.5,0|10,0:0|0:0,0:0:0:0:
110,195,41698,1,0,0:0:0:0:
12,271,41792,2,0,L|66:283,1,47.5,0|0,1:2|0:0,0:0:0:0:
242,348,41980,2,0,L|353:324,1,95,2|0,0:0|1:2,0:0:0:0:
178,283,42355,1,10,0:0:0:0:
353,235,42542,2,0,L|261:217,1,47.5,0|0,1:2|1:2,0:0:0:0:
503,261,42730,6,0,L|387:254,1,95,2|0,1:2|0:0,0:0:0:0:
343,192,43011,2,0,L|400:186,1,47.5,2|8,0:0|0:0,0:0:0:0:
255,198,43292,1,2,1:2:0:0:
215,174,43385,1,0,0:0:0:0:
202,129,43479,1,0,0:0:0:0:
224,88,43573,1,0,0:0:0:0:
268,73,43667,1,0,1:2:0:0:
475,38,43855,1,10,0:0:0:0:
374,25,44042,1,0,1:2:0:0:
95,263,44230,6,0,L|232:246,1,95,2|0,1:2|1:2,0:0:0:0:
95,263,44511,2,0,L|106:187,1,47.5,2|8,0:0|0:0,0:0:0:0:
281,360,44792,2,0,L|258:304,1,47.5,2|0,1:2|0:0,0:0:0:0:
191,333,44980,2,0,L|166:267,1,47.5,0|0,0:0|0:0,0:0:0:0:
102,267,45167,1,0,1:2:0:0:
273,200,45355,1,10,0:0:0:0:
81,161,45542,1,0,1:2:0:0:
383,93,45730,6,0,L|269:79,1,95,2|0,1:2|0:0,0:0:0:0:
383,93,46011,2,0,L|367:20,1,47.5,2|8,0:0|0:0,0:0:0:0:
196,238,46292,2,0,L|219:182,1,47.5,2|0,1:2|0:0,0:0:0:0:
286,211,46480,2,0,L|311:145,1,47.5,0|0,0:0|0:0,0:0:0:0:
375,145,46667,1,0,1:2:0:0:
232,95,46855,1,10,0:0:0:0:
427,83,47042,1,0,1:2:0:0:
115,225,47230,6,0,L|45:230,2,47.5,8|0|10,0:0|0:0|0:0,0:0:0:0:
208,292,47511,2,0,L|295:298,2,47.5,0|10|0,0:0|0:0|0:0,0:0:0:0:
93,362,47792,2,0,L|166:372,1,47.5,8|0,0:0|0:0,0:0:0:0:
349,339,47980,2,0,L|325:276,1,47.5,10|8,0:0|0:0,0:0:0:0:
248,308,48167,2,0,L|224:258,1,47.5,8|8,0:0|0:0,0:0:0:0:
447,200,48355,2,0,L|384:176,1,47.5,10|8,0:0|0:0,0:0:0:0:
198,133,48542,2,0,L|134:132,1,47.5,8|8,0:0|0:0,0:0:0:0:
391,35,48730,5,6,1:2:0:0:
443,52,48823,1,0,0:0:0:0:
466,102,48917,1,0,0:0:0:0:
376,116,49011,1,0,0:0:0:0:
323,133,49104,1,8,0:0:0:0:
300,183,49198,1,0,0:0:0:0:
489,222,49292,2,0,L|474:291,1,56.9999982604981,0|0,0:0|0:0,0:0:0:0:
408,282,49480,2,0,L|367:334,1,56.9999982604981,0|0,1:2|0:0,0:0:0:0:
436,353,49667,2,0,L|506:358,1,56.9999982604981,0|0,0:0|0:0,0:0:0:0:
330,313,49855,2,0,L|273:317,1,56.9999982604981,8|0,0:0|0:0,0:0:0:0:
351,247,50042,2,0,L|281:240,1,56.9999982604981,0|0,0:0|0:0,0:0:0:0:
128,212,50230,6,0,L|59:206,2,56.9999982604981,2|0|0,1:2|0:0|0:0,0:0:0:0:
208,161,50511,2,0,L|303:155,2,56.9999982604981,0|8|0,0:0|0:0|0:0,0:0:0:0:
15,44,50792,2,0,L|99:33,1,56.9999982604981,0|0,0:0|0:0,0:0:0:0:
147,57,50980,1,2,1:2:0:0:
93,73,51073,1,0,0:0:0:0:
62,119,51167,1,0,0:0:0:0:
72,168,51261,1,0,0:0:0:0:
297,212,51355,2,0,L|282:277,1,56.9999982604981,8|0,0:0|0:0,0:0:0:0:
180,285,51542,2,0,L|151:362,1,56.9999982604981,0|0,1:2|0:0,0:0:0:0:
353,357,51730,6,0,L|279:349,2,56.9999982604981,2|0|0,1:2|0:0|0:0,0:0:0:0:
279,307,52011,2,0,L|214:316,2,56.9999982604981,0|8|0,0:0|0:0|0:0,0:0:0:0:
453,286,52292,1,0,0:0:0:0:
500,270,52385,1,0,0:0:0:0:
434,247,52479,1,0,1:2:0:0:
371,224,52573,1,0,0:0:0:0:
403,158,52667,1,0,0:0:0:0:
477,147,52761,1,0,0:0:0:0:
287,95,52855,2,0,L|226:86,1,56.9999982604981,8|0,0:0|0:0,0:0:0:0:
309,55,53042,2,0,L|371:46,1,56.9999982604981,0|0,0:0|0:0,0:0:0:0:
177,178,53230,6,0,L|307:193,1,113.999996520996,2|0,1:2|0:0,0:0:0:0:
200,224,53511,2,0,L|47:237,1,113.999996520996,0|0,0:0|0:0,0:0:0:0:
164,261,53792,2,0,L|246:266,1,56.9999982604981,0|0,0:0|0:0,0:0:0:0:
25,347,53980,1,2,1:2:0:0:
152,302,54167,1,0,0:0:0:0:
28,250,54355,1,8,0:0:0:0:
303,172,54542,2,0,L|229:171,1,56.9999982604981,0|0,1:2|1:2,0:0:0:0:
59,149,54730,6,0,L|89:93,1,56.9999982604981,2|0,1:2|0:0,0:0:0:0:
155,79,54917,1,0,0:0:0:0:
244,69,55011,2,0,L|210:24,1,56.9999982604981,0|8,0:0|0:0,0:0:0:0:
134,18,55198,1,0,0:0:0:0:
321,97,55292,2,0,L|394:103,1,56.9999982604981,0|0,0:0|0:0,0:0:0:0:
314,114,55480,1,0,1:2:0:0:
269,142,55573,1,0,0:0:0:0:
284,193,55667,1,0,0:0:0:0:
337,194,55761,1,0,0:0:0:0:
491,241,55855,2,0,L|404:241,1,56.9999982604981,8|0,0:0|0:0,0:0:0:0:
497,293,56042,2,0,L|425:292,1,56.9999982604981
241,367,56230,6,0,L|173:360,2,56.9999982604981,2|0|0,1:2|0:0|0:0,0:0:0:0:
329,326,56511,2,0,L|401:311,2,56.9999982604981,0|8|0,0:0|0:0|0:0,0:0:0:0:
106,301,56792,2,0,L|186:292,1,56.9999982604981,2|0,0:0|0:0,0:0:0:0:
90,230,56980,2,0,L|25:220,1,56.9999982604981
102,155,57167,2,0,L|197:139,1,56.9999982604981
344,95,57355,2,0,L|282:83,1,56.9999982604981,10|0,0:0|0:0,0:0:0:0:
198,22,57542,2,0,L|280:0,1,56.9999982604981,0|0,1:2|0:0,0:0:0:0:
446,67,57730,5,2,0:0:0:0:
495,108,57823,1,0,0:0:0:0:
454,159,57917,1,0,0:0:0:0:
368,179,58011,1,0,0:0:0:0:
313,214,58104,1,8,0:0:0:0:
379,248,58198,1,0,0:0:0:0:
195,351,58292,1,2,0:0:0:0:
132,351,58385,1,0,0:0:0:0:
215,319,58479,1,0,0:0:0:0:
227,256,58573,1,0,0:0:0:0:
313,214,58667,2,0,L|253:200,1,56.9999982604981
95,165,58855,2,0,L|166:157,1,56.9999982604981,10|0,0:0|0:0,0:0:0:0:
82,96,59042,2,0,L|5:92,1,56.9999982604981,0|0,0:0|0:0,0:0:0:0:
265,126,59230,6,0,L|394:111,1,113.999996520996,2|0,1:2|0:0,0:0:0:0:
269,72,59511,2,0,L|145:57,1,113.999996520996,0|0,0:0|0:0,0:0:0:0:
361,31,59792,2,0,L|438:19,1,56.9999982604981,0|0,0:0|0:0,0:0:0:0:
242,196,59980,1,2,1:2:0:0:
125,258,60167,1,0,0:0:0:0:
297,331,60355,1,10,0:0:0:0:
20,346,60542,2,0,L|91:335,1,56.9999982604981,0|0,1:2|1:2,0:0:0:0:
272,315,60730,5,6,1:2:0:0:
226,283,60823,1,0,0:0:0:0:
161,276,60917,1,0,0:0:0:0:
235,249,61011,1,0,0:0:0:0:
293,211,61105,1,8,0:0:0:0:
318,146,61198,1,0,0:0:0:0:
126,119,61292,2,0,L|166:68,1,56.9999982604981,0|0,0:0|0:0,0:0:0:0:
246,76,61480,2,0,L|317:27,1,56.9999982604981,0|0,1:2|0:0,0:0:0:0:
203,15,61667,2,0,L|125:9,1,56.9999982604981,0|0,0:0|0:0,0:0:0:0:
342,121,61855,2,0,L|328:181,1,56.9999982604981,8|0,0:0|0:0,0:0:0:0:
244,186,62042,2,0,L|220:260,1,56.9999982604981,0|0,0:0|0:0,0:0:0:0:
415,293,62230,6,0,L|495:300,2,56.9999982604981,2|0|0,1:2|0:0|0:0,0:0:0:0:
235,349,62511,2,0,L|302:341,2,56.9999982604981,0|8|0,0:0|0:0|0:0,0:0:0:0:
51,359,62792,2,0,L|36:286,1,56.9999982604981,0|0,0:0|0:0,0:0:0:0:
131,270,62980,1,2,1:2:0:0:
75,263,63073,1,0,0:0:0:0:
41,220,63167,1,0,0:0:0:0:
48,165,63261,1,0,0:0:0:0:
218,151,63355,2,0,L|240:89,1,56.9999982604981,8|0,0:0|0:0,0:0:0:0:
157,59,63542,2,0,L|237:40,1,56.9999982604981,0|0,1:2|0:0,0:0:0:0:
393,64,63730,6,0,L|308:56,2,56.9999982604981,2|0|0,1:2|0:0|0:0,0:0:0:0:
218,151,64011,2,0,L|149:158,2,56.9999982604981,0|8|0,0:0|0:0|0:0,0:0:0:0:
398,157,64292,1,0,0:0:0:0:
456,169,64385,1,0,0:0:0:0:
398,216,64479,1,0,1:2:0:0:
329,223,64573,1,0,0:0:0:0:
396,306,64667,2,0,L|497:322,1,56.9999982604981
233,359,64855,2,0,L|151:346,1,56.9999982604981,8|0,0:0|0:0,0:0:0:0:
277,312,65042,2,0,L|288:224,1,56.9999982604981,0|0,0:0|0:0,0:0:0:0:
56,184,65230,6,0,L|179:144,1,113.999996520996,2|0,1:2|0:0,0:0:0:0:
274,108,65511,2,0,L|125:77,1,113.999996520996,0|0,0:0|0:0,0:0:0:0:
252,44,65792,2,0,L|194:38,1,56.9999982604981,0|0,0:0|0:0,0:0:0:0:
21,113,65980,1,2,1:2:0:0:
134,192,66167,1,0,0:0:0:0:
265,207,66355,1,8,0:0:0:0:
8,322,66542,2,0,L|95:332,1,56.9999982604981,0|0,1:2|1:2,0:0:0:0:
257,353,66730,6,0,L|274:230,1,113.999996520996,10|0,0:0|0:0,0:0:0:0:
453,233,67105,2,0,L|470:102,1,113.999996520996,8|0,0:0|0:0,0:0:0:0:
276,114,67480,2,0,L|254:-15,1,113.999996520996,8|0,0:0|0:0,0:0:0:0:
64,124,67855,2,0,L|31:0,1,113.999996520996,8|0,0:0|0:0,0:0:0:0:
366,222,68230,6,0,L|239:203,1,113.999996520996,10|0,0:0|0:0,0:0:0:0:
84,318,68605,2,0,L|229:336,1,113.999996520996,8|0,0:0|0:0,0:0:0:0:
484,148,68980,2,0,L|341:119,1,113.999996520996,10|0,0:0|0:0,0:0:0:0:
37,79,69355,2,0,L|174:58,1,113.999996520996,8|0,0:0|0:0,0:0:0:0:
483,48,69730,5,10,0:0:0:0:
338,48,69917,1,8,0:0:0:0:
192,132,70105,1,8,0:0:0:0:
366,175,70292,1,8,0:0:0:0:
84,340,70480,1,8,0:0:0:0:
223,326,70667,1,8,0:0:0:0:
37,234,70855,1,8,0:0:0:0:
193,208,71042,1,8,0:0:0:0:
492,106,71230,6,0,L|346:111,1,113.999996520996,10|8,0:0|0:0,0:0:0:0:
284,71,71511,2,0,L|350:61,1,56.9999982604981,0|8,0:0|0:0,0:0:0:0:
494,35,71792,1,8,0:0:0:0:
217,242,71980,2,0,L|120:220,1,56.9999982604981,8|8,0:0|0:0,0:0:0:0:
265,193,72167,2,0,L|345:178,1,56.9999982604981,8|8,0:0|0:0,0:0:0:0:
81,131,72355,2,0,L|8:121,1,56.9999982604981,8|8,0:0|0:0,0:0:0:0:
306,315,72542,2,0,L|380:308,1,56.9999982604981,8|8,0:0|0:0,0:0:0:0:
119,366,72730,5,4,1:2:0:0:
26,343,72917,2,0,P|50:278|161:227,1,190,0|0,0:0|0:0,0:0:0:0:
104,204,73386,1,0,0:0:0:0:
159,177,73480,1,2,0:0:0:0:
292,168,73667,1,0,0:0:0:0:
148,100,73855,2,0,L|25:91,1,95,2|2,0:0|0:0,0:0:0:0:
243,47,74230,6,0,L|120:33,1,95,2|0,1:2|0:2,0:0:0:0:
199,4,74511,2,0,L|268:-10,1,47.5,2|0,0:0|0:0,0:0:0:0:
394,37,74792,2,0,L|409:110,1,47.5,0|0,0:0|0:0,0:0:0:0:
352,95,74980,1,2,0:0:0:0:
314,122,75073,1,0,0:0:0:0:
307,167,75167,1,0,0:0:0:0:
335,204,75261,1,0,0:0:0:0:
438,224,75355,2,0,L|359:234,1,47.5,2|0,0:0|0:0,0:0:0:0:
450,287,75542,2,0,L|516:298,1,47.5,0|0,0:0|0:0,0:0:0:0:
308,329,75730,6,0,L|172:324,1,95,2|0,1:2|0:2,0:0:0:0:
272,302,76011,1,2,0:0:0:0:
58,257,76292,2,0,L|166:243,1,95,0|2,0:0|0:0,0:0:0:0:
21,183,76667,2,0,L|77:179,1,47.5,0|0,0:0|0:0,0:0:0:0:
147,160,76855,1,2,0:0:0:0:
100,154,76948,1,0,0:0:0:0:
69,120,77042,1,0,0:0:0:0:
81,75,77136,1,0,0:0:0:0:
249,46,77230,6,0,L|362:31,1,95,2|0,1:2|0:0,0:0:0:0:
281,64,77511,1,2,0:0:0:0:
487,162,77792,2,0,L|417:174,1,47.5,0|0,0:0|0:0,0:0:0:0:
377,200,77980,2,0,L|497:216,1,95,2|0,0:0|0:0,0:0:0:0:
408,243,78261,1,0,0:0:0:0:
336,271,78355,2,0,L|417:280,1,47.5,2|0,0:0|0:0,0:0:0:0:
466,321,78542,2,0,L|388:327,1,47.5,0|0,0:0|0:0,0:0:0:0:
248,375,78730,5,2,1:2:0:0:
123,362,78917,1,0,0:0:0:0:
318,294,79105,2,0,L|189:276,1,95,0|0,0:0|0:0,0:0:0:0:
60,232,79480,1,2,0:0:0:0:
115,155,79667,1,0,0:0:0:0:
196,107,79855,1,2,0:0:0:0:
290,96,80042,1,2,0:0:0:0:
106,61,80230,6,0,L|50:55,1,47.5,2|0,1:2|0:0,0:0:0:0:
126,69,80417,2,0,L|137:149,1,47.5,0|0,0:0|0:0,0:0:0:0:
203,135,80605,2,0,L|223:200,1,47.5,2|0,0:0|0:0,0:0:0:0:
147,209,80792,2,0,L|84:213,1,47.5,0|0,0:0|0:0,0:0:0:0:
221,223,80980,2,0,L|235:280,1,47.5,2|0,0:0|0:0,0:0:0:0:
163,289,81167,2,0,L|150:344,1,47.5,0|0,0:0|0:0,0:0:0:0:
78,336,81355,2,0,L|60:389,1,47.5,2|0,0:0|0:0,0:0:0:0:
260,354,81542,2,0,L|330:350,1,47.5,0|2,0:0|0:0,0:0:0:0:
108,306,81730,5,2,1:2:0:0:
18,248,81917,2,0,L|154:228,1,95,0|0,0:0|0:0,0:0:0:0:
258,159,82292,2,0,L|195:143,1,47.5,0|0,0:0|0:0,0:0:0:0:
390,83,82480,1,2,0:0:0:0:
494,111,82667,1,0,0:0:0:0:
366,194,82855,1,2,0:0:0:0:
230,228,83042,1,2,0:0:0:0:
392,281,83230,5,2,1:2:0:0:
237,336,83417,2,0,L|214:208,1,95,0|0,0:0|0:0,0:0:0:0:
367,178,83792,2,0,L|428:175,1,47.5,0|0,0:0|0:0,0:0:0:0:
352,135,83980,1,2,0:0:0:0:
220,108,84167,1,0,0:0:0:0:
348,34,84355,1,2,0:0:0:0:
489,45,84542,1,0,0:0:0:0:
169,96,84730,5,6,1:2:0:0:
125,112,84823,1,0,0:0:0:0:
109,155,84917,1,2,0:3:0:0:
129,196,85011,1,0,0:0:0:0:
179,207,85105,1,2,0:0:0:0:
119,212,85198,1,0,0:0:0:0:
86,261,85292,1,2,0:3:0:0:
104,318,85386,1,0,0:0:0:0:
267,356,85480,1,10,0:0:0:0:
330,344,85573,2,0,L|399:331,2,47.5,0|2|0,0:0|0:3|0:0,0:0:0:0:
256,308,85855,2,0,L|311:297,2,47.5,2|0|2,0:0|0:0|0:3,0:0:0:0:
183,298,86136,1,0,0:0:0:0:
334,204,86230,6,0,L|272:187,1,47.5,2|0,1:2|0:0,0:0:0:0:
325,146,86417,2,0,L|391:142,1,47.5,2|0,0:3|0:0,0:0:0:0:
445,131,86605,2,0,L|381:111,1,47.5,2|0,0:0|0:0,0:0:0:0:
443,72,86792,2,0,L|489:65,1,47.5,2|0,1:3|0:0,0:0:0:0:
305,53,86980,2,0,L|223:46,1,47.5,10|0,0:0|0:0,0:0:0:0:
326,17,87167,2,0,L|259:7,1,47.5,2|0,1:2|0:0,0:0:0:0:
96,106,87355,1,10,0:0:0:0:
147,109,87448,1,0,0:0:0:0:
195,132,87542,1,2,0:3:0:0:
228,171,87636,1,0,0:0:0:0:
54,214,87730,6,0,L|73:289,1,47.5,2|0,1:2|0:0,0:0:0:0:
149,276,87917,2,0,L|98:291,1,47.5,2|0,0:3|0:0,0:0:0:0:
30,336,88105,2,0,L|89:353,1,47.5,2|0,0:0|0:0,0:0:0:0:
155,297,88292,2,0,L|85:317,1,47.5,2|0,0:3|0:0,0:0:0:0:
273,345,88480,1,10,0:0:0:0:
215,326,88573,1,0,0:0:0:0:
270,304,88667,1,2,0:3:0:0:
334,287,88761,1,0,0:0:0:0:
265,267,88855,1,2,0:2:0:0:
222,228,88948,1,0,0:0:0:0:
243,172,89042,1,2,0:3:0:0:
299,162,89136,1,0,0:0:0:0:
474,170,89230,6,0,L|469:117,1,47.5,2|0,1:2|0:0,0:0:0:0:
401,103,89417,1,2,0:3:0:0:
211,115,89511,2,0,L|196:54,1,47.5,0|2,0:0|0:0,0:0:0:0:
296,48,89698,2,0,L|242:31,1,47.5,0|2,0:0|1:3,0:0:0:0:
175,22,89886,1,0,0:0:0:0:
388,10,89980,2,0,L|471:21,1,47.5,10|0,0:0|0:0,0:0:0:0:
282,133,90167,2,0,L|227:144,1,47.5,2|0,1:3|0:0,0:0:0:0:
453,164,90355,1,10,0:0:0:0:
483,203,90448,1,0,0:0:0:0:
473,253,90542,1,2,0:3:0:0:
429,277,90636,1,2,0:0:0:0:
204,93,90730,5,2,1:2:0:0:
259,101,90823,1,0,0:0:0:0:
295,143,90917,1,2,0:3:0:0:
298,198,91011,1,0,0:0:0:0:
265,243,91105,1,2,0:0:0:0:
211,257,91198,1,0,0:0:0:0:
278,266,91292,1,2,0:3:0:0:
217,280,91386,1,0,0:0:0:0:
35,315,91480,2,0,L|76:259,1,47.5,10|0,0:0|0:0,0:0:0:0:
142,263,91667,2,0,L|98:240,1,47.5,2|0,0:3|0:0,0:0:0:0:
28,206,91855,2,0,L|93:191,1,47.5,2|0,0:0|0:0,0:0:0:0:
145,155,92042,2,0,L|71:144,1,47.5,2|0,0:3|0:0,0:0:0:0:
291,50,92230,5,2,1:2:0:0:
237,59,92323,1,0,0:0:0:0:
208,105,92417,1,2,0:3:0:0:
222,157,92511,1,0,0:0:0:0:
268,184,92605,1,2,0:0:0:0:
319,182,92698,1,0,0:0:0:0:
268,218,92792,2,0,L|197:222,1,47.5,2|0,0:3|0:0,0:0:0:0:
379,320,92980,2,0,L|290:315,1,47.5,10|0,0:0|0:0,0:0:0:0:
265,293,93167,2,0,L|321:276,1,47.5,2|0,1:3|0:0,0:0:0:0:
487,228,93355,2,0,L|428:212,1,47.5,10|0,0:0|0:0,0:0:0:0:
272,148,93542,2,0,L|350:124,1,47.5,2|0,1:3|1:2,0:0:0:0:
486,74,93730,6,0,L|426:64,1,47.5,2|0,1:2|0:0,0:0:0:0:
370,76,93917,2,0,L|349:155,1,47.5,2|0,0:3|0:0,0:0:0:0:
287,139,94105,2,0,L|268:197,1,47.5,2|0,0:0|0:0,0:0:0:0:
356,209,94292,2,0,L|337:268,1,47.5,2|0,0:3|0:0,0:0:0:0:
145,269,94480,6,0,L|168:329,1,47.5,10|0,0:0|0:0,0:0:0:0:
243,307,94667,2,0,L|269:359,1,47.5,2|0,0:3|0:0,0:0:0:0:
83,333,94855,2,0,L|109:389,1,47.5,2|0,0:0|0:0,0:0:0:0:
307,298,95042,2,0,L|279:242,1,47.5,2|0,0:3|0:0,0:0:0:0:
61,290,95230,6,0,L|8:204,1,95,2|0,1:2|0:0,0:0:0:0:
154,187,95605,2,0,L|125:76,1,95,0|0,1:2|0:0,0:0:0:0:
279,93,95980,2,0,L|293:-7,1,95,0|0,1:2|0:0,0:0:0:0:
448,84,96355,1,0,1:2:0:0:
287,173,96542,2,0,L|222:174,1,47.5,0|0,1:2|1:2,0:0:0:0:
490,273,96730,5,4,1:2:0:0:
256,192,96823,12,0,98792,0:0:0:0:
325,332,98980,6,0,L|147:282,1,142.5,2|0,0:0|0:0,0:0:0:0:
276,252,99355,2,0,L|437:237,1,142.5,2|0,0:0|0:0,0:0:0:0:
206,214,99730,5,6,1:2:0:0:
258,196,99823,1,0,0:0:0:0:
286,147,99917,1,0,0:0:0:0:
272,93,100011,1,0,0:0:0:0:
226,63,100105,1,8,0:0:0:0:
171,70,100198,1,0,0:0:0:0:
144,121,100292,1,0,0:0:0:0:
165,173,100386,1,0,0:0:0:0:
335,242,100480,6,0,L|413:247,2,56.9999982604981,2|0|0,1:2|0:0|0:0,0:0:0:0:
175,289,100761,2,0,L|257:287,2,56.9999982604981,2|8|0,0:0|0:0|0:0,0:0:0:0:
19,353,101042,2,0,L|94:358,1,56.9999982604981,2|0,0:0|0:0,0:0:0:0:
269,357,101230,6,0,L|200:338,1,56.9999982604981,2|0,1:2|0:0,0:0:0:0:
278,312,101417,2,0,L|350:296,1,56.9999982604981,0|0,0:0|0:0,0:0:0:0:
263,262,101605,2,0,L|172:241,1,56.9999982604981,8|0,0:0|0:0,0:0:0:0:
141,204,101792,2,0,L|219:180,1,56.9999982604981,0|0,0:0|0:0,0:0:0:0:
393,147,101980,6,0,L|308:140,2,56.9999982604981,2|0|0,1:2|0:0|0:0,0:0:0:0:
308,100,102261,2,0,L|248:92,2,56.9999982604981,2|10|0,0:0|0:0|0:0,0:0:0:0:
234,57,102542,2,0,L|156:55,1,56.9999982604981,2|0,1:2|0:0,0:0:0:0:
393,147,102730,5,2,1:2:0:0:
330,152,102823,1,0,0:0:0:0:
291,197,102917,1,0,0:0:0:0:
382,243,103011,1,0,0:0:0:0:
328,251,103104,1,8,0:0:0:0:
295,296,103198,1,0,0:0:0:0:
388,342,103292,2,0,L|458:352,1,56.9999982604981,0|0,0:0|0:0,0:0:0:0:
251,361,103480,6,0,L|289:310,1,56.9999982604981,2|0,1:2|0:0,0:0:0:0:
360,312,103667,2,0,L|318:250,1,56.9999982604981,0|2,0:0|0:0,0:0:0:0:
246,232,103855,2,0,L|334:194,1,56.9999982604981,8|0,0:0|0:0,0:0:0:0:
470,160,104042,2,0,L|393:156,1,56.9999982604981,2|0,0:0|0:0,0:0:0:0:
232,103,104230,5,2,1:2:0:0:
286,113,104323,1,0,0:0:0:0:
319,158,104417,1,0,0:0:0:0:
313,214,104511,1,0,0:0:0:0:
271,250,104605,2,0,L|191:239,1,56.9999982604981,8|0,0:0|0:0,0:0:0:0:
291,278,104792,2,0,L|218:267,1,56.9999982604981,0|0,0:0|0:0,0:0:0:0:
40,337,104980,2,0,L|15:240,1,56.9999982604981,2|0,1:2|0:0,0:0:0:0:
103,255,105167,2,0,L|24:242,1,56.9999982604981,0|0,0:0|0:0,0:0:0:0:
234,269,105355,2,0,L|259:172,1,56.9999982604981,10|0,0:0|0:0,0:0:0:0:
69,164,105542,2,0,L|144:153,1,56.9999982604981,0|0,1:2|1:2,0:0:0:0:
325,168,105730,5,6,1:2:0:0:
294,120,105823,1,0,0:0:0:0:
246,90,105917,1,0,0:0:0:0:
190,84,106011,1,0,0:0:0:0:
293,42,106105,2,0,L|226:25,1,56.9999982604981,8|0,0:0|0:0,0:0:0:0:
166,9,106292,2,0,L|260:-10,1,56.9999982604981,0|0,0:0|0:0,0:0:0:0:
413,95,106480,6,0,L|479:98,2,56.9999982604981,2|0|0,1:2|0:0|0:0,0:0:0:0:
226,215,106761,2,0,L|293:212,2,56.9999982604981,2|8|0,0:0|0:0|0:0,0:0:0:0:
435,292,107042,2,0,L|517:302,1,56.9999982604981,2|0,0:0|0:0,0:0:0:0:
281,369,107230,5,4,1:2:0:0:
309,320,107323,1,0,0:0:0:0:
356,289,107417,1,0,0:0:0:0:
412,282,107511,1,0,0:0:0:0:
319,261,107605,2,0,L|297:202,1,56.9999982604981,10|0,0:0|0:0,0:0:0:0:
386,189,107792,2,0,L|406:119,1,56.9999982604981,0|0,0:0|0:0,0:0:0:0:
216,92,107980,6,0,L|142:90,2,56.9999982604981,2|0|0,1:2|0:0|0:0,0:0:0:0:
30,200,108261,2,0,L|102:195,2,56.9999982604981,2|10|0,0:0|0:0|0:0,0:0:0:0:
229,294,108542,2,0,L|296:304,1,56.9999982604981,2|0,1:2|0:0,0:0:0:0:
75,375,108730,5,6,1:2:0:0:
27,345,108823,1,0,0:0:0:0:
15,291,108917,1,0,0:0:0:0:
46,245,109011,1,0,0:0:0:0:
100,235,109105,2,0,L|165:226,1,56.9999982604981,8|0,0:0|0:0,0:0:0:0:
79,196,109292,2,0,L|152:186,1,56.9999982604981,0|0,0:0|0:0,0:0:0:0:
338,219,109480,5,4,1:2:0:0:
273,204,109573,1,0,0:0:0:0:
247,144,109667,1,0,0:0:0:0:
280,87,109761,1,0,0:0:0:0:
346,80,109855,1,10,0:0:0:0:
274,50,109948,1,0,0:0:0:0:
487,38,110042,1,2,0:0:0:0:
415,23,110136,1,0,0:0:0:0:
197,49,110230,5,6,1:2:0:0:
266,66,110323,1,0,0:0:0:0:
297,131,110417,1,0,0:0:0:0:
266,196,110511,1,0,0:0:0:0:
197,214,110605,1,8,0:0:0:0:
264,232,110698,1,0,0:0:0:0:
66,271,110792,2,0,L|3:288,1,56.9999982604981,2|0,0:0|0:0,0:0:0:0:
223,326,110980,5,4,1:2:0:0:
279,328,111073,1,0,0:0:0:0:
336,330,111167,1,0,0:0:0:0:
393,333,111261,1,0,0:0:0:0:
316,288,111355,1,10,0:0:0:0:
228,277,111448,1,0,0:0:0:0:
59,219,111542,1,2,1:2:0:0:
227,188,111636,1,0,1:2:0:0:
408,150,111730,6,0,L|508:162,2,56.9999982604981,6|0|0,1:2|0:0|0:0,0:0:0:0:
331,101,112011,2,0,L|265:92,2,56.9999982604981,0|8|0,0:0|0:0|0:0,0:0:0:0:
428,56,112292,2,0,L|364:39,1,56.9999982604981,0|0,0:0|0:0,0:0:0:0:
178,90,112480,6,0,L|257:78,2,56.9999982604981,2|0|0,1:2|0:0|0:0,0:0:0:0:
360,206,112761,2,0,L|436:205,2,56.9999982604981,0|8|0,0:0|0:0|0:0,0:0:0:0:
157,284,113042,2,0,L|242:296,1,56.9999982604981,0|0,0:0|0:0,0:0:0:0:
412,359,113230,6,0,L|316:355,1,56.9999982604981,6|0,1:2|0:0,0:0:0:0:
423,324,113417,2,0,L|486:313,1,56.9999982604981,0|0,0:0|0:0,0:0:0:0:
303,268,113605,2,0,L|232:265,1,56.9999982604981,10|0,0:0|0:0,0:0:0:0:
331,230,113792,2,0,L|258:223,1,56.9999982604981,0|0,0:0|0:0,0:0:0:0:
110,180,113980,2,0,L|191:165,1,56.9999982604981,6|0,1:2|0:0,0:0:0:0:
244,134,114167,2,0,L|165:116,1,56.9999982604981,0|0,0:0|0:0,0:0:0:0:
15,71,114355,2,0,L|85:55,1,56.9999982604981,10|0,0:0|0:0,0:0:0:0:
257,36,114542,2,0,L|334:35,1,56.9999982604981,2|0,1:2|1:2,0:0:0:0:
111,131,114730,5,4,1:2:0:0:
59,149,114823,1,0,0:0:0:0:
42,201,114917,1,0,0:0:0:0:
74,246,115011,1,0,0:0:0:0:
232,281,115105,1,8,0:0:0:0:
383,289,115198,1,8,0:0:0:0:
230,363,115292,1,8,0:0:0:0:
56,371,115386,1,8,0:0:0:0:
245,331,115480,6,0,L|278:325,1,28.4999991302491,6|0,1:2|0:0,0:0:0:0:
70,275,115761,2,0,L|29:266,1,23.75,6|0,1:2|0:0,0:0:0:0:
255,174,116042,2,0,L|293:173,1,23.75,6|0,1:2|0:0,0:0:0:0:
19,104,116230,6,0,L|33:77,1,23.75,6|0,1:2|0:0,0:0:0:0:
227,60,116511,2,0,L|245:38,1,23.75,6|0,1:2|0:0,0:0:0:0:
454,44,116792,2,0,L|480:34,1,23.75,6|0,1:2|0:0,0:0:0:0:
160,217,116980,6,0,L|199:207,1,28.4999991302491,6|0,1:2|0:0,0:0:0:0:
501,344,117261,2,0,L|459:342,1,23.75,6|0,1:2|0:0,0:0:0:0:
41,358,117542,2,0,L|110:346,1,47.5,0|0,1:2|1:2,0:0:0:0:
293,315,117730,5,6,1:2:0:0:
238,317,117823,1,0,0:0:0:0:
206,272,117917,1,0,0:2:0:0:
226,221,118011,1,0,0:0:0:0:
318,226,118105,1,8,0:0:0:0:
264,213,118198,1,0,0:0:0:0:
245,162,118292,1,0,0:0:0:0:
277,118,118386,1,0,0:0:0:0:
450,168,118480,5,10,0:0:0:0:
399,146,118573,1,0,0:0:0:0:
389,92,118667,1,0,0:0:0:0:
429,54,118761,1,0,0:0:0:0:
492,49,118855,2,0,L|412:39,1,56.9999982604981,8|0,0:0|0:0,0:0:0:0:
206,74,119042,2,0,L|137:71,1,56.9999982604981,0|0,0:0|0:0,0:0:0:0:
402,357,119230,5,6,1:2:0:0:
457,359,119323,1,0,0:0:0:0:
489,314,119417,1,0,0:0:0:0:
469,263,119511,1,0,0:0:0:0:
292,237,119605,1,10,0:0:0:0:
344,220,119698,1,0,0:0:0:0:
359,166,119792,1,0,0:0:0:0:
322,125,119886,1,0,0:0:0:0:
140,104,119980,2,0,L|204:89,1,56.9999982604981,10|0,0:0|0:0,0:0:0:0:
288,68,120167,2,0,L|202:56,1,56.9999982604981,0|0,0:0|0:0,0:0:0:0:
45,35,120355,2,0,L|105:29,1,56.9999982604981,10|0,0:0|0:0,0:0:0:0:
306,30,120542,2,0,L|210:10,1,56.9999982604981,0|0,0:0|0:0,0:0:0:0:
23,142,120730,6,0,L|46:224,1,56.9999982604981,6|0,1:2|0:0,0:0:0:0:
135,200,120917,2,0,L|173:255,1,56.9999982604981,8|0,0:0|0:0,0:0:0:0:
68,290,121105,2,0,L|114:332,1,56.9999982604981,8|0,0:0|0:0,0:0:0:0:
217,343,121292,2,0,L|286:350,1,56.9999982604981,8|0,0:0|0:0,0:0:0:0:
78,274,121480,6,0,L|16:264,2,56.9999982604981,4|0|8,1:2|0:0|0:0,0:0:0:0:
237,216,121761,2,0,L|293:208,2,56.9999982604981,0|8|0,0:0|0:0|0:0,0:0:0:0:
411,103,122042,2,0,L|344:92,1,56.9999982604981,8|0,0:0|0:0,0:0:0:0:
108,79,122230,6,0,L|87:159,1,56.9999982604981,6|8,1:2|0:0,0:0:0:0:
265,183,122417,2,8,L|285:261,1,56.9999982604981
457,280,122605,2,8,L|484:340,1,56.9999982604981
251,351,122792,2,8,L|177:344,1,56.9999982604981
437,363,122980,5,4,1:2:0:0:
365,343,123073,1,8,0:0:0:0:
286,338,123167,1,8,0:0:0:0:
363,272,123261,1,8,0:0:0:0:
446,261,123355,1,4,1:2:0:0:
277,170,123448,1,8,0:0:0:0:
101,180,123542,1,8,0:0:0:0:
286,75,123636,1,8,0:0:0:0:
59,76,123730,5,6,1:2:0:0:
256,192,123823,12,0,129542,0:0:0:0:
244,210,129730,6,0,L|212:54,2,142.5,2|0|2,0:0|0:0|0:0,0:0:0:0:
494,324,130855,2,0,P|452:260|361:239,1,142.5,2|0,0:0|0:0,0:0:0:0:
314,184,131230,2,0,L|461:151,2,142.5,2|0|2,0:0|0:0|0:0,0:0:0:0:
226,211,131979,1,2,0:0:0:0:
196,297,132167,1,0,0:0:0:0:
248,373,132354,1,2,0:0:0:0:
339,376,132542,1,2,0:0:0:0:
158,360,132730,6,0,L|18:295,2,142.5,2|0|2,0:0|0:0|0:0,0:0:0:0:
312,218,133480,2,0,L|149:215,2,142.5,2|0|2,0:0|0:0|0:0,0:0:0:0:
477,284,134230,2,0,L|493:113,2,142.5,2|0|2,0:0|0:0|0:0,0:0:0:0:
323,117,134980,1,2,0:0:0:0:
446,79,135167,1,0,0:0:0:0:
275,43,135355,1,2,0:0:0:0:
418,10,135542,1,0,0:0:0:0:
235,154,135730,6,0,L|81:140,2,142.5,2|0|2,0:0|0:0|0:0,0:0:0:0:
14,258,136855,2,0,L|112:247,1,95,2|0,0:0|0:0,0:0:0:0:
288,337,137230,2,0,L|134:322,2,142.5,2|0|2,0:0|0:0|0:0,0:0:0:0:
29,359,138355,2,0,L|134:342,1,95,2|0,0:0|0:0,0:0:0:0:
311,292,138730,2,0,L|146:272,2,142.5,2|0|2,0:0|0:0|0:0,0:0:0:0:
18,180,139855,2,0,L|121:166,1,95,2|0,0:0|0:0,0:0:0:0:
307,115,140230,5,2,0:0:0:0:
113,66,140511,1,0,0:0:0:0:
325,16,140792,1,2,0:0:0:0:
408,53,140979,1,2,0:0:0:0:
432,142,141167,1,0,0:0:0:0:
379,217,141354,1,2,0:0:0:0:
287,223,141542,1,0,0:0:0:0:
474,355,141730,6,0,L|487:180,2,142.5,2|0|2,0:0|0:0|0:0,0:0:0:0:
192,377,142855,2,0,P|248:335|345:312,1,142.5,2|0,0:0|0:0,0:0:0:0:
238,296,143230,2,0,L|83:279,2,142.5,2|0|2,0:0|0:0|0:0,0:0:0:0:
107,322,143980,1,2,0:0:0:0:
234,227,144167,1,0,0:0:0:0:
72,209,144355,1,2,0:0:0:0:
208,153,144542,1,0,0:0:0:0:
21,123,144730,5,2,0:0:0:0:
36,105,144776,1,0,0:0:0:0:
58,95,144823,1,0,0:0:0:0:
81,92,144870,1,0,0:0:0:0:
200,61,145011,2,0,L|43:37,1,142.5,0|2,0:0|0:0,0:0:0:0:
252,128,145480,1,2,0:0:0:0:
61,184,145761,1,0,0:0:0:0:
225,243,146042,1,2,0:0:0:0:
408,257,146230,6,0,L|235:275,1,142.5,2|0,0:0|0:0,0:0:0:0:
446,358,146792,1,2,0:0:0:0:
260,370,146980,2,0,L|419:340,1,142.5,2|0,0:0|0:0,0:0:0:0:
119,290,147542,1,2,0:0:0:0:
