osu file format v14

[General]
AudioFilename: audio.mp3
AudioLeadIn: 0
PreviewTime: -1
Countdown: 1
SampleSet: None
StackLeniency: 0.7
Mode: 3
LetterboxInBreaks: 0
SpecialStyle: 0
WidescreenStoryboard: 1

[Editor]
DistanceSpacing: 0.8
BeatDivisor: 4
GridSize: 32
TimelineZoom: 3.399999

[Metadata]
Title:Infinity Heaven
TitleUnicode:Infinity Heaven
Artist:HyuN
ArtistUnicode:HyuN
Creator:HXJ_Crafter
Version:4K Present
Source:
Tags:
BeatmapID:1660431
BeatmapSetID:791455

[Difficulty]
HPDrainRate:8
CircleSize:4
OverallDifficulty:8
ApproachRate:5
SliderMultiplier:1.4
SliderTickRate:1

[Events]
//Background and Video events
0,0,"2fdf7be9317e0206722d01e9ad3683ba (1).jpg",0,0
//Break Periods
2,111657,122257
//Storyboard Layer 0 (Background)
//Storyboard Layer 1 (Fail)
//Storyboard Layer 2 (Pass)
//Storyboard Layer 3 (Foreground)
//Storyboard Sound Samples

[TimingPoints]
457.919967206763,375,4,2,0,5,1,0

[HitObjects]
64,192,457,5,0,0:0:0:0:
448,192,457,1,0,0:0:0:0:
320,192,739,1,0,0:0:0:0:
192,192,1020,1,0,0:0:0:0:
64,192,1582,1,0,0:0:0:0:
192,192,1770,1,0,0:0:0:0:
448,192,1957,1,0,0:0:0:0:
320,192,2239,1,0,0:0:0:0:
192,192,2520,1,0,0:0:0:0:
64,192,3082,1,0,0:0:0:0:
192,192,3270,1,0,0:0:0:0:
448,192,3457,1,0,0:0:0:0:
320,192,3739,1,0,0:0:0:0:
192,192,4020,1,0,0:0:0:0:
64,192,4582,1,0,0:0:0:0:
192,192,4770,1,0,0:0:0:0:
448,192,4957,1,0,0:0:0:0:
320,192,5239,1,0,0:0:0:0:
192,192,5520,1,0,0:0:0:0:
448,192,5707,1,0,0:0:0:0:
320,192,5895,1,0,0:0:0:0:
64,192,6082,1,0,0:0:0:0:
192,192,6270,1,0,0:0:0:0:
448,192,6457,1,0,0:0:0:0:
320,192,6739,1,0,0:0:0:0:
64,192,7020,1,0,0:0:0:0:
448,192,7582,1,0,0:0:0:0:
192,192,7957,1,0,0:0:0:0:
320,192,8239,1,0,0:0:0:0:
448,192,8520,1,0,0:0:0:0:
192,192,8707,1,0,0:0:0:0:
64,192,8895,1,0,0:0:0:0:
320,192,9082,1,0,0:0:0:0:
192,192,9270,1,0,0:0:0:0:
448,192,9457,1,0,0:0:0:0:
320,192,9739,1,0,0:0:0:0:
64,192,10020,1,0,0:0:0:0:
320,192,10207,1,0,0:0:0:0:
192,192,10489,1,0,0:0:0:0:
448,192,10770,1,0,0:0:0:0:
64,192,10957,1,0,0:0:0:0:
192,192,11239,1,0,0:0:0:0:
448,192,11520,5,0,0:0:0:0:
64,192,11707,1,0,0:0:0:0:
320,192,11895,1,0,0:0:0:0:
192,192,12082,1,0,0:0:0:0:
448,192,12270,1,0,0:0:0:0:
192,192,12457,1,0,0:0:0:0:
64,192,12457,1,0,0:0:0:0:
64,192,13207,1,0,0:0:0:0:
448,192,13207,1,0,0:0:0:0:
448,192,13957,1,0,0:0:0:0:
320,192,13957,1,0,0:0:0:0:
192,192,14520,1,0,0:0:0:0:
64,192,14520,1,0,0:0:0:0:
320,192,14707,1,0,0:0:0:0:
448,192,14707,1,0,0:0:0:0:
192,192,14895,1,0,0:0:0:0:
64,192,14895,1,0,0:0:0:0:
320,192,15082,1,0,0:0:0:0:
448,192,15082,1,0,0:0:0:0:
64,192,15457,1,0,0:0:0:0:
192,192,15457,1,0,0:0:0:0:
64,192,16207,1,0,0:0:0:0:
448,192,16207,1,0,0:0:0:0:
320,192,16957,1,0,0:0:0:0:
448,192,16957,1,0,0:0:0:0:
192,192,17520,1,0,0:0:0:0:
64,192,17520,1,0,0:0:0:0:
320,192,17707,1,0,0:0:0:0:
448,192,17707,1,0,0:0:0:0:
192,192,17895,1,0,0:0:0:0:
64,192,17895,1,0,0:0:0:0:
320,192,18082,1,0,0:0:0:0:
448,192,18082,1,0,0:0:0:0:
64,192,18457,1,0,0:0:0:0:
192,192,18457,1,0,0:0:0:0:
192,192,19207,1,0,0:0:0:0:
448,192,19207,1,0,0:0:0:0:
320,192,19957,1,0,0:0:0:0:
448,192,19957,1,0,0:0:0:0:
192,192,20707,1,0,0:0:0:0:
64,192,20707,1,0,0:0:0:0:
320,192,20895,1,0,0:0:0:0:
448,192,20895,1,0,0:0:0:0:
192,192,21082,1,0,0:0:0:0:
64,192,21082,1,0,0:0:0:0:
448,192,21270,1,0,0:0:0:0:
320,192,21364,1,0,0:0:0:0:
192,192,21457,1,0,0:0:0:0:
64,192,21457,1,0,0:0:0:0:
448,192,21457,128,0,22957:0:0:0:0:
64,192,22957,1,0,0:0:0:0:
64,192,23332,1,0,0:0:0:0:
64,192,23707,1,0,0:0:0:0:
64,192,24082,1,0,0:0:0:0:
192,192,24270,1,0,0:0:0:0:
320,192,24364,1,0,0:0:0:0:
64,192,24457,1,0,0:0:0:0:
448,192,24457,1,0,0:0:0:0:
192,192,24645,1,0,0:0:0:0:
320,192,24832,1,0,0:0:0:0:
448,192,24832,1,0,0:0:0:0:
64,192,25020,1,0,0:0:0:0:
192,192,25020,1,0,0:0:0:0:
448,192,25207,1,0,0:0:0:0:
320,192,25395,1,0,0:0:0:0:
64,192,25395,1,0,0:0:0:0:
192,192,25582,1,0,0:0:0:0:
448,192,25582,1,0,0:0:0:0:
320,192,25770,1,0,0:0:0:0:
192,192,25957,1,0,0:0:0:0:
64,192,25957,1,0,0:0:0:0:
192,192,26145,1,0,0:0:0:0:
320,192,26145,1,0,0:0:0:0:
64,192,26332,1,0,0:0:0:0:
448,192,26332,1,0,0:0:0:0:
192,192,26520,1,0,0:0:0:0:
320,192,26520,1,0,0:0:0:0:
64,192,26707,1,0,0:0:0:0:
192,192,26895,1,0,0:0:0:0:
448,192,26895,1,0,0:0:0:0:
64,192,27082,1,0,0:0:0:0:
320,192,27082,1,0,0:0:0:0:
192,192,27270,1,0,0:0:0:0:
448,192,27270,1,0,0:0:0:0:
64,192,27457,1,0,0:0:0:0:
192,192,27645,1,0,0:0:0:0:
320,192,27832,1,0,0:0:0:0:
448,192,27832,1,0,0:0:0:0:
192,192,28020,1,0,0:0:0:0:
64,192,28020,1,0,0:0:0:0:
320,192,28207,1,0,0:0:0:0:
448,192,28395,1,0,0:0:0:0:
192,192,28395,1,0,0:0:0:0:
64,192,28582,1,0,0:0:0:0:
320,192,28582,1,0,0:0:0:0:
448,192,28770,1,0,0:0:0:0:
64,192,28957,1,0,0:0:0:0:
320,192,28957,1,0,0:0:0:0:
448,192,29145,128,0,29332:0:0:0:0:
320,192,29332,128,0,29520:0:0:0:0:
192,192,29520,128,0,29707:0:0:0:0:
64,192,29707,128,0,29895:0:0:0:0:
192,192,29895,128,0,30082:0:0:0:0:
320,192,30082,128,0,30270:0:0:0:0:
448,192,30270,128,0,30457:0:0:0:0:
64,192,30457,1,0,0:0:0:0:
192,192,30457,1,0,0:0:0:0:
320,192,30645,1,0,0:0:0:0:
192,192,30832,1,0,0:0:0:0:
448,192,30832,1,0,0:0:0:0:
320,192,31020,1,0,0:0:0:0:
64,192,31020,1,0,0:0:0:0:
448,192,31207,1,0,0:0:0:0:
320,192,31395,1,0,0:0:0:0:
192,192,31395,1,0,0:0:0:0:
64,192,31582,1,0,0:0:0:0:
448,192,31582,1,0,0:0:0:0:
320,192,31770,1,0,0:0:0:0:
64,192,31957,1,0,0:0:0:0:
192,192,31957,1,0,0:0:0:0:
320,192,32145,1,0,0:0:0:0:
192,192,32145,1,0,0:0:0:0:
64,192,32332,1,0,0:0:0:0:
448,192,32332,1,0,0:0:0:0:
192,192,32520,1,0,0:0:0:0:
320,192,32520,1,0,0:0:0:0:
448,192,32707,1,0,0:0:0:0:
192,192,32895,1,0,0:0:0:0:
64,192,32895,1,0,0:0:0:0:
320,192,33082,1,0,0:0:0:0:
448,192,33082,1,0,0:0:0:0:
64,192,33270,1,0,0:0:0:0:
192,192,33457,1,0,0:0:0:0:
448,192,33457,1,0,0:0:0:0:
320,192,33645,1,0,0:0:0:0:
192,192,33832,1,0,0:0:0:0:
64,192,33832,1,0,0:0:0:0:
320,192,34020,1,0,0:0:0:0:
448,192,34020,1,0,0:0:0:0:
64,192,34207,1,0,0:0:0:0:
192,192,34395,1,0,0:0:0:0:
448,192,34395,1,0,0:0:0:0:
320,192,34582,1,0,0:0:0:0:
64,192,34582,1,0,0:0:0:0:
448,192,34770,1,0,0:0:0:0:
192,192,34957,1,0,0:0:0:0:
64,192,34957,1,0,0:0:0:0:
64,192,35145,1,0,0:0:0:0:
192,192,35145,1,0,0:0:0:0:
320,192,35332,1,0,0:0:0:0:
448,192,35332,1,0,0:0:0:0:
320,192,35520,1,0,0:0:0:0:
448,192,35520,1,0,0:0:0:0:
64,192,35707,1,0,0:0:0:0:
320,192,35801,1,0,0:0:0:0:
64,192,35895,1,0,0:0:0:0:
320,192,35989,1,0,0:0:0:0:
192,192,36082,1,0,0:0:0:0:
448,192,36176,1,0,0:0:0:0:
192,192,36270,1,0,0:0:0:0:
448,192,36364,1,0,0:0:0:0:
192,192,36457,1,0,0:0:0:0:
64,192,36457,1,0,0:0:0:0:
320,192,36645,1,0,0:0:0:0:
192,192,36832,1,0,0:0:0:0:
448,192,36832,1,0,0:0:0:0:
320,192,37020,1,0,0:0:0:0:
64,192,37020,1,0,0:0:0:0:
448,192,37207,1,0,0:0:0:0:
192,192,37395,1,0,0:0:0:0:
64,192,37395,1,0,0:0:0:0:
320,192,37582,1,0,0:0:0:0:
448,192,37582,1,0,0:0:0:0:
64,192,37770,1,0,0:0:0:0:
192,192,37957,1,0,0:0:0:0:
448,192,37957,1,0,0:0:0:0:
320,192,38145,1,0,0:0:0:0:
64,192,38332,1,0,0:0:0:0:
192,192,38332,1,0,0:0:0:0:
320,192,38520,1,0,0:0:0:0:
448,192,38520,1,0,0:0:0:0:
64,192,38707,1,0,0:0:0:0:
192,192,38895,1,0,0:0:0:0:
448,192,38895,1,0,0:0:0:0:
320,192,39082,1,0,0:0:0:0:
64,192,39082,1,0,0:0:0:0:
448,192,39270,1,0,0:0:0:0:
320,192,39457,1,0,0:0:0:0:
192,192,39457,1,0,0:0:0:0:
64,192,39645,1,0,0:0:0:0:
192,192,39832,1,0,0:0:0:0:
448,192,39832,1,0,0:0:0:0:
320,192,40020,1,0,0:0:0:0:
64,192,40020,1,0,0:0:0:0:
448,192,40207,1,0,0:0:0:0:
64,192,40395,1,0,0:0:0:0:
192,192,40395,1,0,0:0:0:0:
320,192,40582,1,0,0:0:0:0:
448,192,40582,1,0,0:0:0:0:
64,192,40770,1,0,0:0:0:0:
192,192,40957,1,0,0:0:0:0:
448,192,40957,1,0,0:0:0:0:
448,192,41145,1,0,0:0:0:0:
192,192,41145,1,0,0:0:0:0:
320,192,41332,1,0,0:0:0:0:
64,192,41332,1,0,0:0:0:0:
448,192,41520,1,0,0:0:0:0:
192,192,41520,1,0,0:0:0:0:
320,192,41707,1,0,0:0:0:0:
192,192,41895,1,0,0:0:0:0:
64,192,41895,1,0,0:0:0:0:
320,192,42082,1,0,0:0:0:0:
448,192,42082,1,0,0:0:0:0:
64,192,42270,1,0,0:0:0:0:
192,192,42364,1,0,0:0:0:0:
320,192,42457,1,0,0:0:0:0:
448,192,42457,1,0,0:0:0:0:
64,192,42645,1,0,0:0:0:0:
192,192,42832,1,0,0:0:0:0:
448,192,42832,1,0,0:0:0:0:
320,192,43020,1,0,0:0:0:0:
64,192,43020,1,0,0:0:0:0:
448,192,43207,1,0,0:0:0:0:
320,192,43395,1,0,0:0:0:0:
192,192,43395,1,0,0:0:0:0:
64,192,43582,1,0,0:0:0:0:
448,192,43582,1,0,0:0:0:0:
320,192,43770,1,0,0:0:0:0:
64,192,43957,1,0,0:0:0:0:
192,192,43957,1,0,0:0:0:0:
320,192,44145,1,0,0:0:0:0:
448,192,44332,1,0,0:0:0:0:
192,192,44332,1,0,0:0:0:0:
320,192,44520,1,0,0:0:0:0:
64,192,44520,1,0,0:0:0:0:
448,192,44707,1,0,0:0:0:0:
192,192,44895,1,0,0:0:0:0:
64,192,44895,1,0,0:0:0:0:
320,192,45082,1,0,0:0:0:0:
448,192,45082,1,0,0:0:0:0:
64,192,45270,1,0,0:0:0:0:
192,192,45457,1,0,0:0:0:0:
448,192,45457,1,0,0:0:0:0:
320,192,45645,1,0,0:0:0:0:
192,192,45832,1,0,0:0:0:0:
64,192,45832,1,0,0:0:0:0:
320,192,46020,1,0,0:0:0:0:
448,192,46020,1,0,0:0:0:0:
64,192,46207,1,0,0:0:0:0:
192,192,46395,1,0,0:0:0:0:
448,192,46395,1,0,0:0:0:0:
320,192,46582,1,0,0:0:0:0:
64,192,46582,1,0,0:0:0:0:
448,192,46770,1,0,0:0:0:0:
64,192,46957,1,0,0:0:0:0:
320,192,46957,1,0,0:0:0:0:
64,192,47145,1,0,0:0:0:0:
320,192,47145,1,0,0:0:0:0:
192,192,47332,1,0,0:0:0:0:
448,192,47332,1,0,0:0:0:0:
448,192,47520,1,0,0:0:0:0:
192,192,47520,1,0,0:0:0:0:
64,192,47707,1,0,0:0:0:0:
192,192,47801,1,0,0:0:0:0:
320,192,47895,1,0,0:0:0:0:
448,192,47989,1,0,0:0:0:0:
64,192,48082,1,0,0:0:0:0:
192,192,48176,1,0,0:0:0:0:
320,192,48270,1,0,0:0:0:0:
448,192,48364,1,0,0:0:0:0:
192,192,48457,1,0,0:0:0:0:
64,192,48457,128,0,49957:0:0:0:0:
320,192,48645,1,0,0:0:0:0:
192,192,48832,1,0,0:0:0:0:
448,192,48832,1,0,0:0:0:0:
320,192,49020,1,0,0:0:0:0:
448,192,49207,1,0,0:0:0:0:
192,192,49395,1,0,0:0:0:0:
320,192,49582,1,0,0:0:0:0:
448,192,49582,1,0,0:0:0:0:
192,192,49770,1,0,0:0:0:0:
448,192,49957,128,0,50707:0:0:0:0:
320,192,49957,1,0,0:0:0:0:
192,192,50145,1,0,0:0:0:0:
64,192,50332,1,0,0:0:0:0:
320,192,50332,1,0,0:0:0:0:
192,192,50520,1,0,0:0:0:0:
64,192,50707,128,0,51457:0:0:0:0:
320,192,50707,1,0,0:0:0:0:
192,192,50895,1,0,0:0:0:0:
320,192,51082,1,0,0:0:0:0:
448,192,51082,1,0,0:0:0:0:
192,192,51270,1,0,0:0:0:0:
448,192,51457,128,0,52957:0:0:0:0:
320,192,51457,1,0,0:0:0:0:
192,192,51645,1,0,0:0:0:0:
64,192,51832,1,0,0:0:0:0:
320,192,51832,1,0,0:0:0:0:
192,192,52020,1,0,0:0:0:0:
64,192,52207,1,0,0:0:0:0:
320,192,52395,1,0,0:0:0:0:
192,192,52582,1,0,0:0:0:0:
64,192,52582,1,0,0:0:0:0:
320,192,52770,1,0,0:0:0:0:
192,192,52957,128,0,53707:0:0:0:0:
64,192,52957,1,0,0:0:0:0:
320,192,53145,1,0,0:0:0:0:
64,192,53332,1,0,0:0:0:0:
448,192,53332,1,0,0:0:0:0:
320,192,53520,1,0,0:0:0:0:
448,192,53707,128,0,54457:0:0:0:0:
64,192,53707,1,0,0:0:0:0:
320,192,53895,1,0,0:0:0:0:
192,192,54082,1,0,0:0:0:0:
64,192,54082,1,0,0:0:0:0:
320,192,54270,1,0,0:0:0:0:
64,192,54457,128,0,55957:0:0:0:0:
192,192,54457,1,0,0:0:0:0:
320,192,54645,1,0,0:0:0:0:
192,192,54832,1,0,0:0:0:0:
448,192,54832,1,0,0:0:0:0:
320,192,55020,1,0,0:0:0:0:
448,192,55207,1,0,0:0:0:0:
192,192,55395,1,0,0:0:0:0:
320,192,55582,1,0,0:0:0:0:
448,192,55582,1,0,0:0:0:0:
192,192,55770,1,0,0:0:0:0:
448,192,55957,128,0,56520:0:0:0:0:
320,192,55957,1,0,0:0:0:0:
64,192,56145,1,0,0:0:0:0:
192,192,56332,1,0,0:0:0:0:
64,192,56520,128,0,57082:0:0:0:0:
320,192,56520,1,0,0:0:0:0:
448,192,56707,1,0,0:0:0:0:
192,192,56895,1,0,0:0:0:0:
448,192,57082,128,0,57457:0:0:0:0:
320,192,57082,1,0,0:0:0:0:
192,192,57270,1,0,0:0:0:0:
64,192,57457,128,0,58020:0:0:0:0:
320,192,57457,1,0,0:0:0:0:
192,192,57645,1,0,0:0:0:0:
320,192,57832,1,0,0:0:0:0:
448,192,58020,128,0,58582:0:0:0:0:
192,192,58020,1,0,0:0:0:0:
64,192,58207,1,0,0:0:0:0:
320,192,58395,1,0,0:0:0:0:
64,192,58582,128,0,58957:0:0:0:0:
192,192,58582,1,0,0:0:0:0:
320,192,58770,1,0,0:0:0:0:
448,192,58957,128,0,60270:0:0:0:0:
192,192,58957,1,0,0:0:0:0:
320,192,59145,1,0,0:0:0:0:
192,192,59332,1,0,0:0:0:0:
64,192,59332,1,0,0:0:0:0:
320,192,59520,1,0,0:0:0:0:
64,192,59707,1,0,0:0:0:0:
192,192,59895,1,0,0:0:0:0:
320,192,60082,1,0,0:0:0:0:
64,192,60082,1,0,0:0:0:0:
192,192,60270,1,0,0:0:0:0:
320,192,60364,1,0,0:0:0:0:
64,192,60457,128,0,61957:0:0:0:0:
448,192,60457,1,0,0:0:0:0:
320,192,60645,1,0,0:0:0:0:
192,192,60832,1,0,0:0:0:0:
448,192,60832,1,0,0:0:0:0:
320,192,61020,1,0,0:0:0:0:
448,192,61207,1,0,0:0:0:0:
192,192,61395,1,0,0:0:0:0:
320,192,61582,1,0,0:0:0:0:
448,192,61582,1,0,0:0:0:0:
192,192,61770,1,0,0:0:0:0:
320,192,61957,128,0,62707:0:0:0:0:
448,192,61957,1,0,0:0:0:0:
192,192,62145,1,0,0:0:0:0:
64,192,62332,1,0,0:0:0:0:
448,192,62332,1,0,0:0:0:0:
192,192,62520,1,0,0:0:0:0:
192,192,62707,128,0,63082:0:0:0:0:
64,192,62707,1,0,0:0:0:0:
448,192,62895,1,0,0:0:0:0:
448,192,63082,128,0,63457:0:0:0:0:
64,192,63082,1,0,0:0:0:0:
320,192,63270,1,0,0:0:0:0:
64,192,63457,128,0,64957:0:0:0:0:
192,192,63457,1,0,0:0:0:0:
448,192,63645,1,0,0:0:0:0:
192,192,63832,1,0,0:0:0:0:
320,192,63832,1,0,0:0:0:0:
448,192,64020,1,0,0:0:0:0:
192,192,64207,1,0,0:0:0:0:
320,192,64395,1,0,0:0:0:0:
192,192,64582,1,0,0:0:0:0:
448,192,64582,1,0,0:0:0:0:
320,192,64770,1,0,0:0:0:0:
448,192,64957,128,0,66457:0:0:0:0:
192,192,64957,1,0,0:0:0:0:
320,192,65145,1,0,0:0:0:0:
192,192,65332,1,0,0:0:0:0:
64,192,65332,1,0,0:0:0:0:
320,192,65520,1,0,0:0:0:0:
64,192,65707,1,0,0:0:0:0:
192,192,65895,1,0,0:0:0:0:
320,192,66082,1,0,0:0:0:0:
64,192,66082,1,0,0:0:0:0:
192,192,66270,1,0,0:0:0:0:
320,192,66364,1,0,0:0:0:0:
192,192,66457,1,0,0:0:0:0:
64,192,66457,1,0,0:0:0:0:
320,192,66832,1,0,0:0:0:0:
192,192,66832,1,0,0:0:0:0:
320,192,67207,1,0,0:0:0:0:
448,192,67207,1,0,0:0:0:0:
320,192,67582,1,0,0:0:0:0:
192,192,67582,1,0,0:0:0:0:
64,192,67957,1,0,0:0:0:0:
320,192,67957,1,0,0:0:0:0:
192,192,68332,1,0,0:0:0:0:
448,192,68332,1,0,0:0:0:0:
320,192,68707,1,0,0:0:0:0:
64,192,68707,1,0,0:0:0:0:
192,192,69082,1,0,0:0:0:0:
448,192,69082,1,0,0:0:0:0:
64,192,69457,1,0,0:0:0:0:
192,192,69457,1,0,0:0:0:0:
64,192,69645,1,0,0:0:0:0:
192,192,69645,1,0,0:0:0:0:
320,192,69832,1,0,0:0:0:0:
448,192,69832,1,0,0:0:0:0:
320,192,70020,1,0,0:0:0:0:
448,192,70020,1,0,0:0:0:0:
192,192,70207,1,0,0:0:0:0:
64,192,70207,1,0,0:0:0:0:
64,192,70395,1,0,0:0:0:0:
192,192,70395,1,0,0:0:0:0:
320,192,70582,1,0,0:0:0:0:
448,192,70582,1,0,0:0:0:0:
320,192,70770,1,0,0:0:0:0:
448,192,70770,1,0,0:0:0:0:
64,192,70957,1,0,0:0:0:0:
192,192,70957,1,0,0:0:0:0:
320,192,71145,1,0,0:0:0:0:
448,192,71145,1,0,0:0:0:0:
192,192,71332,1,0,0:0:0:0:
64,192,71332,1,0,0:0:0:0:
448,192,71520,1,0,0:0:0:0:
320,192,71520,1,0,0:0:0:0:
64,192,71707,1,0,0:0:0:0:
192,192,71801,1,0,0:0:0:0:
320,192,71895,1,0,0:0:0:0:
448,192,71989,1,0,0:0:0:0:
64,192,72082,1,0,0:0:0:0:
192,192,72176,1,0,0:0:0:0:
320,192,72270,1,0,0:0:0:0:
448,192,72364,1,0,0:0:0:0:
64,192,72457,1,0,0:0:0:0:
64,192,72645,1,0,0:0:0:0:
64,192,73957,1,0,0:0:0:0:
64,192,74145,1,0,0:0:0:0:
192,192,75457,1,0,0:0:0:0:
192,192,75645,1,0,0:0:0:0:
192,192,76957,1,0,0:0:0:0:
192,192,77145,1,0,0:0:0:0:
320,192,78457,1,0,0:0:0:0:
320,192,78645,1,0,0:0:0:0:
320,192,79957,1,0,0:0:0:0:
320,192,80145,1,0,0:0:0:0:
448,192,81457,1,0,0:0:0:0:
448,192,81645,1,0,0:0:0:0:
448,192,82957,1,0,0:0:0:0:
448,192,83145,1,0,0:0:0:0:
192,192,84457,1,0,0:0:0:0:
64,192,84457,1,0,0:0:0:0:
64,192,85207,1,0,0:0:0:0:
448,192,85207,1,0,0:0:0:0:
448,192,85957,1,0,0:0:0:0:
320,192,85957,1,0,0:0:0:0:
192,192,86520,1,0,0:0:0:0:
64,192,86520,1,0,0:0:0:0:
320,192,86707,1,0,0:0:0:0:
448,192,86707,1,0,0:0:0:0:
192,192,86895,1,0,0:0:0:0:
64,192,86895,1,0,0:0:0:0:
320,192,87082,1,0,0:0:0:0:
448,192,87082,1,0,0:0:0:0:
64,192,87457,1,0,0:0:0:0:
192,192,87457,1,0,0:0:0:0:
64,192,88207,1,0,0:0:0:0:
448,192,88207,1,0,0:0:0:0:
320,192,88957,1,0,0:0:0:0:
448,192,88957,1,0,0:0:0:0:
192,192,89520,1,0,0:0:0:0:
64,192,89520,1,0,0:0:0:0:
320,192,89707,1,0,0:0:0:0:
448,192,89707,1,0,0:0:0:0:
192,192,89895,1,0,0:0:0:0:
64,192,89895,1,0,0:0:0:0:
320,192,90082,1,0,0:0:0:0:
448,192,90082,1,0,0:0:0:0:
64,192,90457,1,0,0:0:0:0:
192,192,90457,1,0,0:0:0:0:
192,192,91207,1,0,0:0:0:0:
448,192,91207,1,0,0:0:0:0:
320,192,91957,1,0,0:0:0:0:
448,192,91957,1,0,0:0:0:0:
192,192,92707,1,0,0:0:0:0:
64,192,92707,1,0,0:0:0:0:
320,192,92895,1,0,0:0:0:0:
448,192,92895,1,0,0:0:0:0:
192,192,93082,1,0,0:0:0:0:
64,192,93082,1,0,0:0:0:0:
448,192,93270,1,0,0:0:0:0:
320,192,93364,1,0,0:0:0:0:
192,192,93457,1,0,0:0:0:0:
64,192,93457,1,0,0:0:0:0:
448,192,94207,1,0,0:0:0:0:
64,192,94207,1,0,0:0:0:0:
64,192,94957,1,0,0:0:0:0:
192,192,94957,1,0,0:0:0:0:
64,192,95332,1,0,0:0:0:0:
192,192,95332,1,0,0:0:0:0:
448,192,95707,1,0,0:0:0:0:
320,192,95707,1,0,0:0:0:0:
320,192,96082,1,0,0:0:0:0:
448,192,96082,1,0,0:0:0:0:
64,192,96270,1,0,0:0:0:0:
192,192,96364,1,0,0:0:0:0:
320,192,96457,1,0,0:0:0:0:
448,192,96457,1,0,0:0:0:0:
64,192,96457,128,0,98707:0:0:0:0:
448,192,98707,1,0,0:0:0:0:
192,192,99082,1,0,0:0:0:0:
64,192,99457,1,0,0:0:0:0:
448,192,99457,1,0,0:0:0:0:
320,192,99645,1,0,0:0:0:0:
192,192,99832,1,0,0:0:0:0:
64,192,99832,1,0,0:0:0:0:
448,192,100020,1,0,0:0:0:0:
320,192,100207,1,0,0:0:0:0:
64,192,100207,1,0,0:0:0:0:
192,192,100395,1,0,0:0:0:0:
320,192,100582,1,0,0:0:0:0:
448,192,100582,1,0,0:0:0:0:
64,192,100770,1,0,0:0:0:0:
192,192,100957,1,0,0:0:0:0:
448,192,100957,1,0,0:0:0:0:
320,192,101145,1,0,0:0:0:0:
192,192,101332,1,0,0:0:0:0:
64,192,101332,1,0,0:0:0:0:
448,192,101520,1,0,0:0:0:0:
320,192,101707,1,0,0:0:0:0:
64,192,101707,1,0,0:0:0:0:
192,192,101895,1,0,0:0:0:0:
320,192,102082,1,0,0:0:0:0:
448,192,102082,1,0,0:0:0:0:
320,192,102270,1,0,0:0:0:0:
192,192,102270,1,0,0:0:0:0:
64,192,102457,1,0,0:0:0:0:
192,192,102457,1,0,0:0:0:0:
448,192,102645,1,0,0:0:0:0:
320,192,102832,1,0,0:0:0:0:
64,192,102832,1,0,0:0:0:0:
192,192,103020,1,0,0:0:0:0:
320,192,103207,1,0,0:0:0:0:
448,192,103207,1,0,0:0:0:0:
64,192,103395,1,0,0:0:0:0:
192,192,103489,1,0,0:0:0:0:
448,192,103582,1,0,0:0:0:0:
320,192,103582,1,0,0:0:0:0:
192,192,103770,1,0,0:0:0:0:
64,192,103957,1,0,0:0:0:0:
320,192,103957,1,0,0:0:0:0:
448,192,104145,1,0,0:0:0:0:
320,192,104239,1,0,0:0:0:0:
64,192,104332,1,0,0:0:0:0:
192,192,104332,1,0,0:0:0:0:
448,192,104520,1,0,0:0:0:0:
64,192,104707,1,0,0:0:0:0:
320,192,104707,1,0,0:0:0:0:
192,192,104895,1,0,0:0:0:0:
320,192,105082,1,0,0:0:0:0:
448,192,105082,1,0,0:0:0:0:
192,192,105270,1,0,0:0:0:0:
320,192,105364,1,0,0:0:0:0:
192,192,105457,1,0,0:0:0:0:
64,192,105457,1,0,0:0:0:0:
448,192,105457,1,0,0:0:0:0:
320,192,105645,1,0,0:0:0:0:
192,192,105832,1,0,0:0:0:0:
64,192,105832,1,0,0:0:0:0:
448,192,106020,1,0,0:0:0:0:
320,192,106207,1,0,0:0:0:0:
64,192,106207,1,0,0:0:0:0:
192,192,106395,1,0,0:0:0:0:
320,192,106489,1,0,0:0:0:0:
192,192,106582,1,0,0:0:0:0:
448,192,106582,1,0,0:0:0:0:
320,192,106770,1,0,0:0:0:0:
64,192,106957,1,0,0:0:0:0:
192,192,106957,1,0,0:0:0:0:
448,192,106957,1,0,0:0:0:0:
320,192,107145,1,0,0:0:0:0:
192,192,107239,1,0,0:0:0:0:
64,192,107332,1,0,0:0:0:0:
320,192,107332,1,0,0:0:0:0:
448,192,107520,1,0,0:0:0:0:
320,192,107707,1,0,0:0:0:0:
64,192,107707,1,0,0:0:0:0:
192,192,107895,1,0,0:0:0:0:
320,192,108082,1,0,0:0:0:0:
448,192,108082,1,0,0:0:0:0:
64,192,108270,1,0,0:0:0:0:
192,192,108364,1,0,0:0:0:0:
64,192,108457,1,0,0:0:0:0:
320,192,108457,1,0,0:0:0:0:
448,192,108457,1,0,0:0:0:0:
192,192,108645,1,0,0:0:0:0:
448,192,108832,1,0,0:0:0:0:
64,192,108832,1,0,0:0:0:0:
320,192,109020,1,0,0:0:0:0:
64,192,109207,1,0,0:0:0:0:
192,192,109207,1,0,0:0:0:0:
448,192,109207,1,0,0:0:0:0:
320,192,109395,1,0,0:0:0:0:
64,192,109582,1,0,0:0:0:0:
448,192,109582,1,0,0:0:0:0:
192,192,109770,1,0,0:0:0:0:
64,192,109957,1,0,0:0:0:0:
320,192,109957,1,0,0:0:0:0:
448,192,109957,1,0,0:0:0:0:
192,192,110145,1,0,0:0:0:0:
320,192,110332,1,0,0:0:0:0:
448,192,110332,1,0,0:0:0:0:
192,192,110520,1,0,0:0:0:0:
448,192,110707,1,0,0:0:0:0:
320,192,110707,1,0,0:0:0:0:
64,192,110707,1,0,0:0:0:0:
192,192,110895,1,0,0:0:0:0:
448,192,111082,1,0,0:0:0:0:
64,192,111082,1,0,0:0:0:0:
192,192,111270,1,0,0:0:0:0:
320,192,111364,1,0,0:0:0:0:
64,192,111457,1,0,0:0:0:0:
192,192,111457,1,0,0:0:0:0:
448,192,111457,1,0,0:0:0:0:
320,192,111645,1,0,0:0:0:0:
192,192,111832,1,0,0:0:0:0:
64,192,111832,1,0,0:0:0:0:
448,192,112020,1,0,0:0:0:0:
320,192,112207,1,0,0:0:0:0:
64,192,112207,1,0,0:0:0:0:
192,192,112395,1,0,0:0:0:0:
320,192,112582,1,0,0:0:0:0:
448,192,112582,1,0,0:0:0:0:
192,192,112770,1,0,0:0:0:0:
448,192,112957,1,0,0:0:0:0:
320,192,112957,1,0,0:0:0:0:
64,192,112957,1,0,0:0:0:0:
192,192,113145,1,0,0:0:0:0:
448,192,113332,1,0,0:0:0:0:
320,192,113332,1,0,0:0:0:0:
192,192,113520,1,0,0:0:0:0:
448,192,113707,1,0,0:0:0:0:
64,192,113707,1,0,0:0:0:0:
320,192,113707,1,0,0:0:0:0:
192,192,113895,1,0,0:0:0:0:
448,192,114082,1,0,0:0:0:0:
320,192,114082,1,0,0:0:0:0:
192,192,114270,1,0,0:0:0:0:
64,192,114457,1,0,0:0:0:0:
448,192,114457,128,0,114832:0:0:0:0:
320,192,114457,1,0,0:0:0:0:
64,192,114832,1,0,0:0:0:0:
192,192,114926,1,0,0:0:0:0:
320,192,115020,1,0,0:0:0:0:
448,192,115114,1,0,0:0:0:0:
192,192,115207,1,0,0:0:0:0:
64,192,115207,1,0,0:0:0:0:
192,192,115489,1,0,0:0:0:0:
320,192,115489,1,0,0:0:0:0:
320,192,115770,1,0,0:0:0:0:
448,192,115770,1,0,0:0:0:0:
192,192,115957,1,0,0:0:0:0:
64,192,115957,1,0,0:0:0:0:
320,192,116239,1,0,0:0:0:0:
192,192,116239,1,0,0:0:0:0:
320,192,116520,1,0,0:0:0:0:
448,192,116520,1,0,0:0:0:0:
64,192,116707,1,0,0:0:0:0:
192,192,116707,1,0,0:0:0:0:
320,192,116989,1,0,0:0:0:0:
448,192,116989,1,0,0:0:0:0:
192,192,117270,1,0,0:0:0:0:
320,192,117364,1,0,0:0:0:0:
64,192,117457,1,0,0:0:0:0:
192,192,117457,1,0,0:0:0:0:
448,192,117457,1,0,0:0:0:0:
320,192,117645,1,0,0:0:0:0:
192,192,117832,1,0,0:0:0:0:
64,192,117832,1,0,0:0:0:0:
448,192,118020,1,0,0:0:0:0:
320,192,118207,1,0,0:0:0:0:
64,192,118207,1,0,0:0:0:0:
192,192,118395,1,0,0:0:0:0:
320,192,118582,1,0,0:0:0:0:
448,192,118582,1,0,0:0:0:0:
192,192,118770,1,0,0:0:0:0:
448,192,118957,1,0,0:0:0:0:
64,192,118957,1,0,0:0:0:0:
320,192,118957,1,0,0:0:0:0:
192,192,119145,1,0,0:0:0:0:
64,192,119332,1,0,0:0:0:0:
448,192,119332,1,0,0:0:0:0:
320,192,119520,1,0,0:0:0:0:
192,192,119707,1,0,0:0:0:0:
448,192,119707,1,0,0:0:0:0:
320,192,119895,1,0,0:0:0:0:
64,192,120082,1,0,0:0:0:0:
192,192,120082,1,0,0:0:0:0:
448,192,120270,1,0,0:0:0:0:
64,192,120457,1,0,0:0:0:0:
320,192,120457,1,0,0:0:0:0:
64,192,120645,1,0,0:0:0:0:
320,192,120645,1,0,0:0:0:0:
192,192,120832,1,0,0:0:0:0:
448,192,120832,1,0,0:0:0:0:
192,192,121020,1,0,0:0:0:0:
448,192,121020,1,0,0:0:0:0:
320,192,121207,1,0,0:0:0:0:
64,192,121207,1,0,0:0:0:0:
320,192,121395,1,0,0:0:0:0:
64,192,121395,1,0,0:0:0:0:
192,192,121582,1,0,0:0:0:0:
448,192,121582,1,0,0:0:0:0:
192,192,121770,1,0,0:0:0:0:
448,192,121770,1,0,0:0:0:0:
64,192,121957,1,0,0:0:0:0:
192,192,122051,1,0,0:0:0:0:
320,192,122145,1,0,0:0:0:0:
448,192,122239,1,0,0:0:0:0:
64,192,122332,5,0,0:0:0:0:
192,192,122426,1,0,0:0:0:0:
320,192,122520,1,0,0:0:0:0:
448,192,122614,1,0,0:0:0:0:
192,192,122707,1,0,0:0:0:0:
64,192,122801,1,0,0:0:0:0:
320,192,122895,1,0,0:0:0:0:
192,192,122989,1,0,0:0:0:0:
448,192,123082,1,0,0:0:0:0:
320,192,123176,1,0,0:0:0:0:
64,192,123270,1,0,0:0:0:0:
192,192,123364,1,0,0:0:0:0:
448,192,123457,1,0,0:0:0:0:
320,192,123457,1,0,0:0:0:0:
64,192,123457,1,0,0:0:0:0:
320,192,123739,1,0,0:0:0:0:
192,192,124020,1,0,0:0:0:0:
64,192,124582,1,0,0:0:0:0:
192,192,124770,1,0,0:0:0:0:
448,192,124957,1,0,0:0:0:0:
320,192,125239,1,0,0:0:0:0:
192,192,125520,1,0,0:0:0:0:
64,192,126082,1,0,0:0:0:0:
192,192,126270,1,0,0:0:0:0:
448,192,126457,1,0,0:0:0:0:
320,192,126739,1,0,0:0:0:0:
192,192,127020,1,0,0:0:0:0:
64,192,127582,1,0,0:0:0:0:
192,192,127770,1,0,0:0:0:0:
448,192,127957,1,0,0:0:0:0:
320,192,128239,1,0,0:0:0:0:
192,192,128520,1,0,0:0:0:0:
448,192,128707,1,0,0:0:0:0:
320,192,128895,1,0,0:0:0:0:
64,192,129082,1,0,0:0:0:0:
192,192,129270,1,0,0:0:0:0:
448,192,129457,1,0,0:0:0:0:
320,192,129739,1,0,0:0:0:0:
64,192,130020,1,0,0:0:0:0:
448,192,130582,1,0,0:0:0:0:
192,192,130957,1,0,0:0:0:0:
320,192,131239,1,0,0:0:0:0:
448,192,131520,1,0,0:0:0:0:
192,192,131707,1,0,0:0:0:0:
64,192,131895,1,0,0:0:0:0:
320,192,132082,1,0,0:0:0:0:
192,192,132270,1,0,0:0:0:0:
448,192,132457,1,0,0:0:0:0:
320,192,132739,1,0,0:0:0:0:
64,192,133020,1,0,0:0:0:0:
320,192,133207,1,0,0:0:0:0:
192,192,133489,1,0,0:0:0:0:
448,192,133770,1,0,0:0:0:0:
64,192,133957,1,0,0:0:0:0:
192,192,134239,1,0,0:0:0:0:
448,192,134520,5,0,0:0:0:0:
64,192,134707,1,0,0:0:0:0:
320,192,134895,1,0,0:0:0:0:
192,192,135082,1,0,0:0:0:0:
320,192,135270,1,0,0:0:0:0:
64,192,135457,5,0,0:0:0:0:
448,192,135457,1,0,0:0:0:0:
320,192,135739,1,0,0:0:0:0:
192,192,136020,1,0,0:0:0:0:
64,192,136582,1,0,0:0:0:0:
192,192,136770,1,0,0:0:0:0:
448,192,136957,1,0,0:0:0:0:
320,192,137239,1,0,0:0:0:0:
192,192,137520,1,0,0:0:0:0:
64,192,138082,1,0,0:0:0:0:
192,192,138270,1,0,0:0:0:0:
448,192,138457,1,0,0:0:0:0:
320,192,138739,1,0,0:0:0:0:
192,192,139020,1,0,0:0:0:0:
64,192,139582,1,0,0:0:0:0:
192,192,139770,1,0,0:0:0:0:
448,192,139957,1,0,0:0:0:0:
320,192,140239,1,0,0:0:0:0:
192,192,140520,1,0,0:0:0:0:
448,192,140707,1,0,0:0:0:0:
320,192,140895,1,0,0:0:0:0:
64,192,141082,1,0,0:0:0:0:
192,192,141270,1,0,0:0:0:0:
448,192,141457,1,0,0:0:0:0:
320,192,141739,1,0,0:0:0:0:
64,192,142020,1,0,0:0:0:0:
448,192,142582,1,0,0:0:0:0:
192,192,142957,1,0,0:0:0:0:
320,192,143239,1,0,0:0:0:0:
448,192,143520,1,0,0:0:0:0:
192,192,143707,1,0,0:0:0:0:
64,192,143895,1,0,0:0:0:0:
320,192,144082,1,0,0:0:0:0:
192,192,144270,1,0,0:0:0:0:
448,192,144457,1,0,0:0:0:0:
64,192,144457,128,0,147270:0:0:0:0:
320,192,144739,1,0,0:0:0:0:
192,192,145020,1,0,0:0:0:0:
448,192,145207,1,0,0:0:0:0:
320,192,145489,1,0,0:0:0:0:
192,192,145770,1,0,0:0:0:0:
448,192,145957,1,0,0:0:0:0:
320,192,146239,1,0,0:0:0:0:
192,192,146520,1,0,0:0:0:0:
448,192,146707,1,0,0:0:0:0:
320,192,146989,1,0,0:0:0:0:
192,192,147270,1,0,0:0:0:0:
