osu file format v14

[General]
AudioFilename: audio.mp3
AudioLeadIn: 0
PreviewTime: 98965
Countdown: 0
SampleSet: Soft
StackLeniency: 0.7
Mode: 3
LetterboxInBreaks: 0
SpecialStyle: 0
WidescreenStoryboard: 1

[Editor]
DistanceSpacing: 1
BeatDivisor: 4
GridSize: 32
TimelineZoom: 1.599999

[Metadata]
Title:Infinity Heaven
TitleUnicode:Infinity Heaven
Artist:HyuN
ArtistUnicode:HyuN
Creator:Carpihat
Version:Hikari's Hard
Source:BOFU2016 -Legendary Again-
Tags:Arcaea BMS OF FIGHTERS ULTIMATE Never Ending Story KRUX hyunesis hyun_inofixion Electronic Trance Instrumental Piano Bracket Chordstream _Yiiiii _Hikari TakJun mappers' guild MG featured artist FA
BeatmapID:4244854
BeatmapSetID:2028108

[Difficulty]
HPDrainRate:8
CircleSize:7
OverallDifficulty:8
ApproachRate:5
SliderMultiplier:1.4
SliderTickRate:1

[Events]
//Background and Video events
0,0,"1.jpg",0,0
//Break Periods
//Storyboard Layer 0 (Background)
//Storyboard Layer 1 (Fail)
//Storyboard Layer 2 (Pass)
//Storyboard Layer 3 (Foreground)
//Storyboard Layer 4 (Overlay)
//Storyboard Sound Samples

[TimingPoints]
730,375,4,2,1,25,1,0
99730,-100,4,2,1,25,0,1
123730,-100,4,2,1,25,0,0

[HitObjects]
36,192,730,5,0,0:0:0:0:
402,192,730,1,0,0:0:0:0:
475,192,730,1,0,0:0:0:0:
256,192,1011,1,0,0:0:0:0:
109,192,1292,1,0,0:0:0:0:
36,192,1855,1,0,0:0:0:0:
182,192,2042,1,0,0:0:0:0:
402,192,2230,1,0,0:0:0:0:
256,192,2511,1,0,0:0:0:0:
109,192,2792,1,0,0:0:0:0:
36,192,3355,1,0,0:0:0:0:
182,192,3542,1,0,0:0:0:0:
402,192,3730,1,0,0:0:0:0:
256,192,4011,1,0,0:0:0:0:
109,192,4292,1,0,0:0:0:0:
36,192,4855,1,0,0:0:0:0:
182,192,5042,1,0,0:0:0:0:
475,192,5230,1,0,0:0:0:0:
329,192,5511,1,0,0:0:0:0:
182,192,5792,1,0,0:0:0:0:
329,192,5980,1,0,0:0:0:0:
256,192,6167,1,0,0:0:0:0:
182,192,6355,1,0,0:0:0:0:
109,192,6542,1,0,0:0:0:0:
36,192,6730,1,0,0:0:0:0:
182,192,7011,1,0,0:0:0:0:
329,192,7292,1,0,0:0:0:0:
402,192,7855,1,0,0:0:0:0:
256,192,8230,1,0,0:0:0:0:
329,192,8511,1,0,0:0:0:0:
475,192,8792,1,0,0:0:0:0:
329,192,8980,1,0,0:0:0:0:
182,192,9167,1,0,0:0:0:0:
36,192,9355,1,0,0:0:0:0:
256,192,9542,1,0,0:0:0:0:
475,192,9730,1,0,0:0:0:0:
402,192,10011,1,0,0:0:0:0:
329,192,10292,1,0,0:0:0:0:
182,192,10480,1,0,0:0:0:0:
36,192,10761,1,0,0:0:0:0:
182,192,11042,1,0,0:0:0:0:
402,192,11230,1,0,0:0:0:0:
256,192,11511,1,0,0:0:0:0:
402,192,11792,1,0,0:0:0:0:
475,192,11980,1,0,0:0:0:0:
329,192,12167,1,0,0:0:0:0:
182,192,12355,1,0,0:0:0:0:
36,192,12542,1,0,0:0:0:0:
256,192,12730,1,0,0:0:0:0:
475,192,12730,1,0,0:0:0:0:
329,192,12730,1,0,0:0:0:0:
109,192,12917,1,0,0:0:0:0:
329,192,13105,1,0,0:0:0:0:
36,192,13292,1,0,0:0:0:0:
256,192,13480,1,0,0:0:0:0:
475,192,13480,1,0,0:0:0:0:
402,192,13480,1,0,0:0:0:0:
109,192,13667,1,0,0:0:0:0:
329,192,13855,1,0,0:0:0:0:
182,192,14042,1,0,0:0:0:0:
36,192,14230,1,0,0:0:0:0:
256,192,14230,1,0,0:0:0:0:
402,192,14417,1,0,0:0:0:0:
182,192,14605,1,0,0:0:0:0:
329,192,14792,1,0,0:0:0:0:
475,192,14792,1,0,0:0:0:0:
256,192,14980,1,0,0:0:0:0:
36,192,14980,1,0,0:0:0:0:
109,192,14980,1,0,0:0:0:0:
402,192,15167,1,0,0:0:0:0:
475,192,15167,1,0,0:0:0:0:
36,192,15355,1,0,0:0:0:0:
109,192,15355,1,0,0:0:0:0:
256,192,15355,1,0,0:0:0:0:
329,192,15542,1,0,0:0:0:0:
402,192,15730,1,0,0:0:0:0:
182,192,15730,1,0,0:0:0:0:
109,192,15917,1,0,0:0:0:0:
256,192,16105,1,0,0:0:0:0:
36,192,16292,1,0,0:0:0:0:
182,192,16480,1,0,0:0:0:0:
329,192,16480,1,0,0:0:0:0:
475,192,16480,1,0,0:0:0:0:
36,192,16667,1,0,0:0:0:0:
256,192,16855,1,0,0:0:0:0:
109,192,17042,1,0,0:0:0:0:
475,192,17230,1,0,0:0:0:0:
402,192,17230,1,0,0:0:0:0:
182,192,17417,1,0,0:0:0:0:
329,192,17605,1,0,0:0:0:0:
36,192,17792,1,0,0:0:0:0:
182,192,17792,1,0,0:0:0:0:
402,192,17980,1,0,0:0:0:0:
475,192,17980,1,0,0:0:0:0:
256,192,17980,1,0,0:0:0:0:
182,192,18167,1,0,0:0:0:0:
36,192,18167,1,0,0:0:0:0:
402,192,18355,1,0,0:0:0:0:
475,192,18355,1,0,0:0:0:0:
256,192,18355,1,0,0:0:0:0:
182,192,18542,1,0,0:0:0:0:
329,192,18730,1,0,0:0:0:0:
109,192,18730,1,0,0:0:0:0:
475,192,18917,1,0,0:0:0:0:
256,192,19105,1,0,0:0:0:0:
475,192,19292,1,0,0:0:0:0:
36,192,19480,1,0,0:0:0:0:
182,192,19480,1,0,0:0:0:0:
329,192,19480,1,0,0:0:0:0:
256,192,19667,1,0,0:0:0:0:
109,192,19855,1,0,0:0:0:0:
329,192,20042,1,0,0:0:0:0:
36,192,20230,1,0,0:0:0:0:
182,192,20230,1,0,0:0:0:0:
329,192,20417,1,0,0:0:0:0:
256,192,20605,1,0,0:0:0:0:
402,192,20792,1,0,0:0:0:0:
475,192,20980,1,0,0:0:0:0:
256,192,20980,1,0,0:0:0:0:
329,192,21167,1,0,0:0:0:0:
109,192,21167,1,0,0:0:0:0:
36,192,21355,1,0,0:0:0:0:
256,192,21355,1,0,0:0:0:0:
109,192,21542,1,0,0:0:0:0:
329,192,21542,1,0,0:0:0:0:
182,192,21636,1,0,0:0:0:0:
402,192,21636,1,0,0:0:0:0:
475,192,21730,1,0,0:0:0:0:
256,192,21730,1,0,0:0:0:0:
36,192,21730,128,0,23230:0:0:0:0:
402,192,22011,1,0,0:0:0:0:
329,192,22292,1,0,0:0:0:0:
256,192,22480,1,0,0:0:0:0:
109,192,22761,1,0,0:0:0:0:
182,192,23042,1,0,0:0:0:0:
329,192,23230,1,0,0:0:0:0:
475,192,23230,1,0,0:0:0:0:
182,192,23605,1,0,0:0:0:0:
36,192,23605,1,0,0:0:0:0:
329,192,23980,1,0,0:0:0:0:
475,192,23980,1,0,0:0:0:0:
182,192,24355,1,0,0:0:0:0:
36,192,24355,1,0,0:0:0:0:
329,192,24542,1,0,0:0:0:0:
402,192,24542,1,0,0:0:0:0:
182,192,24636,1,0,0:0:0:0:
109,192,24636,1,0,0:0:0:0:
36,192,24730,1,0,0:0:0:0:
256,192,24730,1,0,0:0:0:0:
475,192,24730,1,0,0:0:0:0:
402,192,24917,1,0,0:0:0:0:
182,192,25105,1,0,0:0:0:0:
329,192,25105,1,0,0:0:0:0:
109,192,25105,1,0,0:0:0:0:
475,192,25292,1,0,0:0:0:0:
402,192,25292,1,0,0:0:0:0:
36,192,25480,1,0,0:0:0:0:
109,192,25667,1,0,0:0:0:0:
182,192,25855,1,0,0:0:0:0:
329,192,25855,1,0,0:0:0:0:
402,192,25855,1,0,0:0:0:0:
109,192,26042,1,0,0:0:0:0:
36,192,26042,1,0,0:0:0:0:
329,192,26230,1,0,0:0:0:0:
256,192,26230,1,0,0:0:0:0:
475,192,26417,1,0,0:0:0:0:
402,192,26417,1,0,0:0:0:0:
256,192,26605,1,0,0:0:0:0:
182,192,26605,1,0,0:0:0:0:
36,192,26605,1,0,0:0:0:0:
329,192,26792,1,0,0:0:0:0:
402,192,26792,1,0,0:0:0:0:
109,192,26980,1,0,0:0:0:0:
329,192,27167,1,0,0:0:0:0:
402,192,27167,1,0,0:0:0:0:
109,192,27355,1,0,0:0:0:0:
256,192,27355,1,0,0:0:0:0:
36,192,27355,1,0,0:0:0:0:
402,192,27542,1,0,0:0:0:0:
475,192,27542,1,0,0:0:0:0:
182,192,27730,1,0,0:0:0:0:
36,192,27730,1,0,0:0:0:0:
256,192,27917,1,0,0:0:0:0:
475,192,28105,1,0,0:0:0:0:
329,192,28105,1,0,0:0:0:0:
109,192,28105,1,0,0:0:0:0:
36,192,28292,1,0,0:0:0:0:
256,192,28292,1,0,0:0:0:0:
402,192,28480,1,0,0:0:0:0:
329,192,28667,1,0,0:0:0:0:
109,192,28667,1,0,0:0:0:0:
475,192,28855,1,0,0:0:0:0:
402,192,28855,1,0,0:0:0:0:
182,192,28855,1,0,0:0:0:0:
36,192,29042,1,0,0:0:0:0:
329,192,29042,1,0,0:0:0:0:
109,192,29230,1,0,0:0:0:0:
256,192,29230,1,0,0:0:0:0:
475,192,29417,128,0,29605:0:0:0:0:
329,192,29417,1,0,0:0:0:0:
36,192,29605,1,0,0:0:0:0:
182,192,29605,128,0,29792:0:0:0:0:
109,192,29605,1,0,0:0:0:0:
402,192,29792,128,0,29980:0:0:0:0:
256,192,29792,1,0,0:0:0:0:
109,192,29980,128,0,30167:0:0:0:0:
329,192,30167,128,0,30355:0:0:0:0:
182,192,30167,1,0,0:0:0:0:
36,192,30355,128,0,30542:0:0:0:0:
475,192,30355,1,0,0:0:0:0:
256,192,30355,1,0,0:0:0:0:
402,192,30542,1,0,0:0:0:0:
329,192,30542,1,0,0:0:0:0:
182,192,30636,1,0,0:0:0:0:
109,192,30636,1,0,0:0:0:0:
256,192,30730,1,0,0:0:0:0:
475,192,30730,1,0,0:0:0:0:
36,192,30917,1,0,0:0:0:0:
402,192,31105,1,0,0:0:0:0:
109,192,31105,1,0,0:0:0:0:
256,192,31105,1,0,0:0:0:0:
182,192,31292,1,0,0:0:0:0:
402,192,31292,1,0,0:0:0:0:
36,192,31480,1,0,0:0:0:0:
475,192,31667,1,0,0:0:0:0:
329,192,31667,1,0,0:0:0:0:
109,192,31855,1,0,0:0:0:0:
256,192,31855,1,0,0:0:0:0:
402,192,31855,1,0,0:0:0:0:
36,192,32042,1,0,0:0:0:0:
256,192,32042,1,0,0:0:0:0:
329,192,32230,1,0,0:0:0:0:
475,192,32230,1,0,0:0:0:0:
36,192,32417,1,0,0:0:0:0:
182,192,32417,1,0,0:0:0:0:
402,192,32605,1,0,0:0:0:0:
256,192,32605,1,0,0:0:0:0:
475,192,32605,1,0,0:0:0:0:
109,192,32792,1,0,0:0:0:0:
329,192,32792,1,0,0:0:0:0:
475,192,32980,1,0,0:0:0:0:
36,192,33167,1,0,0:0:0:0:
182,192,33167,1,0,0:0:0:0:
109,192,33355,1,0,0:0:0:0:
256,192,33355,1,0,0:0:0:0:
402,192,33355,1,0,0:0:0:0:
256,192,33542,1,0,0:0:0:0:
475,192,33542,1,0,0:0:0:0:
36,192,33730,1,0,0:0:0:0:
182,192,33730,1,0,0:0:0:0:
329,192,33917,1,0,0:0:0:0:
109,192,34105,1,0,0:0:0:0:
402,192,34105,1,0,0:0:0:0:
256,192,34105,1,0,0:0:0:0:
182,192,34292,1,0,0:0:0:0:
402,192,34292,1,0,0:0:0:0:
36,192,34480,1,0,0:0:0:0:
329,192,34667,1,0,0:0:0:0:
475,192,34667,1,0,0:0:0:0:
402,192,34855,1,0,0:0:0:0:
256,192,34855,1,0,0:0:0:0:
36,192,34855,1,0,0:0:0:0:
256,192,35042,1,0,0:0:0:0:
109,192,35042,1,0,0:0:0:0:
329,192,35230,1,0,0:0:0:0:
475,192,35230,1,0,0:0:0:0:
36,192,35230,1,0,0:0:0:0:
402,192,35417,1,0,0:0:0:0:
182,192,35417,1,0,0:0:0:0:
109,192,35605,1,0,0:0:0:0:
329,192,35605,1,0,0:0:0:0:
256,192,35792,1,0,0:0:0:0:
36,192,35792,1,0,0:0:0:0:
475,192,35980,1,0,0:0:0:0:
329,192,35980,1,0,0:0:0:0:
109,192,36073,1,0,0:0:0:0:
256,192,36167,1,0,0:0:0:0:
402,192,36261,1,0,0:0:0:0:
182,192,36355,1,0,0:0:0:0:
36,192,36355,1,0,0:0:0:0:
329,192,36448,1,0,0:0:0:0:
109,192,36542,1,0,0:0:0:0:
256,192,36636,1,0,0:0:0:0:
475,192,36730,1,0,0:0:0:0:
36,192,36730,1,0,0:0:0:0:
402,192,36730,1,0,0:0:0:0:
256,192,36917,1,0,0:0:0:0:
402,192,37011,1,0,0:0:0:0:
329,192,37105,1,0,0:0:0:0:
182,192,37105,1,0,0:0:0:0:
36,192,37105,1,0,0:0:0:0:
109,192,37292,1,0,0:0:0:0:
256,192,37292,1,0,0:0:0:0:
402,192,37480,1,0,0:0:0:0:
256,192,37667,1,0,0:0:0:0:
36,192,37855,1,0,0:0:0:0:
329,192,37855,1,0,0:0:0:0:
182,192,37855,1,0,0:0:0:0:
402,192,38042,1,0,0:0:0:0:
109,192,38042,1,0,0:0:0:0:
475,192,38230,1,0,0:0:0:0:
182,192,38230,1,0,0:0:0:0:
402,192,38417,1,0,0:0:0:0:
256,192,38417,1,0,0:0:0:0:
109,192,38511,1,0,0:0:0:0:
329,192,38605,1,0,0:0:0:0:
475,192,38605,1,0,0:0:0:0:
182,192,38605,1,0,0:0:0:0:
402,192,38792,1,0,0:0:0:0:
256,192,38792,1,0,0:0:0:0:
36,192,38980,1,0,0:0:0:0:
329,192,39167,1,0,0:0:0:0:
109,192,39167,1,0,0:0:0:0:
475,192,39355,1,0,0:0:0:0:
256,192,39355,1,0,0:0:0:0:
182,192,39355,1,0,0:0:0:0:
402,192,39542,1,0,0:0:0:0:
109,192,39542,1,0,0:0:0:0:
329,192,39730,1,0,0:0:0:0:
36,192,39730,1,0,0:0:0:0:
475,192,39917,1,0,0:0:0:0:
256,192,40011,1,0,0:0:0:0:
402,192,40105,1,0,0:0:0:0:
109,192,40105,1,0,0:0:0:0:
36,192,40105,1,0,0:0:0:0:
182,192,40292,1,0,0:0:0:0:
475,192,40292,1,0,0:0:0:0:
36,192,40480,1,0,0:0:0:0:
402,192,40667,1,0,0:0:0:0:
256,192,40667,1,0,0:0:0:0:
36,192,40855,1,0,0:0:0:0:
329,192,40855,1,0,0:0:0:0:
109,192,40855,1,0,0:0:0:0:
182,192,41042,1,0,0:0:0:0:
402,192,41042,1,0,0:0:0:0:
475,192,41230,1,0,0:0:0:0:
256,192,41230,1,0,0:0:0:0:
36,192,41417,1,0,0:0:0:0:
329,192,41417,1,0,0:0:0:0:
256,192,41511,1,0,0:0:0:0:
475,192,41605,1,0,0:0:0:0:
109,192,41605,1,0,0:0:0:0:
402,192,41605,1,0,0:0:0:0:
329,192,41792,1,0,0:0:0:0:
182,192,41980,1,0,0:0:0:0:
402,192,42167,1,0,0:0:0:0:
36,192,42167,1,0,0:0:0:0:
256,192,42355,1,0,0:0:0:0:
475,192,42355,1,0,0:0:0:0:
182,192,42355,1,0,0:0:0:0:
36,192,42542,1,0,0:0:0:0:
329,192,42542,1,0,0:0:0:0:
402,192,42636,1,0,0:0:0:0:
109,192,42636,1,0,0:0:0:0:
182,192,42730,1,0,0:0:0:0:
475,192,42730,1,0,0:0:0:0:
329,192,42917,1,0,0:0:0:0:
182,192,43011,1,0,0:0:0:0:
109,192,43105,1,0,0:0:0:0:
256,192,43105,1,0,0:0:0:0:
402,192,43105,1,0,0:0:0:0:
36,192,43292,1,0,0:0:0:0:
329,192,43292,1,0,0:0:0:0:
475,192,43480,1,0,0:0:0:0:
402,192,43667,1,0,0:0:0:0:
256,192,43667,1,0,0:0:0:0:
36,192,43855,1,0,0:0:0:0:
329,192,43855,1,0,0:0:0:0:
182,192,43855,1,0,0:0:0:0:
109,192,44042,1,0,0:0:0:0:
402,192,44042,1,0,0:0:0:0:
182,192,44230,1,0,0:0:0:0:
475,192,44230,1,0,0:0:0:0:
329,192,44417,1,0,0:0:0:0:
36,192,44417,1,0,0:0:0:0:
182,192,44511,1,0,0:0:0:0:
256,192,44605,1,0,0:0:0:0:
402,192,44605,1,0,0:0:0:0:
109,192,44605,1,0,0:0:0:0:
475,192,44792,1,0,0:0:0:0:
182,192,44792,1,0,0:0:0:0:
36,192,44980,1,0,0:0:0:0:
402,192,45167,1,0,0:0:0:0:
109,192,45167,1,0,0:0:0:0:
182,192,45355,1,0,0:0:0:0:
329,192,45355,1,0,0:0:0:0:
475,192,45355,1,0,0:0:0:0:
109,192,45542,1,0,0:0:0:0:
402,192,45542,1,0,0:0:0:0:
329,192,45730,1,0,0:0:0:0:
36,192,45730,1,0,0:0:0:0:
256,192,45917,1,0,0:0:0:0:
182,192,46011,1,0,0:0:0:0:
109,192,46105,1,0,0:0:0:0:
402,192,46105,1,0,0:0:0:0:
475,192,46105,1,0,0:0:0:0:
329,192,46292,1,0,0:0:0:0:
36,192,46292,1,0,0:0:0:0:
256,192,46480,1,0,0:0:0:0:
36,192,46667,1,0,0:0:0:0:
329,192,46667,1,0,0:0:0:0:
109,192,46855,1,0,0:0:0:0:
182,192,46855,1,0,0:0:0:0:
475,192,46855,1,0,0:0:0:0:
36,192,47042,1,0,0:0:0:0:
329,192,47042,1,0,0:0:0:0:
256,192,47230,1,0,0:0:0:0:
475,192,47230,1,0,0:0:0:0:
402,192,47230,1,0,0:0:0:0:
329,192,47417,1,0,0:0:0:0:
182,192,47417,1,0,0:0:0:0:
475,192,47511,1,0,0:0:0:0:
256,192,47605,1,0,0:0:0:0:
109,192,47605,1,0,0:0:0:0:
36,192,47792,1,0,0:0:0:0:
182,192,47792,1,0,0:0:0:0:
329,192,47980,1,0,0:0:0:0:
475,192,47980,1,0,0:0:0:0:
109,192,48073,1,0,0:0:0:0:
256,192,48167,1,0,0:0:0:0:
402,192,48261,1,0,0:0:0:0:
182,192,48355,1,0,0:0:0:0:
36,192,48355,1,0,0:0:0:0:
329,192,48448,1,0,0:0:0:0:
109,192,48542,1,0,0:0:0:0:
475,192,48542,1,0,0:0:0:0:
182,192,48636,1,0,0:0:0:0:
256,192,48730,1,0,0:0:0:0:
329,192,48730,128,0,50230:0:0:0:0:
402,192,48730,1,0,0:0:0:0:
182,192,48917,1,0,0:0:0:0:
109,192,49011,1,0,0:0:0:0:
36,192,49105,1,0,0:0:0:0:
475,192,49105,1,0,0:0:0:0:
256,192,49105,1,0,0:0:0:0:
182,192,49292,1,0,0:0:0:0:
36,192,49480,1,0,0:0:0:0:
402,192,49480,1,0,0:0:0:0:
182,192,49667,1,0,0:0:0:0:
109,192,49855,1,0,0:0:0:0:
475,192,49855,1,0,0:0:0:0:
36,192,49855,1,0,0:0:0:0:
256,192,50042,1,0,0:0:0:0:
182,192,50230,128,0,50980:0:0:0:0:
36,192,50230,1,0,0:0:0:0:
475,192,50230,1,0,0:0:0:0:
329,192,50417,1,0,0:0:0:0:
402,192,50511,1,0,0:0:0:0:
475,192,50605,1,0,0:0:0:0:
256,192,50605,1,0,0:0:0:0:
36,192,50605,1,0,0:0:0:0:
402,192,50792,1,0,0:0:0:0:
329,192,50980,128,0,51730:0:0:0:0:
109,192,50980,1,0,0:0:0:0:
475,192,50980,1,0,0:0:0:0:
256,192,51167,1,0,0:0:0:0:
36,192,51355,1,0,0:0:0:0:
182,192,51355,1,0,0:0:0:0:
402,192,51355,1,0,0:0:0:0:
109,192,51542,1,0,0:0:0:0:
256,192,51542,1,0,0:0:0:0:
475,192,51730,128,0,53230:0:0:0:0:
36,192,51730,1,0,0:0:0:0:
182,192,51730,1,0,0:0:0:0:
402,192,51917,1,0,0:0:0:0:
329,192,52011,1,0,0:0:0:0:
256,192,52105,1,0,0:0:0:0:
109,192,52105,1,0,0:0:0:0:
36,192,52105,1,0,0:0:0:0:
329,192,52292,1,0,0:0:0:0:
109,192,52480,1,0,0:0:0:0:
256,192,52480,1,0,0:0:0:0:
36,192,52667,1,0,0:0:0:0:
182,192,52855,1,0,0:0:0:0:
329,192,52855,1,0,0:0:0:0:
402,192,52855,1,0,0:0:0:0:
36,192,53042,1,0,0:0:0:0:
256,192,53230,128,0,53980:0:0:0:0:
402,192,53230,1,0,0:0:0:0:
109,192,53230,1,0,0:0:0:0:
36,192,53417,1,0,0:0:0:0:
109,192,53511,1,0,0:0:0:0:
182,192,53605,1,0,0:0:0:0:
329,192,53605,1,0,0:0:0:0:
475,192,53605,1,0,0:0:0:0:
109,192,53792,1,0,0:0:0:0:
36,192,53980,128,0,54542:0:0:0:0:
402,192,53980,1,0,0:0:0:0:
475,192,53980,1,0,0:0:0:0:
329,192,54167,1,0,0:0:0:0:
182,192,54355,1,0,0:0:0:0:
475,192,54355,1,0,0:0:0:0:
109,192,54542,1,0,0:0:0:0:
256,192,54542,1,0,0:0:0:0:
402,192,54636,1,0,0:0:0:0:
475,192,54636,1,0,0:0:0:0:
329,192,54730,128,0,56230:0:0:0:0:
182,192,54730,1,0,0:0:0:0:
36,192,54730,1,0,0:0:0:0:
256,192,54917,1,0,0:0:0:0:
36,192,55011,1,0,0:0:0:0:
475,192,55105,1,0,0:0:0:0:
182,192,55105,1,0,0:0:0:0:
402,192,55105,1,0,0:0:0:0:
109,192,55292,1,0,0:0:0:0:
475,192,55480,1,0,0:0:0:0:
182,192,55480,1,0,0:0:0:0:
36,192,55667,1,0,0:0:0:0:
109,192,55855,1,0,0:0:0:0:
256,192,55855,1,0,0:0:0:0:
402,192,55855,1,0,0:0:0:0:
182,192,56042,1,0,0:0:0:0:
36,192,56230,128,0,56980:0:0:0:0:
475,192,56230,1,0,0:0:0:0:
402,192,56230,1,0,0:0:0:0:
256,192,56417,1,0,0:0:0:0:
475,192,56511,1,0,0:0:0:0:
329,192,56605,1,0,0:0:0:0:
182,192,56605,1,0,0:0:0:0:
109,192,56605,1,0,0:0:0:0:
402,192,56792,1,0,0:0:0:0:
329,192,56980,128,0,57355:0:0:0:0:
182,192,56980,1,0,0:0:0:0:
475,192,56980,1,0,0:0:0:0:
36,192,57167,1,0,0:0:0:0:
109,192,57355,128,0,57730:0:0:0:0:
256,192,57355,1,0,0:0:0:0:
402,192,57355,1,0,0:0:0:0:
329,192,57542,1,0,0:0:0:0:
475,192,57542,1,0,0:0:0:0:
256,192,57730,128,0,58292:0:0:0:0:
402,192,57730,1,0,0:0:0:0:
182,192,57730,1,0,0:0:0:0:
36,192,57917,1,0,0:0:0:0:
182,192,58011,1,0,0:0:0:0:
109,192,58105,1,0,0:0:0:0:
329,192,58105,1,0,0:0:0:0:
475,192,58105,1,0,0:0:0:0:
402,192,58292,128,0,58855:0:0:0:0:
36,192,58292,1,0,0:0:0:0:
109,192,58480,1,0,0:0:0:0:
256,192,58480,1,0,0:0:0:0:
329,192,58667,1,0,0:0:0:0:
256,192,58855,128,0,59230:0:0:0:0:
182,192,58855,1,0,0:0:0:0:
36,192,58855,1,0,0:0:0:0:
402,192,59042,1,0,0:0:0:0:
475,192,59230,128,0,59605:0:0:0:0:
109,192,59230,1,0,0:0:0:0:
329,192,59230,1,0,0:0:0:0:
182,192,59417,1,0,0:0:0:0:
402,192,59511,1,0,0:0:0:0:
256,192,59605,128,0,59980:0:0:0:0:
36,192,59605,1,0,0:0:0:0:
109,192,59605,1,0,0:0:0:0:
329,192,59792,1,0,0:0:0:0:
36,192,59980,128,0,60355:0:0:0:0:
182,192,59980,1,0,0:0:0:0:
402,192,59980,1,0,0:0:0:0:
329,192,60167,1,0,0:0:0:0:
475,192,60355,1,0,0:0:0:0:
182,192,60355,1,0,0:0:0:0:
256,192,60355,1,0,0:0:0:0:
109,192,60542,1,0,0:0:0:0:
402,192,60542,1,0,0:0:0:0:
182,192,60636,1,0,0:0:0:0:
329,192,60636,1,0,0:0:0:0:
256,192,60730,1,0,0:0:0:0:
475,192,60730,1,0,0:0:0:0:
36,192,60730,128,0,62230:0:0:0:0:
329,192,60917,1,0,0:0:0:0:
109,192,61011,1,0,0:0:0:0:
402,192,61105,1,0,0:0:0:0:
475,192,61105,1,0,0:0:0:0:
256,192,61105,1,0,0:0:0:0:
182,192,61292,1,0,0:0:0:0:
329,192,61480,1,0,0:0:0:0:
475,192,61480,1,0,0:0:0:0:
256,192,61667,1,0,0:0:0:0:
109,192,61855,1,0,0:0:0:0:
182,192,61855,1,0,0:0:0:0:
475,192,61855,1,0,0:0:0:0:
402,192,62042,1,0,0:0:0:0:
329,192,62230,128,0,62980:0:0:0:0:
109,192,62230,1,0,0:0:0:0:
256,192,62230,1,0,0:0:0:0:
182,192,62417,1,0,0:0:0:0:
402,192,62511,1,0,0:0:0:0:
36,192,62605,1,0,0:0:0:0:
109,192,62605,1,0,0:0:0:0:
256,192,62605,1,0,0:0:0:0:
475,192,62792,1,0,0:0:0:0:
182,192,62980,128,0,63355:0:0:0:0:
36,192,62980,1,0,0:0:0:0:
256,192,62980,1,0,0:0:0:0:
475,192,63167,1,0,0:0:0:0:
329,192,63355,128,0,63730:0:0:0:0:
36,192,63355,1,0,0:0:0:0:
109,192,63355,1,0,0:0:0:0:
182,192,63542,1,0,0:0:0:0:
256,192,63542,1,0,0:0:0:0:
475,192,63730,128,0,65230:0:0:0:0:
36,192,63730,1,0,0:0:0:0:
402,192,63730,1,0,0:0:0:0:
182,192,63917,1,0,0:0:0:0:
109,192,64011,1,0,0:0:0:0:
36,192,64105,1,0,0:0:0:0:
256,192,64105,1,0,0:0:0:0:
402,192,64105,1,0,0:0:0:0:
329,192,64292,1,0,0:0:0:0:
256,192,64480,1,0,0:0:0:0:
36,192,64480,1,0,0:0:0:0:
109,192,64667,1,0,0:0:0:0:
182,192,64855,1,0,0:0:0:0:
329,192,64855,1,0,0:0:0:0:
402,192,64855,1,0,0:0:0:0:
36,192,65042,1,0,0:0:0:0:
256,192,65230,128,0,65980:0:0:0:0:
109,192,65230,1,0,0:0:0:0:
329,192,65230,1,0,0:0:0:0:
475,192,65417,1,0,0:0:0:0:
402,192,65511,1,0,0:0:0:0:
329,192,65605,1,0,0:0:0:0:
182,192,65605,1,0,0:0:0:0:
36,192,65605,1,0,0:0:0:0:
402,192,65792,1,0,0:0:0:0:
475,192,65980,128,0,66355:0:0:0:0:
109,192,65980,1,0,0:0:0:0:
36,192,65980,1,0,0:0:0:0:
182,192,66167,1,0,0:0:0:0:
36,192,66355,128,0,66730:0:0:0:0:
256,192,66355,1,0,0:0:0:0:
402,192,66355,1,0,0:0:0:0:
182,192,66542,1,0,0:0:0:0:
329,192,66542,1,0,0:0:0:0:
402,192,66636,1,0,0:0:0:0:
475,192,66636,1,0,0:0:0:0:
109,192,66730,1,0,0:0:0:0:
256,192,66730,1,0,0:0:0:0:
182,192,66730,1,0,0:0:0:0:
329,192,66917,1,0,0:0:0:0:
402,192,67011,1,0,0:0:0:0:
182,192,67105,1,0,0:0:0:0:
109,192,67105,1,0,0:0:0:0:
256,192,67105,1,0,0:0:0:0:
329,192,67292,1,0,0:0:0:0:
182,192,67480,1,0,0:0:0:0:
36,192,67480,1,0,0:0:0:0:
475,192,67480,1,0,0:0:0:0:
402,192,67667,1,0,0:0:0:0:
182,192,67855,1,0,0:0:0:0:
36,192,67855,1,0,0:0:0:0:
329,192,67855,1,0,0:0:0:0:
256,192,68042,1,0,0:0:0:0:
329,192,68230,1,0,0:0:0:0:
402,192,68230,1,0,0:0:0:0:
475,192,68230,1,0,0:0:0:0:
182,192,68417,1,0,0:0:0:0:
109,192,68511,1,0,0:0:0:0:
329,192,68605,1,0,0:0:0:0:
402,192,68605,1,0,0:0:0:0:
475,192,68605,1,0,0:0:0:0:
182,192,68792,1,0,0:0:0:0:
256,192,68980,1,0,0:0:0:0:
402,192,68980,1,0,0:0:0:0:
36,192,68980,1,0,0:0:0:0:
109,192,69167,1,0,0:0:0:0:
256,192,69355,1,0,0:0:0:0:
402,192,69355,1,0,0:0:0:0:
182,192,69355,1,0,0:0:0:0:
475,192,69542,1,0,0:0:0:0:
182,192,69730,1,0,0:0:0:0:
36,192,69730,1,0,0:0:0:0:
182,192,69917,1,0,0:0:0:0:
36,192,69917,1,0,0:0:0:0:
256,192,70011,1,0,0:0:0:0:
475,192,70105,1,0,0:0:0:0:
329,192,70105,1,0,0:0:0:0:
475,192,70292,1,0,0:0:0:0:
329,192,70292,1,0,0:0:0:0:
36,192,70480,1,0,0:0:0:0:
256,192,70480,1,0,0:0:0:0:
36,192,70667,1,0,0:0:0:0:
256,192,70667,1,0,0:0:0:0:
109,192,70855,1,0,0:0:0:0:
329,192,70855,1,0,0:0:0:0:
182,192,71042,1,0,0:0:0:0:
402,192,71042,1,0,0:0:0:0:
36,192,71230,1,0,0:0:0:0:
475,192,71230,1,0,0:0:0:0:
256,192,71230,1,0,0:0:0:0:
109,192,71417,1,0,0:0:0:0:
329,192,71417,1,0,0:0:0:0:
402,192,71511,1,0,0:0:0:0:
475,192,71605,1,0,0:0:0:0:
256,192,71605,1,0,0:0:0:0:
182,192,71792,1,0,0:0:0:0:
36,192,71792,1,0,0:0:0:0:
475,192,71980,1,0,0:0:0:0:
329,192,71980,1,0,0:0:0:0:
109,192,72073,1,0,0:0:0:0:
256,192,72167,1,0,0:0:0:0:
36,192,72261,1,0,0:0:0:0:
329,192,72355,1,0,0:0:0:0:
182,192,72355,1,0,0:0:0:0:
475,192,72448,1,0,0:0:0:0:
256,192,72542,1,0,0:0:0:0:
402,192,72636,1,0,0:0:0:0:
36,192,72730,1,0,0:0:0:0:
182,192,72730,1,0,0:0:0:0:
109,192,72730,1,0,0:0:0:0:
182,192,72917,1,0,0:0:0:0:
36,192,73292,1,0,0:0:0:0:
109,192,73386,1,0,0:0:0:0:
256,192,73480,1,0,0:0:0:0:
182,192,73667,1,0,0:0:0:0:
329,192,73855,1,0,0:0:0:0:
475,192,74042,1,0,0:0:0:0:
256,192,74230,1,0,0:0:0:0:
36,192,74230,1,0,0:0:0:0:
256,192,74417,1,0,0:0:0:0:
182,192,74511,1,0,0:0:0:0:
256,192,74792,1,0,0:0:0:0:
402,192,74886,1,0,0:0:0:0:
475,192,74980,1,0,0:0:0:0:
329,192,75073,1,0,0:0:0:0:
402,192,75167,1,0,0:0:0:0:
256,192,75261,1,0,0:0:0:0:
182,192,75355,1,0,0:0:0:0:
36,192,75448,1,0,0:0:0:0:
256,192,75542,1,0,0:0:0:0:
109,192,75636,1,0,0:0:0:0:
329,192,75730,1,0,0:0:0:0:
475,192,75730,1,0,0:0:0:0:
475,192,75917,1,0,0:0:0:0:
256,192,76011,1,0,0:0:0:0:
182,192,76292,1,0,0:0:0:0:
329,192,76480,1,0,0:0:0:0:
182,192,76667,1,0,0:0:0:0:
36,192,76761,1,0,0:0:0:0:
256,192,76855,1,0,0:0:0:0:
402,192,76948,1,0,0:0:0:0:
182,192,77042,1,0,0:0:0:0:
36,192,77136,1,0,0:0:0:0:
329,192,77230,1,0,0:0:0:0:
475,192,77230,1,0,0:0:0:0:
329,192,77417,1,0,0:0:0:0:
182,192,77511,1,0,0:0:0:0:
36,192,77792,1,0,0:0:0:0:
256,192,77886,1,0,0:0:0:0:
475,192,77980,1,0,0:0:0:0:
329,192,78167,1,0,0:0:0:0:
402,192,78261,1,0,0:0:0:0:
475,192,78355,1,0,0:0:0:0:
256,192,78448,1,0,0:0:0:0:
402,192,78542,1,0,0:0:0:0:
182,192,78636,1,0,0:0:0:0:
36,192,78730,1,0,0:0:0:0:
329,192,78730,1,0,0:0:0:0:
36,192,78917,1,0,0:0:0:0:
256,192,79105,1,0,0:0:0:0:
109,192,79292,1,0,0:0:0:0:
329,192,79480,1,0,0:0:0:0:
182,192,79667,1,0,0:0:0:0:
402,192,79855,1,0,0:0:0:0:
475,192,80042,1,0,0:0:0:0:
109,192,80230,1,0,0:0:0:0:
402,192,80230,1,0,0:0:0:0:
256,192,80323,1,0,0:0:0:0:
109,192,80417,1,0,0:0:0:0:
329,192,80511,1,0,0:0:0:0:
36,192,80605,1,0,0:0:0:0:
182,192,80698,1,0,0:0:0:0:
329,192,80792,1,0,0:0:0:0:
475,192,80886,1,0,0:0:0:0:
402,192,80980,1,0,0:0:0:0:
256,192,81073,1,0,0:0:0:0:
109,192,81167,1,0,0:0:0:0:
329,192,81261,1,0,0:0:0:0:
182,192,81355,1,0,0:0:0:0:
329,192,81448,1,0,0:0:0:0:
402,192,81542,1,0,0:0:0:0:
475,192,81636,1,0,0:0:0:0:
36,192,81730,1,0,0:0:0:0:
256,192,81730,1,0,0:0:0:0:
256,192,81917,1,0,0:0:0:0:
256,192,82292,1,0,0:0:0:0:
329,192,82386,1,0,0:0:0:0:
475,192,82480,1,0,0:0:0:0:
109,192,82667,1,0,0:0:0:0:
256,192,82855,1,0,0:0:0:0:
402,192,83042,1,0,0:0:0:0:
182,192,83230,1,0,0:0:0:0:
36,192,83230,1,0,0:0:0:0:
182,192,83417,1,0,0:0:0:0:
182,192,83792,1,0,0:0:0:0:
329,192,83886,1,0,0:0:0:0:
475,192,83980,1,0,0:0:0:0:
329,192,84167,1,0,0:0:0:0:
182,192,84355,1,0,0:0:0:0:
36,192,84542,1,0,0:0:0:0:
256,192,84730,1,0,0:0:0:0:
475,192,84730,1,0,0:0:0:0:
182,192,84917,1,0,0:0:0:0:
329,192,85105,1,0,0:0:0:0:
182,192,85292,1,0,0:0:0:0:
36,192,85480,1,0,0:0:0:0:
475,192,85480,1,0,0:0:0:0:
256,192,85480,1,0,0:0:0:0:
329,192,85667,1,0,0:0:0:0:
182,192,85855,1,0,0:0:0:0:
329,192,86042,1,0,0:0:0:0:
109,192,86230,1,0,0:0:0:0:
256,192,86230,1,0,0:0:0:0:
475,192,86417,1,0,0:0:0:0:
329,192,86605,1,0,0:0:0:0:
475,192,86792,1,0,0:0:0:0:
256,192,86792,1,0,0:0:0:0:
182,192,86980,1,0,0:0:0:0:
36,192,86980,1,0,0:0:0:0:
402,192,86980,1,0,0:0:0:0:
256,192,87167,1,0,0:0:0:0:
475,192,87167,1,0,0:0:0:0:
402,192,87355,1,0,0:0:0:0:
182,192,87355,1,0,0:0:0:0:
109,192,87355,1,0,0:0:0:0:
329,192,87542,1,0,0:0:0:0:
256,192,87730,1,0,0:0:0:0:
36,192,87730,1,0,0:0:0:0:
109,192,87917,1,0,0:0:0:0:
256,192,88105,1,0,0:0:0:0:
182,192,88292,1,0,0:0:0:0:
36,192,88480,1,0,0:0:0:0:
329,192,88480,1,0,0:0:0:0:
475,192,88480,1,0,0:0:0:0:
256,192,88667,1,0,0:0:0:0:
402,192,88855,1,0,0:0:0:0:
329,192,89042,1,0,0:0:0:0:
182,192,89230,1,0,0:0:0:0:
109,192,89230,1,0,0:0:0:0:
402,192,89417,1,0,0:0:0:0:
256,192,89605,1,0,0:0:0:0:
109,192,89792,1,0,0:0:0:0:
36,192,89792,1,0,0:0:0:0:
329,192,89980,1,0,0:0:0:0:
475,192,89980,1,0,0:0:0:0:
182,192,89980,1,0,0:0:0:0:
36,192,90167,1,0,0:0:0:0:
256,192,90167,1,0,0:0:0:0:
182,192,90355,1,0,0:0:0:0:
402,192,90355,1,0,0:0:0:0:
475,192,90355,1,0,0:0:0:0:
329,192,90542,1,0,0:0:0:0:
109,192,90730,1,0,0:0:0:0:
256,192,90730,1,0,0:0:0:0:
475,192,90917,1,0,0:0:0:0:
329,192,91105,1,0,0:0:0:0:
182,192,91292,1,0,0:0:0:0:
256,192,91480,1,0,0:0:0:0:
402,192,91480,1,0,0:0:0:0:
36,192,91480,1,0,0:0:0:0:
182,192,91667,1,0,0:0:0:0:
109,192,91855,1,0,0:0:0:0:
36,192,92042,1,0,0:0:0:0:
329,192,92230,1,0,0:0:0:0:
475,192,92230,1,0,0:0:0:0:
109,192,92417,1,0,0:0:0:0:
256,192,92605,1,0,0:0:0:0:
402,192,92792,1,0,0:0:0:0:
36,192,92980,1,0,0:0:0:0:
182,192,92980,1,0,0:0:0:0:
329,192,92980,1,0,0:0:0:0:
402,192,93167,1,0,0:0:0:0:
475,192,93167,1,0,0:0:0:0:
109,192,93355,1,0,0:0:0:0:
36,192,93355,1,0,0:0:0:0:
329,192,93355,1,0,0:0:0:0:
182,192,93542,1,0,0:0:0:0:
475,192,93542,1,0,0:0:0:0:
109,192,93636,1,0,0:0:0:0:
402,192,93636,1,0,0:0:0:0:
36,192,93730,1,0,0:0:0:0:
329,192,93730,1,0,0:0:0:0:
182,192,93917,1,0,0:0:0:0:
475,192,94105,1,0,0:0:0:0:
329,192,94292,1,0,0:0:0:0:
475,192,94480,1,0,0:0:0:0:
256,192,94480,1,0,0:0:0:0:
36,192,94480,1,0,0:0:0:0:
182,192,94667,1,0,0:0:0:0:
329,192,94855,1,0,0:0:0:0:
475,192,95042,1,0,0:0:0:0:
182,192,95230,1,0,0:0:0:0:
256,192,95230,128,0,96542:0:0:0:0:
329,192,95605,1,0,0:0:0:0:
36,192,95980,1,0,0:0:0:0:
109,192,95980,1,0,0:0:0:0:
402,192,96355,1,0,0:0:0:0:
475,192,96355,1,0,0:0:0:0:
109,192,96542,1,0,0:0:0:0:
329,192,96542,1,0,0:0:0:0:
182,192,96636,1,0,0:0:0:0:
402,192,96636,1,0,0:0:0:0:
36,192,96730,1,0,0:0:0:0:
475,192,96730,1,0,0:0:0:0:
256,192,96730,1,0,0:0:0:0:
329,192,98980,128,0,99355:0:0:0:0:
182,192,99355,128,0,99730:0:0:0:0:
36,192,99730,1,0,0:0:0:0:
475,192,99730,1,0,0:0:0:0:
109,192,99730,1,0,0:0:0:0:
402,192,99823,1,0,0:0:0:0:
329,192,99917,1,0,0:0:0:0:
256,192,100011,1,0,0:0:0:0:
475,192,100105,1,0,0:0:0:0:
182,192,100105,1,0,0:0:0:0:
36,192,100105,1,0,0:0:0:0:
402,192,100198,1,0,0:0:0:0:
329,192,100292,1,0,0:0:0:0:
256,192,100386,1,0,0:0:0:0:
36,192,100480,1,0,0:0:0:0:
475,192,100480,1,0,0:0:0:0:
109,192,100573,1,0,0:0:0:0:
182,192,100667,1,0,0:0:0:0:
256,192,100761,1,0,0:0:0:0:
36,192,100855,1,0,0:0:0:0:
475,192,100855,1,0,0:0:0:0:
329,192,100855,1,0,0:0:0:0:
109,192,100948,1,0,0:0:0:0:
182,192,101042,1,0,0:0:0:0:
256,192,101136,1,0,0:0:0:0:
402,192,101230,1,0,0:0:0:0:
36,192,101230,1,0,0:0:0:0:
182,192,101323,1,0,0:0:0:0:
329,192,101417,1,0,0:0:0:0:
475,192,101511,1,0,0:0:0:0:
256,192,101605,1,0,0:0:0:0:
109,192,101605,1,0,0:0:0:0:
36,192,101605,1,0,0:0:0:0:
402,192,101698,1,0,0:0:0:0:
182,192,101792,1,0,0:0:0:0:
329,192,101886,1,0,0:0:0:0:
475,192,101980,1,0,0:0:0:0:
109,192,101980,1,0,0:0:0:0:
329,192,102073,1,0,0:0:0:0:
182,192,102167,1,0,0:0:0:0:
36,192,102261,1,0,0:0:0:0:
402,192,102355,1,0,0:0:0:0:
475,192,102355,1,0,0:0:0:0:
256,192,102355,1,0,0:0:0:0:
329,192,102542,1,0,0:0:0:0:
182,192,102542,1,0,0:0:0:0:
256,192,102730,1,0,0:0:0:0:
36,192,102730,1,0,0:0:0:0:
109,192,102823,1,0,0:0:0:0:
182,192,102917,1,0,0:0:0:0:
256,192,103011,1,0,0:0:0:0:
109,192,103105,1,0,0:0:0:0:
329,192,103105,1,0,0:0:0:0:
475,192,103105,1,0,0:0:0:0:
182,192,103198,1,0,0:0:0:0:
256,192,103292,1,0,0:0:0:0:
329,192,103386,1,0,0:0:0:0:
182,192,103480,1,0,0:0:0:0:
36,192,103480,1,0,0:0:0:0:
256,192,103573,1,0,0:0:0:0:
329,192,103667,1,0,0:0:0:0:
402,192,103761,1,0,0:0:0:0:
256,192,103855,1,0,0:0:0:0:
109,192,103855,1,0,0:0:0:0:
36,192,103855,1,0,0:0:0:0:
329,192,103948,1,0,0:0:0:0:
402,192,104042,1,0,0:0:0:0:
475,192,104136,1,0,0:0:0:0:
329,192,104230,1,0,0:0:0:0:
182,192,104230,1,0,0:0:0:0:
36,192,104323,1,0,0:0:0:0:
402,192,104417,1,0,0:0:0:0:
109,192,104511,1,0,0:0:0:0:
475,192,104605,1,0,0:0:0:0:
329,192,104605,1,0,0:0:0:0:
256,192,104605,1,0,0:0:0:0:
182,192,104698,1,0,0:0:0:0:
402,192,104792,1,0,0:0:0:0:
109,192,104886,1,0,0:0:0:0:
329,192,104980,1,0,0:0:0:0:
182,192,104980,1,0,0:0:0:0:
402,192,105073,1,0,0:0:0:0:
109,192,105167,1,0,0:0:0:0:
475,192,105261,1,0,0:0:0:0:
256,192,105355,1,0,0:0:0:0:
36,192,105355,1,0,0:0:0:0:
182,192,105355,1,0,0:0:0:0:
402,192,105542,1,0,0:0:0:0:
329,192,105542,1,0,0:0:0:0:
36,192,105636,1,0,0:0:0:0:
109,192,105636,1,0,0:0:0:0:
475,192,105730,1,0,0:0:0:0:
402,192,105730,1,0,0:0:0:0:
256,192,105730,1,0,0:0:0:0:
182,192,105823,1,0,0:0:0:0:
109,192,105917,1,0,0:0:0:0:
36,192,106011,1,0,0:0:0:0:
329,192,106105,1,0,0:0:0:0:
475,192,106105,1,0,0:0:0:0:
402,192,106105,1,0,0:0:0:0:
256,192,106198,1,0,0:0:0:0:
182,192,106292,1,0,0:0:0:0:
109,192,106386,1,0,0:0:0:0:
402,192,106480,1,0,0:0:0:0:
36,192,106480,1,0,0:0:0:0:
329,192,106573,1,0,0:0:0:0:
256,192,106667,1,0,0:0:0:0:
182,192,106761,1,0,0:0:0:0:
36,192,106855,1,0,0:0:0:0:
475,192,106855,1,0,0:0:0:0:
402,192,106855,1,0,0:0:0:0:
109,192,106948,1,0,0:0:0:0:
182,192,107042,1,0,0:0:0:0:
256,192,107136,1,0,0:0:0:0:
475,192,107230,1,0,0:0:0:0:
36,192,107230,1,0,0:0:0:0:
329,192,107230,1,0,0:0:0:0:
182,192,107323,1,0,0:0:0:0:
402,192,107417,1,0,0:0:0:0:
256,192,107511,1,0,0:0:0:0:
36,192,107605,1,0,0:0:0:0:
475,192,107605,1,0,0:0:0:0:
109,192,107605,1,0,0:0:0:0:
329,192,107698,1,0,0:0:0:0:
182,192,107792,1,0,0:0:0:0:
36,192,107886,1,0,0:0:0:0:
475,192,107980,1,0,0:0:0:0:
182,192,107980,1,0,0:0:0:0:
329,192,108073,1,0,0:0:0:0:
109,192,108167,1,0,0:0:0:0:
256,192,108261,1,0,0:0:0:0:
36,192,108355,1,0,0:0:0:0:
402,192,108355,1,0,0:0:0:0:
475,192,108355,1,0,0:0:0:0:
329,192,108542,1,0,0:0:0:0:
182,192,108542,1,0,0:0:0:0:
109,192,108730,1,0,0:0:0:0:
256,192,108730,1,0,0:0:0:0:
36,192,108730,1,0,0:0:0:0:
329,192,108823,1,0,0:0:0:0:
402,192,108917,1,0,0:0:0:0:
475,192,109011,1,0,0:0:0:0:
182,192,109105,1,0,0:0:0:0:
36,192,109105,1,0,0:0:0:0:
109,192,109105,1,0,0:0:0:0:
256,192,109198,1,0,0:0:0:0:
329,192,109292,1,0,0:0:0:0:
402,192,109386,1,0,0:0:0:0:
109,192,109480,1,0,0:0:0:0:
475,192,109480,1,0,0:0:0:0:
36,192,109480,1,0,0:0:0:0:
182,192,109573,1,0,0:0:0:0:
256,192,109667,1,0,0:0:0:0:
329,192,109761,1,0,0:0:0:0:
475,192,109855,1,0,0:0:0:0:
109,192,109855,1,0,0:0:0:0:
36,192,109855,1,0,0:0:0:0:
402,192,109948,1,0,0:0:0:0:
329,192,110042,1,0,0:0:0:0:
256,192,110136,1,0,0:0:0:0:
475,192,110230,1,0,0:0:0:0:
182,192,110230,1,0,0:0:0:0:
36,192,110230,1,0,0:0:0:0:
402,192,110323,1,0,0:0:0:0:
329,192,110417,1,0,0:0:0:0:
402,192,110511,1,0,0:0:0:0:
475,192,110605,1,0,0:0:0:0:
109,192,110605,1,0,0:0:0:0:
182,192,110605,1,0,0:0:0:0:
256,192,110698,1,0,0:0:0:0:
329,192,110792,1,0,0:0:0:0:
402,192,110886,1,0,0:0:0:0:
36,192,110980,1,0,0:0:0:0:
256,192,110980,1,0,0:0:0:0:
475,192,110980,1,0,0:0:0:0:
109,192,111073,1,0,0:0:0:0:
182,192,111167,1,0,0:0:0:0:
109,192,111261,1,0,0:0:0:0:
36,192,111355,1,0,0:0:0:0:
329,192,111355,1,0,0:0:0:0:
475,192,111355,1,0,0:0:0:0:
182,192,111542,1,0,0:0:0:0:
402,192,111542,1,0,0:0:0:0:
109,192,111636,1,0,0:0:0:0:
329,192,111636,1,0,0:0:0:0:
256,192,111730,1,0,0:0:0:0:
475,192,111730,1,0,0:0:0:0:
36,192,111730,128,0,112480:0:0:0:0:
109,192,111823,1,0,0:0:0:0:
329,192,111917,1,0,0:0:0:0:
182,192,112011,1,0,0:0:0:0:
402,192,112105,1,0,0:0:0:0:
475,192,112105,1,0,0:0:0:0:
256,192,112105,1,0,0:0:0:0:
109,192,112198,1,0,0:0:0:0:
329,192,112292,1,0,0:0:0:0:
256,192,112386,1,0,0:0:0:0:
475,192,112480,128,0,113230:0:0:0:0:
182,192,112480,1,0,0:0:0:0:
329,192,112573,1,0,0:0:0:0:
109,192,112667,1,0,0:0:0:0:
256,192,112761,1,0,0:0:0:0:
36,192,112855,1,0,0:0:0:0:
182,192,112855,1,0,0:0:0:0:
402,192,112855,1,0,0:0:0:0:
329,192,112948,1,0,0:0:0:0:
109,192,113042,1,0,0:0:0:0:
182,192,113136,1,0,0:0:0:0:
256,192,113230,128,0,113605:0:0:0:0:
36,192,113230,1,0,0:0:0:0:
402,192,113230,1,0,0:0:0:0:
109,192,113323,1,0,0:0:0:0:
329,192,113417,1,0,0:0:0:0:
402,192,113511,1,0,0:0:0:0:
475,192,113605,128,0,113980:0:0:0:0:
182,192,113605,1,0,0:0:0:0:
36,192,113605,1,0,0:0:0:0:
329,192,113698,1,0,0:0:0:0:
109,192,113792,1,0,0:0:0:0:
256,192,113886,1,0,0:0:0:0:
36,192,113980,128,0,114355:0:0:0:0:
402,192,113980,1,0,0:0:0:0:
182,192,113980,1,0,0:0:0:0:
329,192,114073,1,0,0:0:0:0:
109,192,114167,1,0,0:0:0:0:
182,192,114261,1,0,0:0:0:0:
256,192,114355,128,0,114542:0:0:0:0:
475,192,114355,1,0,0:0:0:0:
402,192,114355,1,0,0:0:0:0:
182,192,114542,1,0,0:0:0:0:
36,192,114542,1,0,0:0:0:0:
329,192,114636,1,0,0:0:0:0:
475,192,114636,1,0,0:0:0:0:
36,192,114730,128,0,115105:0:0:0:0:
256,192,114730,1,0,0:0:0:0:
109,192,114730,1,0,0:0:0:0:
402,192,114823,1,0,0:0:0:0:
329,192,114917,1,0,0:0:0:0:
256,192,115011,1,0,0:0:0:0:
109,192,115105,1,0,0:0:0:0:
182,192,115105,1,0,0:0:0:0:
475,192,115105,1,0,0:0:0:0:
402,192,115198,1,0,0:0:0:0:
329,192,115198,1,0,0:0:0:0:
182,192,115292,1,0,0:0:0:0:
109,192,115292,1,0,0:0:0:0:
329,192,115386,1,0,0:0:0:0:
402,192,115386,1,0,0:0:0:0:
36,192,115480,1,0,0:0:0:0:
109,192,115480,1,0,0:0:0:0:
256,192,115480,1,0,0:0:0:0:
109,192,115761,1,0,0:0:0:0:
182,192,115761,1,0,0:0:0:0:
329,192,115761,1,0,0:0:0:0:
256,192,116042,1,0,0:0:0:0:
329,192,116042,1,0,0:0:0:0:
475,192,116042,1,0,0:0:0:0:
182,192,116230,1,0,0:0:0:0:
329,192,116230,1,0,0:0:0:0:
402,192,116230,1,0,0:0:0:0:
109,192,116511,1,0,0:0:0:0:
256,192,116511,1,0,0:0:0:0:
329,192,116511,1,0,0:0:0:0:
36,192,116792,1,0,0:0:0:0:
109,192,116792,1,0,0:0:0:0:
256,192,116792,1,0,0:0:0:0:
182,192,116980,1,0,0:0:0:0:
329,192,116980,1,0,0:0:0:0:
402,192,116980,1,0,0:0:0:0:
256,192,117261,1,0,0:0:0:0:
402,192,117261,1,0,0:0:0:0:
475,192,117261,1,0,0:0:0:0:
36,192,117542,1,0,0:0:0:0:
109,192,117542,1,0,0:0:0:0:
256,192,117542,1,0,0:0:0:0:
402,192,117636,1,0,0:0:0:0:
329,192,117636,1,0,0:0:0:0:
36,192,117730,1,0,0:0:0:0:
182,192,117730,1,0,0:0:0:0:
475,192,117730,128,0,118480:0:0:0:0:
256,192,117823,1,0,0:0:0:0:
402,192,117917,1,0,0:0:0:0:
329,192,118011,1,0,0:0:0:0:
36,192,118105,1,0,0:0:0:0:
109,192,118105,1,0,0:0:0:0:
256,192,118105,1,0,0:0:0:0:
402,192,118198,1,0,0:0:0:0:
182,192,118292,1,0,0:0:0:0:
329,192,118386,1,0,0:0:0:0:
36,192,118480,128,0,119230:0:0:0:0:
109,192,118480,1,0,0:0:0:0:
256,192,118480,1,0,0:0:0:0:
402,192,118573,1,0,0:0:0:0:
329,192,118667,1,0,0:0:0:0:
475,192,118761,1,0,0:0:0:0:
402,192,118855,1,0,0:0:0:0:
109,192,118855,1,0,0:0:0:0:
182,192,118855,1,0,0:0:0:0:
256,192,118948,1,0,0:0:0:0:
329,192,119042,1,0,0:0:0:0:
182,192,119136,1,0,0:0:0:0:
475,192,119230,128,0,119605:0:0:0:0:
402,192,119230,1,0,0:0:0:0:
109,192,119230,1,0,0:0:0:0:
256,192,119323,1,0,0:0:0:0:
182,192,119417,1,0,0:0:0:0:
329,192,119511,1,0,0:0:0:0:
256,192,119605,128,0,119980:0:0:0:0:
109,192,119605,1,0,0:0:0:0:
36,192,119605,1,0,0:0:0:0:
402,192,119698,1,0,0:0:0:0:
329,192,119792,1,0,0:0:0:0:
182,192,119886,1,0,0:0:0:0:
36,192,119980,128,0,120355:0:0:0:0:
109,192,119980,1,0,0:0:0:0:
475,192,119980,1,0,0:0:0:0:
402,192,120073,1,0,0:0:0:0:
256,192,120167,1,0,0:0:0:0:
329,192,120261,1,0,0:0:0:0:
475,192,120355,128,0,120730:0:0:0:0:
182,192,120355,1,0,0:0:0:0:
402,192,120355,1,0,0:0:0:0:
256,192,120448,1,0,0:0:0:0:
109,192,120542,1,0,0:0:0:0:
182,192,120636,1,0,0:0:0:0:
36,192,120730,1,0,0:0:0:0:
402,192,120730,1,0,0:0:0:0:
329,192,120730,1,0,0:0:0:0:
256,192,120917,1,0,0:0:0:0:
109,192,120917,1,0,0:0:0:0:
36,192,121105,1,0,0:0:0:0:
475,192,121105,1,0,0:0:0:0:
402,192,121292,1,0,0:0:0:0:
256,192,121292,1,0,0:0:0:0:
182,192,121480,1,0,0:0:0:0:
109,192,121480,1,0,0:0:0:0:
475,192,121480,1,0,0:0:0:0:
329,192,121667,1,0,0:0:0:0:
402,192,121667,1,0,0:0:0:0:
36,192,121855,1,0,0:0:0:0:
109,192,121855,1,0,0:0:0:0:
256,192,121855,1,0,0:0:0:0:
402,192,122042,1,0,0:0:0:0:
475,192,122042,1,0,0:0:0:0:
36,192,122230,1,0,0:0:0:0:
182,192,122230,1,0,0:0:0:0:
329,192,122230,1,0,0:0:0:0:
475,192,122323,1,0,0:0:0:0:
256,192,122417,1,0,0:0:0:0:
402,192,122511,1,0,0:0:0:0:
182,192,122605,1,0,0:0:0:0:
36,192,122605,1,0,0:0:0:0:
329,192,122698,1,0,0:0:0:0:
109,192,122792,1,0,0:0:0:0:
256,192,122886,1,0,0:0:0:0:
475,192,122980,1,0,0:0:0:0:
402,192,122980,1,0,0:0:0:0:
36,192,122980,1,0,0:0:0:0:
182,192,123073,1,0,0:0:0:0:
329,192,123167,1,0,0:0:0:0:
475,192,123261,1,0,0:0:0:0:
109,192,123355,1,0,0:0:0:0:
256,192,123355,1,0,0:0:0:0:
36,192,123355,1,0,0:0:0:0:
402,192,123448,1,0,0:0:0:0:
182,192,123542,1,0,0:0:0:0:
329,192,123636,1,0,0:0:0:0:
36,192,123730,1,0,0:0:0:0:
475,192,123730,1,0,0:0:0:0:
256,192,123730,1,0,0:0:0:0:
329,192,124011,1,0,0:0:0:0:
256,192,124292,1,0,0:0:0:0:
36,192,124855,1,0,0:0:0:0:
182,192,125042,1,0,0:0:0:0:
475,192,125230,1,0,0:0:0:0:
329,192,125511,1,0,0:0:0:0:
256,192,125792,1,0,0:0:0:0:
36,192,126355,1,0,0:0:0:0:
182,192,126542,1,0,0:0:0:0:
475,192,126730,1,0,0:0:0:0:
329,192,127011,1,0,0:0:0:0:
256,192,127292,1,0,0:0:0:0:
36,192,127855,1,0,0:0:0:0:
182,192,128042,1,0,0:0:0:0:
475,192,128230,1,0,0:0:0:0:
329,192,128511,1,0,0:0:0:0:
256,192,128792,1,0,0:0:0:0:
402,192,128980,1,0,0:0:0:0:
182,192,129167,1,0,0:0:0:0:
329,192,129355,1,0,0:0:0:0:
109,192,129542,1,0,0:0:0:0:
36,192,129730,1,0,0:0:0:0:
182,192,130011,1,0,0:0:0:0:
329,192,130292,1,0,0:0:0:0:
475,192,130855,1,0,0:0:0:0:
182,192,131230,1,0,0:0:0:0:
256,192,131511,1,0,0:0:0:0:
402,192,131792,1,0,0:0:0:0:
329,192,131980,1,0,0:0:0:0:
182,192,132167,1,0,0:0:0:0:
36,192,132355,1,0,0:0:0:0:
182,192,132542,1,0,0:0:0:0:
475,192,132730,1,0,0:0:0:0:
329,192,133011,1,0,0:0:0:0:
256,192,133292,1,0,0:0:0:0:
182,192,133480,1,0,0:0:0:0:
36,192,133761,1,0,0:0:0:0:
109,192,134042,1,0,0:0:0:0:
475,192,134230,1,0,0:0:0:0:
329,192,134511,1,0,0:0:0:0:
475,192,134792,1,0,0:0:0:0:
256,192,134980,1,0,0:0:0:0:
475,192,135167,1,0,0:0:0:0:
182,192,135355,1,0,0:0:0:0:
36,192,135542,1,0,0:0:0:0:
256,192,135730,128,0,137230:0:0:0:0:
402,192,135730,1,0,0:0:0:0:
182,192,136011,1,0,0:0:0:0:
109,192,136292,1,0,0:0:0:0:
36,192,136855,1,0,0:0:0:0:
182,192,137042,1,0,0:0:0:0:
36,192,137230,128,0,138730:0:0:0:0:
475,192,137230,1,0,0:0:0:0:
329,192,137511,1,0,0:0:0:0:
256,192,137792,1,0,0:0:0:0:
109,192,138355,1,0,0:0:0:0:
256,192,138542,1,0,0:0:0:0:
475,192,138730,128,0,140230:0:0:0:0:
402,192,138730,1,0,0:0:0:0:
329,192,139011,1,0,0:0:0:0:
182,192,139292,1,0,0:0:0:0:
36,192,139855,1,0,0:0:0:0:
182,192,140042,1,0,0:0:0:0:
329,192,140230,128,0,141730:0:0:0:0:
402,192,140230,1,0,0:0:0:0:
256,192,140511,1,0,0:0:0:0:
109,192,140792,1,0,0:0:0:0:
475,192,140980,1,0,0:0:0:0:
182,192,141167,1,0,0:0:0:0:
402,192,141355,1,0,0:0:0:0:
109,192,141542,1,0,0:0:0:0:
182,192,141730,128,0,143230:0:0:0:0:
36,192,141730,1,0,0:0:0:0:
256,192,142011,1,0,0:0:0:0:
402,192,142292,1,0,0:0:0:0:
329,192,142855,1,0,0:0:0:0:
402,192,143230,128,0,144730:0:0:0:0:
109,192,143230,1,0,0:0:0:0:
256,192,143511,1,0,0:0:0:0:
329,192,143792,1,0,0:0:0:0:
182,192,143980,1,0,0:0:0:0:
36,192,144167,1,0,0:0:0:0:
256,192,144355,1,0,0:0:0:0:
109,192,144542,1,0,0:0:0:0:
256,192,144730,128,0,147730:0:0:0:0:
475,192,144730,1,0,0:0:0:0:
402,192,145011,1,0,0:0:0:0:
329,192,145292,1,0,0:0:0:0:
36,192,145480,1,0,0:0:0:0:
109,192,145761,1,0,0:0:0:0:
182,192,146042,1,0,0:0:0:0:
475,192,146230,1,0,0:0:0:0:
402,192,146511,1,0,0:0:0:0:
329,192,146792,1,0,0:0:0:0:
36,192,146980,1,0,0:0:0:0:
109,192,147261,1,0,0:0:0:0:
182,192,147542,1,0,0:0:0:0:
