osu file format v14

[General]
AudioFilename: audio.mp3
AudioLeadIn: 0
PreviewTime: 98965
Countdown: 0
SampleSet: Soft
StackLeniency: 0.7
Mode: 3
LetterboxInBreaks: 0
SpecialStyle: 0
WidescreenStoryboard: 0

[Editor]
DistanceSpacing: 1
BeatDivisor: 4
GridSize: 32
TimelineZoom: 1.399999

[Metadata]
Title:Infinity Heaven
TitleUnicode:Infinity Heaven
Artist:HyuN
ArtistUnicode:HyuN
Creator:Carpihat
Version:Authentic Utopia
Source:BOFU2016 -Legendary Again-
Tags:Arcaea BMS OF FIGHTERS ULTIMATE Never Ending Story KRUX hyunesis hyun_inofixion Electronic Trance Instrumental Piano Bracket Chordstream _Yiiiii _Hikari TakJun mappers' guild MG featured artist FA
BeatmapID:4226188
BeatmapSetID:2028108

[Difficulty]
HPDrainRate:8.5
CircleSize:7
OverallDifficulty:8.5
ApproachRate:5
SliderMultiplier:1.4
SliderTickRate:1

[Events]
//Background and Video events
0,0,"1.jpg",0,0
//Break Periods
//Storyboard Layer 0 (Background)
//Storyboard Layer 1 (Fail)
//Storyboard Layer 2 (Pass)
//Storyboard Layer 3 (Foreground)
//Storyboard Layer 4 (Overlay)
//Storyboard Sound Samples

[TimingPoints]
730,375,4,2,1,25,1,0
99730,-100,4,2,1,25,0,1
123730,-100,4,2,1,25,0,0

[HitObjects]
475,192,730,5,0,0:0:0:0:
36,192,730,1,0,0:0:0:0:
109,192,730,1,0,0:0:0:0:
402,192,730,1,0,0:0:0:0:
182,192,917,1,0,0:0:0:0:
329,192,1011,1,0,0:0:0:0:
256,192,1105,1,0,0:0:0:0:
182,192,1292,1,0,0:0:0:0:
329,192,1292,1,0,0:0:0:0:
109,192,1855,1,0,0:0:0:0:
256,192,2042,1,0,0:0:0:0:
402,192,2230,1,0,0:0:0:0:
36,192,2230,1,0,0:0:0:0:
109,192,2417,1,0,0:0:0:0:
329,192,2511,1,0,0:0:0:0:
256,192,2605,1,0,0:0:0:0:
182,192,2792,1,0,0:0:0:0:
329,192,2792,1,0,0:0:0:0:
109,192,3355,1,0,0:0:0:0:
256,192,3542,1,0,0:0:0:0:
402,192,3730,1,0,0:0:0:0:
109,192,3730,1,0,0:0:0:0:
182,192,3917,1,0,0:0:0:0:
329,192,4011,1,0,0:0:0:0:
256,192,4105,1,0,0:0:0:0:
402,192,4198,1,0,0:0:0:0:
182,192,4292,1,0,0:0:0:0:
329,192,4292,1,0,0:0:0:0:
109,192,4855,1,0,0:0:0:0:
256,192,5042,1,0,0:0:0:0:
475,192,5230,1,0,0:0:0:0:
36,192,5230,1,0,0:0:0:0:
109,192,5417,1,0,0:0:0:0:
402,192,5511,1,0,0:0:0:0:
182,192,5605,1,0,0:0:0:0:
329,192,5792,1,0,0:0:0:0:
256,192,5792,1,0,0:0:0:0:
402,192,5980,1,0,0:0:0:0:
329,192,6167,1,0,0:0:0:0:
182,192,6355,1,0,0:0:0:0:
109,192,6542,1,0,0:0:0:0:
36,192,6730,1,0,0:0:0:0:
256,192,6730,1,0,0:0:0:0:
329,192,6917,1,0,0:0:0:0:
182,192,7011,1,0,0:0:0:0:
402,192,7105,1,0,0:0:0:0:
329,192,7292,1,0,0:0:0:0:
475,192,7292,1,0,0:0:0:0:
475,192,7855,1,0,0:0:0:0:
109,192,8230,1,0,0:0:0:0:
36,192,8230,1,0,0:0:0:0:
182,192,8417,1,0,0:0:0:0:
256,192,8511,1,0,0:0:0:0:
329,192,8605,1,0,0:0:0:0:
402,192,8792,1,0,0:0:0:0:
475,192,8792,1,0,0:0:0:0:
329,192,8980,1,0,0:0:0:0:
182,192,9167,1,0,0:0:0:0:
109,192,9355,1,0,0:0:0:0:
182,192,9542,1,0,0:0:0:0:
475,192,9730,1,0,0:0:0:0:
36,192,9730,1,0,0:0:0:0:
109,192,9917,1,0,0:0:0:0:
329,192,10011,1,0,0:0:0:0:
182,192,10105,1,0,0:0:0:0:
402,192,10292,1,0,0:0:0:0:
256,192,10292,1,0,0:0:0:0:
329,192,10480,1,0,0:0:0:0:
36,192,10761,1,0,0:0:0:0:
256,192,11042,1,0,0:0:0:0:
402,192,11230,1,0,0:0:0:0:
182,192,11230,1,0,0:0:0:0:
256,192,11417,1,0,0:0:0:0:
109,192,11511,1,0,0:0:0:0:
402,192,11605,1,0,0:0:0:0:
329,192,11792,1,0,0:0:0:0:
475,192,11792,1,0,0:0:0:0:
256,192,11980,128,0,12730:0:0:0:0:
109,192,11980,1,0,0:0:0:0:
36,192,12167,1,0,0:0:0:0:
475,192,12355,1,0,0:0:0:0:
402,192,12542,1,0,0:0:0:0:
182,192,12730,1,0,0:0:0:0:
329,192,12730,1,0,0:0:0:0:
475,192,12730,1,0,0:0:0:0:
36,192,12730,1,0,0:0:0:0:
109,192,12917,1,0,0:0:0:0:
402,192,12917,1,0,0:0:0:0:
256,192,13011,1,0,0:0:0:0:
329,192,13105,1,0,0:0:0:0:
182,192,13292,1,0,0:0:0:0:
36,192,13292,1,0,0:0:0:0:
475,192,13480,1,0,0:0:0:0:
402,192,13480,1,0,0:0:0:0:
329,192,13480,1,0,0:0:0:0:
109,192,13667,1,0,0:0:0:0:
256,192,13667,1,0,0:0:0:0:
402,192,13855,1,0,0:0:0:0:
182,192,14042,1,0,0:0:0:0:
329,192,14042,1,0,0:0:0:0:
256,192,14230,1,0,0:0:0:0:
402,192,14230,1,0,0:0:0:0:
109,192,14230,1,0,0:0:0:0:
475,192,14417,1,0,0:0:0:0:
36,192,14417,1,0,0:0:0:0:
182,192,14511,1,0,0:0:0:0:
329,192,14605,1,0,0:0:0:0:
36,192,14792,1,0,0:0:0:0:
182,192,14792,1,0,0:0:0:0:
475,192,14792,1,0,0:0:0:0:
182,192,14980,1,0,0:0:0:0:
402,192,14980,1,0,0:0:0:0:
256,192,14980,1,0,0:0:0:0:
475,192,15167,1,0,0:0:0:0:
36,192,15167,1,0,0:0:0:0:
329,192,15167,1,0,0:0:0:0:
109,192,15355,1,0,0:0:0:0:
256,192,15355,1,0,0:0:0:0:
329,192,15355,1,0,0:0:0:0:
182,192,15542,1,0,0:0:0:0:
475,192,15542,1,0,0:0:0:0:
36,192,15730,1,0,0:0:0:0:
402,192,15730,1,0,0:0:0:0:
256,192,15730,1,0,0:0:0:0:
109,192,15917,1,0,0:0:0:0:
329,192,15917,1,0,0:0:0:0:
256,192,16011,1,0,0:0:0:0:
182,192,16105,1,0,0:0:0:0:
329,192,16292,1,0,0:0:0:0:
475,192,16292,1,0,0:0:0:0:
109,192,16480,1,0,0:0:0:0:
36,192,16480,1,0,0:0:0:0:
182,192,16480,1,0,0:0:0:0:
402,192,16667,1,0,0:0:0:0:
256,192,16667,1,0,0:0:0:0:
109,192,16855,1,0,0:0:0:0:
329,192,17042,1,0,0:0:0:0:
182,192,17042,1,0,0:0:0:0:
109,192,17230,1,0,0:0:0:0:
402,192,17230,1,0,0:0:0:0:
256,192,17230,1,0,0:0:0:0:
36,192,17417,1,0,0:0:0:0:
475,192,17417,1,0,0:0:0:0:
182,192,17511,1,0,0:0:0:0:
329,192,17605,1,0,0:0:0:0:
36,192,17792,1,0,0:0:0:0:
475,192,17792,1,0,0:0:0:0:
182,192,17792,1,0,0:0:0:0:
402,192,17980,1,0,0:0:0:0:
256,192,17980,1,0,0:0:0:0:
182,192,17980,1,0,0:0:0:0:
329,192,18167,1,0,0:0:0:0:
475,192,18167,1,0,0:0:0:0:
36,192,18167,1,0,0:0:0:0:
109,192,18355,1,0,0:0:0:0:
329,192,18355,1,0,0:0:0:0:
256,192,18355,1,0,0:0:0:0:
475,192,18542,1,0,0:0:0:0:
36,192,18542,1,0,0:0:0:0:
256,192,18730,1,0,0:0:0:0:
109,192,18730,1,0,0:0:0:0:
402,192,18730,1,0,0:0:0:0:
182,192,18917,1,0,0:0:0:0:
329,192,18917,1,0,0:0:0:0:
256,192,19011,1,0,0:0:0:0:
402,192,19105,1,0,0:0:0:0:
36,192,19292,1,0,0:0:0:0:
182,192,19292,1,0,0:0:0:0:
402,192,19480,1,0,0:0:0:0:
329,192,19480,1,0,0:0:0:0:
475,192,19480,1,0,0:0:0:0:
109,192,19667,1,0,0:0:0:0:
256,192,19667,1,0,0:0:0:0:
402,192,19855,1,0,0:0:0:0:
329,192,20042,1,0,0:0:0:0:
182,192,20042,1,0,0:0:0:0:
109,192,20230,1,0,0:0:0:0:
402,192,20230,1,0,0:0:0:0:
256,192,20230,1,0,0:0:0:0:
36,192,20417,1,0,0:0:0:0:
475,192,20417,1,0,0:0:0:0:
329,192,20511,1,0,0:0:0:0:
182,192,20605,1,0,0:0:0:0:
109,192,20792,1,0,0:0:0:0:
329,192,20792,1,0,0:0:0:0:
402,192,20980,1,0,0:0:0:0:
475,192,20980,1,0,0:0:0:0:
182,192,20980,1,0,0:0:0:0:
329,192,21167,1,0,0:0:0:0:
36,192,21167,1,0,0:0:0:0:
182,192,21167,1,0,0:0:0:0:
329,192,21355,1,0,0:0:0:0:
402,192,21355,1,0,0:0:0:0:
109,192,21355,1,0,0:0:0:0:
256,192,21542,1,0,0:0:0:0:
109,192,21542,1,0,0:0:0:0:
402,192,21542,1,0,0:0:0:0:
182,192,21636,1,0,0:0:0:0:
329,192,21636,1,0,0:0:0:0:
256,192,21730,1,0,0:0:0:0:
36,192,21730,128,0,23230:0:0:0:0:
475,192,21730,1,0,0:0:0:0:
109,192,21730,1,0,0:0:0:0:
402,192,21730,1,0,0:0:0:0:
475,192,22011,1,0,0:0:0:0:
329,192,22292,1,0,0:0:0:0:
182,192,22480,1,0,0:0:0:0:
329,192,22761,1,0,0:0:0:0:
182,192,23042,1,0,0:0:0:0:
109,192,23230,1,0,0:0:0:0:
256,192,23230,1,0,0:0:0:0:
402,192,23230,1,0,0:0:0:0:
109,192,23605,1,0,0:0:0:0:
256,192,23605,1,0,0:0:0:0:
402,192,23605,1,0,0:0:0:0:
109,192,23980,1,0,0:0:0:0:
256,192,23980,1,0,0:0:0:0:
402,192,23980,1,0,0:0:0:0:
109,192,24355,1,0,0:0:0:0:
256,192,24355,1,0,0:0:0:0:
402,192,24355,1,0,0:0:0:0:
402,192,24542,1,0,0:0:0:0:
109,192,24542,1,0,0:0:0:0:
256,192,24542,1,0,0:0:0:0:
329,192,24636,1,0,0:0:0:0:
182,192,24636,1,0,0:0:0:0:
109,192,24730,1,0,0:0:0:0:
475,192,24730,1,0,0:0:0:0:
256,192,24730,1,0,0:0:0:0:
402,192,24730,1,0,0:0:0:0:
36,192,24730,1,0,0:0:0:0:
329,192,24823,1,0,0:0:0:0:
182,192,24917,1,0,0:0:0:0:
109,192,25011,1,0,0:0:0:0:
36,192,25105,1,0,0:0:0:0:
475,192,25105,1,0,0:0:0:0:
256,192,25105,1,0,0:0:0:0:
402,192,25198,1,0,0:0:0:0:
182,192,25292,1,0,0:0:0:0:
329,192,25292,1,0,0:0:0:0:
36,192,25292,1,0,0:0:0:0:
256,192,25386,1,0,0:0:0:0:
402,192,25480,1,0,0:0:0:0:
329,192,25573,1,0,0:0:0:0:
475,192,25667,1,0,0:0:0:0:
256,192,25667,1,0,0:0:0:0:
36,192,25667,1,0,0:0:0:0:
109,192,25761,1,0,0:0:0:0:
182,192,25855,1,0,0:0:0:0:
475,192,25855,1,0,0:0:0:0:
329,192,25855,1,0,0:0:0:0:
256,192,25948,1,0,0:0:0:0:
329,192,26042,1,0,0:0:0:0:
109,192,26042,1,0,0:0:0:0:
182,192,26042,1,0,0:0:0:0:
402,192,26136,1,0,0:0:0:0:
36,192,26230,1,0,0:0:0:0:
475,192,26230,1,0,0:0:0:0:
256,192,26230,1,0,0:0:0:0:
182,192,26323,1,0,0:0:0:0:
402,192,26417,1,0,0:0:0:0:
329,192,26417,1,0,0:0:0:0:
109,192,26417,1,0,0:0:0:0:
256,192,26511,1,0,0:0:0:0:
36,192,26605,1,0,0:0:0:0:
182,192,26605,1,0,0:0:0:0:
475,192,26605,1,0,0:0:0:0:
402,192,26698,1,0,0:0:0:0:
329,192,26792,1,0,0:0:0:0:
109,192,26792,1,0,0:0:0:0:
36,192,26792,1,0,0:0:0:0:
256,192,26886,1,0,0:0:0:0:
402,192,26980,1,0,0:0:0:0:
329,192,27073,1,0,0:0:0:0:
109,192,27167,1,0,0:0:0:0:
256,192,27167,1,0,0:0:0:0:
36,192,27167,1,0,0:0:0:0:
182,192,27261,1,0,0:0:0:0:
475,192,27355,1,0,0:0:0:0:
329,192,27355,1,0,0:0:0:0:
402,192,27355,1,0,0:0:0:0:
256,192,27448,1,0,0:0:0:0:
329,192,27542,1,0,0:0:0:0:
36,192,27542,1,0,0:0:0:0:
109,192,27542,1,0,0:0:0:0:
182,192,27636,1,0,0:0:0:0:
402,192,27730,1,0,0:0:0:0:
256,192,27730,1,0,0:0:0:0:
475,192,27730,1,0,0:0:0:0:
109,192,27823,1,0,0:0:0:0:
182,192,27917,1,0,0:0:0:0:
256,192,28011,1,0,0:0:0:0:
475,192,28105,1,0,0:0:0:0:
36,192,28105,1,0,0:0:0:0:
329,192,28105,1,0,0:0:0:0:
109,192,28198,1,0,0:0:0:0:
329,192,28292,1,0,0:0:0:0:
182,192,28292,1,0,0:0:0:0:
402,192,28292,1,0,0:0:0:0:
256,192,28386,1,0,0:0:0:0:
109,192,28480,1,0,0:0:0:0:
182,192,28573,1,0,0:0:0:0:
36,192,28667,1,0,0:0:0:0:
256,192,28667,1,0,0:0:0:0:
475,192,28667,1,0,0:0:0:0:
402,192,28761,1,0,0:0:0:0:
329,192,28855,1,0,0:0:0:0:
36,192,28855,1,0,0:0:0:0:
109,192,28855,1,0,0:0:0:0:
256,192,28948,1,0,0:0:0:0:
182,192,29042,1,0,0:0:0:0:
475,192,29042,1,0,0:0:0:0:
109,192,29042,1,0,0:0:0:0:
402,192,29136,1,0,0:0:0:0:
36,192,29230,1,0,0:0:0:0:
329,192,29230,1,0,0:0:0:0:
256,192,29230,1,0,0:0:0:0:
182,192,29323,1,0,0:0:0:0:
402,192,29417,1,0,0:0:0:0:
109,192,29417,1,0,0:0:0:0:
475,192,29417,128,0,29605:0:0:0:0:
36,192,29511,1,0,0:0:0:0:
256,192,29605,1,0,0:0:0:0:
182,192,29605,1,0,0:0:0:0:
329,192,29605,128,0,29792:0:0:0:0:
36,192,29698,1,0,0:0:0:0:
475,192,29792,1,0,0:0:0:0:
109,192,29792,1,0,0:0:0:0:
182,192,29792,128,0,29980:0:0:0:0:
402,192,29886,1,0,0:0:0:0:
36,192,29980,128,0,30167:0:0:0:0:
256,192,30073,1,0,0:0:0:0:
402,192,30167,128,0,30355:0:0:0:0:
475,192,30167,1,0,0:0:0:0:
109,192,30167,1,0,0:0:0:0:
182,192,30261,1,0,0:0:0:0:
256,192,30355,1,0,0:0:0:0:
329,192,30355,1,0,0:0:0:0:
109,192,30355,128,0,30542:0:0:0:0:
475,192,30448,1,0,0:0:0:0:
329,192,30542,1,0,0:0:0:0:
182,192,30542,1,0,0:0:0:0:
256,192,30542,128,0,30730:0:0:0:0:
109,192,30636,1,0,0:0:0:0:
36,192,30636,1,0,0:0:0:0:
182,192,30730,1,0,0:0:0:0:
475,192,30730,1,0,0:0:0:0:
402,192,30730,1,0,0:0:0:0:
329,192,30823,1,0,0:0:0:0:
36,192,30917,1,0,0:0:0:0:
109,192,31011,1,0,0:0:0:0:
182,192,31105,1,0,0:0:0:0:
475,192,31105,1,0,0:0:0:0:
402,192,31105,1,0,0:0:0:0:
256,192,31198,1,0,0:0:0:0:
36,192,31292,1,0,0:0:0:0:
329,192,31292,1,0,0:0:0:0:
109,192,31292,1,0,0:0:0:0:
256,192,31386,1,0,0:0:0:0:
182,192,31480,1,0,0:0:0:0:
475,192,31573,1,0,0:0:0:0:
402,192,31667,1,0,0:0:0:0:
256,192,31667,1,0,0:0:0:0:
109,192,31667,1,0,0:0:0:0:
36,192,31761,1,0,0:0:0:0:
182,192,31855,1,0,0:0:0:0:
475,192,31855,1,0,0:0:0:0:
329,192,31855,1,0,0:0:0:0:
402,192,31948,1,0,0:0:0:0:
256,192,32042,1,0,0:0:0:0:
36,192,32042,1,0,0:0:0:0:
182,192,32042,1,0,0:0:0:0:
109,192,32136,1,0,0:0:0:0:
402,192,32230,1,0,0:0:0:0:
475,192,32230,1,0,0:0:0:0:
329,192,32230,1,0,0:0:0:0:
256,192,32323,1,0,0:0:0:0:
329,192,32417,1,0,0:0:0:0:
402,192,32417,1,0,0:0:0:0:
182,192,32417,1,0,0:0:0:0:
109,192,32511,1,0,0:0:0:0:
36,192,32605,1,0,0:0:0:0:
256,192,32605,1,0,0:0:0:0:
475,192,32605,1,0,0:0:0:0:
329,192,32698,1,0,0:0:0:0:
256,192,32792,1,0,0:0:0:0:
475,192,32792,1,0,0:0:0:0:
36,192,32792,1,0,0:0:0:0:
182,192,32886,1,0,0:0:0:0:
329,192,32980,1,0,0:0:0:0:
256,192,33073,1,0,0:0:0:0:
182,192,33167,1,0,0:0:0:0:
402,192,33167,1,0,0:0:0:0:
36,192,33167,1,0,0:0:0:0:
329,192,33261,1,0,0:0:0:0:
475,192,33355,1,0,0:0:0:0:
109,192,33355,1,0,0:0:0:0:
182,192,33355,1,0,0:0:0:0:
402,192,33448,1,0,0:0:0:0:
329,192,33542,1,0,0:0:0:0:
36,192,33542,1,0,0:0:0:0:
182,192,33542,1,0,0:0:0:0:
256,192,33636,1,0,0:0:0:0:
402,192,33730,1,0,0:0:0:0:
36,192,33730,1,0,0:0:0:0:
109,192,33730,1,0,0:0:0:0:
182,192,33823,1,0,0:0:0:0:
329,192,33917,1,0,0:0:0:0:
475,192,34011,1,0,0:0:0:0:
402,192,34105,1,0,0:0:0:0:
109,192,34105,1,0,0:0:0:0:
256,192,34105,1,0,0:0:0:0:
36,192,34198,1,0,0:0:0:0:
329,192,34292,1,0,0:0:0:0:
182,192,34292,1,0,0:0:0:0:
475,192,34292,1,0,0:0:0:0:
402,192,34386,1,0,0:0:0:0:
109,192,34480,1,0,0:0:0:0:
182,192,34573,1,0,0:0:0:0:
36,192,34667,1,0,0:0:0:0:
256,192,34667,1,0,0:0:0:0:
475,192,34667,1,0,0:0:0:0:
402,192,34761,1,0,0:0:0:0:
182,192,34855,1,0,0:0:0:0:
329,192,34855,1,0,0:0:0:0:
475,192,34855,1,0,0:0:0:0:
109,192,34948,1,0,0:0:0:0:
36,192,35042,1,0,0:0:0:0:
182,192,35042,1,0,0:0:0:0:
329,192,35042,1,0,0:0:0:0:
402,192,35136,1,0,0:0:0:0:
109,192,35230,1,0,0:0:0:0:
36,192,35230,1,0,0:0:0:0:
475,192,35230,1,0,0:0:0:0:
256,192,35230,1,0,0:0:0:0:
402,192,35323,1,0,0:0:0:0:
475,192,35417,128,0,35605:0:0:0:0:
182,192,35417,1,0,0:0:0:0:
109,192,35417,1,0,0:0:0:0:
329,192,35417,1,0,0:0:0:0:
36,192,35511,1,0,0:0:0:0:
182,192,35605,1,0,0:0:0:0:
402,192,35605,1,0,0:0:0:0:
329,192,35605,1,0,0:0:0:0:
256,192,35605,128,0,35792:0:0:0:0:
109,192,35698,1,0,0:0:0:0:
475,192,35792,1,0,0:0:0:0:
402,192,35792,1,0,0:0:0:0:
36,192,35792,128,0,35980:0:0:0:0:
329,192,35792,1,0,0:0:0:0:
182,192,35886,1,0,0:0:0:0:
402,192,35980,1,0,0:0:0:0:
475,192,35980,1,0,0:0:0:0:
329,192,35980,1,0,0:0:0:0:
109,192,36073,1,0,0:0:0:0:
182,192,36073,1,0,0:0:0:0:
256,192,36073,1,0,0:0:0:0:
36,192,36167,1,0,0:0:0:0:
475,192,36167,1,0,0:0:0:0:
402,192,36167,1,0,0:0:0:0:
329,192,36261,1,0,0:0:0:0:
256,192,36261,1,0,0:0:0:0:
182,192,36261,1,0,0:0:0:0:
475,192,36355,1,0,0:0:0:0:
109,192,36355,1,0,0:0:0:0:
36,192,36355,1,0,0:0:0:0:
256,192,36448,1,0,0:0:0:0:
329,192,36448,1,0,0:0:0:0:
402,192,36448,1,0,0:0:0:0:
182,192,36542,1,0,0:0:0:0:
36,192,36542,1,0,0:0:0:0:
109,192,36542,1,0,0:0:0:0:
329,192,36636,1,0,0:0:0:0:
402,192,36636,1,0,0:0:0:0:
36,192,36730,1,0,0:0:0:0:
182,192,36730,1,0,0:0:0:0:
256,192,36730,1,0,0:0:0:0:
109,192,36730,128,0,36823:0:0:0:0:
475,192,36730,1,0,0:0:0:0:
329,192,36823,1,0,0:0:0:0:
182,192,36917,1,0,0:0:0:0:
402,192,37011,128,0,37105:0:0:0:0:
36,192,37105,1,0,0:0:0:0:
475,192,37105,1,0,0:0:0:0:
109,192,37105,1,0,0:0:0:0:
182,192,37198,1,0,0:0:0:0:
402,192,37292,1,0,0:0:0:0:
109,192,37292,1,0,0:0:0:0:
256,192,37292,128,0,37386:0:0:0:0:
329,192,37386,1,0,0:0:0:0:
402,192,37480,1,0,0:0:0:0:
182,192,37573,1,0,0:0:0:0:
475,192,37667,1,0,0:0:0:0:
256,192,37667,1,0,0:0:0:0:
36,192,37667,1,0,0:0:0:0:
109,192,37761,1,0,0:0:0:0:
182,192,37855,1,0,0:0:0:0:
329,192,37855,1,0,0:0:0:0:
475,192,37855,128,0,37948:0:0:0:0:
402,192,37948,1,0,0:0:0:0:
329,192,38042,1,0,0:0:0:0:
182,192,38042,1,0,0:0:0:0:
36,192,38042,128,0,38136:0:0:0:0:
109,192,38136,1,0,0:0:0:0:
402,192,38230,1,0,0:0:0:0:
475,192,38230,1,0,0:0:0:0:
256,192,38230,128,0,38323:0:0:0:0:
182,192,38323,1,0,0:0:0:0:
475,192,38417,1,0,0:0:0:0:
109,192,38417,1,0,0:0:0:0:
402,192,38417,1,0,0:0:0:0:
182,192,38511,128,0,38605:0:0:0:0:
329,192,38605,1,0,0:0:0:0:
36,192,38605,1,0,0:0:0:0:
109,192,38605,1,0,0:0:0:0:
475,192,38698,1,0,0:0:0:0:
36,192,38792,1,0,0:0:0:0:
329,192,38792,128,0,38886:0:0:0:0:
402,192,38792,1,0,0:0:0:0:
256,192,38886,1,0,0:0:0:0:
475,192,38980,1,0,0:0:0:0:
402,192,39073,1,0,0:0:0:0:
36,192,39167,1,0,0:0:0:0:
256,192,39167,1,0,0:0:0:0:
182,192,39167,1,0,0:0:0:0:
109,192,39261,1,0,0:0:0:0:
329,192,39355,1,0,0:0:0:0:
182,192,39355,1,0,0:0:0:0:
475,192,39355,128,0,39448:0:0:0:0:
402,192,39448,1,0,0:0:0:0:
329,192,39542,1,0,0:0:0:0:
182,192,39542,1,0,0:0:0:0:
36,192,39542,128,0,39636:0:0:0:0:
109,192,39636,1,0,0:0:0:0:
256,192,39730,128,0,39823:0:0:0:0:
475,192,39730,1,0,0:0:0:0:
402,192,39730,1,0,0:0:0:0:
182,192,39823,1,0,0:0:0:0:
329,192,39917,1,0,0:0:0:0:
402,192,40011,128,0,40105:0:0:0:0:
475,192,40105,1,0,0:0:0:0:
36,192,40105,1,0,0:0:0:0:
256,192,40105,1,0,0:0:0:0:
182,192,40198,1,0,0:0:0:0:
329,192,40292,1,0,0:0:0:0:
36,192,40292,1,0,0:0:0:0:
109,192,40292,128,0,40386:0:0:0:0:
402,192,40386,1,0,0:0:0:0:
256,192,40480,1,0,0:0:0:0:
182,192,40573,1,0,0:0:0:0:
36,192,40667,1,0,0:0:0:0:
475,192,40667,1,0,0:0:0:0:
329,192,40667,1,0,0:0:0:0:
402,192,40761,1,0,0:0:0:0:
329,192,40855,1,0,0:0:0:0:
182,192,40855,1,0,0:0:0:0:
36,192,40855,128,0,40948:0:0:0:0:
109,192,40948,1,0,0:0:0:0:
182,192,41042,1,0,0:0:0:0:
329,192,41042,1,0,0:0:0:0:
475,192,41042,128,0,41136:0:0:0:0:
402,192,41136,1,0,0:0:0:0:
109,192,41230,1,0,0:0:0:0:
36,192,41230,1,0,0:0:0:0:
256,192,41230,128,0,41323:0:0:0:0:
329,192,41323,1,0,0:0:0:0:
109,192,41417,1,0,0:0:0:0:
36,192,41417,1,0,0:0:0:0:
475,192,41417,128,0,41511:0:0:0:0:
182,192,41511,128,0,41605:0:0:0:0:
256,192,41605,1,0,0:0:0:0:
402,192,41605,1,0,0:0:0:0:
329,192,41605,128,0,41698:0:0:0:0:
36,192,41698,1,0,0:0:0:0:
475,192,41792,1,0,0:0:0:0:
402,192,41792,128,0,41886:0:0:0:0:
109,192,41792,128,0,41886:0:0:0:0:
182,192,41886,1,0,0:0:0:0:
36,192,41980,128,0,42073:0:0:0:0:
475,192,41980,128,0,42073:0:0:0:0:
329,192,42073,1,0,0:0:0:0:
182,192,42167,1,0,0:0:0:0:
109,192,42167,128,0,42261:0:0:0:0:
402,192,42167,128,0,42261:0:0:0:0:
256,192,42261,1,0,0:0:0:0:
475,192,42355,1,0,0:0:0:0:
182,192,42355,128,0,42448:0:0:0:0:
329,192,42355,128,0,42448:0:0:0:0:
36,192,42448,1,0,0:0:0:0:
475,192,42542,1,0,0:0:0:0:
402,192,42542,1,0,0:0:0:0:
256,192,42542,128,0,42636:0:0:0:0:
109,192,42636,1,0,0:0:0:0:
36,192,42636,1,0,0:0:0:0:
182,192,42636,1,0,0:0:0:0:
475,192,42730,1,0,0:0:0:0:
329,192,42730,1,0,0:0:0:0:
402,192,42730,128,0,42823:0:0:0:0:
256,192,42823,1,0,0:0:0:0:
182,192,42917,1,0,0:0:0:0:
109,192,43011,128,0,43105:0:0:0:0:
475,192,43105,1,0,0:0:0:0:
329,192,43105,1,0,0:0:0:0:
256,192,43105,1,0,0:0:0:0:
402,192,43198,1,0,0:0:0:0:
256,192,43292,128,0,43386:0:0:0:0:
109,192,43292,1,0,0:0:0:0:
36,192,43292,1,0,0:0:0:0:
329,192,43386,1,0,0:0:0:0:
182,192,43480,1,0,0:0:0:0:
475,192,43573,1,0,0:0:0:0:
402,192,43667,1,0,0:0:0:0:
256,192,43667,1,0,0:0:0:0:
109,192,43667,1,0,0:0:0:0:
36,192,43761,1,0,0:0:0:0:
182,192,43855,1,0,0:0:0:0:
329,192,43855,1,0,0:0:0:0:
475,192,43855,128,0,43948:0:0:0:0:
402,192,43948,1,0,0:0:0:0:
329,192,44042,1,0,0:0:0:0:
182,192,44042,1,0,0:0:0:0:
36,192,44042,128,0,44136:0:0:0:0:
109,192,44136,1,0,0:0:0:0:
475,192,44230,1,0,0:0:0:0:
256,192,44230,128,0,44323:0:0:0:0:
402,192,44230,1,0,0:0:0:0:
182,192,44323,1,0,0:0:0:0:
475,192,44417,1,0,0:0:0:0:
402,192,44417,1,0,0:0:0:0:
36,192,44417,1,0,0:0:0:0:
109,192,44511,128,0,44605:0:0:0:0:
256,192,44605,1,0,0:0:0:0:
182,192,44605,1,0,0:0:0:0:
329,192,44605,1,0,0:0:0:0:
475,192,44698,1,0,0:0:0:0:
36,192,44792,1,0,0:0:0:0:
182,192,44792,1,0,0:0:0:0:
402,192,44792,128,0,44886:0:0:0:0:
109,192,44886,1,0,0:0:0:0:
329,192,44980,1,0,0:0:0:0:
256,192,45073,1,0,0:0:0:0:
182,192,45167,1,0,0:0:0:0:
402,192,45167,1,0,0:0:0:0:
36,192,45167,1,0,0:0:0:0:
109,192,45261,1,0,0:0:0:0:
329,192,45355,1,0,0:0:0:0:
475,192,45355,128,0,45448:0:0:0:0:
256,192,45355,1,0,0:0:0:0:
402,192,45448,1,0,0:0:0:0:
36,192,45542,128,0,45636:0:0:0:0:
109,192,45542,1,0,0:0:0:0:
182,192,45542,1,0,0:0:0:0:
329,192,45636,1,0,0:0:0:0:
475,192,45730,1,0,0:0:0:0:
402,192,45730,1,0,0:0:0:0:
256,192,45730,128,0,45823:0:0:0:0:
109,192,45823,1,0,0:0:0:0:
182,192,45917,1,0,0:0:0:0:
402,192,46011,128,0,46105:0:0:0:0:
475,192,46105,1,0,0:0:0:0:
36,192,46105,1,0,0:0:0:0:
256,192,46105,1,0,0:0:0:0:
182,192,46198,1,0,0:0:0:0:
256,192,46292,1,0,0:0:0:0:
402,192,46292,1,0,0:0:0:0:
109,192,46292,128,0,46386:0:0:0:0:
329,192,46386,1,0,0:0:0:0:
475,192,46480,1,0,0:0:0:0:
402,192,46573,1,0,0:0:0:0:
36,192,46667,1,0,0:0:0:0:
329,192,46667,1,0,0:0:0:0:
256,192,46667,1,0,0:0:0:0:
109,192,46761,1,0,0:0:0:0:
329,192,46855,1,0,0:0:0:0:
475,192,46855,1,0,0:0:0:0:
182,192,46855,128,0,46948:0:0:0:0:
256,192,46948,1,0,0:0:0:0:
36,192,47042,1,0,0:0:0:0:
329,192,47042,128,0,47136:0:0:0:0:
109,192,47042,1,0,0:0:0:0:
402,192,47136,1,0,0:0:0:0:
256,192,47230,128,0,47323:0:0:0:0:
182,192,47230,1,0,0:0:0:0:
109,192,47230,1,0,0:0:0:0:
475,192,47230,1,0,0:0:0:0:
36,192,47323,1,0,0:0:0:0:
475,192,47417,128,0,47511:0:0:0:0:
182,192,47417,1,0,0:0:0:0:
402,192,47417,1,0,0:0:0:0:
329,192,47417,1,0,0:0:0:0:
109,192,47511,128,0,47605:0:0:0:0:
402,192,47605,1,0,0:0:0:0:
329,192,47605,1,0,0:0:0:0:
256,192,47605,128,0,47698:0:0:0:0:
36,192,47605,1,0,0:0:0:0:
182,192,47698,1,0,0:0:0:0:
475,192,47792,1,0,0:0:0:0:
36,192,47792,128,0,47886:0:0:0:0:
329,192,47792,1,0,0:0:0:0:
402,192,47792,128,0,47886:0:0:0:0:
109,192,47886,1,0,0:0:0:0:
182,192,47980,1,0,0:0:0:0:
256,192,47980,1,0,0:0:0:0:
329,192,47980,1,0,0:0:0:0:
402,192,48073,1,0,0:0:0:0:
475,192,48073,1,0,0:0:0:0:
36,192,48073,1,0,0:0:0:0:
109,192,48167,1,0,0:0:0:0:
182,192,48167,1,0,0:0:0:0:
256,192,48167,1,0,0:0:0:0:
329,192,48261,1,0,0:0:0:0:
402,192,48261,1,0,0:0:0:0:
475,192,48261,1,0,0:0:0:0:
36,192,48355,1,0,0:0:0:0:
109,192,48355,1,0,0:0:0:0:
182,192,48355,1,0,0:0:0:0:
256,192,48448,1,0,0:0:0:0:
329,192,48448,1,0,0:0:0:0:
402,192,48448,1,0,0:0:0:0:
109,192,48542,1,0,0:0:0:0:
36,192,48542,1,0,0:0:0:0:
475,192,48542,1,0,0:0:0:0:
329,192,48636,1,0,0:0:0:0:
182,192,48636,1,0,0:0:0:0:
402,192,48730,1,0,0:0:0:0:
475,192,48730,1,0,0:0:0:0:
109,192,48730,1,0,0:0:0:0:
36,192,48730,1,0,0:0:0:0:
256,192,48730,1,0,0:0:0:0:
329,192,48823,1,0,0:0:0:0:
36,192,48917,1,0,0:0:0:0:
402,192,48917,1,0,0:0:0:0:
109,192,49011,1,0,0:0:0:0:
256,192,49105,1,0,0:0:0:0:
329,192,49105,1,0,0:0:0:0:
475,192,49105,1,0,0:0:0:0:
182,192,49105,1,0,0:0:0:0:
36,192,49198,1,0,0:0:0:0:
402,192,49292,1,0,0:0:0:0:
109,192,49292,1,0,0:0:0:0:
182,192,49386,1,0,0:0:0:0:
36,192,49480,1,0,0:0:0:0:
475,192,49480,1,0,0:0:0:0:
256,192,49480,1,0,0:0:0:0:
402,192,49573,1,0,0:0:0:0:
109,192,49667,1,0,0:0:0:0:
256,192,49667,1,0,0:0:0:0:
329,192,49761,1,0,0:0:0:0:
36,192,49855,1,0,0:0:0:0:
475,192,49855,1,0,0:0:0:0:
109,192,49855,1,0,0:0:0:0:
402,192,49855,1,0,0:0:0:0:
182,192,49948,1,0,0:0:0:0:
402,192,50042,1,0,0:0:0:0:
256,192,50042,1,0,0:0:0:0:
329,192,50136,1,0,0:0:0:0:
182,192,50230,1,0,0:0:0:0:
475,192,50230,1,0,0:0:0:0:
36,192,50230,1,0,0:0:0:0:
256,192,50323,1,0,0:0:0:0:
402,192,50417,1,0,0:0:0:0:
109,192,50417,1,0,0:0:0:0:
329,192,50511,1,0,0:0:0:0:
182,192,50605,1,0,0:0:0:0:
475,192,50605,1,0,0:0:0:0:
36,192,50605,1,0,0:0:0:0:
256,192,50605,1,0,0:0:0:0:
329,192,50698,1,0,0:0:0:0:
402,192,50792,1,0,0:0:0:0:
109,192,50792,1,0,0:0:0:0:
182,192,50886,1,0,0:0:0:0:
256,192,50980,1,0,0:0:0:0:
36,192,50980,1,0,0:0:0:0:
475,192,50980,1,0,0:0:0:0:
402,192,51073,1,0,0:0:0:0:
256,192,51167,1,0,0:0:0:0:
329,192,51167,1,0,0:0:0:0:
182,192,51261,1,0,0:0:0:0:
36,192,51355,1,0,0:0:0:0:
475,192,51355,1,0,0:0:0:0:
109,192,51355,1,0,0:0:0:0:
402,192,51355,1,0,0:0:0:0:
329,192,51448,1,0,0:0:0:0:
182,192,51542,1,0,0:0:0:0:
256,192,51542,1,0,0:0:0:0:
36,192,51542,1,0,0:0:0:0:
475,192,51636,1,0,0:0:0:0:
256,192,51730,1,0,0:0:0:0:
329,192,51730,1,0,0:0:0:0:
109,192,51730,1,0,0:0:0:0:
402,192,51823,1,0,0:0:0:0:
109,192,51917,1,0,0:0:0:0:
475,192,51917,1,0,0:0:0:0:
182,192,52011,1,0,0:0:0:0:
256,192,52105,1,0,0:0:0:0:
36,192,52105,1,0,0:0:0:0:
475,192,52105,1,0,0:0:0:0:
329,192,52105,1,0,0:0:0:0:
109,192,52198,1,0,0:0:0:0:
329,192,52292,1,0,0:0:0:0:
182,192,52292,1,0,0:0:0:0:
109,192,52386,1,0,0:0:0:0:
256,192,52480,1,0,0:0:0:0:
36,192,52480,1,0,0:0:0:0:
475,192,52480,1,0,0:0:0:0:
402,192,52573,1,0,0:0:0:0:
109,192,52667,1,0,0:0:0:0:
329,192,52667,1,0,0:0:0:0:
182,192,52761,1,0,0:0:0:0:
475,192,52855,1,0,0:0:0:0:
256,192,52855,1,0,0:0:0:0:
36,192,52855,1,0,0:0:0:0:
402,192,52855,1,0,0:0:0:0:
109,192,52948,1,0,0:0:0:0:
402,192,53042,1,0,0:0:0:0:
182,192,53042,1,0,0:0:0:0:
329,192,53136,1,0,0:0:0:0:
256,192,53230,1,0,0:0:0:0:
36,192,53230,1,0,0:0:0:0:
475,192,53230,1,0,0:0:0:0:
109,192,53323,1,0,0:0:0:0:
182,192,53417,1,0,0:0:0:0:
402,192,53417,1,0,0:0:0:0:
256,192,53511,1,0,0:0:0:0:
475,192,53605,1,0,0:0:0:0:
36,192,53605,1,0,0:0:0:0:
109,192,53605,1,0,0:0:0:0:
329,192,53605,1,0,0:0:0:0:
182,192,53698,1,0,0:0:0:0:
402,192,53792,1,0,0:0:0:0:
475,192,53792,1,0,0:0:0:0:
329,192,53886,1,0,0:0:0:0:
109,192,53980,1,0,0:0:0:0:
36,192,53980,1,0,0:0:0:0:
182,192,53980,1,0,0:0:0:0:
256,192,54073,1,0,0:0:0:0:
475,192,54167,1,0,0:0:0:0:
402,192,54167,1,0,0:0:0:0:
329,192,54261,1,0,0:0:0:0:
256,192,54355,1,0,0:0:0:0:
36,192,54355,1,0,0:0:0:0:
475,192,54355,1,0,0:0:0:0:
182,192,54448,1,0,0:0:0:0:
36,192,54542,1,0,0:0:0:0:
109,192,54542,1,0,0:0:0:0:
402,192,54542,1,0,0:0:0:0:
182,192,54636,1,0,0:0:0:0:
256,192,54636,1,0,0:0:0:0:
329,192,54636,1,0,0:0:0:0:
109,192,54730,1,0,0:0:0:0:
402,192,54730,1,0,0:0:0:0:
475,192,54730,1,0,0:0:0:0:
329,192,54823,1,0,0:0:0:0:
475,192,54917,1,0,0:0:0:0:
36,192,54917,1,0,0:0:0:0:
256,192,55011,1,0,0:0:0:0:
182,192,55105,1,0,0:0:0:0:
329,192,55105,1,0,0:0:0:0:
109,192,55105,1,0,0:0:0:0:
402,192,55105,1,0,0:0:0:0:
256,192,55198,1,0,0:0:0:0:
36,192,55292,1,0,0:0:0:0:
475,192,55292,1,0,0:0:0:0:
109,192,55386,1,0,0:0:0:0:
475,192,55480,1,0,0:0:0:0:
182,192,55480,1,0,0:0:0:0:
256,192,55480,1,0,0:0:0:0:
402,192,55573,1,0,0:0:0:0:
329,192,55667,1,0,0:0:0:0:
182,192,55667,1,0,0:0:0:0:
109,192,55761,1,0,0:0:0:0:
329,192,55855,1,0,0:0:0:0:
475,192,55855,1,0,0:0:0:0:
256,192,55855,1,0,0:0:0:0:
36,192,55855,1,0,0:0:0:0:
182,192,55948,1,0,0:0:0:0:
109,192,56042,1,0,0:0:0:0:
402,192,56042,1,0,0:0:0:0:
329,192,56136,1,0,0:0:0:0:
256,192,56230,1,0,0:0:0:0:
36,192,56230,1,0,0:0:0:0:
475,192,56230,1,0,0:0:0:0:
329,192,56323,1,0,0:0:0:0:
109,192,56417,1,0,0:0:0:0:
402,192,56417,1,0,0:0:0:0:
182,192,56511,1,0,0:0:0:0:
329,192,56605,1,0,0:0:0:0:
36,192,56605,1,0,0:0:0:0:
475,192,56605,1,0,0:0:0:0:
256,192,56605,1,0,0:0:0:0:
109,192,56698,1,0,0:0:0:0:
329,192,56792,1,0,0:0:0:0:
182,192,56792,1,0,0:0:0:0:
402,192,56886,1,0,0:0:0:0:
256,192,56980,1,0,0:0:0:0:
475,192,56980,1,0,0:0:0:0:
36,192,56980,1,0,0:0:0:0:
182,192,57073,1,0,0:0:0:0:
109,192,57167,1,0,0:0:0:0:
402,192,57167,1,0,0:0:0:0:
329,192,57261,1,0,0:0:0:0:
475,192,57355,1,0,0:0:0:0:
36,192,57355,1,0,0:0:0:0:
402,192,57355,1,0,0:0:0:0:
256,192,57355,1,0,0:0:0:0:
109,192,57448,1,0,0:0:0:0:
402,192,57542,1,0,0:0:0:0:
329,192,57542,1,0,0:0:0:0:
182,192,57542,1,0,0:0:0:0:
475,192,57636,1,0,0:0:0:0:
329,192,57730,1,0,0:0:0:0:
256,192,57730,1,0,0:0:0:0:
36,192,57730,1,0,0:0:0:0:
182,192,57823,1,0,0:0:0:0:
402,192,57917,1,0,0:0:0:0:
109,192,57917,1,0,0:0:0:0:
329,192,58011,1,0,0:0:0:0:
256,192,58105,1,0,0:0:0:0:
475,192,58105,1,0,0:0:0:0:
36,192,58105,1,0,0:0:0:0:
182,192,58105,1,0,0:0:0:0:
109,192,58198,1,0,0:0:0:0:
182,192,58292,1,0,0:0:0:0:
329,192,58292,1,0,0:0:0:0:
402,192,58386,1,0,0:0:0:0:
36,192,58480,1,0,0:0:0:0:
475,192,58480,1,0,0:0:0:0:
109,192,58480,1,0,0:0:0:0:
182,192,58573,1,0,0:0:0:0:
402,192,58667,1,0,0:0:0:0:
256,192,58667,1,0,0:0:0:0:
329,192,58761,1,0,0:0:0:0:
36,192,58855,1,0,0:0:0:0:
256,192,58855,1,0,0:0:0:0:
475,192,58855,1,0,0:0:0:0:
109,192,58855,1,0,0:0:0:0:
402,192,58948,1,0,0:0:0:0:
329,192,59042,1,0,0:0:0:0:
182,192,59042,1,0,0:0:0:0:
109,192,59136,1,0,0:0:0:0:
256,192,59230,1,0,0:0:0:0:
475,192,59230,1,0,0:0:0:0:
36,192,59230,1,0,0:0:0:0:
402,192,59323,1,0,0:0:0:0:
329,192,59417,1,0,0:0:0:0:
109,192,59417,1,0,0:0:0:0:
182,192,59511,1,0,0:0:0:0:
36,192,59605,1,0,0:0:0:0:
329,192,59605,1,0,0:0:0:0:
256,192,59605,1,0,0:0:0:0:
475,192,59605,1,0,0:0:0:0:
402,192,59698,1,0,0:0:0:0:
475,192,59792,1,0,0:0:0:0:
36,192,59792,1,0,0:0:0:0:
109,192,59886,1,0,0:0:0:0:
256,192,59980,1,0,0:0:0:0:
182,192,59980,1,0,0:0:0:0:
329,192,59980,1,0,0:0:0:0:
402,192,60073,1,0,0:0:0:0:
182,192,60167,1,0,0:0:0:0:
475,192,60167,1,0,0:0:0:0:
256,192,60261,1,0,0:0:0:0:
36,192,60355,1,0,0:0:0:0:
402,192,60355,1,0,0:0:0:0:
109,192,60355,1,0,0:0:0:0:
329,192,60355,1,0,0:0:0:0:
182,192,60448,1,0,0:0:0:0:
256,192,60542,1,0,0:0:0:0:
402,192,60542,1,0,0:0:0:0:
475,192,60542,1,0,0:0:0:0:
109,192,60636,1,0,0:0:0:0:
36,192,60636,1,0,0:0:0:0:
402,192,60730,1,0,0:0:0:0:
475,192,60730,1,0,0:0:0:0:
182,192,60730,1,0,0:0:0:0:
329,192,60730,1,0,0:0:0:0:
256,192,60730,1,0,0:0:0:0:
36,192,60823,1,0,0:0:0:0:
109,192,60917,1,0,0:0:0:0:
329,192,60917,1,0,0:0:0:0:
182,192,61011,1,0,0:0:0:0:
36,192,61105,1,0,0:0:0:0:
475,192,61105,1,0,0:0:0:0:
109,192,61105,1,0,0:0:0:0:
329,192,61105,1,0,0:0:0:0:
256,192,61198,1,0,0:0:0:0:
475,192,61292,1,0,0:0:0:0:
182,192,61292,1,0,0:0:0:0:
402,192,61386,1,0,0:0:0:0:
36,192,61480,1,0,0:0:0:0:
329,192,61480,1,0,0:0:0:0:
256,192,61480,1,0,0:0:0:0:
109,192,61573,1,0,0:0:0:0:
182,192,61667,1,0,0:0:0:0:
329,192,61667,1,0,0:0:0:0:
402,192,61761,1,0,0:0:0:0:
182,192,61855,1,0,0:0:0:0:
36,192,61855,1,0,0:0:0:0:
256,192,61855,1,0,0:0:0:0:
475,192,61855,1,0,0:0:0:0:
329,192,61948,1,0,0:0:0:0:
402,192,62042,1,0,0:0:0:0:
109,192,62042,1,0,0:0:0:0:
182,192,62136,1,0,0:0:0:0:
256,192,62230,1,0,0:0:0:0:
475,192,62230,1,0,0:0:0:0:
36,192,62230,1,0,0:0:0:0:
182,192,62323,1,0,0:0:0:0:
402,192,62417,1,0,0:0:0:0:
109,192,62417,1,0,0:0:0:0:
329,192,62511,1,0,0:0:0:0:
182,192,62605,1,0,0:0:0:0:
475,192,62605,1,0,0:0:0:0:
36,192,62605,1,0,0:0:0:0:
256,192,62605,1,0,0:0:0:0:
402,192,62698,1,0,0:0:0:0:
182,192,62792,1,0,0:0:0:0:
329,192,62792,1,0,0:0:0:0:
109,192,62886,1,0,0:0:0:0:
256,192,62980,1,0,0:0:0:0:
36,192,62980,1,0,0:0:0:0:
475,192,62980,1,0,0:0:0:0:
329,192,63073,1,0,0:0:0:0:
402,192,63167,1,0,0:0:0:0:
109,192,63167,1,0,0:0:0:0:
182,192,63261,1,0,0:0:0:0:
36,192,63355,1,0,0:0:0:0:
109,192,63355,1,0,0:0:0:0:
475,192,63355,1,0,0:0:0:0:
256,192,63355,1,0,0:0:0:0:
402,192,63448,1,0,0:0:0:0:
109,192,63542,1,0,0:0:0:0:
256,192,63542,1,0,0:0:0:0:
329,192,63542,1,0,0:0:0:0:
36,192,63636,1,0,0:0:0:0:
182,192,63730,1,0,0:0:0:0:
475,192,63730,1,0,0:0:0:0:
402,192,63730,1,0,0:0:0:0:
329,192,63823,1,0,0:0:0:0:
109,192,63917,1,0,0:0:0:0:
182,192,63917,1,0,0:0:0:0:
256,192,64011,1,0,0:0:0:0:
109,192,64105,1,0,0:0:0:0:
36,192,64105,1,0,0:0:0:0:
475,192,64105,1,0,0:0:0:0:
402,192,64105,1,0,0:0:0:0:
329,192,64198,1,0,0:0:0:0:
256,192,64292,1,0,0:0:0:0:
182,192,64292,1,0,0:0:0:0:
109,192,64386,1,0,0:0:0:0:
402,192,64480,1,0,0:0:0:0:
36,192,64480,1,0,0:0:0:0:
475,192,64480,1,0,0:0:0:0:
329,192,64573,1,0,0:0:0:0:
256,192,64667,1,0,0:0:0:0:
36,192,64667,1,0,0:0:0:0:
109,192,64761,1,0,0:0:0:0:
475,192,64855,1,0,0:0:0:0:
256,192,64855,1,0,0:0:0:0:
402,192,64855,1,0,0:0:0:0:
182,192,64855,1,0,0:0:0:0:
36,192,64948,1,0,0:0:0:0:
402,192,65042,1,0,0:0:0:0:
109,192,65042,1,0,0:0:0:0:
329,192,65136,1,0,0:0:0:0:
256,192,65230,1,0,0:0:0:0:
36,192,65230,1,0,0:0:0:0:
475,192,65230,1,0,0:0:0:0:
109,192,65323,1,0,0:0:0:0:
182,192,65417,1,0,0:0:0:0:
256,192,65417,1,0,0:0:0:0:
329,192,65511,1,0,0:0:0:0:
475,192,65605,1,0,0:0:0:0:
109,192,65605,1,0,0:0:0:0:
36,192,65605,1,0,0:0:0:0:
402,192,65605,1,0,0:0:0:0:
182,192,65698,1,0,0:0:0:0:
256,192,65792,1,0,0:0:0:0:
475,192,65792,1,0,0:0:0:0:
402,192,65886,1,0,0:0:0:0:
329,192,65980,1,0,0:0:0:0:
36,192,65980,1,0,0:0:0:0:
109,192,65980,1,0,0:0:0:0:
182,192,66073,1,0,0:0:0:0:
402,192,66167,1,0,0:0:0:0:
256,192,66167,1,0,0:0:0:0:
329,192,66261,1,0,0:0:0:0:
182,192,66355,1,0,0:0:0:0:
256,192,66355,1,0,0:0:0:0:
475,192,66355,1,0,0:0:0:0:
36,192,66355,1,0,0:0:0:0:
402,192,66448,1,0,0:0:0:0:
36,192,66542,1,0,0:0:0:0:
109,192,66542,1,0,0:0:0:0:
329,192,66542,1,0,0:0:0:0:
182,192,66636,1,0,0:0:0:0:
256,192,66636,1,0,0:0:0:0:
475,192,66636,1,0,0:0:0:0:
109,192,66730,1,0,0:0:0:0:
402,192,66730,1,0,0:0:0:0:
329,192,66730,1,0,0:0:0:0:
36,192,66730,1,0,0:0:0:0:
256,192,66823,1,0,0:0:0:0:
402,192,66917,1,0,0:0:0:0:
109,192,66917,1,0,0:0:0:0:
256,192,67011,1,0,0:0:0:0:
475,192,67105,1,0,0:0:0:0:
36,192,67105,1,0,0:0:0:0:
182,192,67105,1,0,0:0:0:0:
329,192,67105,1,0,0:0:0:0:
109,192,67198,1,0,0:0:0:0:
329,192,67292,1,0,0:0:0:0:
182,192,67292,1,0,0:0:0:0:
402,192,67386,1,0,0:0:0:0:
182,192,67480,1,0,0:0:0:0:
329,192,67480,1,0,0:0:0:0:
475,192,67480,1,0,0:0:0:0:
36,192,67480,1,0,0:0:0:0:
256,192,67573,1,0,0:0:0:0:
109,192,67667,1,0,0:0:0:0:
402,192,67667,1,0,0:0:0:0:
256,192,67761,1,0,0:0:0:0:
475,192,67855,1,0,0:0:0:0:
36,192,67855,1,0,0:0:0:0:
182,192,67855,1,0,0:0:0:0:
329,192,67855,1,0,0:0:0:0:
109,192,67948,1,0,0:0:0:0:
182,192,68042,1,0,0:0:0:0:
402,192,68042,1,0,0:0:0:0:
329,192,68136,1,0,0:0:0:0:
475,192,68230,1,0,0:0:0:0:
36,192,68230,1,0,0:0:0:0:
109,192,68230,1,0,0:0:0:0:
402,192,68230,1,0,0:0:0:0:
256,192,68323,1,0,0:0:0:0:
475,192,68417,1,0,0:0:0:0:
36,192,68417,1,0,0:0:0:0:
256,192,68511,1,0,0:0:0:0:
329,192,68605,1,0,0:0:0:0:
182,192,68605,1,0,0:0:0:0:
402,192,68605,1,0,0:0:0:0:
109,192,68605,1,0,0:0:0:0:
36,192,68698,1,0,0:0:0:0:
329,192,68792,1,0,0:0:0:0:
182,192,68792,1,0,0:0:0:0:
475,192,68886,1,0,0:0:0:0:
109,192,68980,1,0,0:0:0:0:
402,192,68980,1,0,0:0:0:0:
329,192,68980,1,0,0:0:0:0:
182,192,68980,1,0,0:0:0:0:
256,192,69073,1,0,0:0:0:0:
36,192,69167,1,0,0:0:0:0:
475,192,69167,1,0,0:0:0:0:
256,192,69261,1,0,0:0:0:0:
475,192,69355,1,0,0:0:0:0:
109,192,69355,1,0,0:0:0:0:
36,192,69355,1,0,0:0:0:0:
402,192,69355,1,0,0:0:0:0:
182,192,69448,1,0,0:0:0:0:
475,192,69542,1,0,0:0:0:0:
256,192,69542,1,0,0:0:0:0:
329,192,69636,1,0,0:0:0:0:
36,192,69730,1,0,0:0:0:0:
402,192,69730,1,0,0:0:0:0:
475,192,69730,1,0,0:0:0:0:
256,192,69730,1,0,0:0:0:0:
182,192,69823,1,0,0:0:0:0:
402,192,69917,1,0,0:0:0:0:
109,192,69917,1,0,0:0:0:0:
256,192,69917,1,0,0:0:0:0:
329,192,70011,1,0,0:0:0:0:
475,192,70105,1,0,0:0:0:0:
36,192,70105,1,0,0:0:0:0:
109,192,70105,1,0,0:0:0:0:
402,192,70105,1,0,0:0:0:0:
182,192,70198,1,0,0:0:0:0:
256,192,70292,1,0,0:0:0:0:
36,192,70292,1,0,0:0:0:0:
475,192,70292,1,0,0:0:0:0:
402,192,70386,1,0,0:0:0:0:
475,192,70480,1,0,0:0:0:0:
36,192,70480,1,0,0:0:0:0:
182,192,70480,1,0,0:0:0:0:
329,192,70480,1,0,0:0:0:0:
109,192,70573,1,0,0:0:0:0:
256,192,70667,1,0,0:0:0:0:
182,192,70667,1,0,0:0:0:0:
329,192,70667,1,0,0:0:0:0:
402,192,70761,1,0,0:0:0:0:
182,192,70855,1,0,0:0:0:0:
329,192,70855,1,0,0:0:0:0:
475,192,70855,1,0,0:0:0:0:
36,192,70855,1,0,0:0:0:0:
109,192,70948,1,0,0:0:0:0:
329,192,71042,1,0,0:0:0:0:
182,192,71042,1,0,0:0:0:0:
402,192,71042,1,0,0:0:0:0:
256,192,71136,1,0,0:0:0:0:
475,192,71230,1,0,0:0:0:0:
402,192,71230,1,0,0:0:0:0:
109,192,71230,1,0,0:0:0:0:
36,192,71230,1,0,0:0:0:0:
256,192,71323,1,0,0:0:0:0:
109,192,71417,1,0,0:0:0:0:
182,192,71417,1,0,0:0:0:0:
329,192,71417,1,0,0:0:0:0:
402,192,71511,1,0,0:0:0:0:
329,192,71605,1,0,0:0:0:0:
182,192,71605,1,0,0:0:0:0:
475,192,71605,1,0,0:0:0:0:
36,192,71605,1,0,0:0:0:0:
109,192,71698,1,0,0:0:0:0:
402,192,71792,1,0,0:0:0:0:
475,192,71792,1,0,0:0:0:0:
256,192,71792,1,0,0:0:0:0:
329,192,71886,1,0,0:0:0:0:
36,192,71980,1,0,0:0:0:0:
109,192,71980,1,0,0:0:0:0:
182,192,71980,1,0,0:0:0:0:
475,192,71980,1,0,0:0:0:0:
329,192,72073,1,0,0:0:0:0:
402,192,72073,1,0,0:0:0:0:
256,192,72073,1,0,0:0:0:0:
182,192,72167,1,0,0:0:0:0:
109,192,72167,1,0,0:0:0:0:
36,192,72167,1,0,0:0:0:0:
402,192,72261,1,0,0:0:0:0:
329,192,72261,1,0,0:0:0:0:
475,192,72261,1,0,0:0:0:0:
182,192,72355,1,0,0:0:0:0:
109,192,72355,1,0,0:0:0:0:
36,192,72355,1,0,0:0:0:0:
256,192,72355,1,0,0:0:0:0:
329,192,72448,1,0,0:0:0:0:
402,192,72448,1,0,0:0:0:0:
475,192,72448,1,0,0:0:0:0:
36,192,72542,1,0,0:0:0:0:
109,192,72542,1,0,0:0:0:0:
256,192,72542,1,0,0:0:0:0:
182,192,72636,1,0,0:0:0:0:
329,192,72636,1,0,0:0:0:0:
402,192,72730,1,0,0:0:0:0:
475,192,72730,1,0,0:0:0:0:
36,192,72730,1,0,0:0:0:0:
109,192,72730,1,0,0:0:0:0:
256,192,72730,1,0,0:0:0:0:
109,192,72917,1,0,0:0:0:0:
36,192,72917,1,0,0:0:0:0:
182,192,73292,1,0,0:0:0:0:
256,192,73386,1,0,0:0:0:0:
329,192,73480,1,0,0:0:0:0:
109,192,73667,1,0,0:0:0:0:
256,192,73855,1,0,0:0:0:0:
402,192,74042,1,0,0:0:0:0:
36,192,74230,1,0,0:0:0:0:
329,192,74230,1,0,0:0:0:0:
36,192,74417,1,0,0:0:0:0:
109,192,74417,1,0,0:0:0:0:
475,192,74511,1,0,0:0:0:0:
36,192,74792,1,0,0:0:0:0:
109,192,74886,1,0,0:0:0:0:
475,192,74980,1,0,0:0:0:0:
402,192,75073,1,0,0:0:0:0:
256,192,75167,1,0,0:0:0:0:
109,192,75261,1,0,0:0:0:0:
36,192,75355,1,0,0:0:0:0:
182,192,75448,1,0,0:0:0:0:
329,192,75542,1,0,0:0:0:0:
475,192,75636,1,0,0:0:0:0:
256,192,75730,1,0,0:0:0:0:
36,192,75730,1,0,0:0:0:0:
36,192,75917,1,0,0:0:0:0:
109,192,75917,1,0,0:0:0:0:
329,192,76011,1,0,0:0:0:0:
182,192,76292,1,0,0:0:0:0:
402,192,76480,1,0,0:0:0:0:
329,192,76667,1,0,0:0:0:0:
182,192,76761,1,0,0:0:0:0:
329,192,76855,1,0,0:0:0:0:
402,192,76948,1,0,0:0:0:0:
256,192,77042,1,0,0:0:0:0:
182,192,77136,1,0,0:0:0:0:
36,192,77230,1,0,0:0:0:0:
402,192,77230,1,0,0:0:0:0:
36,192,77417,1,0,0:0:0:0:
109,192,77417,1,0,0:0:0:0:
329,192,77511,1,0,0:0:0:0:
182,192,77792,1,0,0:0:0:0:
256,192,77886,1,0,0:0:0:0:
329,192,77980,1,0,0:0:0:0:
109,192,78167,1,0,0:0:0:0:
182,192,78261,1,0,0:0:0:0:
402,192,78355,1,0,0:0:0:0:
329,192,78448,1,0,0:0:0:0:
256,192,78542,1,0,0:0:0:0:
182,192,78636,1,0,0:0:0:0:
109,192,78730,1,0,0:0:0:0:
36,192,78730,1,0,0:0:0:0:
109,192,78917,1,0,0:0:0:0:
36,192,78917,1,0,0:0:0:0:
182,192,79105,1,0,0:0:0:0:
256,192,79292,1,0,0:0:0:0:
475,192,79480,1,0,0:0:0:0:
402,192,79667,1,0,0:0:0:0:
256,192,79855,1,0,0:0:0:0:
329,192,80042,1,0,0:0:0:0:
475,192,80230,1,0,0:0:0:0:
36,192,80230,1,0,0:0:0:0:
402,192,80323,1,0,0:0:0:0:
329,192,80417,1,0,0:0:0:0:
36,192,80417,1,0,0:0:0:0:
256,192,80511,1,0,0:0:0:0:
109,192,80605,1,0,0:0:0:0:
182,192,80698,1,0,0:0:0:0:
256,192,80792,1,0,0:0:0:0:
329,192,80886,1,0,0:0:0:0:
475,192,80980,1,0,0:0:0:0:
402,192,81073,1,0,0:0:0:0:
182,192,81167,1,0,0:0:0:0:
109,192,81261,1,0,0:0:0:0:
36,192,81355,1,0,0:0:0:0:
329,192,81448,1,0,0:0:0:0:
402,192,81542,1,0,0:0:0:0:
475,192,81636,1,0,0:0:0:0:
256,192,81730,1,0,0:0:0:0:
36,192,81730,1,0,0:0:0:0:
36,192,81917,1,0,0:0:0:0:
109,192,81917,1,0,0:0:0:0:
182,192,82292,1,0,0:0:0:0:
256,192,82386,1,0,0:0:0:0:
329,192,82480,1,0,0:0:0:0:
109,192,82667,1,0,0:0:0:0:
182,192,82855,1,0,0:0:0:0:
475,192,83042,1,0,0:0:0:0:
402,192,83230,1,0,0:0:0:0:
36,192,83230,1,0,0:0:0:0:
36,192,83417,1,0,0:0:0:0:
109,192,83417,1,0,0:0:0:0:
182,192,83792,1,0,0:0:0:0:
256,192,83886,1,0,0:0:0:0:
475,192,83980,1,0,0:0:0:0:
329,192,84167,1,0,0:0:0:0:
182,192,84355,1,0,0:0:0:0:
36,192,84542,1,0,0:0:0:0:
109,192,84730,1,0,0:0:0:0:
256,192,84730,1,0,0:0:0:0:
402,192,84730,1,0,0:0:0:0:
329,192,84823,1,0,0:0:0:0:
182,192,84917,1,0,0:0:0:0:
475,192,84917,1,0,0:0:0:0:
109,192,85011,1,0,0:0:0:0:
329,192,85105,1,0,0:0:0:0:
182,192,85105,1,0,0:0:0:0:
109,192,85198,1,0,0:0:0:0:
329,192,85292,1,0,0:0:0:0:
36,192,85292,1,0,0:0:0:0:
475,192,85386,1,0,0:0:0:0:
256,192,85480,1,0,0:0:0:0:
109,192,85480,1,0,0:0:0:0:
402,192,85480,1,0,0:0:0:0:
182,192,85573,1,0,0:0:0:0:
329,192,85667,1,0,0:0:0:0:
109,192,85667,1,0,0:0:0:0:
402,192,85761,1,0,0:0:0:0:
256,192,85855,1,0,0:0:0:0:
36,192,85855,1,0,0:0:0:0:
182,192,85948,1,0,0:0:0:0:
329,192,86042,1,0,0:0:0:0:
402,192,86042,1,0,0:0:0:0:
475,192,86136,1,0,0:0:0:0:
256,192,86230,1,0,0:0:0:0:
329,192,86230,1,0,0:0:0:0:
182,192,86230,1,0,0:0:0:0:
109,192,86323,1,0,0:0:0:0:
402,192,86417,1,0,0:0:0:0:
475,192,86417,1,0,0:0:0:0:
329,192,86511,1,0,0:0:0:0:
256,192,86605,1,0,0:0:0:0:
36,192,86605,1,0,0:0:0:0:
182,192,86698,1,0,0:0:0:0:
109,192,86792,1,0,0:0:0:0:
402,192,86792,1,0,0:0:0:0:
475,192,86792,1,0,0:0:0:0:
329,192,86886,1,0,0:0:0:0:
256,192,86980,1,0,0:0:0:0:
475,192,86980,1,0,0:0:0:0:
182,192,86980,1,0,0:0:0:0:
329,192,87073,1,0,0:0:0:0:
109,192,87167,1,0,0:0:0:0:
402,192,87167,1,0,0:0:0:0:
36,192,87167,1,0,0:0:0:0:
182,192,87261,1,0,0:0:0:0:
36,192,87355,1,0,0:0:0:0:
475,192,87355,1,0,0:0:0:0:
256,192,87355,1,0,0:0:0:0:
402,192,87448,1,0,0:0:0:0:
182,192,87542,1,0,0:0:0:0:
329,192,87542,1,0,0:0:0:0:
109,192,87636,1,0,0:0:0:0:
36,192,87730,1,0,0:0:0:0:
475,192,87730,1,0,0:0:0:0:
256,192,87730,1,0,0:0:0:0:
182,192,87823,1,0,0:0:0:0:
329,192,87917,1,0,0:0:0:0:
109,192,87917,1,0,0:0:0:0:
402,192,88011,1,0,0:0:0:0:
36,192,88105,1,0,0:0:0:0:
475,192,88105,1,0,0:0:0:0:
182,192,88198,1,0,0:0:0:0:
329,192,88292,1,0,0:0:0:0:
109,192,88292,1,0,0:0:0:0:
475,192,88386,1,0,0:0:0:0:
402,192,88480,1,0,0:0:0:0:
256,192,88480,1,0,0:0:0:0:
109,192,88480,1,0,0:0:0:0:
182,192,88573,1,0,0:0:0:0:
36,192,88667,1,0,0:0:0:0:
329,192,88667,1,0,0:0:0:0:
402,192,88761,1,0,0:0:0:0:
475,192,88855,1,0,0:0:0:0:
109,192,88855,1,0,0:0:0:0:
329,192,88948,1,0,0:0:0:0:
36,192,89042,1,0,0:0:0:0:
402,192,89042,1,0,0:0:0:0:
182,192,89136,1,0,0:0:0:0:
256,192,89230,1,0,0:0:0:0:
475,192,89230,1,0,0:0:0:0:
36,192,89230,1,0,0:0:0:0:
329,192,89323,1,0,0:0:0:0:
402,192,89417,1,0,0:0:0:0:
36,192,89511,1,0,0:0:0:0:
256,192,89511,1,0,0:0:0:0:
182,192,89605,1,0,0:0:0:0:
329,192,89605,1,0,0:0:0:0:
36,192,89698,1,0,0:0:0:0:
109,192,89792,1,0,0:0:0:0:
475,192,89792,1,0,0:0:0:0:
402,192,89792,1,0,0:0:0:0:
182,192,89886,1,0,0:0:0:0:
256,192,89980,1,0,0:0:0:0:
329,192,89980,1,0,0:0:0:0:
109,192,89980,1,0,0:0:0:0:
475,192,90073,1,0,0:0:0:0:
182,192,90167,1,0,0:0:0:0:
36,192,90167,1,0,0:0:0:0:
402,192,90167,1,0,0:0:0:0:
256,192,90261,1,0,0:0:0:0:
402,192,90355,1,0,0:0:0:0:
329,192,90355,1,0,0:0:0:0:
109,192,90355,1,0,0:0:0:0:
182,192,90448,1,0,0:0:0:0:
475,192,90542,1,0,0:0:0:0:
36,192,90542,1,0,0:0:0:0:
402,192,90636,1,0,0:0:0:0:
256,192,90730,1,0,0:0:0:0:
475,192,90730,1,0,0:0:0:0:
36,192,90730,1,0,0:0:0:0:
182,192,90823,1,0,0:0:0:0:
109,192,90917,1,0,0:0:0:0:
402,192,90917,1,0,0:0:0:0:
329,192,91011,1,0,0:0:0:0:
256,192,91105,1,0,0:0:0:0:
36,192,91105,1,0,0:0:0:0:
182,192,91198,1,0,0:0:0:0:
109,192,91292,1,0,0:0:0:0:
402,192,91292,1,0,0:0:0:0:
329,192,91386,1,0,0:0:0:0:
256,192,91480,1,0,0:0:0:0:
475,192,91480,1,0,0:0:0:0:
36,192,91480,1,0,0:0:0:0:
402,192,91573,1,0,0:0:0:0:
329,192,91667,1,0,0:0:0:0:
109,192,91667,1,0,0:0:0:0:
36,192,91761,1,0,0:0:0:0:
256,192,91855,1,0,0:0:0:0:
475,192,91855,1,0,0:0:0:0:
182,192,91948,1,0,0:0:0:0:
109,192,92042,1,0,0:0:0:0:
402,192,92042,1,0,0:0:0:0:
36,192,92136,1,0,0:0:0:0:
182,192,92230,1,0,0:0:0:0:
256,192,92230,1,0,0:0:0:0:
329,192,92230,1,0,0:0:0:0:
402,192,92323,1,0,0:0:0:0:
36,192,92417,1,0,0:0:0:0:
475,192,92417,1,0,0:0:0:0:
109,192,92511,1,0,0:0:0:0:
182,192,92605,1,0,0:0:0:0:
256,192,92605,1,0,0:0:0:0:
329,192,92698,1,0,0:0:0:0:
402,192,92792,1,0,0:0:0:0:
109,192,92792,1,0,0:0:0:0:
182,192,92886,1,0,0:0:0:0:
256,192,92980,1,0,0:0:0:0:
36,192,92980,1,0,0:0:0:0:
475,192,92980,1,0,0:0:0:0:
329,192,93073,1,0,0:0:0:0:
402,192,93167,1,0,0:0:0:0:
109,192,93167,1,0,0:0:0:0:
182,192,93167,1,0,0:0:0:0:
256,192,93261,1,0,0:0:0:0:
475,192,93355,1,0,0:0:0:0:
36,192,93355,1,0,0:0:0:0:
329,192,93355,1,0,0:0:0:0:
109,192,93448,1,0,0:0:0:0:
329,192,93542,1,0,0:0:0:0:
402,192,93542,1,0,0:0:0:0:
256,192,93542,1,0,0:0:0:0:
182,192,93636,1,0,0:0:0:0:
109,192,93636,1,0,0:0:0:0:
36,192,93636,1,0,0:0:0:0:
329,192,93730,1,0,0:0:0:0:
402,192,93730,1,0,0:0:0:0:
475,192,93730,1,0,0:0:0:0:
256,192,93823,1,0,0:0:0:0:
36,192,93917,1,0,0:0:0:0:
109,192,93917,1,0,0:0:0:0:
256,192,94011,1,0,0:0:0:0:
329,192,94105,1,0,0:0:0:0:
475,192,94105,1,0,0:0:0:0:
182,192,94198,1,0,0:0:0:0:
36,192,94292,1,0,0:0:0:0:
256,192,94292,1,0,0:0:0:0:
329,192,94386,1,0,0:0:0:0:
475,192,94480,1,0,0:0:0:0:
36,192,94480,1,0,0:0:0:0:
402,192,94480,1,0,0:0:0:0:
109,192,94573,1,0,0:0:0:0:
182,192,94667,1,0,0:0:0:0:
329,192,94667,1,0,0:0:0:0:
402,192,94761,1,0,0:0:0:0:
475,192,94855,1,0,0:0:0:0:
256,192,94855,1,0,0:0:0:0:
329,192,94948,1,0,0:0:0:0:
109,192,95042,1,0,0:0:0:0:
402,192,95042,1,0,0:0:0:0:
182,192,95136,1,0,0:0:0:0:
256,192,95230,1,0,0:0:0:0:
475,192,95230,1,0,0:0:0:0:
36,192,95230,1,0,0:0:0:0:
256,192,95605,1,0,0:0:0:0:
36,192,95605,1,0,0:0:0:0:
475,192,95605,1,0,0:0:0:0:
256,192,95980,1,0,0:0:0:0:
109,192,95980,1,0,0:0:0:0:
402,192,95980,1,0,0:0:0:0:
256,192,96355,1,0,0:0:0:0:
109,192,96355,1,0,0:0:0:0:
402,192,96355,1,0,0:0:0:0:
256,192,96542,1,0,0:0:0:0:
36,192,96542,1,0,0:0:0:0:
475,192,96542,1,0,0:0:0:0:
182,192,96636,1,0,0:0:0:0:
329,192,96636,1,0,0:0:0:0:
109,192,96730,1,0,0:0:0:0:
36,192,96730,1,0,0:0:0:0:
402,192,96730,1,0,0:0:0:0:
475,192,96730,1,0,0:0:0:0:
256,192,96730,128,0,99355:0:0:0:0:
329,192,98980,128,0,99355:0:0:0:0:
182,192,99355,128,0,99730:0:0:0:0:
402,192,99730,1,0,0:0:0:0:
475,192,99730,1,0,0:0:0:0:
256,192,99730,1,0,0:0:0:0:
109,192,99730,1,0,0:0:0:0:
36,192,99730,1,0,0:0:0:0:
182,192,99823,1,0,0:0:0:0:
329,192,99823,1,0,0:0:0:0:
402,192,99917,1,0,0:0:0:0:
109,192,99917,1,0,0:0:0:0:
475,192,100011,1,0,0:0:0:0:
256,192,100011,1,0,0:0:0:0:
109,192,100105,1,0,0:0:0:0:
182,192,100105,1,0,0:0:0:0:
329,192,100105,1,0,0:0:0:0:
402,192,100105,1,0,0:0:0:0:
256,192,100198,1,0,0:0:0:0:
36,192,100198,1,0,0:0:0:0:
109,192,100292,1,0,0:0:0:0:
329,192,100292,1,0,0:0:0:0:
182,192,100386,1,0,0:0:0:0:
402,192,100386,1,0,0:0:0:0:
256,192,100480,1,0,0:0:0:0:
475,192,100480,1,0,0:0:0:0:
36,192,100480,1,0,0:0:0:0:
182,192,100573,1,0,0:0:0:0:
329,192,100573,1,0,0:0:0:0:
109,192,100667,1,0,0:0:0:0:
402,192,100667,1,0,0:0:0:0:
182,192,100761,1,0,0:0:0:0:
329,192,100761,1,0,0:0:0:0:
402,192,100855,1,0,0:0:0:0:
475,192,100855,1,0,0:0:0:0:
36,192,100855,1,0,0:0:0:0:
109,192,100855,1,0,0:0:0:0:
329,192,100948,1,0,0:0:0:0:
256,192,100948,1,0,0:0:0:0:
182,192,101042,1,0,0:0:0:0:
109,192,101042,1,0,0:0:0:0:
475,192,101136,1,0,0:0:0:0:
402,192,101136,1,0,0:0:0:0:
256,192,101230,1,0,0:0:0:0:
329,192,101230,1,0,0:0:0:0:
36,192,101230,1,0,0:0:0:0:
109,192,101323,1,0,0:0:0:0:
402,192,101323,1,0,0:0:0:0:
182,192,101417,1,0,0:0:0:0:
475,192,101417,1,0,0:0:0:0:
329,192,101511,1,0,0:0:0:0:
256,192,101511,1,0,0:0:0:0:
475,192,101605,1,0,0:0:0:0:
402,192,101605,1,0,0:0:0:0:
36,192,101605,1,0,0:0:0:0:
109,192,101605,1,0,0:0:0:0:
182,192,101698,1,0,0:0:0:0:
329,192,101698,1,0,0:0:0:0:
109,192,101792,1,0,0:0:0:0:
402,192,101792,1,0,0:0:0:0:
36,192,101886,1,0,0:0:0:0:
475,192,101886,1,0,0:0:0:0:
256,192,101980,1,0,0:0:0:0:
182,192,101980,1,0,0:0:0:0:
329,192,101980,1,0,0:0:0:0:
36,192,102073,1,0,0:0:0:0:
475,192,102073,1,0,0:0:0:0:
109,192,102167,1,0,0:0:0:0:
402,192,102167,1,0,0:0:0:0:
182,192,102261,1,0,0:0:0:0:
329,192,102261,1,0,0:0:0:0:
36,192,102355,1,0,0:0:0:0:
475,192,102355,1,0,0:0:0:0:
109,192,102355,1,0,0:0:0:0:
402,192,102355,1,0,0:0:0:0:
256,192,102448,1,0,0:0:0:0:
182,192,102448,1,0,0:0:0:0:
329,192,102542,1,0,0:0:0:0:
402,192,102542,1,0,0:0:0:0:
475,192,102542,1,0,0:0:0:0:
109,192,102636,1,0,0:0:0:0:
182,192,102636,1,0,0:0:0:0:
256,192,102730,1,0,0:0:0:0:
36,192,102730,1,0,0:0:0:0:
475,192,102730,1,0,0:0:0:0:
182,192,102823,1,0,0:0:0:0:
329,192,102823,1,0,0:0:0:0:
109,192,102917,1,0,0:0:0:0:
402,192,102917,1,0,0:0:0:0:
36,192,103011,1,0,0:0:0:0:
475,192,103011,1,0,0:0:0:0:
329,192,103105,1,0,0:0:0:0:
182,192,103105,1,0,0:0:0:0:
109,192,103105,1,0,0:0:0:0:
402,192,103105,1,0,0:0:0:0:
475,192,103198,1,0,0:0:0:0:
36,192,103198,1,0,0:0:0:0:
329,192,103292,1,0,0:0:0:0:
182,192,103292,1,0,0:0:0:0:
109,192,103386,1,0,0:0:0:0:
402,192,103386,1,0,0:0:0:0:
256,192,103480,1,0,0:0:0:0:
182,192,103480,1,0,0:0:0:0:
329,192,103480,1,0,0:0:0:0:
475,192,103573,1,0,0:0:0:0:
36,192,103573,1,0,0:0:0:0:
402,192,103667,1,0,0:0:0:0:
109,192,103667,1,0,0:0:0:0:
182,192,103761,1,0,0:0:0:0:
329,192,103761,1,0,0:0:0:0:
36,192,103855,1,0,0:0:0:0:
475,192,103855,1,0,0:0:0:0:
109,192,103855,1,0,0:0:0:0:
402,192,103855,1,0,0:0:0:0:
256,192,103948,1,0,0:0:0:0:
329,192,103948,1,0,0:0:0:0:
109,192,104042,1,0,0:0:0:0:
182,192,104042,1,0,0:0:0:0:
329,192,104136,1,0,0:0:0:0:
402,192,104136,1,0,0:0:0:0:
36,192,104230,1,0,0:0:0:0:
256,192,104230,1,0,0:0:0:0:
475,192,104230,1,0,0:0:0:0:
402,192,104323,1,0,0:0:0:0:
182,192,104323,1,0,0:0:0:0:
109,192,104417,1,0,0:0:0:0:
329,192,104417,1,0,0:0:0:0:
182,192,104511,1,0,0:0:0:0:
402,192,104511,1,0,0:0:0:0:
109,192,104605,1,0,0:0:0:0:
36,192,104605,1,0,0:0:0:0:
256,192,104605,1,0,0:0:0:0:
475,192,104605,1,0,0:0:0:0:
182,192,104698,1,0,0:0:0:0:
329,192,104698,1,0,0:0:0:0:
36,192,104792,1,0,0:0:0:0:
475,192,104792,1,0,0:0:0:0:
109,192,104886,1,0,0:0:0:0:
402,192,104886,1,0,0:0:0:0:
256,192,104980,1,0,0:0:0:0:
182,192,104980,1,0,0:0:0:0:
329,192,104980,1,0,0:0:0:0:
36,192,105073,1,0,0:0:0:0:
475,192,105073,1,0,0:0:0:0:
109,192,105167,1,0,0:0:0:0:
402,192,105167,1,0,0:0:0:0:
182,192,105261,1,0,0:0:0:0:
329,192,105261,1,0,0:0:0:0:
36,192,105355,1,0,0:0:0:0:
475,192,105355,1,0,0:0:0:0:
109,192,105355,1,0,0:0:0:0:
402,192,105355,1,0,0:0:0:0:
182,192,105448,1,0,0:0:0:0:
329,192,105448,1,0,0:0:0:0:
256,192,105542,1,0,0:0:0:0:
475,192,105542,1,0,0:0:0:0:
36,192,105542,1,0,0:0:0:0:
402,192,105636,1,0,0:0:0:0:
109,192,105636,1,0,0:0:0:0:
256,192,105730,1,0,0:0:0:0:
182,192,105730,1,0,0:0:0:0:
329,192,105730,1,0,0:0:0:0:
36,192,105730,1,0,0:0:0:0:
475,192,105730,1,0,0:0:0:0:
109,192,105823,1,0,0:0:0:0:
402,192,105823,1,0,0:0:0:0:
182,192,105917,1,0,0:0:0:0:
329,192,105917,1,0,0:0:0:0:
36,192,106011,1,0,0:0:0:0:
475,192,106011,1,0,0:0:0:0:
109,192,106105,1,0,0:0:0:0:
402,192,106105,1,0,0:0:0:0:
182,192,106105,1,0,0:0:0:0:
329,192,106105,1,0,0:0:0:0:
256,192,106198,1,0,0:0:0:0:
36,192,106198,1,0,0:0:0:0:
329,192,106292,1,0,0:0:0:0:
109,192,106292,1,0,0:0:0:0:
402,192,106386,1,0,0:0:0:0:
182,192,106386,1,0,0:0:0:0:
475,192,106480,1,0,0:0:0:0:
256,192,106480,1,0,0:0:0:0:
36,192,106480,1,0,0:0:0:0:
109,192,106573,1,0,0:0:0:0:
329,192,106573,1,0,0:0:0:0:
182,192,106667,1,0,0:0:0:0:
402,192,106667,1,0,0:0:0:0:
256,192,106761,1,0,0:0:0:0:
475,192,106761,1,0,0:0:0:0:
36,192,106855,1,0,0:0:0:0:
109,192,106855,1,0,0:0:0:0:
329,192,106855,1,0,0:0:0:0:
402,192,106855,1,0,0:0:0:0:
182,192,106948,1,0,0:0:0:0:
256,192,106948,1,0,0:0:0:0:
402,192,107042,1,0,0:0:0:0:
475,192,107042,1,0,0:0:0:0:
109,192,107136,1,0,0:0:0:0:
36,192,107136,1,0,0:0:0:0:
182,192,107230,1,0,0:0:0:0:
256,192,107230,1,0,0:0:0:0:
329,192,107230,1,0,0:0:0:0:
475,192,107230,1,0,0:0:0:0:
402,192,107230,1,0,0:0:0:0:
36,192,107323,1,0,0:0:0:0:
109,192,107323,1,0,0:0:0:0:
329,192,107417,1,0,0:0:0:0:
182,192,107417,1,0,0:0:0:0:
402,192,107511,1,0,0:0:0:0:
256,192,107511,1,0,0:0:0:0:
329,192,107605,1,0,0:0:0:0:
109,192,107605,1,0,0:0:0:0:
182,192,107605,1,0,0:0:0:0:
475,192,107605,1,0,0:0:0:0:
256,192,107698,1,0,0:0:0:0:
36,192,107698,1,0,0:0:0:0:
109,192,107792,1,0,0:0:0:0:
329,192,107792,1,0,0:0:0:0:
182,192,107886,1,0,0:0:0:0:
402,192,107886,1,0,0:0:0:0:
256,192,107980,1,0,0:0:0:0:
36,192,107980,1,0,0:0:0:0:
475,192,107980,1,0,0:0:0:0:
329,192,108073,1,0,0:0:0:0:
109,192,108073,1,0,0:0:0:0:
402,192,108167,1,0,0:0:0:0:
182,192,108167,1,0,0:0:0:0:
475,192,108261,1,0,0:0:0:0:
256,192,108261,1,0,0:0:0:0:
36,192,108355,1,0,0:0:0:0:
109,192,108355,1,0,0:0:0:0:
402,192,108355,1,0,0:0:0:0:
329,192,108355,1,0,0:0:0:0:
182,192,108448,1,0,0:0:0:0:
256,192,108448,1,0,0:0:0:0:
402,192,108542,1,0,0:0:0:0:
475,192,108542,1,0,0:0:0:0:
329,192,108542,1,0,0:0:0:0:
109,192,108636,1,0,0:0:0:0:
36,192,108636,1,0,0:0:0:0:
329,192,108730,1,0,0:0:0:0:
402,192,108730,1,0,0:0:0:0:
475,192,108730,1,0,0:0:0:0:
256,192,108730,1,0,0:0:0:0:
182,192,108730,1,0,0:0:0:0:
109,192,108823,1,0,0:0:0:0:
36,192,108823,1,0,0:0:0:0:
329,192,108917,1,0,0:0:0:0:
182,192,108917,1,0,0:0:0:0:
402,192,109011,1,0,0:0:0:0:
475,192,109011,1,0,0:0:0:0:
36,192,109105,1,0,0:0:0:0:
109,192,109105,1,0,0:0:0:0:
256,192,109105,1,0,0:0:0:0:
182,192,109105,1,0,0:0:0:0:
329,192,109198,1,0,0:0:0:0:
475,192,109198,1,0,0:0:0:0:
182,192,109292,1,0,0:0:0:0:
36,192,109292,1,0,0:0:0:0:
402,192,109386,1,0,0:0:0:0:
475,192,109386,1,0,0:0:0:0:
36,192,109480,1,0,0:0:0:0:
109,192,109480,1,0,0:0:0:0:
256,192,109480,1,0,0:0:0:0:
182,192,109480,1,0,0:0:0:0:
329,192,109480,1,0,0:0:0:0:
402,192,109573,1,0,0:0:0:0:
475,192,109573,1,0,0:0:0:0:
182,192,109667,1,0,0:0:0:0:
329,192,109667,1,0,0:0:0:0:
109,192,109761,1,0,0:0:0:0:
36,192,109761,1,0,0:0:0:0:
256,192,109855,1,0,0:0:0:0:
475,192,109855,1,0,0:0:0:0:
329,192,109855,1,0,0:0:0:0:
402,192,109855,1,0,0:0:0:0:
36,192,109948,1,0,0:0:0:0:
182,192,109948,1,0,0:0:0:0:
329,192,110042,1,0,0:0:0:0:
475,192,110042,1,0,0:0:0:0:
109,192,110136,1,0,0:0:0:0:
36,192,110136,1,0,0:0:0:0:
256,192,110230,1,0,0:0:0:0:
329,192,110230,1,0,0:0:0:0:
182,192,110230,1,0,0:0:0:0:
475,192,110230,1,0,0:0:0:0:
402,192,110230,1,0,0:0:0:0:
109,192,110323,1,0,0:0:0:0:
36,192,110323,1,0,0:0:0:0:
256,192,110417,1,0,0:0:0:0:
329,192,110417,1,0,0:0:0:0:
402,192,110511,1,0,0:0:0:0:
475,192,110511,1,0,0:0:0:0:
109,192,110605,1,0,0:0:0:0:
182,192,110605,1,0,0:0:0:0:
36,192,110605,1,0,0:0:0:0:
256,192,110605,1,0,0:0:0:0:
329,192,110698,1,0,0:0:0:0:
402,192,110698,1,0,0:0:0:0:
36,192,110792,1,0,0:0:0:0:
109,192,110792,1,0,0:0:0:0:
182,192,110886,1,0,0:0:0:0:
329,192,110886,1,0,0:0:0:0:
36,192,110980,1,0,0:0:0:0:
109,192,110980,1,0,0:0:0:0:
256,192,110980,1,0,0:0:0:0:
402,192,110980,1,0,0:0:0:0:
475,192,110980,1,0,0:0:0:0:
182,192,111073,1,0,0:0:0:0:
329,192,111073,1,0,0:0:0:0:
475,192,111167,1,0,0:0:0:0:
36,192,111167,1,0,0:0:0:0:
109,192,111261,1,0,0:0:0:0:
402,192,111261,1,0,0:0:0:0:
36,192,111355,1,0,0:0:0:0:
182,192,111355,1,0,0:0:0:0:
256,192,111355,1,0,0:0:0:0:
329,192,111355,1,0,0:0:0:0:
475,192,111355,1,0,0:0:0:0:
109,192,111448,1,0,0:0:0:0:
402,192,111448,1,0,0:0:0:0:
182,192,111542,1,0,0:0:0:0:
256,192,111542,1,0,0:0:0:0:
329,192,111542,1,0,0:0:0:0:
36,192,111636,1,0,0:0:0:0:
475,192,111636,1,0,0:0:0:0:
182,192,111730,1,0,0:0:0:0:
256,192,111730,1,0,0:0:0:0:
329,192,111730,1,0,0:0:0:0:
109,192,111730,1,0,0:0:0:0:
402,192,111730,1,0,0:0:0:0:
36,192,111823,1,0,0:0:0:0:
475,192,111823,1,0,0:0:0:0:
182,192,111917,1,0,0:0:0:0:
329,192,111917,1,0,0:0:0:0:
109,192,112011,1,0,0:0:0:0:
402,192,112011,1,0,0:0:0:0:
36,192,112105,1,0,0:0:0:0:
182,192,112105,1,0,0:0:0:0:
329,192,112105,1,0,0:0:0:0:
475,192,112105,1,0,0:0:0:0:
256,192,112198,1,0,0:0:0:0:
402,192,112198,1,0,0:0:0:0:
109,192,112292,1,0,0:0:0:0:
36,192,112292,1,0,0:0:0:0:
182,192,112386,1,0,0:0:0:0:
402,192,112386,1,0,0:0:0:0:
256,192,112480,1,0,0:0:0:0:
36,192,112480,1,0,0:0:0:0:
475,192,112480,1,0,0:0:0:0:
109,192,112573,1,0,0:0:0:0:
329,192,112573,1,0,0:0:0:0:
182,192,112667,1,0,0:0:0:0:
402,192,112667,1,0,0:0:0:0:
256,192,112761,1,0,0:0:0:0:
475,192,112761,1,0,0:0:0:0:
36,192,112855,1,0,0:0:0:0:
109,192,112855,1,0,0:0:0:0:
329,192,112855,1,0,0:0:0:0:
402,192,112855,1,0,0:0:0:0:
182,192,112948,1,0,0:0:0:0:
256,192,112948,1,0,0:0:0:0:
475,192,113042,1,0,0:0:0:0:
402,192,113042,1,0,0:0:0:0:
256,192,113136,1,0,0:0:0:0:
329,192,113136,1,0,0:0:0:0:
475,192,113230,1,0,0:0:0:0:
402,192,113230,1,0,0:0:0:0:
36,192,113230,1,0,0:0:0:0:
109,192,113230,1,0,0:0:0:0:
182,192,113230,1,0,0:0:0:0:
256,192,113323,1,0,0:0:0:0:
329,192,113323,1,0,0:0:0:0:
402,192,113417,1,0,0:0:0:0:
109,192,113417,1,0,0:0:0:0:
475,192,113511,1,0,0:0:0:0:
182,192,113511,1,0,0:0:0:0:
36,192,113605,1,0,0:0:0:0:
109,192,113605,1,0,0:0:0:0:
256,192,113605,1,0,0:0:0:0:
329,192,113605,1,0,0:0:0:0:
475,192,113698,1,0,0:0:0:0:
402,192,113698,1,0,0:0:0:0:
182,192,113792,1,0,0:0:0:0:
256,192,113792,1,0,0:0:0:0:
36,192,113886,1,0,0:0:0:0:
109,192,113886,1,0,0:0:0:0:
475,192,113980,1,0,0:0:0:0:
402,192,113980,1,0,0:0:0:0:
256,192,113980,1,0,0:0:0:0:
182,192,113980,1,0,0:0:0:0:
329,192,113980,1,0,0:0:0:0:
109,192,114073,1,0,0:0:0:0:
36,192,114073,1,0,0:0:0:0:
329,192,114167,1,0,0:0:0:0:
182,192,114167,1,0,0:0:0:0:
402,192,114261,1,0,0:0:0:0:
109,192,114261,1,0,0:0:0:0:
329,192,114355,1,0,0:0:0:0:
36,192,114355,1,0,0:0:0:0:
182,192,114355,1,0,0:0:0:0:
256,192,114355,1,0,0:0:0:0:
475,192,114355,1,0,0:0:0:0:
402,192,114448,1,0,0:0:0:0:
109,192,114448,1,0,0:0:0:0:
36,192,114542,1,0,0:0:0:0:
182,192,114542,1,0,0:0:0:0:
256,192,114542,1,0,0:0:0:0:
329,192,114542,1,0,0:0:0:0:
402,192,114636,1,0,0:0:0:0:
475,192,114636,1,0,0:0:0:0:
109,192,114730,1,0,0:0:0:0:
36,192,114730,1,0,0:0:0:0:
256,192,114730,1,0,0:0:0:0:
182,192,114730,1,0,0:0:0:0:
329,192,114730,1,0,0:0:0:0:
475,192,115105,1,0,0:0:0:0:
109,192,115105,1,0,0:0:0:0:
36,192,115105,1,0,0:0:0:0:
402,192,115105,1,0,0:0:0:0:
329,192,115105,1,0,0:0:0:0:
256,192,115198,1,0,0:0:0:0:
182,192,115198,1,0,0:0:0:0:
109,192,115292,1,0,0:0:0:0:
36,192,115292,1,0,0:0:0:0:
475,192,115292,1,0,0:0:0:0:
402,192,115292,1,0,0:0:0:0:
256,192,115386,1,0,0:0:0:0:
329,192,115386,1,0,0:0:0:0:
402,192,115480,1,0,0:0:0:0:
475,192,115480,1,0,0:0:0:0:
36,192,115480,1,0,0:0:0:0:
109,192,115480,1,0,0:0:0:0:
182,192,115480,1,0,0:0:0:0:
109,192,115761,1,0,0:0:0:0:
36,192,115761,1,0,0:0:0:0:
182,192,115761,1,0,0:0:0:0:
256,192,115761,1,0,0:0:0:0:
475,192,115761,1,0,0:0:0:0:
182,192,116042,1,0,0:0:0:0:
256,192,116042,1,0,0:0:0:0:
329,192,116042,1,0,0:0:0:0:
402,192,116042,1,0,0:0:0:0:
475,192,116042,1,0,0:0:0:0:
109,192,116230,1,0,0:0:0:0:
182,192,116230,1,0,0:0:0:0:
256,192,116230,1,0,0:0:0:0:
329,192,116230,1,0,0:0:0:0:
402,192,116230,1,0,0:0:0:0:
109,192,116511,1,0,0:0:0:0:
36,192,116511,1,0,0:0:0:0:
182,192,116511,1,0,0:0:0:0:
256,192,116511,1,0,0:0:0:0:
402,192,116511,1,0,0:0:0:0:
109,192,116792,1,0,0:0:0:0:
36,192,116792,1,0,0:0:0:0:
182,192,116792,1,0,0:0:0:0:
256,192,116792,1,0,0:0:0:0:
329,192,116792,1,0,0:0:0:0:
109,192,116980,1,0,0:0:0:0:
36,192,116980,1,0,0:0:0:0:
182,192,116980,1,0,0:0:0:0:
256,192,116980,1,0,0:0:0:0:
475,192,116980,1,0,0:0:0:0:
109,192,117261,1,0,0:0:0:0:
475,192,117261,1,0,0:0:0:0:
329,192,117261,1,0,0:0:0:0:
402,192,117261,1,0,0:0:0:0:
256,192,117261,1,0,0:0:0:0:
329,192,117542,1,0,0:0:0:0:
402,192,117542,1,0,0:0:0:0:
475,192,117542,1,0,0:0:0:0:
109,192,117542,1,0,0:0:0:0:
36,192,117542,1,0,0:0:0:0:
182,192,117636,1,0,0:0:0:0:
256,192,117636,1,0,0:0:0:0:
109,192,117730,1,0,0:0:0:0:
329,192,117730,1,0,0:0:0:0:
402,192,117730,1,0,0:0:0:0:
475,192,117730,1,0,0:0:0:0:
36,192,117730,1,0,0:0:0:0:
256,192,117823,1,0,0:0:0:0:
182,192,117823,1,0,0:0:0:0:
475,192,117917,1,0,0:0:0:0:
402,192,117917,1,0,0:0:0:0:
109,192,118011,1,0,0:0:0:0:
182,192,118011,1,0,0:0:0:0:
36,192,118105,1,0,0:0:0:0:
256,192,118105,1,0,0:0:0:0:
329,192,118105,1,0,0:0:0:0:
475,192,118105,1,0,0:0:0:0:
402,192,118198,1,0,0:0:0:0:
182,192,118198,1,0,0:0:0:0:
109,192,118292,1,0,0:0:0:0:
329,192,118292,1,0,0:0:0:0:
36,192,118386,1,0,0:0:0:0:
256,192,118386,1,0,0:0:0:0:
182,192,118480,1,0,0:0:0:0:
402,192,118480,1,0,0:0:0:0:
475,192,118480,1,0,0:0:0:0:
109,192,118480,1,0,0:0:0:0:
256,192,118573,1,0,0:0:0:0:
329,192,118573,1,0,0:0:0:0:
109,192,118667,1,0,0:0:0:0:
36,192,118667,1,0,0:0:0:0:
329,192,118761,1,0,0:0:0:0:
402,192,118761,1,0,0:0:0:0:
256,192,118855,1,0,0:0:0:0:
182,192,118855,1,0,0:0:0:0:
36,192,118855,1,0,0:0:0:0:
475,192,118855,1,0,0:0:0:0:
109,192,118948,1,0,0:0:0:0:
329,192,118948,1,0,0:0:0:0:
182,192,119042,1,0,0:0:0:0:
402,192,119042,1,0,0:0:0:0:
256,192,119136,1,0,0:0:0:0:
475,192,119136,1,0,0:0:0:0:
109,192,119230,1,0,0:0:0:0:
36,192,119230,1,0,0:0:0:0:
182,192,119230,1,0,0:0:0:0:
329,192,119230,1,0,0:0:0:0:
402,192,119230,1,0,0:0:0:0:
256,192,119323,1,0,0:0:0:0:
475,192,119323,1,0,0:0:0:0:
182,192,119417,1,0,0:0:0:0:
402,192,119417,1,0,0:0:0:0:
109,192,119511,1,0,0:0:0:0:
329,192,119511,1,0,0:0:0:0:
36,192,119605,1,0,0:0:0:0:
256,192,119605,1,0,0:0:0:0:
475,192,119605,1,0,0:0:0:0:
402,192,119605,1,0,0:0:0:0:
182,192,119698,1,0,0:0:0:0:
109,192,119698,1,0,0:0:0:0:
329,192,119792,1,0,0:0:0:0:
475,192,119792,1,0,0:0:0:0:
36,192,119886,1,0,0:0:0:0:
182,192,119886,1,0,0:0:0:0:
402,192,119980,1,0,0:0:0:0:
475,192,119980,1,0,0:0:0:0:
109,192,119980,1,0,0:0:0:0:
256,192,119980,1,0,0:0:0:0:
182,192,120073,1,0,0:0:0:0:
329,192,120073,1,0,0:0:0:0:
402,192,120167,1,0,0:0:0:0:
256,192,120167,1,0,0:0:0:0:
475,192,120261,1,0,0:0:0:0:
329,192,120261,1,0,0:0:0:0:
36,192,120355,1,0,0:0:0:0:
109,192,120355,1,0,0:0:0:0:
182,192,120355,1,0,0:0:0:0:
256,192,120355,1,0,0:0:0:0:
402,192,120448,1,0,0:0:0:0:
475,192,120448,1,0,0:0:0:0:
182,192,120542,1,0,0:0:0:0:
329,192,120542,1,0,0:0:0:0:
109,192,120636,1,0,0:0:0:0:
36,192,120636,1,0,0:0:0:0:
182,192,120730,1,0,0:0:0:0:
256,192,120730,1,0,0:0:0:0:
329,192,120730,1,0,0:0:0:0:
402,192,120730,1,0,0:0:0:0:
475,192,120730,1,0,0:0:0:0:
109,192,120917,1,0,0:0:0:0:
36,192,120917,1,0,0:0:0:0:
402,192,120917,1,0,0:0:0:0:
475,192,120917,1,0,0:0:0:0:
109,192,121105,1,0,0:0:0:0:
36,192,121105,1,0,0:0:0:0:
182,192,121105,1,0,0:0:0:0:
329,192,121105,1,0,0:0:0:0:
182,192,121292,1,0,0:0:0:0:
329,192,121292,1,0,0:0:0:0:
475,192,121292,1,0,0:0:0:0:
402,192,121292,1,0,0:0:0:0:
256,192,121480,1,0,0:0:0:0:
36,192,121480,1,0,0:0:0:0:
109,192,121480,1,0,0:0:0:0:
475,192,121480,1,0,0:0:0:0:
402,192,121480,1,0,0:0:0:0:
109,192,121667,1,0,0:0:0:0:
36,192,121667,1,0,0:0:0:0:
329,192,121667,1,0,0:0:0:0:
182,192,121667,1,0,0:0:0:0:
329,192,121855,1,0,0:0:0:0:
182,192,121855,1,0,0:0:0:0:
475,192,121855,1,0,0:0:0:0:
402,192,121855,1,0,0:0:0:0:
36,192,122042,1,0,0:0:0:0:
109,192,122042,1,0,0:0:0:0:
475,192,122042,1,0,0:0:0:0:
402,192,122042,1,0,0:0:0:0:
109,192,122230,1,0,0:0:0:0:
36,192,122230,1,0,0:0:0:0:
182,192,122230,1,0,0:0:0:0:
329,192,122230,1,0,0:0:0:0:
256,192,122230,1,0,0:0:0:0:
402,192,122323,1,0,0:0:0:0:
475,192,122323,1,0,0:0:0:0:
109,192,122417,1,0,0:0:0:0:
182,192,122417,1,0,0:0:0:0:
256,192,122417,1,0,0:0:0:0:
329,192,122511,1,0,0:0:0:0:
402,192,122511,1,0,0:0:0:0:
475,192,122511,1,0,0:0:0:0:
36,192,122605,1,0,0:0:0:0:
109,192,122605,1,0,0:0:0:0:
182,192,122605,1,0,0:0:0:0:
256,192,122698,1,0,0:0:0:0:
329,192,122698,1,0,0:0:0:0:
402,192,122698,1,0,0:0:0:0:
475,192,122792,1,0,0:0:0:0:
109,192,122792,1,0,0:0:0:0:
36,192,122792,1,0,0:0:0:0:
182,192,122886,1,0,0:0:0:0:
256,192,122886,1,0,0:0:0:0:
36,192,122980,1,0,0:0:0:0:
109,192,122980,1,0,0:0:0:0:
402,192,122980,1,0,0:0:0:0:
475,192,122980,1,0,0:0:0:0:
329,192,122980,1,0,0:0:0:0:
182,192,123073,1,0,0:0:0:0:
256,192,123073,1,0,0:0:0:0:
329,192,123167,1,0,0:0:0:0:
402,192,123167,1,0,0:0:0:0:
475,192,123167,1,0,0:0:0:0:
36,192,123261,1,0,0:0:0:0:
109,192,123261,1,0,0:0:0:0:
402,192,123355,1,0,0:0:0:0:
256,192,123355,1,0,0:0:0:0:
329,192,123355,1,0,0:0:0:0:
475,192,123355,1,0,0:0:0:0:
182,192,123355,1,0,0:0:0:0:
36,192,123448,1,0,0:0:0:0:
109,192,123448,1,0,0:0:0:0:
256,192,123542,1,0,0:0:0:0:
329,192,123542,1,0,0:0:0:0:
402,192,123542,1,0,0:0:0:0:
182,192,123636,1,0,0:0:0:0:
109,192,123636,1,0,0:0:0:0:
36,192,123730,1,0,0:0:0:0:
256,192,123730,1,0,0:0:0:0:
329,192,123730,1,0,0:0:0:0:
402,192,123730,1,0,0:0:0:0:
475,192,123730,1,0,0:0:0:0:
109,192,123917,1,0,0:0:0:0:
182,192,124011,1,0,0:0:0:0:
402,192,124105,1,0,0:0:0:0:
36,192,124292,1,0,0:0:0:0:
475,192,124292,1,0,0:0:0:0:
109,192,124855,1,0,0:0:0:0:
256,192,125042,1,0,0:0:0:0:
402,192,125230,1,0,0:0:0:0:
36,192,125230,1,0,0:0:0:0:
109,192,125417,1,0,0:0:0:0:
329,192,125511,1,0,0:0:0:0:
402,192,125605,1,0,0:0:0:0:
182,192,125792,1,0,0:0:0:0:
475,192,125792,1,0,0:0:0:0:
109,192,126355,1,0,0:0:0:0:
256,192,126542,1,0,0:0:0:0:
402,192,126730,1,0,0:0:0:0:
36,192,126730,1,0,0:0:0:0:
182,192,126917,1,0,0:0:0:0:
475,192,127011,1,0,0:0:0:0:
329,192,127105,1,0,0:0:0:0:
475,192,127292,1,0,0:0:0:0:
256,192,127292,1,0,0:0:0:0:
109,192,127855,1,0,0:0:0:0:
256,192,128042,1,0,0:0:0:0:
475,192,128230,1,0,0:0:0:0:
36,192,128230,1,0,0:0:0:0:
109,192,128417,1,0,0:0:0:0:
402,192,128511,1,0,0:0:0:0:
182,192,128605,1,0,0:0:0:0:
329,192,128792,1,0,0:0:0:0:
256,192,128792,1,0,0:0:0:0:
402,192,128980,1,0,0:0:0:0:
329,192,129167,1,0,0:0:0:0:
182,192,129355,1,0,0:0:0:0:
109,192,129542,1,0,0:0:0:0:
36,192,129730,1,0,0:0:0:0:
256,192,129730,1,0,0:0:0:0:
329,192,129917,1,0,0:0:0:0:
182,192,130011,1,0,0:0:0:0:
402,192,130105,1,0,0:0:0:0:
329,192,130292,1,0,0:0:0:0:
475,192,130292,1,0,0:0:0:0:
475,192,130855,1,0,0:0:0:0:
109,192,131230,1,0,0:0:0:0:
36,192,131230,1,0,0:0:0:0:
182,192,131417,1,0,0:0:0:0:
256,192,131511,1,0,0:0:0:0:
329,192,131605,1,0,0:0:0:0:
402,192,131792,1,0,0:0:0:0:
475,192,131792,1,0,0:0:0:0:
329,192,131980,1,0,0:0:0:0:
182,192,132167,1,0,0:0:0:0:
109,192,132355,1,0,0:0:0:0:
182,192,132542,1,0,0:0:0:0:
475,192,132730,1,0,0:0:0:0:
36,192,132730,1,0,0:0:0:0:
109,192,132917,1,0,0:0:0:0:
329,192,133011,1,0,0:0:0:0:
182,192,133105,1,0,0:0:0:0:
402,192,133292,1,0,0:0:0:0:
256,192,133292,1,0,0:0:0:0:
182,192,133480,1,0,0:0:0:0:
36,192,133761,1,0,0:0:0:0:
109,192,134042,1,0,0:0:0:0:
475,192,134230,1,0,0:0:0:0:
36,192,134230,1,0,0:0:0:0:
109,192,134417,1,0,0:0:0:0:
329,192,134511,1,0,0:0:0:0:
182,192,134605,1,0,0:0:0:0:
402,192,134792,1,0,0:0:0:0:
256,192,134792,1,0,0:0:0:0:
109,192,134980,1,0,0:0:0:0:
36,192,135167,1,0,0:0:0:0:
475,192,135355,1,0,0:0:0:0:
402,192,135542,1,0,0:0:0:0:
36,192,135730,128,0,137230:0:0:0:0:
182,192,135730,1,0,0:0:0:0:
256,192,135917,1,0,0:0:0:0:
329,192,136011,1,0,0:0:0:0:
402,192,136105,1,0,0:0:0:0:
475,192,136292,1,0,0:0:0:0:
329,192,136292,1,0,0:0:0:0:
109,192,136855,1,0,0:0:0:0:
256,192,137042,1,0,0:0:0:0:
329,192,137230,1,0,0:0:0:0:
475,192,137230,128,0,138730:0:0:0:0:
109,192,137417,1,0,0:0:0:0:
182,192,137511,1,0,0:0:0:0:
256,192,137605,1,0,0:0:0:0:
182,192,137792,1,0,0:0:0:0:
36,192,137792,1,0,0:0:0:0:
182,192,138355,1,0,0:0:0:0:
256,192,138542,1,0,0:0:0:0:
329,192,138730,1,0,0:0:0:0:
109,192,138730,128,0,140230:0:0:0:0:
182,192,138917,1,0,0:0:0:0:
402,192,139011,1,0,0:0:0:0:
329,192,139105,1,0,0:0:0:0:
475,192,139292,1,0,0:0:0:0:
256,192,139292,1,0,0:0:0:0:
182,192,139855,1,0,0:0:0:0:
256,192,140042,1,0,0:0:0:0:
329,192,140230,1,0,0:0:0:0:
402,192,140230,128,0,141730:0:0:0:0:
256,192,140417,1,0,0:0:0:0:
329,192,140511,1,0,0:0:0:0:
182,192,140605,1,0,0:0:0:0:
109,192,140792,1,0,0:0:0:0:
36,192,140792,1,0,0:0:0:0:
329,192,140980,1,0,0:0:0:0:
256,192,141167,1,0,0:0:0:0:
182,192,141355,1,0,0:0:0:0:
109,192,141542,1,0,0:0:0:0:
36,192,141730,1,0,0:0:0:0:
182,192,141730,128,0,143230:0:0:0:0:
329,192,141917,1,0,0:0:0:0:
256,192,142011,1,0,0:0:0:0:
402,192,142105,1,0,0:0:0:0:
329,192,142292,1,0,0:0:0:0:
475,192,142292,1,0,0:0:0:0:
475,192,142855,1,0,0:0:0:0:
36,192,143230,1,0,0:0:0:0:
329,192,143230,128,0,144730:0:0:0:0:
256,192,143417,1,0,0:0:0:0:
182,192,143511,1,0,0:0:0:0:
109,192,143605,1,0,0:0:0:0:
36,192,143792,1,0,0:0:0:0:
182,192,143792,1,0,0:0:0:0:
256,192,143980,1,0,0:0:0:0:
182,192,144167,1,0,0:0:0:0:
36,192,144355,1,0,0:0:0:0:
109,192,144542,1,0,0:0:0:0:
256,192,144730,128,0,147730:0:0:0:0:
182,192,144776,1,0,0:0:0:0:
109,192,144823,1,0,0:0:0:0:
36,192,144870,1,0,0:0:0:0:
402,192,145011,1,0,0:0:0:0:
109,192,145292,1,0,0:0:0:0:
329,192,145480,1,0,0:0:0:0:
475,192,145761,1,0,0:0:0:0:
36,192,146042,1,0,0:0:0:0:
329,192,146230,1,0,0:0:0:0:
475,192,146511,1,0,0:0:0:0:
36,192,146792,1,0,0:0:0:0:
329,192,146980,1,0,0:0:0:0:
475,192,147261,1,0,0:0:0:0:
36,192,147542,128,0,150730:0:0:0:0:
