osu file format v14

[General]
AudioFilename: audioFirst Dimension190.000015258789BPM.mp3
AudioLeadIn: 0
PreviewTime: 84402
Countdown: 1
SampleSet: Soft
StackLeniency: 0.4
Mode: 0
LetterboxInBreaks: 0
WidescreenStoryboard: 1

[Editor]
DistanceSpacing: 1
BeatDivisor: 4
GridSize: 32
TimelineZoom: 1.4

[Metadata]
Title:Infinity Heaven +30 bpm
TitleUnicode:Infinity Heaven +30 bpm
Artist:HyuN
ArtistUnicode:HyuN
Creator:KysT_T
Version:One Dimension
Source:Arcaea
Tags:Arcaea Hyun Infinity Heaven
BeatmapID:1720662
BeatmapSetID:803944

[Difficulty]
HPDrainRate:6
CircleSize:4
OverallDifficulty:8
ApproachRate:9.5
SliderMultiplier:1.4
SliderTickRate:1

[Events]
//Background and Video events
0,0,"maxresdefault.jpg",0,0
//Break Periods
//Storyboard Layer 0 (Background)
//Storyboard Layer 1 (Fail)
//Storyboard Layer 2 (Pass)
//Storyboard Layer 3 (Foreground)
//Storyboard Sound Samples

[TimingPoints]
1316,315.7895,4,2,0,50,1,0
1316,-166.6667,4,2,0,50,0,0
21210,-100,4,2,0,50,0,1
21526,-75.18797,4,2,0,50,0,1
61981,315.7895,4,1,0,50,1,0
61981,-90.90909,4,2,0,50,0,0
72066,315.789473684211,4,2,0,50,1,0
72066,-75.18797,4,2,0,50,0,0
84697,-75.18797,4,2,0,50,0,1
103644,-60.24096,4,2,0,50,0,1
104908,-200,4,2,0,50,0,0

[HitObjects]
104,40,1316,6,0,B|74:81|78:137,1,84
116,215,1789,2,0,P|162:205|200:182,1,84
246,118,2263,2,0,B|269:120|299:139,1,42
281,215,2579,2,0,B|314:244|369:235,1,84
454,167,3052,2,0,P|422:140|368:120,1,84
346,210,3526,2,0,P|325:214|305:210,1,42
186,242,3842,2,0,P|209:275|266:297,1,84
389,268,4316,6,0,P|352:230|312:206,1,84
250,168,4789,2,0,P|234:153|222:136,1,42
68,135,5105,6,0,P|120:184|135:196,1,84
152,265,5579,1,2,0:0:0:0:
236,273,5737,1,2,0:0:0:0:
323,272,5894,1,2,0:0:0:0:
408,251,6052,1,2,0:0:0:0:
430,164,6210,1,2,0:0:0:0:
358,108,6368,6,0,P|320:84|271:77,1,84
240,160,6842,6,0,P|202:184|153:191,1,84
192,276,7316,2,0,P|232:285|275:273,1,84
385,306,7789,2,0,P|405:293|421:267,1,42
380,218,8105,5,2,0:0:0:0:
286,196,8263,1,2,0:0:0:0:
228,121,8421,1,2,0:0:0:0:
308,65,8579,1,2,0:0:0:0:
400,57,8737,1,2,0:0:0:0:
455,130,8894,6,0,B|427:162|369:181,1,84
319,213,9368,2,0,L|279:161,2,63
277,296,10000,2,0,B|229:295|183:271,2,84
357,272,10789,1,2,0:0:0:0:
362,195,10947,1,2,0:0:0:0:
312,124,11105,1,2,0:0:0:0:
227,91,11263,1,2,0:0:0:0:
126,101,11421,6,0,B|118:164|140:195,1,84
188,251,11894,1,0,0:0:0:0:
260,168,12052,2,0,P|297:125|332:111,1,84
467,86,12684,6,0,P|444:126|403:159,1,84
240,243,13158,2,0,B|238:270|260:288,1,42
325,230,13473,2,0,B|331:202|356:184,1,42
429,153,13947,6,0,B|453:193|435:244,1,84
355,252,14421,1,0,0:0:0:0:
285,193,14579,2,0,P|266:182|251:168,1,42
323,130,15210,6,0,B|333:190|315:230,1,84
159,285,15684,2,0,B|151:256|155:230,1,42
235,191,16000,2,0,B|237:208|218:247,1,42
303,273,16473,6,0,B|342:287|395:277,1,84
447,153,16947,2,0,P|425:152|392:158,1,42
385,275,17421,1,2,0:0:0:0:
144,300,17737,6,0,B|181:283|223:252,1,84
409,121,18210,2,0,B|412:149|405:180,1,42
315,150,18526,2,0,B|307:130|291:99,1,42
256,192,19000,12,0,21052,0:0:0:0:
135,79,21210,6,0,B|120:132,3,35,8|0|0|8,0:0|0:0|0:0|0:0,0:0:0:0:
113,160,21526,5,8,0:0:0:0:
122,205,21605,1,0,0:0:0:0:
151,241,21684,1,0,0:0:0:0:
192,262,21763,1,0,0:0:0:0:
238,264,21842,1,8,0:0:0:0:
280,245,21921,1,0,0:0:0:0:
311,210,22000,1,8,0:0:0:0:
323,166,22079,1,0,0:0:0:0:
336,121,22158,5,0,0:0:0:0:
350,77,22237,1,0,0:0:0:0:
387,50,22316,1,8,0:0:0:0:
433,47,22394,1,0,0:0:0:0:
472,72,22473,1,8,0:0:0:0:
490,113,22552,1,0,0:0:0:0:
482,158,22631,1,8,0:0:0:0:
450,191,22710,1,0,0:0:0:0:
405,200,22789,5,8,0:0:0:0:
364,179,22868,1,0,0:0:0:0:
331,146,22947,1,8,0:0:0:0:
287,132,23026,1,0,0:0:0:0:
242,139,23105,1,8,0:0:0:0:
205,167,23184,1,0,0:0:0:0:
185,208,23263,1,8,0:0:0:0:
186,254,23342,1,0,0:0:0:0:
209,295,23421,5,0,0:0:0:0:
247,320,23500,1,0,0:0:0:0:
293,325,23579,1,8,0:0:0:0:
336,308,23658,1,0,0:0:0:0:
366,274,23737,1,8,0:0:0:0:
372,227,23816,1,0,0:0:0:0:
368,180,23894,1,8,0:0:0:0:
346,139,23973,1,0,0:0:0:0:
311,110,24052,5,8,0:0:0:0:
267,96,24131,1,0,0:0:0:0:
221,99,24210,1,8,0:0:0:0:
180,121,24289,1,0,0:0:0:0:
150,156,24368,1,8,0:0:0:0:
136,200,24447,1,0,0:0:0:0:
141,247,24526,1,8,0:0:0:0:
148,292,24605,1,0,0:0:0:0:
124,331,24684,5,0,0:0:0:0:
81,346,24763,1,0,0:0:0:0:
39,329,24842,1,8,0:0:0:0:
17,289,24921,1,0,0:0:0:0:
26,245,25000,1,8,0:0:0:0:
61,216,25079,1,0,0:0:0:0:
106,204,25158,1,8,0:0:0:0:
147,184,25237,1,0,0:0:0:0:
170,144,25316,5,8,0:0:0:0:
166,98,25394,1,0,0:0:0:0:
137,63,25473,1,8,0:0:0:0:
93,50,25552,1,0,0:0:0:0:
50,64,25631,1,8,0:0:0:0:
22,101,25710,1,0,0:0:0:0:
20,146,25789,1,8,0:0:0:0:
47,185,25868,1,0,0:0:0:0:
73,223,25947,5,0,0:0:0:0:
107,254,26026,1,0,0:0:0:0:
148,277,26105,1,8,0:0:0:0:
192,289,26184,1,0,0:0:0:0:
239,291,26263,1,8,0:0:0:0:
284,282,26342,1,0,0:0:0:0:
326,262,26421,1,8,0:0:0:0:
363,234,26500,1,8,0:0:0:0:
392,197,26579,5,8,0:0:0:0:
409,154,26658,1,0,0:0:0:0:
425,111,26737,1,8,0:0:0:0:
417,65,26816,1,0,0:0:0:0:
387,31,26894,1,8,0:0:0:0:
343,17,26973,1,0,0:0:0:0:
298,28,27052,1,8,0:0:0:0:
266,60,27131,1,0,0:0:0:0:
255,105,27210,5,0,0:0:0:0:
269,149,27289,1,0,0:0:0:0:
303,179,27368,1,8,0:0:0:0:
347,196,27447,1,0,0:0:0:0:
385,220,27526,1,8,0:0:0:0:
406,261,27605,1,0,0:0:0:0:
402,307,27684,1,8,0:0:0:0:
376,345,27763,1,0,0:0:0:0:
334,363,27842,5,8,0:0:0:0:
288,358,27921,1,0,0:0:0:0:
252,329,28000,1,0,0:0:0:0:
235,286,28079,1,0,0:0:0:0:
228,240,28158,6,0,L|226:187,3,46.55,8|0|8|0,0:0|0:0|0:0|0:0,0:0:0:0:
314,184,28473,2,0,L|312:119,3,46.55,0|0|8|0,0:0|0:0|0:0|0:0,0:0:0:0:
213,129,28789,2,0,L|210:64,3,46.55,8|0|8|0,0:0|0:0|0:0|0:0,0:0:0:0:
310,71,29105,2,0,L|308:6,3,46.55,8|0|0|0,0:0|0:0|0:0|0:0,0:0:0:0:
407,129,29421,2,0,L|405:64,3,46.55,8|0|8|0,0:0|0:0|0:0|0:0,0:0:0:0:
315,198,29737,2,0,L|313:133,3,46.55,0|0|8|0,0:0|0:0|0:0|0:0,0:0:0:0:
413,255,30052,2,0,L|411:190,3,46.55,8|0|8|0,0:0|0:0|0:0|0:0,0:0:0:0:
308,300,30368,1,8,0:0:0:0:
204,253,30526,1,8,0:0:0:0:
187,139,30684,1,8,0:0:0:0:
273,66,30842,1,8,0:0:0:0:
368,127,31000,2,0,L|417:170,7,46.55
439,187,31631,5,0,0:0:0:0:
473,216,31710,1,0,0:0:0:0:
489,260,31789,1,8,0:0:0:0:
481,305,31868,1,0,0:0:0:0:
452,341,31947,1,8,0:0:0:0:
409,357,32026,1,0,0:0:0:0:
363,350,32105,1,8,0:0:0:0:
327,321,32184,1,0,0:0:0:0:
310,278,32263,5,0,0:0:0:0:
317,232,32342,1,0,0:0:0:0:
336,190,32421,1,8,0:0:0:0:
356,148,32500,1,0,0:0:0:0:
357,102,32579,1,8,0:0:0:0:
338,60,32658,1,0,0:0:0:0:
303,30,32737,1,8,0:0:0:0:
258,19,32816,1,0,0:0:0:0:
213,28,32894,5,8,0:0:0:0:
176,56,32973,1,0,0:0:0:0:
154,97,33052,1,8,0:0:0:0:
153,143,33131,1,0,0:0:0:0:
171,185,33210,1,8,0:0:0:0:
206,215,33289,1,0,0:0:0:0:
253,221,33368,1,8,0:0:0:0:
297,228,33447,1,0,0:0:0:0:
327,263,33526,5,0,0:0:0:0:
326,308,33605,1,0,0:0:0:0:
296,342,33684,1,8,0:0:0:0:
251,348,33763,1,0,0:0:0:0:
209,326,33842,1,8,0:0:0:0:
172,298,33921,1,0,0:0:0:0:
152,256,34000,1,8,0:0:0:0:
153,210,34079,1,0,0:0:0:0:
176,170,34158,5,8,0:0:0:0:
215,145,34237,1,0,0:0:0:0:
261,141,34316,1,8,0:0:0:0:
303,159,34394,1,0,0:0:0:0:
336,191,34473,1,8,0:0:0:0:
366,225,34552,1,0,0:0:0:0:
410,238,34631,1,8,0:0:0:0:
454,226,34710,1,0,0:0:0:0:
486,193,34789,5,0,0:0:0:0:
496,148,34868,1,0,0:0:0:0:
480,105,34947,1,8,0:0:0:0:
444,76,35026,1,0,0:0:0:0:
399,70,35105,1,8,0:0:0:0:
357,90,35184,1,0,0:0:0:0:
342,134,35263,1,8,0:0:0:0:
336,179,35342,1,0,0:0:0:0:
305,213,35421,5,8,0:0:0:0:
261,222,35500,1,0,0:0:0:0:
219,202,35579,1,8,0:0:0:0:
197,162,35658,1,0,0:0:0:0:
203,117,35737,1,8,0:0:0:0:
223,74,35816,1,0,0:0:0:0:
222,29,35894,1,8,0:0:0:0:
187,1,35973,1,0,0:0:0:0:
143,11,36052,5,0,0:0:0:0:
124,52,36131,1,0,0:0:0:0:
138,97,36210,1,8,0:0:0:0:
165,133,36289,1,0,0:0:0:0:
164,179,36368,1,8,0:0:0:0:
136,216,36447,1,0,0:0:0:0:
92,228,36526,1,0,0:0:0:0:
50,212,36605,1,8,0:0:0:0:
25,173,36684,5,8,0:0:0:0:
29,128,36763,1,0,0:0:0:0:
63,96,36842,1,8,0:0:0:0:
105,98,36921,1,0,0:0:0:0:
146,117,37000,1,8,0:0:0:0:
175,153,37079,1,0,0:0:0:0:
184,198,37158,1,8,0:0:0:0:
172,243,37237,1,0,0:0:0:0:
141,277,37316,5,0,0:0:0:0:
100,298,37394,1,0,0:0:0:0:
55,310,37473,1,8,0:0:0:0:
15,289,37552,1,0,0:0:0:0:
4,246,37631,1,8,0:0:0:0:
29,208,37710,1,0,0:0:0:0:
74,202,37789,1,8,0:0:0:0:
118,220,37868,1,0,0:0:0:0:
159,239,37947,5,8,0:0:0:0:
205,232,38026,1,0,0:0:0:0:
240,202,38105,1,8,0:0:0:0:
253,159,38184,1,0,0:0:0:0:
240,114,38263,1,8,0:0:0:0:
206,84,38342,1,0,0:0:0:0:
160,77,38421,1,8,0:0:0:0:
118,96,38500,1,0,0:0:0:0:
89,133,38579,6,0,L|60:194,3,46.55,0|0|8|0,0:0|0:0|0:0|0:0,0:0:0:0:
143,241,38894,2,0,L|171:187,3,46.55,8|0|8|0,0:0|0:0|0:0|0:0,0:0:0:0:
259,206,39210,2,0,L|235:268,3,46.55,8|0|8|0,0:0|0:0|0:0|0:0,0:0:0:0:
194,103,39526,2,0,L|133:71,3,46.55,8|0|8|0,0:0|0:0|0:0|0:0,0:0:0:0:
301,46,39842,2,0,L|323:5,3,46.55,0|0|8|0,0:0|0:0|0:0|0:0,0:0:0:0:
321,171,40158,2,0,L|378:188,3,46.55,8|0|8|0,0:0|0:0|0:0|0:0,0:0:0:0:
252,271,40473,1,8,0:0:0:0:
141,221,40631,1,8,0:0:0:0:
113,102,40789,1,8,0:0:0:0:
62,211,40947,1,8,0:0:0:0:
121,316,41105,2,0,L|179:289,7,46.55
218,270,41737,5,8,0:0:0:0:
255,243,41816,1,0,0:0:0:0:
301,233,41894,1,8,0:0:0:0:
346,240,41973,1,0,0:0:0:0:
386,265,42052,1,8,0:0:0:0:
412,302,42131,1,0,0:0:0:0:
441,337,42210,1,0,0:0:0:0:
486,335,42289,1,0,0:0:0:0:
512,298,42368,5,8,0:0:0:0:
499,255,42447,1,0,0:0:0:0:
457,239,42526,1,0,0:0:0:0:
409,242,42605,1,0,0:0:0:0:
363,235,42684,1,8,0:0:0:0:
334,200,42763,1,0,0:0:0:0:
333,155,42842,1,0,0:0:0:0:
362,120,42921,1,0,0:0:0:0:
407,111,43000,5,8,0:0:0:0:
446,134,43079,1,0,0:0:0:0:
471,172,43158,1,8,0:0:0:0:
468,218,43237,1,0,0:0:0:0:
447,259,43316,1,8,0:0:0:0:
411,288,43394,1,0,0:0:0:0:
367,300,43473,1,0,0:0:0:0:
321,292,43552,1,0,0:0:0:0:
282,266,43631,5,8,0:0:0:0:
258,227,43710,1,0,0:0:0:0:
251,182,43789,1,0,0:0:0:0:
237,143,43868,1,0,0:0:0:0:
225,98,43947,1,8,0:0:0:0:
192,65,44026,1,0,0:0:0:0:
148,52,44105,1,8,0:0:0:0:
103,63,44184,1,0,0:0:0:0:
69,94,44263,5,8,0:0:0:0:
55,138,44342,1,0,0:0:0:0:
64,183,44421,1,0,0:0:0:0:
94,218,44500,1,0,0:0:0:0:
138,233,44579,1,8,0:0:0:0:
183,226,44658,1,0,0:0:0:0:
219,196,44737,1,0,0:0:0:0:
244,157,44816,1,0,0:0:0:0:
286,139,44894,5,8,0:0:0:0:
332,146,44973,1,0,0:0:0:0:
366,176,45052,1,0,0:0:0:0:
379,220,45131,1,0,0:0:0:0:
366,264,45210,1,8,0:0:0:0:
331,294,45289,1,0,0:0:0:0:
284,299,45368,1,0,0:0:0:0:
241,288,45447,1,0,0:0:0:0:
212,254,45526,5,8,0:0:0:0:
219,209,45605,1,0,0:0:0:0:
256,184,45684,1,0,0:0:0:0:
300,169,45763,1,0,0:0:0:0:
332,137,45842,1,8,0:0:0:0:
327,92,45921,1,0,0:0:0:0:
289,68,46000,1,0,0:0:0:0:
243,80,46079,1,0,0:0:0:0:
202,102,46158,5,8,0:0:0:0:
178,142,46237,1,0,0:0:0:0:
177,188,46316,1,0,0:0:0:0:
199,228,46394,1,0,0:0:0:0:
238,253,46473,1,8,0:0:0:0:
284,255,46552,1,0,0:0:0:0:
323,244,46631,1,8,0:0:0:0:
359,215,46710,1,8,0:0:0:0:
389,181,46789,5,8,0:0:0:0:
396,135,46868,1,0,0:0:0:0:
377,93,46947,1,0,0:0:0:0:
339,68,47026,1,0,0:0:0:0:
293,68,47105,1,8,0:0:0:0:
254,92,47184,1,0,0:0:0:0:
233,134,47263,1,0,0:0:0:0:
240,179,47342,1,0,0:0:0:0:
275,209,47421,5,8,0:0:0:0:
303,246,47500,1,0,0:0:0:0:
304,291,47579,1,0,0:0:0:0:
279,329,47658,1,0,0:0:0:0:
236,346,47737,1,8,0:0:0:0:
192,334,47816,1,0,0:0:0:0:
162,299,47894,1,0,0:0:0:0:
158,254,47973,1,0,0:0:0:0:
181,214,48052,5,8,0:0:0:0:
223,194,48131,1,0,0:0:0:0:
256,162,48210,1,0,0:0:0:0:
265,117,48289,1,0,0:0:0:0:
246,76,48368,1,8,0:0:0:0:
207,53,48447,1,0,0:0:0:0:
161,57,48526,1,0,0:0:0:0:
126,87,48605,1,0,0:0:0:0:
97,124,48684,5,8,0:0:0:0:
89,172,48763,1,0,0:0:0:0:
93,217,48842,1,0,0:0:0:0:
116,257,48921,1,0,0:0:0:0:
155,282,49000,1,8,0:0:0:0:
201,287,49079,1,0,0:0:0:0:
244,271,49158,1,8,0:0:0:0:
276,237,49237,1,0,0:0:0:0:
284,191,49316,5,8,0:0:0:0:
282,145,49394,1,0,0:0:0:0:
251,112,49473,1,0,0:0:0:0:
206,107,49552,1,0,0:0:0:0:
169,133,49631,1,8,0:0:0:0:
159,178,49710,1,0,0:0:0:0:
180,218,49789,1,0,0:0:0:0:
223,236,49868,1,0,0:0:0:0:
263,256,49947,5,8,0:0:0:0:
282,298,50026,1,0,0:0:0:0:
270,342,50105,1,0,0:0:0:0:
234,369,50184,1,0,0:0:0:0:
188,367,50263,1,8,0:0:0:0:
154,336,50342,1,0,0:0:0:0:
147,291,50421,1,0,0:0:0:0:
159,246,50500,1,0,0:0:0:0:
190,194,50579,6,0,L|221:150,3,46.55,8|0|8|0,0:0|0:0|0:0|0:0,0:0:0:0:
301,146,50894,2,0,L|261:96,3,46.55,8|0|0|0,0:0|0:0|0:0|0:0,0:0:0:0:
293,267,51210,2,0,L|222:252,3,46.55,8|0|0|0,0:0|0:0|0:0|0:0,0:0:0:0:
400,209,51526,2,0,L|404:142,3,46.55,8|0|8|0,0:0|0:0|0:0|0:0,0:0:0:0:
291,154,51842,2,0,L|241:113,3,46.55,8|0|0|0,0:0|0:0|0:0|0:0,0:0:0:0:
270,274,52158,2,0,L|202:249,3,46.55,8|0|0|0,0:0|0:0|0:0|0:0,0:0:0:0:
178,196,52473,2,0,L|112:172,3,46.55,8|0|0|0,0:0|0:0|0:0|0:0,0:0:0:0:
228,134,52789,6,0,L|191:72,3,46.5499980821992,8|0|0|0,0:0|0:0|0:0|0:0,0:0:0:0:
248,167,53105,1,8,0:0:0:0:
268,208,53184,1,0,0:0:0:0:
310,224,53263,1,0,0:0:0:0:
352,207,53342,1,0,0:0:0:0:
370,165,53421,1,8,0:0:0:0:
388,122,53500,1,0,0:0:0:0:
402,78,53579,1,0,0:0:0:0:
442,58,53658,5,0,0:0:0:0:
485,73,53737,1,8,0:0:0:0:
505,113,53816,1,0,0:0:0:0:
490,156,53894,1,0,0:0:0:0:
449,176,53973,1,0,0:0:0:0:
402,173,54052,1,8,0:0:0:0:
360,152,54131,1,0,0:0:0:0:
315,159,54210,1,8,0:0:0:0:
281,190,54289,5,8,0:0:0:0:
271,235,54368,1,8,0:0:0:0:
287,277,54447,1,0,0:0:0:0:
325,303,54526,1,0,0:0:0:0:
371,303,54605,1,0,0:0:0:0:
409,278,54684,1,8,0:0:0:0:
430,237,54763,1,0,0:0:0:0:
448,194,54842,1,0,0:0:0:0:
449,148,54921,5,0,0:0:0:0:
431,105,55000,1,8,0:0:0:0:
397,73,55079,1,0,0:0:0:0:
354,57,55158,1,0,0:0:0:0:
308,60,55237,1,0,0:0:0:0:
267,83,55316,1,8,0:0:0:0:
233,114,55394,1,0,0:0:0:0:
188,122,55473,1,0,0:0:0:0:
146,105,55552,5,0,0:0:0:0:
111,73,55631,1,8,0:0:0:0:
74,45,55710,1,0,0:0:0:0:
28,48,55789,1,0,0:0:0:0:
0,80,55868,1,0,0:0:0:0:
0,125,55947,1,8,0:0:0:0:
16,163,56026,1,0,0:0:0:0:
60,176,56105,1,0,0:0:0:0:
103,192,56184,5,0,0:0:0:0:
143,210,56263,1,8,0:0:0:0:
153,254,56342,1,0,0:0:0:0:
125,289,56421,1,0,0:0:0:0:
78,288,56500,5,0,0:0:0:0:
41,259,56579,5,8,0:0:0:0:
60,176,56737,2,8,L|88:110,2,46.55
331,105,57210,1,8,0:0:0:0:
154,321,57526,1,8,0:0:0:0:
80,51,57842,1,8,0:0:0:0:
300,222,58158,1,8,0:0:0:0:
36,130,58473,1,8,0:0:0:0:
241,319,58789,1,8,0:0:0:0:
398,88,59105,1,8,0:0:0:0:
237,346,59421,5,8,0:0:0:0:
118,225,59579,1,8,0:0:0:0:
237,105,59737,1,8,0:0:0:0:
357,225,59894,1,8,0:0:0:0:
168,320,60052,1,8,0:0:0:0:
117,159,60210,1,8,0:0:0:0:
277,105,60368,1,8,0:0:0:0:
331,268,60526,1,8,0:0:0:0:
133,287,60684,1,8,0:0:0:0:
134,118,60842,1,8,0:0:0:0:
303,118,61000,1,8,0:0:0:0:
303,287,61158,1,8,0:0:0:0:
130,216,61316,1,0,0:0:0:0:
163,184,61394,5,0,0:0:0:0:
206,169,61473,1,0,0:0:0:0:
252,176,61552,1,0,0:0:0:0:
289,203,61631,1,0,0:0:0:0:
316,241,61710,1,0,0:0:0:0:
341,278,61789,1,0,0:0:0:0:
385,284,61868,1,0,0:0:0:0:
420,254,61947,1,0,0:0:0:0:
346,74,62454,5,0,0:0:0:0:
356,119,62533,1,0,0:0:0:0:
353,165,62613,1,0,0:0:0:0:
293,253,62770,5,0,0:0:0:0:
174,294,62928,2,0,P|146:303|83:280,1,77
159,37,63244,2,0,P|182:29|265:40,1,77
240,213,63717,5,0,0:0:0:0:
228,256,63796,1,0,0:0:0:0:
191,283,63875,1,0,0:0:0:0:
146,282,63954,1,0,0:0:0:0:
112,252,64033,1,0,0:0:0:0:
101,207,64112,1,0,0:0:0:0:
100,161,64191,1,0,0:0:0:0:
121,120,64270,1,0,0:0:0:0:
158,94,64349,1,0,0:0:0:0:
203,88,64428,1,0,0:0:0:0:
250,90,64507,6,0,B|271:126|337:138,1,77
351,156,64744,1,2,0:0:0:0:
171,277,64981,2,0,L|254:316,1,77
324,269,65296,5,0,0:0:0:0:
351,242,65375,1,0,0:0:0:0:
364,206,65454,1,0,0:0:0:0:
361,168,65533,1,0,0:0:0:0:
341,136,65612,1,0,0:0:0:0:
309,115,65690,1,0,0:0:0:0:
271,110,65770,1,2,0:0:0:0:
251,45,66007,2,0,P|279:41|336:47,1,77
369,63,66244,5,0,0:0:0:0:
400,84,66322,1,0,0:0:0:0:
419,117,66401,1,0,0:0:0:0:
410,210,66560,5,0,0:0:0:0:
405,247,66638,1,0,0:0:0:0:
383,279,66717,1,0,0:0:0:0:
350,298,66796,1,0,0:0:0:0:
312,300,66875,1,0,0:0:0:0:
277,286,66954,1,0,0:0:0:0:
235,265,67034,2,0,B|156:223|152:160|152:160|155:96|90:73,1,231
263,114,67665,1,0,0:0:0:0:
263,114,67823,5,0,0:0:0:0:
457,298,67981,2,0,P|427:323|383:335,1,77
298,327,68297,5,0,0:0:0:0:
260,322,68375,1,0,0:0:0:0:
228,301,68454,1,0,0:0:0:0:
208,268,68533,1,0,0:0:0:0:
205,230,68613,1,0,0:0:0:0:
218,195,68691,1,0,0:0:0:0:
244,156,68770,1,0,0:0:0:0:
256,119,68848,1,0,0:0:0:0:
252,81,68928,5,0,0:0:0:0:
233,49,69007,1,0,0:0:0:0:
201,27,69086,1,0,0:0:0:0:
164,21,69164,1,0,0:0:0:0:
127,31,69243,1,0,0:0:0:0:
97,55,69322,1,0,0:0:0:0:
81,90,69402,1,0,0:0:0:0:
81,128,69480,1,0,0:0:0:0:
97,163,69559,5,2,0:0:0:0:
391,232,70033,5,0,0:0:0:0:
374,190,70112,1,0,0:0:0:0:
361,152,70191,1,0,0:0:0:0:
179,167,70349,1,0,0:0:0:0:
249,260,70507,1,0,0:0:0:0:
332,199,70665,1,0,0:0:0:0:
406,147,70823,1,2,0:0:0:0:
150,152,71296,5,0,0:0:0:0:
136,189,71376,1,0,0:0:0:0:
121,232,71454,1,0,0:0:0:0:
179,72,71612,1,0,0:0:0:0:
248,226,71770,5,0,0:0:0:0:
315,70,71928,1,0,0:0:0:0:
390,240,72085,5,8,0:0:0:0:
383,285,72164,1,0,0:0:0:0:
356,322,72243,1,0,0:0:0:0:
314,343,72322,1,0,0:0:0:0:
268,343,72401,1,0,0:0:0:0:
228,321,72480,1,0,0:0:0:0:
201,283,72559,1,0,0:0:0:0:
185,239,72638,1,0,0:0:0:0:
167,196,72717,5,8,0:0:0:0:
131,168,72796,1,0,0:0:0:0:
85,163,72875,1,0,0:0:0:0:
43,183,72954,1,0,0:0:0:0:
17,221,73033,1,0,0:0:0:0:
15,267,73112,1,0,0:0:0:0:
37,307,73191,1,0,0:0:0:0:
76,331,73270,1,0,0:0:0:0:
122,331,73348,5,8,0:0:0:0:
167,321,73427,1,0,0:0:0:0:
207,299,73506,1,0,0:0:0:0:
227,258,73585,1,0,0:0:0:0:
220,213,73664,1,0,0:0:0:0:
188,180,73743,1,0,0:0:0:0:
143,172,73822,1,8,0:0:0:0:
94,160,73901,1,0,0:0:0:0:
56,133,73980,5,8,0:0:0:0:
41,90,74059,1,0,0:0:0:0:
54,46,74138,1,8,0:0:0:0:
91,19,74217,1,0,0:0:0:0:
136,18,74296,1,8,0:0:0:0:
174,44,74375,1,0,0:0:0:0:
189,87,74454,1,0,0:0:0:0:
172,131,74533,1,0,0:0:0:0:
152,173,74612,5,8,0:0:0:0:
154,219,74691,1,0,0:0:0:0:
175,260,74770,1,0,0:0:0:0:
211,288,74848,1,0,0:0:0:0:
257,296,74927,1,0,0:0:0:0:
301,285,75006,1,0,0:0:0:0:
343,264,75085,1,0,0:0:0:0:
377,233,75164,1,0,0:0:0:0:
389,189,75243,5,8,0:0:0:0:
375,145,75322,1,0,0:0:0:0:
339,116,75401,1,0,0:0:0:0:
294,111,75480,1,0,0:0:0:0:
253,132,75559,1,0,0:0:0:0:
230,172,75638,1,0,0:0:0:0:
228,218,75717,1,0,0:0:0:0:
235,263,75796,1,0,0:0:0:0:
221,307,75875,5,8,0:0:0:0:
187,339,75954,1,0,0:0:0:0:
143,351,76033,1,0,0:0:0:0:
98,341,76112,1,0,0:0:0:0:
63,312,76191,1,0,0:0:0:0:
46,269,76270,1,0,0:0:0:0:
51,223,76348,1,8,0:0:0:0:
76,185,76427,1,0,0:0:0:0:
117,163,76506,5,8,0:0:0:0:
164,162,76585,1,0,0:0:0:0:
209,168,76664,1,8,0:0:0:0:
249,147,76743,1,0,0:0:0:0:
270,106,76822,1,8,0:0:0:0:
263,61,76901,1,0,0:0:0:0:
231,28,76980,1,0,0:0:0:0:
185,21,77059,1,0,0:0:0:0:
144,41,77138,5,8,0:0:0:0:
123,81,77217,1,0,0:0:0:0:
122,128,77296,1,0,0:0:0:0:
137,171,77375,1,0,0:0:0:0:
123,214,77454,1,0,0:0:0:0:
85,240,77533,1,0,0:0:0:0:
40,237,77612,1,0,0:0:0:0:
5,207,77691,1,0,0:0:0:0:
0,163,77770,5,8,0:0:0:0:
16,122,77848,1,0,0:0:0:0:
57,102,77927,1,0,0:0:0:0:
103,109,78006,1,0,0:0:0:0:
136,140,78085,1,0,0:0:0:0:
179,159,78164,1,0,0:0:0:0:
225,164,78243,1,0,0:0:0:0:
270,154,78322,1,0,0:0:0:0:
309,130,78401,5,8,0:0:0:0:
339,94,78480,1,0,0:0:0:0:
370,60,78559,1,0,0:0:0:0:
400,25,78638,1,0,0:0:0:0:
445,15,78717,1,0,0:0:0:0:
487,33,78796,1,0,0:0:0:0:
511,72,78875,1,0,0:0:0:0:
509,117,78954,1,0,0:0:0:0:
480,153,79033,5,8,0:0:0:0:
437,166,79112,1,0,0:0:0:0:
390,163,79191,1,8,0:0:0:0:
353,134,79270,1,0,0:0:0:0:
314,108,79348,1,8,0:0:0:0:
268,105,79427,1,0,0:0:0:0:
227,125,79506,1,8,0:0:0:0:
202,163,79585,1,0,0:0:0:0:
199,209,79664,5,8,0:0:0:0:
219,250,79743,1,0,0:0:0:0:
258,276,79822,1,0,0:0:0:0:
304,278,79901,1,0,0:0:0:0:
345,258,79980,1,0,0:0:0:0:
379,226,80059,1,0,0:0:0:0:
410,192,80138,1,0,0:0:0:0:
455,185,80217,1,0,0:0:0:0:
495,207,80296,5,8,0:0:0:0:
512,249,80375,1,0,0:0:0:0:
503,293,80454,1,0,0:0:0:0:
467,322,80533,1,0,0:0:0:0:
421,323,80612,1,0,0:0:0:0:
378,306,80691,1,0,0:0:0:0:
340,278,80770,1,0,0:0:0:0:
309,243,80848,1,0,0:0:0:0:
288,202,80927,5,8,0:0:0:0:
232,74,81085,1,0,0:0:0:0:
172,200,81243,1,8,0:0:0:0:
107,76,81401,1,0,0:0:0:0:
67,210,81559,1,8,0:0:0:0:
183,133,81717,1,0,0:0:0:0:
277,236,81875,1,8,0:0:0:0:
301,98,82033,2,8,L|351:61,2,46.55
256,192,82329,12,0,84539,0:0:0:0:
55,156,84698,5,8,0:0:0:0:
81,118,84777,1,0,0:0:0:0:
119,91,84856,1,0,0:0:0:0:
164,81,84935,1,0,0:0:0:0:
210,87,85014,1,8,0:0:0:0:
251,109,85093,1,0,0:0:0:0:
281,144,85172,1,0,0:0:0:0:
299,187,85251,1,0,0:0:0:0:
313,230,85329,5,8,0:0:0:0:
347,261,85408,1,0,0:0:0:0:
387,285,85487,2,0,L|445:326,1,46.55
472,230,85645,2,0,L|418:197,1,46.55,8|0,0:0|0:0,0:0:0:0:
387,287,85803,2,0,L|432:316,1,46.55
473,230,85961,2,0,L|431:207,1,46.55,8|0,0:0|0:0,0:0:0:0:
387,289,86119,2,0,L|430:315,1,46.55
472,230,86277,2,0,L|430:204,1,46.55,8|0,0:0|0:0,0:0:0:0:
395,177,86435,5,0,0:0:0:0:
357,149,86514,1,0,0:0:0:0:
313,133,86593,1,8,0:0:0:0:
267,132,86672,1,0,0:0:0:0:
222,143,86751,1,0,0:0:0:0:
183,168,86829,1,0,0:0:0:0:
153,203,86908,1,8,0:0:0:0:
140,248,86987,1,0,0:0:0:0:
134,293,87066,5,8,0:0:0:0:
99,321,87145,1,0,0:0:0:0:
53,317,87224,1,8,0:0:0:0:
24,282,87303,1,0,0:0:0:0:
27,237,87382,1,0,0:0:0:0:
61,207,87461,1,0,0:0:0:0:
108,207,87540,1,8,0:0:0:0:
154,207,87619,1,0,0:0:0:0:
194,185,87698,5,0,0:0:0:0:
218,146,87777,1,0,0:0:0:0:
220,100,87856,1,8,0:0:0:0:
199,60,87935,1,0,0:0:0:0:
160,35,88014,1,0,0:0:0:0:
114,32,88093,1,0,0:0:0:0:
73,53,88172,1,8,0:0:0:0:
47,91,88251,1,0,0:0:0:0:
44,137,88329,5,0,0:0:0:0:
59,182,88408,1,0,0:0:0:0:
71,226,88487,2,0,L|86:282,1,46.55,8|0,0:0|0:0,0:0:0:0:
174,252,88645,2,0,L|159:205,1,46.55
251,187,88803,2,0,L|267:239,1,46.55,8|0,0:0|0:0,0:0:0:0:
355,209,88961,2,0,L|336:164,1,46.55
425,134,89119,2,0,L|451:196,1,46.55,8|0,0:0|0:0,0:0:0:0:
355,209,89277,2,0,L|334:164,1,46.55
248,187,89435,2,0,L|272:250,1,46.55,8|0,0:0|0:0,0:0:0:0:
175,259,89593,2,0,L|157:204,1,46.55,8|8,0:0|0:0,0:0:0:0:
149,168,89751,5,8,0:0:0:0:
140,123,89829,1,0,0:0:0:0:
105,93,89908,1,0,0:0:0:0:
60,90,89987,1,0,0:0:0:0:
22,115,90066,1,8,0:0:0:0:
8,159,90145,1,0,0:0:0:0:
23,202,90224,1,0,0:0:0:0:
61,226,90303,1,0,0:0:0:0:
107,236,90382,5,8,0:0:0:0:
153,236,90461,1,0,0:0:0:0:
199,236,90540,2,0,L|208:286,1,46.55
300,269,90698,2,0,L|289:221,1,46.55,8|0,0:0|0:0,0:0:0:0:
381,209,90856,2,0,L|396:275,1,46.55
406,298,91014,5,8,0:0:0:0:
421,340,91093,1,0,0:0:0:0:
462,358,91172,1,0,0:0:0:0:
504,340,91251,1,0,0:0:0:0:
512,297,91329,1,8,0:0:0:0:
498,257,91408,1,0,0:0:0:0:
465,224,91487,1,0,0:0:0:0:
430,192,91566,1,0,0:0:0:0:
390,169,91645,5,8,0:0:0:0:
346,153,91724,1,0,0:0:0:0:
300,148,91803,1,0,0:0:0:0:
254,151,91882,1,0,0:0:0:0:
208,161,91961,2,0,L|150:170,1,46.55,8|0,0:0|0:0,0:0:0:0:
184,258,92119,2,0,L|233:250,1,46.55,8|0,0:0|0:0,0:0:0:0:
277,247,92277,5,8,0:0:0:0:
320,234,92356,1,0,0:0:0:0:
362,253,92435,1,0,0:0:0:0:
380,294,92514,1,0,0:0:0:0:
367,338,92593,1,8,0:0:0:0:
329,362,92672,1,0,0:0:0:0:
284,355,92751,1,0,0:0:0:0:
254,320,92829,1,0,0:0:0:0:
245,275,92908,5,8,0:0:0:0:
230,231,92987,1,0,0:0:0:0:
222,185,93066,2,0,L|161:188,1,46.55
215,101,93224,2,0,L|285:100,1,46.55,8|0,0:0|0:0,0:0:0:0:
204,26,93382,2,0,L|147:29,1,46.55
111,37,93540,5,8,0:0:0:0:
72,63,93619,1,0,0:0:0:0:
45,100,93698,1,0,0:0:0:0:
33,145,93777,1,0,0:0:0:0:
37,191,93856,1,8,0:0:0:0:
56,233,93935,1,0,0:0:0:0:
89,266,94014,1,0,0:0:0:0:
131,285,94093,1,0,0:0:0:0:
177,296,94172,6,0,L|181:233,1,46.55,8|0,0:0|0:0,0:0:0:0:
260,305,94329,2,0,L|260:359,1,46.55
345,301,94487,2,0,L|345:249,1,46.55,8|0,0:0|0:0,0:0:0:0:
346,207,94645,5,8,0:0:0:0:
347,160,94724,1,8,0:0:0:0:
327,119,94803,1,8,0:0:0:0:
290,91,94882,1,0,0:0:0:0:
245,82,94961,1,0,0:0:0:0:
201,95,95040,1,0,0:0:0:0:
168,127,95119,1,8,0:0:0:0:
152,171,95198,1,0,0:0:0:0:
160,217,95277,5,0,0:0:0:0:
174,260,95356,1,0,0:0:0:0:
163,305,95435,1,8,0:0:0:0:
130,337,95514,1,0,0:0:0:0:
85,348,95593,5,0,0:0:0:0:
42,333,95672,1,0,0:0:0:0:
4,305,95751,2,0,L|26:258,1,46.55,8|0,0:0|0:0,0:0:0:0:
116,270,95908,2,0,L|142:216,1,46.55
67,163,96066,2,0,L|107:109,1,46.55,8|0,0:0|0:0,0:0:0:0:
186,142,96224,2,0,L|214:95,1,46.55
133,46,96382,2,0,L|163:5,1,46.55,8|0,0:0|0:0,0:0:0:0:
232,61,96540,2,0,L|195:128,1,46.55
187,143,96698,5,8,0:0:0:0:
166,183,96777,1,0,0:0:0:0:
178,227,96856,1,0,0:0:0:0:
216,251,96935,1,0,0:0:0:0:
261,244,97014,1,8,0:0:0:0:
303,225,97093,1,0,0:0:0:0:
341,199,97172,1,8,0:0:0:0:
386,201,97251,1,8,0:0:0:0:
422,230,97329,5,8,0:0:0:0:
433,275,97408,1,0,0:0:0:0:
415,317,97487,1,0,0:0:0:0:
376,340,97566,1,0,0:0:0:0:
330,335,97645,5,8,0:0:0:0:
174,233,97961,1,8,0:0:0:0:
402,72,98198,1,8,0:0:0:0:
124,319,98435,1,8,0:0:0:0:
109,132,98593,1,8,0:0:0:0:
273,218,98829,1,8,0:0:0:0:
54,44,99066,1,8,0:0:0:0:
104,223,99224,1,8,0:0:0:0:
366,129,99461,1,8,0:0:0:0:
164,321,99698,1,8,0:0:0:0:
349,297,99856,5,8,0:0:0:0:
381,264,99935,1,0,0:0:0:0:
391,219,100014,1,0,0:0:0:0:
377,176,100093,1,0,0:0:0:0:
342,146,100172,1,8,0:0:0:0:
296,139,100251,1,0,0:0:0:0:
255,160,100329,1,0,0:0:0:0:
226,196,100408,1,0,0:0:0:0:
193,230,100487,6,0,L|143:181,1,46.55,8|0,0:0|0:0,0:0:0:0:
130,286,100645,2,0,L|171:328,1,46.55
256,317,100803,2,0,L|206:271,1,46.55,8|0,0:0|0:0,0:0:0:0:
314,272,100961,2,0,L|267:231,1,46.55
251,203,101119,5,8,0:0:0:0:
228,162,101198,1,0,0:0:0:0:
229,116,101277,1,0,0:0:0:0:
254,78,101356,1,0,0:0:0:0:
296,58,101435,1,8,0:0:0:0:
341,62,101514,1,0,0:0:0:0:
378,89,101593,1,0,0:0:0:0:
396,132,101672,1,0,0:0:0:0:
389,177,101751,5,8,0:0:0:0:
367,218,101829,1,0,0:0:0:0:
342,256,101908,1,0,0:0:0:0:
347,301,101987,1,0,0:0:0:0:
380,333,102066,1,8,0:0:0:0:
425,338,102145,1,0,0:0:0:0:
463,313,102224,1,0,0:0:0:0:
477,270,102303,1,0,0:0:0:0:
461,227,102382,5,8,0:0:0:0:
329,96,102540,1,8,0:0:0:0:
217,245,102698,1,8,0:0:0:0:
117,88,102856,1,8,0:0:0:0:
106,274,103014,1,8,0:0:0:0:
236,141,103172,1,8,0:0:0:0:
340,295,103329,1,8,0:0:0:0:
362,110,103487,1,8,0:0:0:0:
475,244,103645,1,0,0:0:0:0:
460,299,103724,5,0,0:0:0:0:
421,341,103803,1,0,0:0:0:0:
366,359,103882,1,0,0:0:0:0:
310,349,103961,1,0,0:0:0:0:
265,313,104040,1,0,0:0:0:0:
243,260,104119,1,0,0:0:0:0:
234,203,104198,1,0,0:0:0:0:
223,146,104277,1,0,0:0:0:0:
185,103,104356,1,0,0:0:0:0:
131,85,104435,1,0,0:0:0:0:
75,98,104514,1,0,0:0:0:0:
33,138,104593,1,0,0:0:0:0:
18,193,104672,1,0,0:0:0:0:
34,248,104751,1,0,0:0:0:0:
75,288,104829,1,0,0:0:0:0:
131,301,104908,1,0,0:0:0:0:
