osu file format v14

[General]
AudioFilename: audio.mp3
AudioLeadIn: 0
PreviewTime: 0
Countdown: 1
SampleSet: Soft
StackLeniency: 0.6
Mode: 0
LetterboxInBreaks: 0
WidescreenStoryboard: 1

[Editor]
Bookmarks: 3289,48016,65470,85107
DistanceSpacing: 1.4
BeatDivisor: 6
GridSize: 4
TimelineZoom: 2.300005

[Metadata]
Title:Guitian
TitleUnicode:歸天
Artist:HyuN
ArtistUnicode:HyuN
Creator:ScubDomino
Version:Hard
Source:osu!
Tags:HyuN_Inofixion Kang SungHyeon chinese traditional orchestra Cheery fortified magnificent mysterious romantic Symphony mappers guild featured artist round 6 anime girl anime_girl
BeatmapID:1863255
BeatmapSetID:891348

[Difficulty]
HPDrainRate:4
CircleSize:4
OverallDifficulty:6
ApproachRate:8
SliderMultiplier:1
SliderTickRate:1

[Events]
//Background and Video events
0,0,"asdasdasdasdasdasdasdasd.jpg",0,0
//Break Periods
//Storyboard Layer 0 (Background)
//Storyboard Layer 1 (Fail)
//Storyboard Layer 2 (Pass)
//Storyboard Layer 3 (Foreground)
//Storyboard Sound Samples

[TimingPoints]
3289,363.636363636364,3,2,1,50,1,0
13470,-133.333333333333,3,2,1,30,0,0
36016,-133.333333333333,3,2,1,50,0,0
48016,-100,3,2,1,50,0,0
86925,-133.333333333333,3,2,1,30,0,0
100379,-133.333333333333,3,2,1,50,0,0
113470,-100,3,2,1,50,0,0
134198,-100,3,2,1,50,0,1
137379,-100,3,2,1,50,0,0
137470,-100,3,2,1,50,0,1
137561,-100,3,2,1,50,0,0

[Colours]
Combo1 : 122,176,104
Combo2 : 166,113,183
Combo3 : 238,147,147
Combo4 : 244,187,111

[HitObjects]
256,192,379,12,0,2925,0:0:0:0:
144,197,3289,6,0,L|251:207,1,100,4|0,3:2|0:0,0:0:0:0:
261,219,3834,1,0,3:0:0:0:
330,170,4016,2,0,P|328:141|328:117,1,50,0|0,3:0|0:0,0:0:0:0:
347,35,4379,2,0,L|243:43,1,100,2|2,3:2|3:2,0:0:0:0:
155,67,4925,2,0,L|164:8,2,50,0|2|0,3:2|3:2|3:0,0:0:0:0:
72,87,5470,5,2,3:2:0:0:
93,225,5834,1,0,3:0:0:0:
114,363,6198,1,0,3:0:0:0:
235,277,6561,6,0,L|342:287,1,100,2|2,3:2|3:2,0:0:0:0:
352,299,7106,1,0,3:2:0:0:
426,348,7289,1,2,3:2:0:0:
482,280,7470,1,0,3:0:0:0:
428,214,7652,6,0,P|432:170|450:117,1,100,6|2,3:2|3:2,0:0:0:0:
506,50,8198,1,0,0:0:0:0:
441,0,8379,2,0,L|368:7,1,50,2|0,3:2|0:0,0:0:0:0:
345,97,8743,6,0,L|272:90,1,50,4|0,3:2|0:0,0:0:0:0:
245,155,9107,2,0,L|215:195,1,50,2|0,3:2|3:2,0:0:0:0:
217,77,9470,1,2,3:2:0:0:
195,0,9651,1,0,3:2:0:0:
91,63,9834,6,0,L|39:58,1,50,4|0,3:2|3:0,0:0:0:0:
20,133,10198,1,0,3:0:0:0:
20,133,10379,1,0,3:0:0:0:
77,191,10561,2,0,P|78:224|69:255,1,50,4|0,3:2|3:0,0:0:0:0:
142,349,10925,6,0,P|141:316|150:285,1,50,4|0,3:2|3:0,0:0:0:0:
221,246,11289,1,2,3:2:0:0:
161,195,11470,1,2,3:2:0:0:
173,99,11652,2,0,L|241:77,1,50,2|0,3:2|3:0,0:0:0:0:
237,162,12016,5,4,0:0:0:0:
297,294,13470,6,0,L|384:302,1,75.0000028610231,0|0,0:0|0:0,0:0:0:0:
449,324,14198,5,2,0:0:0:0:
400,202,14561,1,0,0:0:0:0:
492,103,14925,1,2,0:0:0:0:
396,210,15289,6,0,L|319:218,1,75.0000028610231,2|0,0:0|0:0,0:0:0:0:
208,255,16016,2,0,L|212:208,1,37.5000014305115,2|0,0:0|0:0,0:0:0:0:
279,148,16379,6,0,P|257:143|231:143,1,37.5000014305115,2|0,0:0|0:0,0:0:0:0:
192,82,16743,2,0,P|170:77|144:77,1,37.5000014305115,2|0,0:0|0:0,0:0:0:0:
105,16,17107,2,0,P|83:11|57:11,1,37.5000014305115,2|0,0:0|0:0,0:0:0:0:
74,95,17470,5,2,0:0:0:0:
193,0,17834,1,0,0:0:0:0:
329,50,18198,2,0,L|326:98,1,37.5000014305115,2|0,0:0|0:0,0:0:0:0:
383,143,18561,6,0,L|390:228,1,75.0000028610231,2|0,0:0|0:0,0:0:0:0:
492,313,19289,2,0,L|444:310,1,37.5000014305115,2|0,0:0|0:0,0:0:0:0:
399,367,19652,5,2,0:0:0:0:
267,353,20016,1,2,0:0:0:0:
135,339,20379,1,2,0:0:0:0:
8,384,20743,6,0,L|-1:305,1,75.0000028610231,2|0,0:0|0:0,0:0:0:0:
103,212,21470,1,0,0:0:0:0:
135,339,21834,2,0,L|214:328,1,75.0000028610231,2|2,0:0|0:0,0:0:0:0:
329,376,22561,2,0,L|337:332,1,37.5000014305115,2|0,0:0|0:0,0:0:0:0:
395,286,22925,2,0,L|383:203,1,75.0000028610231,2|0,0:0|0:0,0:0:0:0:
454,92,23652,1,2,0:0:0:0:
353,7,24016,5,2,0:0:0:0:
254,99,24380,1,0,0:0:0:0:
132,50,24743,2,0,L|125:104,1,37.5000014305115,2|0,0:0|0:0,0:0:0:0:
59,128,25107,1,2,0:0:0:0:
96,245,25470,2,0,L|144:252,1,37.5000014305115,2|0,0:0|0:0,0:0:0:0:
183,317,25834,2,0,L|225:323,1,37.5000014305115,2|0,0:0|0:0,0:0:0:0:
281,376,26198,5,2,0:0:0:0:
380,284,26562,1,0,0:0:0:0:
502,333,26925,2,0,L|509:279,1,37.5000014305115,2|0,0:0|0:0,0:0:0:0:
446,238,27289,6,0,L|435:151,1,75.0000028610231,2|0,0:0|0:0,0:0:0:0:
486,96,27834,1,0,0:0:0:0:
431,37,28016,2,0,L|427:-7,1,37.5000014305115,2|0,0:0|0:0,0:0:0:0:
352,22,28379,6,0,P|308:68|287:72,1,75.0000028610231,2|2,0:0|0:0,0:0:0:0:
181,32,29107,1,2,0:0:0:0:
86,97,29470,6,0,L|75:174,1,75.0000028610231,2|0,0:0|0:0,0:0:0:0:
17,233,30198,1,0,0:0:0:0:
155,193,30561,2,0,L|183:193,1,18.7500007152558,2|0,0:0|0:0,0:0:0:0:
256,272,30925,1,0,0:0:0:0:
256,104,31289,2,0,L|256:60,1,37.5000014305115,2|0,0:0|0:0,0:0:0:0:
326,21,31652,5,2,0:0:0:0:
295,46,32743,5,0,0:0:0:0:
217,46,33834,5,0,0:0:0:0:
186,21,34925,5,0,0:0:0:0:
504,168,36016,6,0,L|512:248,1,75.0000028610231,4|0,3:2|3:0,0:0:0:0:
457,302,36561,1,0,3:0:0:0:
405,358,36743,1,0,3:0:0:0:
276,268,37107,6,0,L|268:220,1,37.5000014305115,2|0,3:2|3:0,0:0:0:0:
180,171,37470,2,0,L|225:188,1,37.5000014305115,2|0,3:2|3:0,0:0:0:0:
311,136,37834,2,0,L|274:167,1,37.5000014305115,2|0,3:2|3:0,0:0:0:0:
228,100,38198,6,0,L|236:16,1,75.0000028610231,4|0,3:2|3:0,0:0:0:0:
156,28,38743,1,0,3:0:0:0:
88,64,38925,1,0,3:0:0:0:
177,184,39289,6,0,L|225:193,1,37.5000014305115,2|0,3:2|3:0,0:0:0:0:
301,127,39652,2,0,L|270:164,1,37.5000014305115,2|0,3:2|3:0,0:0:0:0:
289,262,40016,1,2,3:2:0:0:
286,254,40106,1,0,3:0:0:0:
283,245,40197,1,0,3:0:0:0:
280,236,40288,1,0,3:0:0:0:
277,227,40379,1,4,3:2:0:0:
416,312,40743,6,0,L|428:260,1,37.5000014305115,0|0,3:0|3:0,0:0:0:0:
432,196,41107,1,0,3:0:0:0:
301,127,41470,6,0,L|269:164,1,37.5000014305115,2|0,3:2|3:0,0:0:0:0:
288,263,41834,2,0,L|272:218,1,37.5000014305115,2|0,3:2|3:0,0:0:0:0:
177,185,42197,2,0,L|225:194,1,37.5000014305115,2|0,3:2|3:0,0:0:0:0:
208,108,42561,5,6,3:2:0:0:
128,88,42743,1,2,3:2:0:0:
216,228,43107,5,2,3:2:0:0:
196,308,43289,1,2,3:2:0:0:
312,200,43652,5,6,3:2:0:0:
392,220,43834,1,2,3:2:0:0:
304,80,44198,5,2,3:2:0:0:
324,0,44380,1,2,3:2:0:0:
408,144,44743,5,6,3:2:0:0:
328,164,44925,1,2,3:2:0:0:
187,76,45289,5,6,3:2:0:0:
208,156,45471,1,2,3:2:0:0:
99,271,45834,5,6,3:2:0:0:
179,251,46016,1,2,3:2:0:0:
320,340,46380,5,6,3:2:0:0:
300,260,46562,1,2,3:2:0:0:
392,128,46925,5,6,3:2:0:0:
256,184,47289,1,6,3:2:0:0:
120,128,47652,1,6,3:2:0:0:
256,56,48016,6,0,L|363:66,1,100,4|0,3:2|3:0,0:0:0:0:
484,92,48743,1,0,3:2:0:0:
344,140,49107,2,0,L|356:250,1,100,2|0,3:2|0:0,0:0:0:0:
363,258,49652,1,0,3:0:0:0:
428,306,49834,2,0,L|487:312,1,50,0|0,3:0|0:0,0:0:0:0:
376,368,50198,6,0,L|267:382,1,100,2|0,3:2|3:0,0:0:0:0:
255,309,50743,1,0,0:0:0:0:
208,248,50925,2,0,L|149:240,1,50,0|0,3:0|3:0,0:0:0:0:
102,288,51289,1,2,3:2:0:0:
28,172,51652,2,0,L|37:117,1,50,0|0,3:0|3:0,0:0:0:0:
123,64,52016,2,0,L|67:53,1,50,0|0,3:0|0:0,0:0:0:0:
0,32,52379,5,4,0:0:0:0:
112,148,52743,2,0,L|215:138,1,100,0|0,3:0|3:0,0:0:0:0:
305,22,53470,2,0,L|410:34,1,100,2|0,3:2|3:2,0:0:0:0:
468,80,54016,1,0,3:2:0:0:
500,152,54198,2,0,L|492:213,1,50,2|0,3:2|3:2,0:0:0:0:
434,256,54561,6,0,L|447:356,1,100,2|0,3:2|3:2,0:0:0:0:
363,299,55289,1,0,3:0:0:0:
263,216,55652,2,0,L|156:226,1,100,2|2,3:2|3:2,0:0:0:0:
151,239,56198,1,0,3:2:0:0:
100,300,56379,1,2,3:2:0:0:
100,300,56561,1,0,3:0:0:0:
68,376,56743,6,0,L|179:388,1,100,6|0,3:2|0:0,0:0:0:0:
238,350,57289,1,0,3:0:0:0:
176,300,57470,2,0,L|184:237,1,50,2|0,3:2|0:0,0:0:0:0:
245,201,57834,2,0,P|234:161|241:97,1,100,2|0,3:2|3:0,0:0:0:0:
306,62,58379,1,0,3:0:0:0:
352,128,58561,2,0,L|410:131,1,50,2|0,3:2|3:2,0:0:0:0:
479,128,58925,6,0,L|476:188,1,50,2|0,3:2|0:0,0:0:0:0:
418,228,59289,2,0,L|414:290,1,50,2|0,3:2|2:0,0:0:0:0:
356,324,59652,1,2,3:2:0:0:
284,292,59834,1,0,2:0:0:0:
224,344,60016,2,0,P|180:344|121:360,1,100,2|0,3:2|3:0,0:0:0:0:
50,372,60561,1,0,3:0:0:0:
64,296,60743,2,0,P|52:268|32:248,1,50,2|0,3:2|0:0,0:0:0:0:
17,171,61107,6,0,L|121:184,1,100,4|0,3:2|0:0,0:0:0:0:
163,248,61652,1,0,3:0:0:0:
216,184,61834,2,0,L|211:127,1,50,0|0,3:2|3:0,0:0:0:0:
215,53,62198,5,4,3:2:0:0:
288,92,62379,1,0,0:0:0:0:
348,40,62561,2,0,L|343:-11,1,50,0|0,0:0|3:0,0:0:0:0:
432,124,62925,2,0,L|437:179,1,50,2|0,3:2|3:0,0:0:0:0:
512,271,63289,6,0,P|477:259|410:263,1,100,4|0,3:2|0:0,0:0:0:0:
357,318,63834,1,0,3:0:0:0:
286,280,64016,6,0,L|279:329,1,50,4|0,3:2|0:0,0:0:0:0:
129,306,64379,2,0,L|136:257,1,50,4|0,3:2|0:0,0:0:0:0:
223,183,64743,5,0,3:0:0:0:
239,109,64925,1,0,0:0:0:0:
169,74,65107,5,0,3:0:0:0:
153,0,65289,1,0,0:0:0:0:
82,30,65470,6,0,P|40:36|-20:20,1,100,4|0,3:2|0:0,0:0:0:0:
134,109,66198,2,0,P|156:91|175:60,1,50,2|0,3:2|3:0,0:0:0:0:
100,208,66561,6,0,L|86:311,1,100,2|2,3:2|3:2,0:0:0:0:
99,384,67107,1,0,3:2:0:0:
173,348,67289,1,2,3:2:0:0:
245,310,67470,1,0,3:0:0:0:
319,346,67652,6,0,L|388:354,1,50,2|0,3:2|0:0,0:0:0:0:
449,378,68016,2,0,L|507:386,1,50,2|0,3:2|0:0,0:0:0:0:
429,298,68379,2,0,P|423:262|425:233,1,50,2|2,3:2|3:2,0:0:0:0:
480,153,68743,5,2,3:2:0:0:
404,1,69107,1,0,3:2:0:0:
330,37,69289,1,2,3:2:0:0:
258,75,69470,1,2,3:2:0:0:
184,39,69652,1,0,3:2:0:0:
116,0,69834,6,0,L|57:8,1,50,4|0,3:2|0:0,0:0:0:0:
0,119,70198,2,0,L|49:112,1,50,2|0,3:2|0:0,0:0:0:0:
111,169,70561,2,0,L|105:231,1,50,2|0,3:2|3:0,0:0:0:0:
48,284,70925,6,0,L|59:392,1,100,2|0,3:2|0:0,0:0:0:0:
133,349,71470,1,0,3:0:0:0:
215,351,71652,2,0,P|248:359|280:378,1,50,2|0,3:2|3:0,0:0:0:0:
366,384,72016,2,0,L|381:272,1,100,2|0,3:2|3:2,0:0:0:0:
428,224,72561,1,0,2:0:0:0:
372,168,72743,1,0,3:0:0:0:
371,155,72833,1,0,3:0:0:0:
371,143,72924,1,0,3:0:0:0:
408,57,73107,6,0,B|385:45|385:45|340:47,1,50,4|0,2:0|3:0,0:0:0:0:
279,98,73470,6,0,B|256:86|256:86|211:88,1,50,4|0,2:0|3:0,0:0:0:0:
150,139,73834,6,0,B|127:127|127:127|82:129,1,50,4|0,2:0|3:0,0:0:0:0:
26,198,74198,6,0,L|33:303,1,100,4|0,3:2|0:0,0:0:0:0:
175,360,74925,2,0,L|183:303,1,50,0|0,3:0|0:0,0:0:0:0:
171,233,75289,6,0,L|235:230,1,50,2|0,3:2|3:2,0:0:0:0:
279,183,75652,1,2,3:2:0:0:
351,208,75834,1,0,3:2:0:0:
413,160,76016,2,0,L|471:157,1,50,2|0,3:2|3:2,0:0:0:0:
354,108,76379,6,0,P|345:60|353:2,1,100,2|0,3:2|3:0,0:0:0:0:
196,12,77107,2,0,P|178:34|152:54,1,50,0|0,3:0|2:0,0:0:0:0:
107,107,77470,2,0,L|48:102,1,50,2|0,3:2|3:2,0:0:0:0:
159,228,77834,2,0,L|208:232,1,50,0|2,3:2|3:2,0:0:0:0:
264,179,78198,1,2,3:2:0:0:
337,207,78379,1,0,3:0:0:0:
304,281,78561,6,0,L|292:391,1,100,4|0,3:2|0:0,0:0:0:0:
156,309,79289,2,0,L|104:314,1,50,2|0,2:0|3:0,0:0:0:0:
40,259,79652,6,0,P|64:223|69:157,1,100,4|2,3:2|3:2,0:0:0:0:
17,109,80198,1,0,3:2:0:0:
82,61,80379,2,0,L|93:5,1,50,2|0,3:2|3:2,0:0:0:0:
153,158,80743,6,0,L|202:167,1,50,4|0,3:2|0:0,0:0:0:0:
250,235,81107,1,0,3:0:0:0:
250,235,81289,1,0,3:0:0:0:
328,208,81470,6,0,P|357:207|391:197,1,50,4|0,3:2|0:0,0:0:0:0:
493,82,81834,2,0,P|464:83|430:93,1,50,4|0,3:2|0:0,0:0:0:0:
334,122,82198,1,0,3:0:0:0:
334,122,82379,1,0,3:0:0:0:
235,79,82561,6,0,P|244:102|248:126,1,50,4|0,3:2|0:0,0:0:0:0:
282,273,82925,2,0,P|272:249|268:225,1,50,4|0,3:2|0:0,0:0:0:0:
140,121,83289,1,0,3:0:0:0:
140,121,83470,1,0,3:0:0:0:
18,82,83653,6,0,P|43:82|68:87,1,50,4|0,3:2|0:0,0:0:0:0:
184,207,84017,2,0,P|159:207|135:202,1,50,4|0,3:2|0:0,0:0:0:0:
86,263,84379,5,2,3:2:0:0:
117,333,84561,1,2,3:2:0:0:
187,369,84743,5,4,3:2:0:0:
263,357,84925,1,0,0:0:0:0:
181,291,85107,5,4,0:0:0:0:
344,152,86925,2,0,L|341:111,1,37.5000014305115,0|0,0:0|0:0,0:0:0:0:
274,66,87289,5,2,0:0:0:0:
152,115,87652,1,0,0:0:0:0:
53,23,88016,1,0,0:0:0:0:
0,161,88379,6,0,L|80:152,1,75.0000028610231,2|0,0:0|0:0,0:0:0:0:
82,159,89289,1,0,0:0:0:0:
126,224,89470,5,2,0:0:0:0:
248,175,89833,1,0,0:0:0:0:
347,267,90197,1,0,0:0:0:0:
455,359,90561,6,0,L|443:246,1,112.500004291535,2|0,0:0|0:0,0:0:0:0:
410,173,91289,2,0,P|432:155|436:140,1,37.5000014305115,0|0,0:0|0:0,0:0:0:0:
366,108,91652,5,2,0:0:0:0:
267,200,92016,1,0,0:0:0:0:
145,151,92379,1,0,0:0:0:0:
52,237,92743,6,0,L|63:322,1,75.0000028610231,2|0,0:0|0:0,0:0:0:0:
71,321,93652,1,0,0:0:0:0:
136,277,93833,5,2,0:0:0:0:
87,155,94198,1,0,0:0:0:0:
161,31,94560,1,0,0:0:0:0:
335,7,94925,6,0,L|346:131,1,112.500004291535,2|0,0:0|0:0,0:0:0:0:
326,195,95652,2,0,P|356:209|369:225,1,37.5000014305115,0|0,0:0|0:0,0:0:0:0:
398,279,96016,5,2,0:0:0:0:
276,328,96379,1,0,0:0:0:0:
177,236,96743,1,0,0:0:0:0:
40,269,97107,6,0,L|26:347,1,75.0000028610231,2|0,0:0|0:0,0:0:0:0:
97,148,98016,1,0,0:0:0:0:
78,71,98197,5,2,0:0:0:0:
219,97,98561,1,0,0:0:0:0:
292,230,98925,1,0,0:0:0:0:
433,256,99289,6,0,P|422:163|375:204,1,187.500007152558,2|0,0:0|0:0,0:0:0:0:
323,249,100379,6,0,L|328:298,1,37.5000014305115,4|0,3:2|0:0,0:0:0:0:
273,349,100743,1,0,3:0:0:0:
273,349,100925,1,0,3:0:0:0:
205,291,101107,1,0,3:0:0:0:
181,147,101470,6,0,L|234:153,1,37.5000014305115,2|0,3:2|3:0,0:0:0:0:
301,117,101834,2,0,L|295:170,1,37.5000014305115,2|0,3:2|3:0,0:0:0:0:
330,236,102198,2,0,L|277:230,1,37.5000014305115,2|0,3:2|0:0,0:0:0:0:
216,228,102561,1,4,3:2:0:0:
170,68,102925,1,0,3:0:0:0:
170,68,103107,1,0,3:0:0:0:
219,3,103289,1,0,3:0:0:0:
301,117,103652,6,0,L|295:170,1,37.5000014305115,2|0,3:2|3:0,0:0:0:0:
331,237,104016,2,0,L|278:231,1,37.5000014305115,2|0,3:2|3:0,0:0:0:0:
212,266,104380,1,2,3:2:0:0:
213,256,104470,1,0,3:0:0:0:
214,247,104561,1,0,3:0:0:0:
215,238,104652,1,0,3:0:0:0:
216,228,104743,1,4,3:2:0:0:
110,146,105107,5,0,3:0:0:0:
168,91,105289,1,0,3:0:0:0:
244,112,105470,2,0,L|290:116,1,37.5000014305115,0|0,3:0|0:0,0:0:0:0:
331,237,105834,6,0,L|278:231,1,37.5000014305115,2|0,3:2|3:0,0:0:0:0:
211,267,106198,2,0,L|217:214,1,37.5000014305115,2|0,3:2|3:0,0:0:0:0:
182,148,106562,2,0,L|235:154,1,37.5000014305115,2|0,3:2|3:0,0:0:0:0:
295,155,106925,5,6,3:2:0:0:
304,76,107107,1,2,3:2:0:0:
216,228,107470,5,2,3:2:0:0:
208,308,107652,1,2,3:2:0:0:
219,152,108016,5,6,3:2:0:0:
140,144,108198,1,2,3:2:0:0:
292,231,108561,5,2,3:2:0:0:
372,240,108743,1,2,3:2:0:0:
228,325,109107,5,6,3:2:0:0:
221,239,109289,1,2,3:2:0:0:
283,58,109652,5,6,3:2:0:0:
290,144,109834,1,2,3:2:0:0:
122,164,110198,5,6,3:2:0:0:
208,157,110380,1,2,3:2:0:0:
389,219,110743,5,6,3:2:0:0:
303,226,110925,1,2,3:2:0:0:
120,344,111289,5,6,3:2:0:0:
256,288,111653,1,6,3:2:0:0:
392,344,112016,1,6,3:2:0:0:
256,384,112379,5,4,1:2:0:0:
136,216,113107,2,0,L|144:156,1,56.2500021457673,0|0,0:0|0:0,0:0:0:0:
140,148,113470,6,0,P|112:160|36:156,1,100,4|0,3:2|3:2,0:0:0:0:
192,80,114198,2,0,P|236:84|260:96,1,50,2|0,3:2|3:0,0:0:0:0:
316,40,114561,6,0,L|324:148,1,100,2|2,3:2|3:2,0:0:0:0:
368,204,115107,1,0,3:2:0:0:
448,224,115289,1,2,3:2:0:0:
504,284,115470,1,0,3:0:0:0:
424,304,115652,6,0,L|304:316,1,100,2|2,3:2|3:2,0:0:0:0:
256,348,116198,1,0,0:0:0:0:
188,312,116379,2,0,P|152:332|120:336,1,50,2|2,3:2|3:2,0:0:0:0:
68,384,116743,6,0,L|60:324,1,50,2|0,3:2|0:0,0:0:0:0:
24,260,117107,1,0,3:2:0:0:
112,244,117289,1,2,3:2:0:0:
140,156,117470,1,2,3:2:0:0:
204,224,117652,1,0,3:2:0:0:
292,208,117834,6,0,L|304:148,1,50,4|0,3:2|0:0,0:0:0:0:
384,320,118198,2,0,L|372:380,1,50,2|0,3:2|0:0,0:0:0:0:
300,340,118561,2,0,L|251:327,1,50,2|0,3:2|3:0,0:0:0:0:
180,288,118925,2,0,P|160:328|96:336,1,100,2|0,3:2|0:0,0:0:0:0:
24,340,119470,1,0,3:0:0:0:
60,264,119652,2,0,L|68:200,1,50,2|0,3:2|3:0,0:0:0:0:
40,136,120016,2,0,L|152:124,1,100,2|0,3:2|3:2,0:0:0:0:
216,144,120561,1,0,2:0:0:0:
160,200,120743,1,0,3:0:0:0:
159,213,120833,1,0,3:0:0:0:
159,225,120924,1,0,3:0:0:0:
104,327,121107,6,0,B|127:339|127:339|172:337,1,50,4|0,2:0|3:0,0:0:0:0:
233,286,121470,6,0,B|256:298|256:298|301:296,1,50,4|0,2:0|3:0,0:0:0:0:
362,245,121834,6,0,B|385:257|385:257|430:255,1,50,4|0,2:0|3:0,0:0:0:0:
484,304,122198,6,0,L|504:196,1,100,4|0,3:2|0:0,0:0:0:0:
420,36,122925,2,0,L|428:96,1,50,0|0,3:0|0:0,0:0:0:0:
436,164,123289,6,0,L|380:156,1,50,2|0,3:2|3:2,0:0:0:0:
328,104,123652,1,2,3:2:0:0:
256,128,123834,1,0,3:2:0:0:
216,196,124016,1,2,3:2:0:0:
144,172,124198,1,0,3:2:0:0:
88,116,124379,6,0,L|80:12,1,100,2|0,3:2|3:0,0:0:0:0:
16,152,125107,2,0,L|8:204,1,50,0|0,3:0|2:0,0:0:0:0:
16,280,125470,6,0,L|80:272,1,50,2|0,3:2|3:2,0:0:0:0:
216,364,125834,2,0,L|152:372,1,50,0|2,3:2|3:2,0:0:0:0:
144,288,126198,1,2,3:2:0:0:
208,240,126379,1,0,3:0:0:0:
272,300,126561,6,0,P|316:320|364:304,1,100,4|0,3:2|0:0,0:0:0:0:
440,176,127289,2,0,L|436:108,1,50,2|0,3:2|3:0,0:0:0:0:
376,76,127652,6,0,L|272:60,1,100,4|2,3:2|3:2,0:0:0:0:
220,0,128198,1,0,3:2:0:0:
172,64,128379,2,0,L|123:73,1,50,2|0,3:2|3:2,0:0:0:0:
153,226,128743,6,0,L|202:217,1,50,4|0,3:2|0:0,0:0:0:0:
250,149,129107,1,0,3:0:0:0:
250,149,129289,1,0,3:0:0:0:
328,176,129470,6,0,P|357:177|391:187,1,50,4|0,3:2|0:0,0:0:0:0:
493,302,129834,2,0,P|464:301|430:291,1,50,4|0,3:2|0:0,0:0:0:0:
334,262,130198,1,0,3:0:0:0:
334,262,130379,1,0,3:0:0:0:
235,305,130561,6,0,P|244:282|248:258,1,50,4|0,3:2|0:0,0:0:0:0:
282,111,130925,2,0,P|272:135|268:159,1,50,4|0,3:2|0:0,0:0:0:0:
140,263,131289,1,0,3:0:0:0:
140,263,131470,1,0,3:0:0:0:
18,302,131653,6,0,P|43:302|68:297,1,50,4|0,3:2|0:0,0:0:0:0:
184,177,132017,2,0,P|159:177|135:182,1,50,4|0,3:2|0:0,0:0:0:0:
86,121,132379,5,0,3:2:0:0:
117,51,132561,1,0,3:2:0:0:
187,15,132743,5,4,3:2:0:0:
263,27,132925,1,0,0:0:0:0:
244,192,134198,6,0,L|264:188,54,16.6666666666667,2|0|0|0|0|0|0|0|0|0|0|0|0|0|0|0|0|0|0|0|0|0|0|0|0|0|0|0|0|0|0|0|0|0|0|0|0|0|0|0|0|0|0|0|0|0|0|0|0|0|0|0|0|0|4,1:2|0:0|0:0|0:0|0:0|0:0|0:0|0:0|0:0|0:0|0:0|0:0|0:0|0:0|0:0|0:0|0:0|0:0|0:0|0:0|0:0|0:0|0:0|0:0|0:0|0:0|0:0|0:0|0:0|0:0|0:0|0:0|0:0|0:0|0:0|0:0|0:0|0:0|0:0|0:0|0:0|0:0|0:0|0:0|0:0|0:0|0:0|0:0|0:0|0:0|0:0|0:0|0:0|0:0|1:2,0:0:0:0:
