osu file format v14

[General]
AudioFilename: audio.mp3
AudioLeadIn: 0
PreviewTime: 30440
Countdown: 0
SampleSet: Soft
StackLeniency: 0.7
Mode: 0
LetterboxInBreaks: 0
WidescreenStoryboard: 1

[Editor]
DistanceSpacing: 1.5
BeatDivisor: 4
GridSize: 32
TimelineZoom: 1

[Metadata]
Title:Grin
TitleUnicode:Grin
Artist:HyuN
ArtistUnicode:HyuN
Creator:ktgster
Version:Hard
Source:osu!
Tags:토토리카 숲 In the Wind and In Time 바람과 시간 속 instrumental healing Innocent Records Totorica piano featured artist
BeatmapID:1984138
BeatmapSetID:947770

[Difficulty]
HPDrainRate:3
CircleSize:4
OverallDifficulty:6.5
ApproachRate:7.5
SliderMultiplier:1.4
SliderTickRate:1

[Events]
//Background and Video events
0,0,"sky.jpg",0,0
//Break Periods
2,60181,66466
//Storyboard Layer 0 (Background)
//Storyboard Layer 1 (Fail)
//Storyboard Layer 2 (Pass)
//Storyboard Layer 3 (Foreground)
//Storyboard Sound Samples

[TimingPoints]
905,461.538461538462,4,2,1,50,1,0
15674,-100,4,2,1,60,0,0
30443,-100,4,2,1,80,0,0
38751,-100,4,2,1,90,0,0
40597,-100,4,2,1,70,0,0
45212,-100,4,2,1,80,0,1
58135,-100,4,2,1,90,0,1
59981,-100,4,2,1,60,0,0
74751,-100,4,2,1,70,0,0
89520,-100,4,2,1,80,0,0
96905,-100,4,2,1,90,0,0
104289,-100,4,2,1,80,0,0
111674,-100,4,2,1,90,0,0
119058,-100,4,2,1,80,0,0
127366,-100,4,2,1,90,0,0
129212,-100,4,2,1,70,0,0
133828,-100,4,2,1,80,0,1
146751,-100,4,2,1,90,0,1
148597,-100,4,2,1,70,0,0

[Colours]
Combo1 : 183,183,255
Combo2 : 255,145,200

[HitObjects]
59,309,905,5,2,0:2:0:0:
93,304,1020,1,0,0:2:0:0:
127,299,1135,2,0,L|133:248,1,35,0|0,0:2|0:2,0:0:0:0:
208,336,1597,5,2,0:2:0:0:
243,332,1712,1,0,0:2:0:0:
276,326,1828,2,0,L|282:275,1,35,0|0,0:2|0:2,0:0:0:0:
357,363,2289,5,2,0:2:0:0:
392,359,2405,1,0,0:2:0:0:
425,353,2520,2,0,L|431:302,2,35,0|0|0,0:2|0:2|0:2,0:0:0:0:
480,192,3443,5,2,0:2:0:0:
410,145,3674,1,0,0:2:0:0:
340,191,3905,1,0,0:2:0:0:
270,144,4135,1,2,0:2:0:0:
270,144,4251,2,0,L|260:69,1,70,0|0,0:2|0:2,0:0:0:0:
231,44,4597,5,2,0:2:0:0:
196,48,4712,1,0,0:2:0:0:
163,54,4828,2,0,L|156:104,1,35,0|0,0:2|0:2,0:0:0:0:
191,188,5289,5,2,0:2:0:0:
156,192,5405,1,0,0:2:0:0:
123,198,5520,2,0,L|116:248,1,35,0|0,0:2|0:2,0:0:0:0:
151,332,5981,5,2,0:2:0:0:
116,336,6097,1,0,0:2:0:0:
83,342,6212,2,0,L|76:392,2,35,0|0|0,0:2|0:2|0:2,0:0:0:0:
32,192,7135,5,2,0:2:0:0:
102,145,7366,1,0,0:2:0:0:
172,191,7597,1,0,0:2:0:0:
242,144,7828,1,2,0:2:0:0:
242,144,7943,2,0,L|252:69,1,70,0|2,0:2|0:2,0:0:0:0:
281,44,8289,5,2,0:2:0:0:
316,48,8405,1,0,0:2:0:0:
349,54,8520,2,0,L|356:104,1,35,0|0,0:2|0:2,0:0:0:0:
403,181,8981,5,2,0:2:0:0:
368,185,9097,1,0,0:2:0:0:
335,191,9212,2,0,L|328:241,1,35,0|0,0:2|0:2,0:0:0:0:
281,318,9674,5,2,0:2:0:0:
316,322,9789,1,0,0:2:0:0:
349,328,9905,2,0,L|356:378,2,35,0|0|0,0:2|0:2|0:2,0:0:0:0:
480,192,10828,5,2,0:2:0:0:
420,132,11058,1,0,0:2:0:0:
387,119,11174,1,2,0:2:0:0:
352,120,11289,1,0,0:2:0:0:
321,137,11405,1,2,0:2:0:0:
298,163,11520,2,0,L|291:213,3,35,0|2|0|2,0:2|0:2|0:2|0:2,0:0:0:0:
287,232,11981,5,2,0:2:0:0:
37,194,12674,1,2,0:2:0:0:
195,138,13135,5,0,0:2:0:0:
154,211,13366,1,2,0:2:0:0:
165,294,13597,1,2,0:2:0:0:
232,343,13828,1,2,0:2:0:0:
232,343,14289,1,2,0:2:0:0:
400,343,14751,5,2,0:2:0:0:
460,283,14981,1,2,0:2:0:0:
455,249,15097,1,2,0:2:0:0:
450,215,15212,1,2,0:2:0:0:
510,155,15443,1,2,0:2:0:0:
450,95,15674,5,6,0:2:0:0:
415,99,15789,1,0,0:2:0:0:
382,105,15905,2,0,L|375:155,2,35,0|0|2,0:2|0:2|0:3,0:0:0:0:
322,45,16366,5,2,0:2:0:0:
287,41,16481,1,0,0:2:0:0:
254,35,16597,2,0,L|247:-15,1,35,0|0,0:2|0:2,0:0:0:0:
267,167,17058,6,0,L|260:217,3,35,2|0|0|0,0:3|0:2|0:2|0:2,0:0:0:0:
256,243,17520,1,2,0:2:0:0:
90,330,18212,5,2,0:2:0:0:
38,263,18443,1,2,0:2:0:0:
59,181,18674,1,2,0:2:0:0:
134,144,18905,1,2,0:3:0:0:
134,144,19020,2,0,L|209:154,1,70,0|0,0:2|0:0,0:0:0:0:
244,161,19366,5,2,0:2:0:0:
240,196,19481,1,0,0:2:0:0:
234,229,19597,2,0,L|184:236,2,35,0|0|2,0:2|0:2|0:3,0:0:0:0:
294,289,20058,5,2,0:2:0:0:
298,324,20174,1,0,0:2:0:0:
304,357,20289,2,0,L|354:364,1,35,0|0,0:2|0:2,0:0:0:0:
172,344,20751,6,0,L|122:351,3,35,2|0|0|0,0:3|0:2|0:2|0:2,0:0:0:0:
96,355,21212,1,2,0:2:0:0:
14,116,21905,5,2,0:2:0:0:
67,51,22135,1,2,0:2:0:0:
150,47,22366,1,2,0:2:0:0:
205,110,22597,1,2,0:3:0:0:
205,110,22712,2,0,L|215:185,1,70,0|2,0:2|0:2,0:0:0:0:
222,220,23058,5,2,0:2:0:0:
257,224,23174,1,0,0:2:0:0:
290,230,23289,2,0,L|297:280,2,35,0|0|2,0:2|0:2|0:3,0:0:0:0:
350,170,23751,5,2,0:2:0:0:
385,166,23866,1,0,0:2:0:0:
418,160,23981,2,0,L|425:110,1,35,0|0,0:2|0:2,0:0:0:0:
405,292,24443,6,0,L|412:342,3,35,2|0|0|0,0:3|0:2|0:2|0:2,0:0:0:0:
416,368,24905,1,2,0:2:0:0:
496,129,25597,5,2,0:2:0:0:
438,190,25828,1,0,0:2:0:0:
405,203,25943,1,2,0:2:0:0:
370,202,26058,1,0,0:2:0:0:
339,185,26174,1,2,0:2:0:0:
316,159,26289,2,0,L|309:109,3,35,0|2|0|2,0:2|0:2|0:2|0:2,0:0:0:0:
305,90,26751,5,2,0:2:0:0:
60,151,27443,1,2,0:2:0:0:
221,199,27905,5,0,0:2:0:0:
258,274,28135,1,2,0:2:0:0:
226,351,28366,1,2,0:2:0:0:
143,367,28597,5,6,0:2:0:0:
83,307,28828,2,0,L|33:314,2,35,8|8|6,3:2|3:2|0:2,0:0:0:0:
142,247,29289,2,0,L|192:254,2,35,8|8|6,3:2|3:2|0:2,0:0:0:0:
82,187,29751,1,8,3:2:0:0:
82,187,29866,1,8,3:2:0:0:
82,187,29981,2,0,L|75:137,3,35,6|0|2|0,1:2|1:2|1:2|1:2,0:0:0:0:
71,110,30443,5,6,0:2:0:0:
130,50,30674,1,0,0:2:0:0:
130,50,30789,1,2,0:2:0:0:
191,115,31020,1,0,0:2:0:0:
191,115,31135,1,2,0:2:0:0:
261,69,31366,1,2,1:2:0:0:
320,128,31597,1,0,0:2:0:0:
320,128,31712,2,0,L|333:220,1,70,2|2,0:2|0:2,0:0:0:0:
389,257,32174,1,2,0:2:0:0:
90,335,32981,5,2,0:2:0:0:
145,271,33212,1,2,1:2:0:0:
228,257,33443,1,2,0:2:0:0:
304,290,33674,2,0,L|311:342,3,35,10|0|0|0,0:2|0:2|0:2|0:2,0:0:0:0:
333,349,34135,6,0,L|426:361,1,70,2|2,1:2|0:2,0:0:0:0:
437,363,34481,1,2,0:2:0:0:
496,303,34712,1,2,0:2:0:0:
496,303,34828,1,2,0:2:0:0:
452,232,35058,5,2,1:2:0:0:
419,219,35174,1,2,0:2:0:0:
384,220,35289,1,2,0:2:0:0:
313,266,35520,1,10,0:2:0:0:
313,266,35635,1,2,0:2:0:0:
266,335,35866,1,2,0:2:0:0:
62,272,36443,5,8,0:2:0:0:
41,244,36558,1,0,0:2:0:0:
35,209,36674,1,2,0:2:0:0:
50,177,36789,1,2,0:2:0:0:
80,158,36905,2,0,L|119:152,11,23.3333333333333,2|2|2|2|2|2|10|2|2|2|2|2,1:2|0:2|0:2|0:2|0:2|0:2|0:2|0:2|0:2|0:2|0:2|0:2,0:0:0:0:
130,151,37828,5,6,0:2:0:0:
189,91,38058,1,0,0:2:0:0:
189,91,38174,1,2,0:2:0:0:
257,149,38405,1,0,0:2:0:0:
257,149,38520,1,2,0:2:0:0:
238,231,38751,6,0,L|225:324,1,70,6|2,1:2|0:2,0:0:0:0:
98,268,39212,2,0,L|85:174,1,70,4|8,1:2|0:2,0:0:0:0:
82,162,39558,1,8,0:2:0:0:
76,126,39674,5,8,1:2:0:0:
209,42,40020,1,12,0:2:0:0:
360,103,40366,1,14,0:2:0:0:
419,162,40597,5,8,0:2:0:0:
415,197,40712,1,8,0:2:0:0:
410,232,40828,1,10,0:2:0:0:
350,291,41058,2,0,L|343:341,2,35,10|8|10,0:2|0:2|0:2,0:0:0:0:
290,231,41520,5,4,1:2:0:0:
262,209,41635,1,0,0:2:0:0:
227,202,41751,1,2,0:2:0:0:
193,211,41866,1,2,0:2:0:0:
138,274,42097,1,0,0:2:0:0:
138,274,42212,1,2,0:2:0:0:
78,333,42443,6,0,L|74:358,14,17.5,2|2|2|2|2|2|2|0|10|2|2|2|2|2|2,1:2|0:2|0:2|0:2|0:2|0:2|0:2|0:2|0:2|0:2|0:2|0:2|0:2|0:2|0:2,0:0:0:0:
73,375,43366,1,6,1:2:0:0:
21,199,43828,5,12,1:2:0:0:
105,188,44058,1,0,1:2:0:0:
189,177,44289,1,4,1:2:0:0:
273,166,44520,1,0,1:2:0:0:
269,201,44635,1,0,0:2:0:0:
264,236,44751,2,0,L|257:286,3,35,12|8|8|8,0:2|0:2|0:2|0:2,0:0:0:0:
254,312,45212,5,6,1:2:0:0:
338,301,45443,1,2,0:2:0:0:
338,301,45558,1,2,0:2:0:0:
422,290,45789,1,2,0:2:0:0:
422,290,45905,1,2,0:2:0:0:
422,205,46135,5,2,1:2:0:0:
338,194,46366,1,2,0:2:0:0:
338,194,46481,1,2,0:2:0:0:
254,183,46712,1,2,0:2:0:0:
254,183,46828,1,2,0:2:0:0:
270,100,47058,6,0,L|276:61,11,23.3333333333333,2|2|2|2|2|2|10|2|2|2|2|2,1:2|0:2|0:2|0:2|0:2|0:2|0:2|0:2|0:2|0:2|0:2|0:2,0:0:0:0:
279,49,47981,5,2,1:2:0:0:
176,27,48212,1,2,0:2:0:0:
87,83,48443,1,10,0:2:0:0:
49,181,48674,1,2,0:2:0:0:
94,275,48905,5,2,1:2:0:0:
178,264,49135,1,2,0:2:0:0:
178,264,49251,1,2,0:2:0:0:
262,253,49481,1,2,0:2:0:0:
262,253,49597,1,2,0:2:0:0:
321,312,49828,5,2,1:2:0:0:
405,323,50058,1,2,0:2:0:0:
489,334,50289,1,10,0:2:0:0:
510,297,50405,1,2,0:2:0:0:
510,255,50520,1,2,0:2:0:0:
490,218,50635,1,2,0:2:0:0:
453,196,50751,6,0,L|414:190,11,23.3333333333333,2|2|2|2|2|2|10|2|2|2|2|2,1:2|0:2|0:2|0:2|0:2|0:2|0:2|0:2|0:2|0:2|0:2|0:2,0:0:0:0:
406,190,51674,5,2,1:2:0:0:
346,130,51905,1,2,0:2:0:0:
346,130,52020,1,2,0:2:0:0:
286,189,52251,1,2,0:2:0:0:
261,213,52366,1,2,0:2:0:0:
226,219,52481,1,2,0:2:0:0:
191,212,52597,5,6,1:2:0:0:
130,153,52828,1,2,0:2:0:0:
130,153,52943,1,2,0:2:0:0:
130,153,53058,1,10,0:2:0:0:
189,93,53289,1,2,0:2:0:0:
129,33,53520,2,0,L|136:-17,2,35,2|2|2,1:2|0:2|0:2,0:0:0:0:
69,92,53981,1,10,0:2:0:0:
69,92,54212,1,2,0:2:0:0:
27,164,54443,5,2,1:2:0:0:
32,199,54558,1,2,0:2:0:0:
37,233,54674,1,2,0:2:0:0:
121,233,54905,1,10,0:2:0:0:
126,268,55020,1,2,0:2:0:0:
131,302,55135,1,2,0:2:0:0:
215,302,55366,6,0,L|219:277,14,17.5,2|2|2|2|2|2|2|2|10|2|2|2|10|2|2,1:2|0:2|0:2|0:2|0:2|0:2|0:2|0:2|0:2|0:2|0:2|0:2|0:2|0:2|0:2,0:0:0:0:
223,260,56289,6,0,L|273:253,2,35,6|2|2,1:2|0:2|0:2,0:0:0:0:
165,199,56751,2,0,L|115:192,2,35,10|2|2,0:2|0:2|0:2,0:0:0:0:
224,139,57212,2,0,L|274:132,2,35,6|2|2,1:2|0:2|0:2,0:0:0:0:
164,79,57674,1,10,0:2:0:0:
187,44,57789,1,2,0:2:0:0:
227,31,57905,1,10,0:2:0:0:
268,31,58020,1,2,0:2:0:0:
306,48,58135,5,14,1:2:0:0:
365,107,58366,1,10,0:2:0:0:
371,149,58481,1,10,0:2:0:0:
377,190,58597,1,14,0:2:0:0:
458,211,58828,1,10,0:2:0:0:
452,253,58943,1,10,0:2:0:0:
446,294,59058,6,0,L|440:333,5,23.3333333333333,6|2|2|10|2|2,1:2|0:2|0:2|0:2|0:2|0:2,0:0:0:0:
414,317,59520,2,0,L|407:367,3,35,10|10|10|10,0:2|0:2|0:2|0:2,0:0:0:0:
374,351,59981,1,4,1:2:0:0:
430,320,67366,5,6,1:2:0:0:
158,252,68289,1,2,1:2:0:0:
430,188,69212,5,2,1:2:0:0:
219,372,70135,1,2,1:2:0:0:
170,96,71058,5,2,1:2:0:0:
189,235,71520,1,10,0:2:0:0:
328,216,71981,1,2,1:2:0:0:
309,77,72443,1,10,0:2:0:0:
448,58,72905,5,12,1:2:0:0:
388,117,73135,2,0,L|338:110,2,35,8|8|12,0:2|0:2|1:2,0:0:0:0:
447,176,73597,1,8,0:2:0:0:
443,211,73712,1,10,0:2:0:0:
438,246,73828,2,0,L|431:296,3,35,14|10|10|10,1:2|0:2|0:2|0:2,0:0:0:0:
403,310,74289,2,0,L|396:360,3,35,14|10|10|10,1:2|0:2|1:2|0:2,0:0:0:0:
368,374,74751,5,6,1:2:0:0:
316,308,74981,1,2,0:2:0:0:
236,281,75212,1,10,0:2:0:0:
156,309,75443,1,2,0:2:0:0:
98,370,75674,5,2,1:2:0:0:
48,302,75905,1,0,0:2:0:0:
48,302,76020,1,2,0:2:0:0:
85,226,76251,1,0,0:2:0:0:
85,226,76366,1,2,0:2:0:0:
25,166,76597,6,0,L|32:116,3,35,0|2|2|2,1:2|0:2|0:2|0:2,0:0:0:0:
60,102,77058,2,0,L|67:52,3,35,8|2|2|2,0:2|0:2|0:2|0:2,0:0:0:0:
94,37,77520,1,2,1:2:0:0:
174,61,77751,1,2,0:2:0:0:
198,95,77866,1,2,0:2:0:0:
205,136,77981,1,10,0:2:0:0:
195,177,78097,1,2,0:2:0:0:
160,200,78212,6,0,L|110:207,2,35,2|2|2,0:2|0:2|1:2,0:0:0:0:
145,283,78674,2,0,L|95:290,2,35,2|2|10,0:2|0:2|0:2,0:0:0:0:
204,342,79135,2,0,L|254:349,2,35,2|2|2,0:2|0:2|1:2,0:0:0:0:
225,260,79597,1,2,0:2:0:0:
225,260,79712,2,0,P|258:238|310:237,1,70,2|2,0:2|0:2,0:0:0:0:
329,237,80058,1,2,0:2:0:0:
407,266,80289,5,2,1:2:0:0:
419,182,80520,1,2,0:2:0:0:
419,182,80635,1,2,0:2:0:0:
419,182,80751,2,0,L|412:132,3,35,10|2|2|2,0:2|0:2|0:2|0:2,0:0:0:0:
389,122,81212,6,0,L|383:83,11,23.3333333333333,2|2|2|2|2|2|10|2|2|2|2|2,1:2|0:2|0:2|0:2|0:2|0:2|0:2|0:2|0:2|0:2|0:2|0:2,0:0:0:0:
368,82,82135,1,6,1:2:0:0:
319,243,82597,5,10,0:2:0:0:
237,223,82828,1,2,0:2:0:0:
167,269,83058,1,4,1:2:0:0:
85,249,83289,1,0,1:2:0:0:
25,189,83520,5,8,1:2:0:0:
14,155,83635,1,0,1:2:0:0:
31,124,83751,1,0,1:2:0:0:
65,116,83866,1,0,1:2:0:0:
95,132,83981,5,4,0:2:0:0:
165,177,84212,1,2,1:2:0:0:
165,177,84328,1,12,1:2:0:0:
240,139,84558,1,0,1:2:0:0:
240,139,84674,1,12,0:2:0:0:
314,170,84905,1,4,1:2:0:0:
314,253,85135,1,2,1:2:0:0:
314,253,85251,1,0,1:2:0:0:
314,253,85366,2,0,L|307:303,3,35,6|0|2|0,1:2|1:2|1:2|1:2,0:0:0:0:
339,317,85828,5,6,1:2:0:0:
423,306,86058,1,2,1:2:0:0:
475,239,86289,5,10,1:2:0:0:
391,228,86520,1,2,1:2:0:0:
339,161,86751,5,6,1:2:0:0:
423,150,86981,1,2,1:2:0:0:
475,83,87212,5,10,1:2:0:0:
391,72,87443,1,2,1:2:0:0:
356,67,87558,1,2,0:2:0:0:
322,62,87674,6,0,L|272:55,3,35,6|2|2|2,1:2|1:2|1:2|1:2,0:0:0:0:
254,67,88135,2,0,L|204:60,3,35,6|2|2|2,1:2|1:2|1:2|1:2,0:0:0:0:
186,72,88597,2,0,L|136:65,3,35,6|2|2|2,1:2|1:2|1:2|1:2,0:0:0:0:
118,77,89058,1,6,1:2:0:0:
98,106,89174,1,2,1:2:0:0:
95,140,89289,1,2,1:2:0:0:
109,171,89405,1,2,1:2:0:0:
140,186,89520,5,6,1:2:0:0:
212,143,89751,1,0,0:2:0:0:
212,143,89866,1,0,0:2:0:0:
271,202,90097,2,0,L|283:292,1,70,2|2,0:2|0:2,0:0:0:0:
281,271,90443,1,0,1:2:0:0:
351,334,90674,1,0,0:2:0:0:
351,334,90789,1,2,0:2:0:0:
434,346,91020,1,0,0:2:0:0:
434,346,91135,1,2,0:2:0:0:
508,306,91366,5,2,1:2:0:0:
458,237,91597,1,2,0:2:0:0:
458,237,91712,1,2,0:2:0:0:
500,164,91943,1,0,0:2:0:0:
500,164,92058,1,2,0:2:0:0:
440,104,92289,2,0,L|433:54,3,35,2|2|2|2,1:2|0:2|0:2|0:2,0:0:0:0:
392,69,92751,2,0,L|385:19,3,35,10|2|2|2,0:2|0:2|0:2|0:2,0:0:0:0:
345,34,93212,5,2,1:2:0:0:
285,93,93443,1,2,0:2:0:0:
285,93,93558,1,2,0:2:0:0:
344,152,93789,1,2,0:2:0:0:
284,211,94020,1,0,0:2:0:0:
284,211,94135,1,2,1:2:0:0:
224,270,94366,1,2,0:2:0:0:
224,270,94481,1,2,0:2:0:0:
283,329,94712,1,0,0:2:0:0:
283,329,94828,1,2,0:2:0:0:
364,308,95058,6,0,L|370:269,5,23.3333333333333,0|0|0|0|0|0,1:2|0:2|0:2|0:2|0:2|0:2,0:0:0:0:
387,264,95520,2,0,L|393:225,5,23.3333333333333,8|0|0|0|0|0,0:2|0:2|0:2|0:2|0:2|0:2,0:0:0:0:
410,221,95981,6,0,L|404:182,5,23.3333333333333,0|0|0|0|0|0,1:2|0:2|0:2|0:2|0:2|0:2,0:0:0:0:
387,177,96443,2,0,L|381:138,5,23.3333333333333,10|2|2|2|2|2,0:2|0:2|0:2|1:2|0:2|0:2,0:0:0:0:
363,133,96905,5,6,1:2:0:0:
303,192,97135,2,0,L|296:242,2,35,2|2|10,0:2|0:2|0:2,0:0:0:0:
243,132,97597,1,2,0:2:0:0:
243,132,97712,1,2,0:2:0:0:
243,132,97828,6,0,L|237:93,5,23.3333333333333,2|2|2|2|2|2,1:2|0:2|0:2|0:2|0:2|0:2,0:0:0:0:
219,89,98289,2,0,L|213:50,5,23.3333333333333,10|2|2|2|2|2,0:2|0:2|0:2|0:2|0:2|0:2,0:0:0:0:
195,45,98751,5,2,1:2:0:0:
135,104,98981,2,0,L|85:97,2,35,2|2|10,0:2|0:2|0:2,0:0:0:0:
194,163,99443,2,0,L|244:156,2,35,2|2|2,0:2|0:2|1:2,0:0:0:0:
134,222,99905,1,0,0:2:0:0:
134,222,100020,1,0,0:2:0:0:
134,222,100135,2,0,L|127:272,3,35,10|2|2|2,0:2|0:2|0:2|0:2,0:0:0:0:
124,291,100597,5,2,1:2:0:0:
183,350,100828,1,2,0:2:0:0:
183,350,100943,1,2,0:2:0:0:
242,290,101174,1,2,0:2:0:0:
301,230,101405,1,0,0:2:0:0:
301,230,101520,1,2,1:2:0:0:
360,289,101751,1,2,0:2:0:0:
360,289,101866,1,2,0:2:0:0:
419,348,102097,1,0,0:2:0:0:
419,348,102212,1,2,0:2:0:0:
478,288,102443,5,4,1:2:0:0:
494,205,102674,2,0,L|501:155,2,35,8|8|6,0:2|0:2|1:2,0:0:0:0:
415,233,103135,2,0,L|408:183,2,35,8|10|12,0:2|0:2|1:2,0:0:0:0:
399,316,103597,1,10,0:2:0:0:
323,353,103828,1,12,1:2:0:0:
241,333,104058,1,10,1:2:0:0:
207,255,104289,5,6,1:2:0:0:
245,180,104520,1,0,0:2:0:0:
245,180,104635,1,0,0:2:0:0:
185,120,104866,2,0,L|115:129,1,70,2|2,0:2|0:2,0:0:0:0:
116,130,105212,1,0,1:2:0:0:
56,189,105443,1,0,0:2:0:0:
56,189,105558,1,2,0:2:0:0:
54,273,105789,1,0,0:2:0:0:
54,273,105905,1,2,0:2:0:0:
114,331,106135,5,2,1:2:0:0:
185,287,106366,1,2,0:2:0:0:
185,287,106481,1,2,0:2:0:0:
257,329,106712,1,0,0:2:0:0:
257,329,106828,1,2,0:2:0:0:
328,284,107058,2,0,L|335:234,3,35,2|2|2|2,1:2|0:2|0:2|0:2,0:0:0:0:
376,249,107520,2,0,L|383:199,3,35,10|2|2|2,0:2|0:2|0:2|0:2,0:0:0:0:
423,214,107981,5,2,1:2:0:0:
482,154,108212,1,2,0:2:0:0:
482,154,108328,1,2,0:2:0:0:
422,94,108558,1,2,0:2:0:0:
362,153,108789,1,0,0:2:0:0:
362,153,108905,1,2,1:2:0:0:
302,93,109135,1,2,0:2:0:0:
302,93,109251,1,2,0:2:0:0:
242,152,109481,1,0,0:2:0:0:
242,152,109597,1,2,0:2:0:0:
182,92,109828,6,0,L|143:98,5,23.3333333333333,0|0|0|0|0|0,1:2|0:2|0:2|0:2|0:2|0:2,0:0:0:0:
138,115,110289,2,0,L|99:121,5,23.3333333333333,8|0|0|0|0|0,0:2|0:2|0:2|0:2|0:2|0:2,0:0:0:0:
95,138,110751,6,0,L|56:132,5,23.3333333333333,0|0|0|0|0|0,1:2|0:2|0:2|0:2|0:2|0:2,0:0:0:0:
51,115,111212,2,0,L|12:109,5,23.3333333333333,10|2|2|2|2|2,0:2|0:2|0:2|1:2|0:2|0:2,0:0:0:0:
8,91,111674,5,6,1:2:0:0:
78,46,111905,2,0,L|71:-4,2,35,2|2|10,0:2|0:2|0:2,0:0:0:0:
147,111,112366,1,2,0:2:0:0:
147,111,112481,1,2,0:2:0:0:
147,111,112597,6,0,L|153:150,5,23.3333333333333,2|2|2|2|2|2,1:2|0:2|0:2|0:2|0:2|0:2,0:0:0:0:
171,154,113058,2,0,L|177:193,5,23.3333333333333,10|2|2|2|2|2,0:2|0:2|0:2|0:2|0:2|0:2,0:0:0:0:
195,198,113520,5,2,1:2:0:0:
254,138,113751,2,0,L|247:88,2,35,2|2|10,0:2|0:2|0:2,0:0:0:0:
313,197,114212,2,0,L|306:247,2,35,2|2|2,0:2|0:2|1:2,0:0:0:0:
372,137,114674,1,0,0:2:0:0:
372,137,114789,1,0,0:2:0:0:
372,137,114905,2,0,L|422:130,3,35,10|2|2|2,0:2|0:2|0:2|0:2,0:0:0:0:
441,127,115366,5,2,1:2:0:0:
500,186,115597,1,2,0:2:0:0:
500,186,115712,1,2,0:2:0:0:
440,245,115943,1,2,0:2:0:0:
380,185,116174,1,0,0:2:0:0:
380,185,116289,1,2,1:2:0:0:
320,244,116520,1,2,0:2:0:0:
320,244,116635,1,2,0:2:0:0:
260,184,116866,1,0,0:2:0:0:
260,184,116981,1,2,0:2:0:0:
197,129,117212,5,4,1:2:0:0:
181,212,117443,2,0,L|174:262,2,35,8|8|6,0:2|0:2|1:2,0:0:0:0:
260,184,117905,2,0,L|267:234,2,35,8|10|12,0:2|0:2|1:2,0:0:0:0:
276,101,118366,1,10,0:2:0:0:
352,64,118597,1,12,1:2:0:0:
434,84,118828,1,10,1:2:0:0:
466,161,119058,5,6,0:2:0:0:
427,235,119289,1,0,0:2:0:0:
427,235,119405,1,2,0:2:0:0:
466,309,119635,1,0,0:2:0:0:
466,309,119751,1,2,0:2:0:0:
419,379,119981,1,2,1:2:0:0:
339,351,120212,1,0,0:2:0:0:
339,351,120328,2,0,L|326:259,1,70,2|2,0:2|0:2,0:0:0:0:
271,220,120789,1,2,0:2:0:0:
117,35,121597,5,2,0:2:0:0:
53,90,121828,1,2,1:2:0:0:
39,173,122058,1,2,0:2:0:0:
72,249,122289,2,0,L|124:256,3,35,10|0|0|0,0:2|0:2|0:2|0:2,0:0:0:0:
147,260,122751,6,0,L|240:272,1,70,2|2,1:2|0:2,0:0:0:0:
257,277,123097,1,2,0:2:0:0:
316,217,123328,1,2,0:2:0:0:
316,217,123443,1,2,0:2:0:0:
387,260,123674,5,2,1:2:0:0:
400,227,123789,1,2,0:2:0:0:
399,192,123905,1,2,0:2:0:0:
376,110,124135,1,10,0:2:0:0:
376,110,124251,1,2,0:2:0:0:
305,64,124481,1,2,0:2:0:0:
108,137,125058,5,8,0:2:0:0:
87,165,125174,1,0,0:2:0:0:
81,200,125289,1,2,0:2:0:0:
96,232,125405,1,2,0:2:0:0:
126,251,125520,2,0,L|165:257,11,23.3333333333333,2|2|2|2|2|2|10|2|2|2|2|2,1:2|0:2|0:2|0:2|0:2|0:2|0:2|0:2|0:2|0:2|0:2|0:2,0:0:0:0:
176,258,126443,5,6,0:2:0:0:
252,224,126674,1,0,0:2:0:0:
252,224,126789,1,0,0:2:0:0:
315,279,127020,1,0,0:2:0:0:
315,279,127135,1,2,0:2:0:0:
391,243,127366,6,0,L|404:150,1,70,6|2,1:2|0:2,0:0:0:0:
305,169,127828,2,0,L|292:75,1,70,4|8,1:2|0:2,0:0:0:0:
289,63,128174,1,8,0:2:0:0:
283,27,128289,5,8,1:2:0:0:
214,168,128635,1,12,0:2:0:0:
110,49,128981,1,14,0:2:0:0:
71,124,129212,5,8,0:2:0:0:
75,159,129328,1,8,0:2:0:0:
80,194,129443,1,10,0:2:0:0:
140,253,129674,2,0,L|147:303,2,35,10|8|10,0:2|0:2|0:2,0:0:0:0:
199,193,130135,5,4,1:2:0:0:
227,172,130251,1,0,0:2:0:0:
261,167,130366,1,2,0:2:0:0:
292,182,130481,1,2,0:2:0:0:
341,250,130712,1,0,0:2:0:0:
341,250,130828,1,2,0:2:0:0:
400,190,131058,6,0,L|404:165,14,17.5,2|2|2|2|2|2|2|0|10|2|2|2|2|2|2,1:2|0:2|0:2|0:2|0:2|0:2|0:2|0:2|0:2|0:2|0:2|0:2|0:2|0:2|0:2,0:0:0:0:
405,148,131981,1,6,1:2:0:0:
481,297,132443,5,12,1:2:0:0:
397,308,132674,1,0,1:2:0:0:
313,319,132905,1,4,1:2:0:0:
229,330,133135,1,0,1:2:0:0:
233,295,133251,1,0,0:2:0:0:
238,260,133366,2,0,L|245:210,3,35,12|8|8|8,0:2|0:2|0:2|0:2,0:0:0:0:
248,184,133828,5,6,1:2:0:0:
188,124,134058,1,2,0:2:0:0:
188,124,134174,1,2,0:2:0:0:
128,183,134405,1,2,0:2:0:0:
128,183,134520,1,2,0:2:0:0:
128,267,134751,5,2,1:2:0:0:
188,327,134981,1,2,0:2:0:0:
188,327,135097,1,2,0:2:0:0:
248,268,135328,1,2,0:2:0:0:
248,268,135443,1,2,0:2:0:0:
265,186,135674,6,0,L|271:147,11,23.3333333333333,2|2|2|2|2|2|10|2|2|2|2|2,1:2|0:2|0:2|0:2|0:2|0:2|0:2|0:2|0:2|0:2|0:2|0:2,0:0:0:0:
274,135,136597,5,2,1:2:0:0:
369,92,136828,1,2,0:2:0:0:
469,122,137058,1,10,0:2:0:0:
497,223,137289,1,2,0:2:0:0:
445,324,137520,5,2,1:2:0:0:
385,384,137751,1,2,0:2:0:0:
385,384,137866,1,2,0:2:0:0:
325,325,138097,1,2,0:2:0:0:
325,325,138212,1,2,0:2:0:0:
384,265,138443,5,2,1:2:0:0:
395,181,138674,1,2,0:2:0:0:
406,97,138905,1,10,0:2:0:0:
374,68,139020,1,2,0:2:0:0:
332,62,139135,1,2,0:2:0:0:
294,79,139251,1,0,0:2:0:0:
276,117,139366,6,0,L|270:156,11,23.3333333333333,2|2|2|2|2|2|10|2|2|2|2|2,1:2|0:2|0:2|0:2|0:2|0:2|0:2|0:2|0:2|0:2|0:2|0:2,0:0:0:0:
270,164,140289,5,2,1:2:0:0:
210,223,140520,1,2,0:2:0:0:
210,223,140635,1,2,0:2:0:0:
150,164,140866,1,2,0:2:0:0:
125,140,140981,1,2,0:2:0:0:
90,134,141097,1,2,0:2:0:0:
55,141,141212,5,6,1:2:0:0:
17,219,141443,1,2,0:2:0:0:
17,219,141558,1,2,0:2:0:0:
17,219,141674,1,10,0:2:0:0:
76,278,141905,1,2,0:2:0:0:
149,236,142135,2,0,L|156:186,2,35,2|2|2,1:2|0:2|0:2,0:0:0:0:
199,303,142597,1,10,0:2:0:0:
199,303,142828,1,2,0:2:0:0:
277,271,143058,5,2,1:2:0:0:
282,236,143174,1,2,0:2:0:0:
287,202,143289,1,2,0:2:0:0:
371,202,143520,1,10,0:2:0:0:
376,167,143635,1,2,0:2:0:0:
381,133,143751,1,2,0:2:0:0:
322,73,143981,6,0,L|297:77,14,17.5,2|2|2|2|2|2|2|2|10|2|2|2|10|2|2,1:2|0:2|0:2|0:2|0:2|0:2|0:2|0:2|0:2|0:2|0:2|0:2|0:2|0:2|0:2,0:0:0:0:
280,81,144905,6,0,L|273:131,2,35,6|2|2,1:2|0:2|0:2,0:0:0:0:
199,105,145366,2,0,L|192:155,2,35,10|2|2,0:2|0:2|0:2,0:0:0:0:
139,45,145828,2,0,L|132:-5,2,35,6|0|2,1:2|0:2|0:2,0:0:0:0:
79,104,146289,1,10,0:2:0:0:
54,137,146405,1,2,0:2:0:0:
50,178,146520,1,10,0:2:0:0:
60,218,146635,1,0,0:2:0:0:
91,246,146751,5,14,1:2:0:0:
150,186,146981,1,10,0:2:0:0:
192,192,147097,1,10,0:2:0:0:
233,198,147212,1,14,0:2:0:0:
292,257,147443,1,10,0:2:0:0:
334,251,147558,1,10,0:2:0:0:
375,245,147674,6,0,L|381:206,5,23.3333333333333,6|2|2|10|2|2,1:2|0:2|0:2|0:2|0:2|0:2,0:0:0:0:
407,222,148135,2,0,L|414:172,3,35,10|10|10|10,0:2|0:2|0:2|0:2,0:0:0:0:
447,188,148597,1,4,0:2:0:0:
