osu file format v14

[General]
AudioFilename: audio.mp3
AudioLeadIn: 0
PreviewTime: 74741
Countdown: 0
SampleSet: Soft
StackLeniency: 0.7
Mode: 3
LetterboxInBreaks: 0
SpecialStyle: 0
WidescreenStoryboard: 1

[Editor]
Bookmarks: 30443,59981,74741,104289,119058,148597
DistanceSpacing: 1
BeatDivisor: 4
GridSize: 32
TimelineZoom: 2.1

[Metadata]
Title:Grin
TitleUnicode:Grin
Artist:HyuN
ArtistUnicode:HyuN
Creator:UnluckyCroco
Version:no ln
Source:osu!
Tags:토토리카 숲 In the Wind and In Time 바람과 시간 속 instrumental healing Innocent Records Totorica piano featured artist
BeatmapID:2293750
BeatmapSetID:1028266

[Difficulty]
HPDrainRate:8
CircleSize:4
OverallDifficulty:8
ApproachRate:5
SliderMultiplier:1.4
SliderTickRate:1

[Events]
//Background and Video events
0,0,"bvac.jpg",0,0
//Break Periods
//Storyboard Layer 0 (Background)
//Storyboard Layer 1 (Fail)
//Storyboard Layer 2 (Pass)
//Storyboard Layer 3 (Foreground)
//Storyboard Layer 4 (Overlay)
//Storyboard Sound Samples

[TimingPoints]
905,461.538461538462,4,2,1,50,1,0
30443,-100,4,2,1,50,0,1
59981,-100,4,2,1,50,0,0
74751,-100,4,2,1,50,0,1
148597,-100,4,2,1,50,0,0
149289,-100,4,2,1,48,0,0
149981,-100,4,2,1,45,0,0
151135,-100,4,2,1,43,0,0
152289,-100,4,2,1,38,0,0
152981,-100,4,2,1,35,0,0
153674,-100,4,2,1,33,0,0
154828,-100,4,2,1,30,0,0
155981,-100,4,2,1,25,0,0
156674,-100,4,2,1,23,0,0
157366,-100,4,2,1,20,0,0
158520,-100,4,2,1,18,0,0
159674,-100,4,2,1,15,0,0
160366,-100,4,2,1,13,0,0
160828,-100,4,2,1,10,0,0
161058,-100,4,2,1,8,0,0
161289,-100,4,2,1,6,0,0
161520,-100,4,2,1,5,0,0

[HitObjects]
448,192,905,5,0,0:0:0:0:
64,192,905,1,0,0:0:0:0:
320,192,1020,1,0,0:0:0:0:
64,192,1135,1,0,0:0:0:0:
192,192,1251,1,0,0:0:0:0:
448,192,1597,1,0,0:0:0:0:
192,192,1597,1,0,0:0:0:0:
320,192,1712,1,0,0:0:0:0:
64,192,1828,1,0,0:0:0:0:
192,192,1943,1,0,0:0:0:0:
448,192,2289,1,0,0:0:0:0:
320,192,2289,1,0,0:0:0:0:
192,192,2405,1,0,0:0:0:0:
64,192,2520,1,0,0:0:0:0:
320,192,2635,1,0,0:0:0:0:
448,192,2751,1,0,0:0:0:0:
64,192,2751,1,0,0:0:0:0:
320,192,3443,1,0,0:0:0:0:
448,192,3472,1,0,0:0:0:0:
192,192,3674,1,0,0:0:0:0:
448,192,3905,1,0,0:0:0:0:
192,192,4135,1,0,0:0:0:0:
64,192,4251,1,0,0:0:0:0:
320,192,4481,1,0,0:0:0:0:
448,192,4597,1,0,0:0:0:0:
64,192,4597,1,0,0:0:0:0:
192,192,4712,1,0,0:0:0:0:
448,192,4828,1,0,0:0:0:0:
320,192,4943,1,0,0:0:0:0:
320,192,5289,1,0,0:0:0:0:
64,192,5289,1,0,0:0:0:0:
192,192,5405,1,0,0:0:0:0:
448,192,5520,1,0,0:0:0:0:
320,192,5635,1,0,0:0:0:0:
64,192,5981,1,0,0:0:0:0:
192,192,5981,1,0,0:0:0:0:
320,192,6097,1,0,0:0:0:0:
448,192,6212,1,0,0:0:0:0:
192,192,6328,1,0,0:0:0:0:
64,192,6443,1,0,0:0:0:0:
320,192,6443,1,0,0:0:0:0:
192,192,7135,1,0,0:0:0:0:
448,192,7164,1,0,0:0:0:0:
64,192,7366,1,0,0:0:0:0:
192,192,7597,1,0,0:0:0:0:
320,192,7828,1,0,0:0:0:0:
448,192,7943,1,0,0:0:0:0:
448,192,8174,1,0,0:0:0:0:
192,192,8289,1,0,0:0:0:0:
64,192,8289,1,0,0:0:0:0:
320,192,8405,1,0,0:0:0:0:
64,192,8520,1,0,0:0:0:0:
448,192,8635,1,0,0:0:0:0:
320,192,8981,1,0,0:0:0:0:
192,192,8981,1,0,0:0:0:0:
64,192,9097,1,0,0:0:0:0:
320,192,9212,1,0,0:0:0:0:
448,192,9328,1,0,0:0:0:0:
192,192,9674,1,0,0:0:0:0:
448,192,9674,1,0,0:0:0:0:
320,192,9789,1,0,0:0:0:0:
64,192,9905,1,0,0:0:0:0:
448,192,10020,1,0,0:0:0:0:
320,192,10135,1,0,0:0:0:0:
192,192,10135,1,0,0:0:0:0:
64,192,10828,1,0,0:0:0:0:
448,192,10856,1,0,0:0:0:0:
192,192,11058,1,0,0:0:0:0:
320,192,11174,1,0,0:0:0:0:
448,192,11289,1,0,0:0:0:0:
64,192,11405,1,0,0:0:0:0:
448,192,11520,1,0,0:0:0:0:
64,192,11635,1,0,0:0:0:0:
192,192,11751,1,0,0:0:0:0:
320,192,11866,1,0,0:0:0:0:
64,192,11981,1,0,0:0:0:0:
448,192,12010,1,0,0:0:0:0:
192,192,12674,1,0,0:0:0:0:
320,192,12703,1,0,0:0:0:0:
320,192,13135,1,0,0:0:0:0:
64,192,13366,1,0,0:0:0:0:
192,192,13366,1,0,0:0:0:0:
320,192,13597,1,0,0:0:0:0:
448,192,13597,1,0,0:0:0:0:
320,192,13828,1,0,0:0:0:0:
64,192,13856,1,0,0:0:0:0:
320,192,14289,1,0,0:0:0:0:
64,192,14318,1,0,0:0:0:0:
320,192,14751,1,0,0:0:0:0:
448,192,14751,1,0,0:0:0:0:
192,192,14981,1,0,0:0:0:0:
448,192,15097,1,0,0:0:0:0:
192,192,15212,1,0,0:0:0:0:
64,192,15443,1,0,0:0:0:0:
192,192,15674,1,0,0:0:0:0:
448,192,15674,1,0,0:0:0:0:
64,192,15674,1,0,0:0:0:0:
320,192,15789,1,0,0:0:0:0:
192,192,15905,1,0,0:0:0:0:
320,192,16020,1,0,0:0:0:0:
448,192,16135,1,0,0:0:0:0:
64,192,16135,1,0,0:0:0:0:
448,192,16366,1,0,0:0:0:0:
192,192,16366,1,0,0:0:0:0:
320,192,16481,1,0,0:0:0:0:
64,192,16597,1,0,0:0:0:0:
192,192,16712,1,0,0:0:0:0:
320,192,16828,1,0,0:0:0:0:
64,192,16943,1,0,0:0:0:0:
448,192,17058,1,0,0:0:0:0:
320,192,17058,1,0,0:0:0:0:
192,192,17174,1,0,0:0:0:0:
64,192,17289,1,0,0:0:0:0:
320,192,17405,1,0,0:0:0:0:
64,192,17520,1,0,0:0:0:0:
448,192,17520,1,0,0:0:0:0:
192,192,17751,1,0,0:0:0:0:
320,192,17866,1,0,0:0:0:0:
448,192,17981,1,0,0:0:0:0:
64,192,17981,1,0,0:0:0:0:
320,192,18212,1,0,0:0:0:0:
448,192,18241,1,0,0:0:0:0:
192,192,18328,1,0,0:0:0:0:
320,192,18443,1,0,0:0:0:0:
64,192,18443,1,0,0:0:0:0:
448,192,18674,1,0,0:0:0:0:
64,192,18674,1,0,0:0:0:0:
320,192,18789,1,0,0:0:0:0:
192,192,18905,1,0,0:0:0:0:
64,192,18905,1,0,0:0:0:0:
192,192,19020,1,0,0:0:0:0:
448,192,19135,1,0,0:0:0:0:
320,192,19251,1,0,0:0:0:0:
448,192,19366,1,0,0:0:0:0:
64,192,19366,1,0,0:0:0:0:
192,192,19481,1,0,0:0:0:0:
448,192,19597,1,0,0:0:0:0:
320,192,19712,1,0,0:0:0:0:
192,192,19828,1,0,0:0:0:0:
64,192,19828,1,0,0:0:0:0:
64,192,20058,1,0,0:0:0:0:
320,192,20058,1,0,0:0:0:0:
192,192,20174,1,0,0:0:0:0:
448,192,20289,1,0,0:0:0:0:
320,192,20405,1,0,0:0:0:0:
64,192,20520,1,0,0:0:0:0:
448,192,20635,1,0,0:0:0:0:
64,192,20751,1,0,0:0:0:0:
192,192,20751,1,0,0:0:0:0:
320,192,20866,1,0,0:0:0:0:
448,192,20981,1,0,0:0:0:0:
192,192,21097,1,0,0:0:0:0:
64,192,21212,1,0,0:0:0:0:
320,192,21212,1,0,0:0:0:0:
448,192,21443,1,0,0:0:0:0:
192,192,21558,1,0,0:0:0:0:
320,192,21674,1,0,0:0:0:0:
64,192,21674,1,0,0:0:0:0:
192,192,21905,1,0,0:0:0:0:
448,192,21933,1,0,0:0:0:0:
320,192,22020,1,0,0:0:0:0:
64,192,22135,1,0,0:0:0:0:
192,192,22135,1,0,0:0:0:0:
448,192,22366,1,0,0:0:0:0:
320,192,22366,1,0,0:0:0:0:
64,192,22481,1,0,0:0:0:0:
192,192,22597,1,0,0:0:0:0:
320,192,22597,1,0,0:0:0:0:
320,192,22712,1,0,0:0:0:0:
64,192,22828,1,0,0:0:0:0:
448,192,22943,1,0,0:0:0:0:
192,192,23058,1,0,0:0:0:0:
64,192,23058,1,0,0:0:0:0:
320,192,23174,1,0,0:0:0:0:
192,192,23289,1,0,0:0:0:0:
448,192,23405,1,0,0:0:0:0:
192,192,23520,1,0,0:0:0:0:
64,192,23520,1,0,0:0:0:0:
320,192,23751,1,0,0:0:0:0:
192,192,23751,1,0,0:0:0:0:
64,192,23866,1,0,0:0:0:0:
320,192,23981,1,0,0:0:0:0:
448,192,24097,1,0,0:0:0:0:
192,192,24212,1,0,0:0:0:0:
64,192,24328,1,0,0:0:0:0:
192,192,24443,1,0,0:0:0:0:
448,192,24443,1,0,0:0:0:0:
320,192,24558,1,0,0:0:0:0:
64,192,24674,1,0,0:0:0:0:
448,192,24789,1,0,0:0:0:0:
192,192,24905,1,0,0:0:0:0:
320,192,24905,1,0,0:0:0:0:
64,192,25135,1,0,0:0:0:0:
448,192,25251,1,0,0:0:0:0:
320,192,25366,1,0,0:0:0:0:
192,192,25366,1,0,0:0:0:0:
64,192,25597,1,0,0:0:0:0:
448,192,25626,1,0,0:0:0:0:
320,192,25712,1,0,0:0:0:0:
64,192,25828,1,0,0:0:0:0:
192,192,25828,1,0,0:0:0:0:
192,192,25943,1,0,0:0:0:0:
448,192,26058,1,0,0:0:0:0:
320,192,26058,1,0,0:0:0:0:
320,192,26174,1,0,0:0:0:0:
448,192,26289,1,0,0:0:0:0:
64,192,26289,1,0,0:0:0:0:
448,192,26405,1,0,0:0:0:0:
192,192,26520,1,0,0:0:0:0:
320,192,26520,1,0,0:0:0:0:
192,192,26635,1,0,0:0:0:0:
64,192,26751,1,0,0:0:0:0:
448,192,26780,1,0,0:0:0:0:
192,192,26981,1,0,0:0:0:0:
320,192,27097,1,0,0:0:0:0:
448,192,27212,1,0,0:0:0:0:
64,192,27212,1,0,0:0:0:0:
64,192,27443,1,0,0:0:0:0:
320,192,27472,1,0,0:0:0:0:
192,192,27558,1,0,0:0:0:0:
448,192,27674,1,0,0:0:0:0:
320,192,27905,1,0,0:0:0:0:
64,192,27905,1,0,0:0:0:0:
448,192,28020,1,0,0:0:0:0:
64,192,28135,1,0,0:0:0:0:
192,192,28135,1,0,0:0:0:0:
448,192,28366,1,0,0:0:0:0:
320,192,28366,1,0,0:0:0:0:
192,192,28481,1,0,0:0:0:0:
320,192,28597,1,0,0:0:0:0:
64,192,28626,1,0,0:0:0:0:
192,192,28828,1,0,0:0:0:0:
192,192,28943,1,0,0:0:0:0:
320,192,29058,1,0,0:0:0:0:
64,192,29087,1,0,0:0:0:0:
192,192,29289,1,0,0:0:0:0:
192,192,29405,1,0,0:0:0:0:
320,192,29520,5,0,0:0:0:0:
448,192,29520,1,0,0:0:0:0:
64,192,29635,1,0,0:0:0:0:
320,192,29751,1,0,0:0:0:0:
192,192,29866,1,0,0:0:0:0:
320,192,29981,5,0,0:0:0:0:
448,192,29981,1,0,0:0:0:0:
448,192,30097,1,0,0:0:0:0:
320,192,30097,1,0,0:0:0:0:
192,192,30212,1,0,0:0:0:0:
64,192,30212,1,0,0:0:0:0:
192,192,30328,1,0,0:0:0:0:
64,192,30328,1,0,0:0:0:0:
64,192,30443,1,0,0:0:0:0:
448,192,30443,1,0,0:0:0:0:
320,192,30443,1,0,0:0:0:0:
64,192,30674,1,0,0:0:0:0:
192,192,30674,1,0,0:0:0:0:
448,192,30789,1,0,0:0:0:0:
320,192,30789,1,0,0:0:0:0:
64,192,30905,1,0,0:0:0:0:
192,192,30905,1,0,0:0:0:0:
320,192,31020,1,0,0:0:0:0:
64,192,31135,1,0,0:0:0:0:
448,192,31251,1,0,0:0:0:0:
320,192,31366,1,0,0:0:0:0:
192,192,31366,1,0,0:0:0:0:
64,192,31597,1,0,0:0:0:0:
320,192,31597,1,0,0:0:0:0:
192,192,31712,1,0,0:0:0:0:
448,192,31712,1,0,0:0:0:0:
320,192,31828,1,0,0:0:0:0:
64,192,31828,1,0,0:0:0:0:
448,192,31943,1,0,0:0:0:0:
192,192,32058,1,0,0:0:0:0:
64,192,32174,1,0,0:0:0:0:
320,192,32289,1,0,0:0:0:0:
192,192,32289,1,0,0:0:0:0:
320,192,32520,1,0,0:0:0:0:
64,192,32635,1,0,0:0:0:0:
448,192,32751,1,0,0:0:0:0:
192,192,32751,1,0,0:0:0:0:
448,192,32981,1,0,0:0:0:0:
320,192,32981,1,0,0:0:0:0:
192,192,33212,1,0,0:0:0:0:
64,192,33212,1,0,0:0:0:0:
320,192,33443,1,0,0:0:0:0:
448,192,33443,1,0,0:0:0:0:
192,192,33674,1,0,0:0:0:0:
64,192,33674,1,0,0:0:0:0:
448,192,33789,1,0,0:0:0:0:
320,192,33905,1,0,0:0:0:0:
64,192,34020,1,0,0:0:0:0:
192,192,34135,1,0,0:0:0:0:
448,192,34135,1,0,0:0:0:0:
64,192,34251,1,0,0:0:0:0:
320,192,34366,1,0,0:0:0:0:
448,192,34481,1,0,0:0:0:0:
192,192,34597,1,0,0:0:0:0:
64,192,34597,1,0,0:0:0:0:
320,192,34712,1,0,0:0:0:0:
64,192,34828,1,0,0:0:0:0:
448,192,34943,1,0,0:0:0:0:
192,192,35058,1,0,0:0:0:0:
320,192,35058,1,0,0:0:0:0:
64,192,35174,1,0,0:0:0:0:
320,192,35289,1,0,0:0:0:0:
448,192,35405,1,0,0:0:0:0:
64,192,35520,1,0,0:0:0:0:
192,192,35520,1,0,0:0:0:0:
320,192,35635,1,0,0:0:0:0:
448,192,35751,1,0,0:0:0:0:
64,192,35866,1,0,0:0:0:0:
192,192,35981,1,0,0:0:0:0:
320,192,35981,1,0,0:0:0:0:
448,192,36212,1,0,0:0:0:0:
320,192,36328,1,0,0:0:0:0:
192,192,36443,1,0,0:0:0:0:
64,192,36443,1,0,0:0:0:0:
320,192,36558,1,0,0:0:0:0:
448,192,36674,1,0,0:0:0:0:
192,192,36789,1,0,0:0:0:0:
320,192,36905,1,0,0:0:0:0:
64,192,36905,1,0,0:0:0:0:
192,192,36981,1,0,0:0:0:0:
448,192,37058,1,0,0:0:0:0:
320,192,37135,1,0,0:0:0:0:
192,192,37212,1,0,0:0:0:0:
64,192,37289,1,0,0:0:0:0:
320,192,37366,1,0,0:0:0:0:
192,192,37443,1,0,0:0:0:0:
448,192,37520,1,0,0:0:0:0:
320,192,37597,1,0,0:0:0:0:
64,192,37674,1,0,0:0:0:0:
192,192,37751,1,0,0:0:0:0:
448,192,37828,1,0,0:0:0:0:
320,192,37828,1,0,0:0:0:0:
64,192,37828,1,0,0:0:0:0:
192,192,38058,1,0,0:0:0:0:
320,192,38058,1,0,0:0:0:0:
448,192,38174,1,0,0:0:0:0:
64,192,38174,1,0,0:0:0:0:
320,192,38289,1,0,0:0:0:0:
192,192,38289,1,0,0:0:0:0:
64,192,38405,1,0,0:0:0:0:
320,192,38520,1,0,0:0:0:0:
448,192,38635,1,0,0:0:0:0:
192,192,38751,1,0,0:0:0:0:
64,192,38751,1,0,0:0:0:0:
320,192,38751,1,0,0:0:0:0:
448,192,38981,1,0,0:0:0:0:
192,192,39097,1,0,0:0:0:0:
320,192,39212,1,0,0:0:0:0:
64,192,39212,1,0,0:0:0:0:
448,192,39212,1,0,0:0:0:0:
192,192,39328,1,0,0:0:0:0:
64,192,39443,1,0,0:0:0:0:
192,192,39558,1,0,0:0:0:0:
448,192,39674,1,0,0:0:0:0:
64,192,39674,1,0,0:0:0:0:
320,192,39674,1,0,0:0:0:0:
192,192,39905,1,0,0:0:0:0:
448,192,40020,1,0,0:0:0:0:
320,192,40020,1,0,0:0:0:0:
64,192,40020,1,0,0:0:0:0:
192,192,40366,1,0,0:0:0:0:
64,192,40366,1,0,0:0:0:0:
320,192,40366,1,0,0:0:0:0:
320,192,40597,1,0,0:0:0:0:
448,192,40597,1,0,0:0:0:0:
192,192,40712,1,0,0:0:0:0:
448,192,40828,1,0,0:0:0:0:
64,192,40828,1,0,0:0:0:0:
448,192,40943,1,0,0:0:0:0:
192,192,41058,1,0,0:0:0:0:
64,192,41058,1,0,0:0:0:0:
320,192,41058,1,0,0:0:0:0:
64,192,41174,1,0,0:0:0:0:
448,192,41289,1,0,0:0:0:0:
320,192,41289,1,0,0:0:0:0:
448,192,41405,1,0,0:0:0:0:
320,192,41520,1,0,0:0:0:0:
64,192,41520,1,0,0:0:0:0:
192,192,41520,1,0,0:0:0:0:
448,192,41635,1,0,0:0:0:0:
64,192,41751,1,0,0:0:0:0:
320,192,41866,1,0,0:0:0:0:
448,192,41981,1,0,0:0:0:0:
192,192,41981,1,0,0:0:0:0:
64,192,42097,1,0,0:0:0:0:
192,192,42212,1,0,0:0:0:0:
448,192,42328,1,0,0:0:0:0:
64,192,42443,1,0,0:0:0:0:
320,192,42443,1,0,0:0:0:0:
448,192,42501,1,0,0:0:0:0:
192,192,42558,1,0,0:0:0:0:
320,192,42616,1,0,0:0:0:0:
448,192,42674,1,0,0:0:0:0:
64,192,42731,1,0,0:0:0:0:
192,192,42789,1,0,0:0:0:0:
448,192,42847,1,0,0:0:0:0:
320,192,42905,1,0,0:0:0:0:
192,192,42962,1,0,0:0:0:0:
64,192,43020,1,0,0:0:0:0:
320,192,43078,1,0,0:0:0:0:
448,192,43135,1,0,0:0:0:0:
64,192,43193,1,0,0:0:0:0:
192,192,43251,1,0,0:0:0:0:
320,192,43308,1,0,0:0:0:0:
192,192,43366,1,0,0:0:0:0:
448,192,43366,1,0,0:0:0:0:
64,192,43366,1,0,0:0:0:0:
320,192,43597,1,0,0:0:0:0:
192,192,43712,1,0,0:0:0:0:
448,192,43828,1,0,0:0:0:0:
320,192,43828,1,0,0:0:0:0:
64,192,43828,1,0,0:0:0:0:
64,192,44058,1,0,0:0:0:0:
192,192,44058,1,0,0:0:0:0:
448,192,44289,1,0,0:0:0:0:
192,192,44289,1,0,0:0:0:0:
320,192,44289,1,0,0:0:0:0:
192,192,44520,1,0,0:0:0:0:
64,192,44520,1,0,0:0:0:0:
320,192,44635,1,0,0:0:0:0:
64,192,44751,1,0,0:0:0:0:
448,192,44751,1,0,0:0:0:0:
192,192,44751,1,0,0:0:0:0:
448,192,44866,1,0,0:0:0:0:
64,192,44981,1,0,0:0:0:0:
320,192,44981,1,0,0:0:0:0:
64,192,45097,1,0,0:0:0:0:
448,192,45212,1,0,0:0:0:0:
320,192,45212,1,0,0:0:0:0:
192,192,45212,1,0,0:0:0:0:
64,192,45328,1,0,0:0:0:0:
192,192,45443,1,0,0:0:0:0:
320,192,45558,1,0,0:0:0:0:
448,192,45674,1,0,0:0:0:0:
64,192,45674,1,0,0:0:0:0:
320,192,45789,1,0,0:0:0:0:
64,192,45905,1,0,0:0:0:0:
320,192,46020,1,0,0:0:0:0:
448,192,46135,1,0,0:0:0:0:
192,192,46135,1,0,0:0:0:0:
320,192,46251,1,0,0:0:0:0:
64,192,46366,1,0,0:0:0:0:
192,192,46481,1,0,0:0:0:0:
320,192,46597,1,0,0:0:0:0:
448,192,46597,1,0,0:0:0:0:
64,192,46712,1,0,0:0:0:0:
192,192,46828,1,0,0:0:0:0:
320,192,46943,1,0,0:0:0:0:
448,192,47058,1,0,0:0:0:0:
64,192,47058,1,0,0:0:0:0:
320,192,47135,1,0,0:0:0:0:
192,192,47212,1,0,0:0:0:0:
64,192,47289,1,0,0:0:0:0:
448,192,47366,1,0,0:0:0:0:
320,192,47443,1,0,0:0:0:0:
192,192,47520,1,0,0:0:0:0:
448,192,47597,1,0,0:0:0:0:
64,192,47674,1,0,0:0:0:0:
192,192,47751,1,0,0:0:0:0:
448,192,47828,1,0,0:0:0:0:
320,192,47905,1,0,0:0:0:0:
64,192,47981,1,0,0:0:0:0:
192,192,48010,1,0,0:0:0:0:
448,192,48039,1,0,0:0:0:0:
192,192,48212,1,0,0:0:0:0:
320,192,48241,1,0,0:0:0:0:
448,192,48270,1,0,0:0:0:0:
448,192,48443,1,0,0:0:0:0:
320,192,48472,1,0,0:0:0:0:
64,192,48501,1,0,0:0:0:0:
320,192,48674,1,0,0:0:0:0:
192,192,48703,1,0,0:0:0:0:
64,192,48731,1,0,0:0:0:0:
448,192,48905,1,0,0:0:0:0:
320,192,48905,1,0,0:0:0:0:
192,192,49020,1,0,0:0:0:0:
64,192,49135,1,0,0:0:0:0:
320,192,49251,1,0,0:0:0:0:
448,192,49366,1,0,0:0:0:0:
192,192,49366,1,0,0:0:0:0:
320,192,49481,1,0,0:0:0:0:
64,192,49597,1,0,0:0:0:0:
320,192,49712,1,0,0:0:0:0:
448,192,49828,1,0,0:0:0:0:
192,192,49828,1,0,0:0:0:0:
320,192,49943,1,0,0:0:0:0:
64,192,50058,1,0,0:0:0:0:
192,192,50174,1,0,0:0:0:0:
448,192,50289,1,0,0:0:0:0:
320,192,50289,1,0,0:0:0:0:
192,192,50405,1,0,0:0:0:0:
64,192,50520,1,0,0:0:0:0:
320,192,50635,1,0,0:0:0:0:
192,192,50751,1,0,0:0:0:0:
448,192,50751,1,0,0:0:0:0:
320,192,50828,1,0,0:0:0:0:
64,192,50905,1,0,0:0:0:0:
448,192,50981,1,0,0:0:0:0:
320,192,51058,1,0,0:0:0:0:
192,192,51135,1,0,0:0:0:0:
448,192,51212,1,0,0:0:0:0:
320,192,51289,1,0,0:0:0:0:
64,192,51366,1,0,0:0:0:0:
192,192,51443,1,0,0:0:0:0:
320,192,51520,1,0,0:0:0:0:
448,192,51597,1,0,0:0:0:0:
64,192,51674,1,0,0:0:0:0:
192,192,51703,1,0,0:0:0:0:
320,192,51731,1,0,0:0:0:0:
192,192,51905,1,0,0:0:0:0:
448,192,51905,1,0,0:0:0:0:
64,192,52020,1,0,0:0:0:0:
320,192,52020,1,0,0:0:0:0:
192,192,52135,1,0,0:0:0:0:
448,192,52135,1,0,0:0:0:0:
64,192,52251,1,0,0:0:0:0:
192,192,52366,1,0,0:0:0:0:
448,192,52366,1,0,0:0:0:0:
320,192,52481,1,0,0:0:0:0:
448,192,52597,1,0,0:0:0:0:
192,192,52597,1,0,0:0:0:0:
64,192,52597,1,0,0:0:0:0:
320,192,52712,1,0,0:0:0:0:
64,192,52828,1,0,0:0:0:0:
192,192,52943,1,0,0:0:0:0:
448,192,53058,1,0,0:0:0:0:
64,192,53058,1,0,0:0:0:0:
320,192,53174,1,0,0:0:0:0:
192,192,53289,1,0,0:0:0:0:
64,192,53405,1,0,0:0:0:0:
192,192,53520,1,0,0:0:0:0:
320,192,53520,1,0,0:0:0:0:
448,192,53635,1,0,0:0:0:0:
64,192,53751,1,0,0:0:0:0:
320,192,53866,1,0,0:0:0:0:
64,192,53981,1,0,0:0:0:0:
192,192,53981,1,0,0:0:0:0:
448,192,54097,1,0,0:0:0:0:
320,192,54212,1,0,0:0:0:0:
192,192,54328,1,0,0:0:0:0:
320,192,54443,1,0,0:0:0:0:
64,192,54443,1,0,0:0:0:0:
448,192,54558,1,0,0:0:0:0:
192,192,54674,1,0,0:0:0:0:
64,192,54789,1,0,0:0:0:0:
192,192,54905,1,0,0:0:0:0:
320,192,54905,1,0,0:0:0:0:
64,192,55020,1,0,0:0:0:0:
448,192,55135,1,0,0:0:0:0:
320,192,55251,1,0,0:0:0:0:
448,192,55366,1,0,0:0:0:0:
64,192,55366,1,0,0:0:0:0:
192,192,55424,1,0,0:0:0:0:
320,192,55481,1,0,0:0:0:0:
448,192,55539,1,0,0:0:0:0:
64,192,55597,1,0,0:0:0:0:
320,192,55655,1,0,0:0:0:0:
448,192,55712,1,0,0:0:0:0:
192,192,55770,1,0,0:0:0:0:
64,192,55828,1,0,0:0:0:0:
320,192,55885,1,0,0:0:0:0:
192,192,55943,1,0,0:0:0:0:
64,192,56001,1,0,0:0:0:0:
448,192,56058,1,0,0:0:0:0:
320,192,56116,1,0,0:0:0:0:
64,192,56174,1,0,0:0:0:0:
192,192,56231,1,0,0:0:0:0:
320,192,56289,1,0,0:0:0:0:
448,192,56289,1,0,0:0:0:0:
64,192,56289,1,0,0:0:0:0:
192,192,56405,1,0,0:0:0:0:
448,192,56520,1,0,0:0:0:0:
320,192,56635,1,0,0:0:0:0:
64,192,56751,1,0,0:0:0:0:
448,192,56751,1,0,0:0:0:0:
192,192,56866,1,0,0:0:0:0:
320,192,56981,1,0,0:0:0:0:
448,192,57097,1,0,0:0:0:0:
192,192,57212,1,0,0:0:0:0:
64,192,57212,1,0,0:0:0:0:
320,192,57212,1,0,0:0:0:0:
448,192,57328,1,0,0:0:0:0:
64,192,57443,1,0,0:0:0:0:
320,192,57558,1,0,0:0:0:0:
448,192,57674,1,0,0:0:0:0:
192,192,57674,1,0,0:0:0:0:
64,192,57789,1,0,0:0:0:0:
192,192,57905,1,0,0:0:0:0:
320,192,58020,1,0,0:0:0:0:
320,192,58135,1,0,0:0:0:0:
192,192,58135,1,0,0:0:0:0:
64,192,58135,1,0,0:0:0:0:
64,192,58366,1,0,0:0:0:0:
448,192,58366,1,0,0:0:0:0:
64,192,58481,1,0,0:0:0:0:
192,192,58597,1,0,0:0:0:0:
448,192,58597,1,0,0:0:0:0:
320,192,58597,1,0,0:0:0:0:
448,192,58712,1,0,0:0:0:0:
320,192,58828,1,0,0:0:0:0:
192,192,58828,1,0,0:0:0:0:
192,192,58943,1,0,0:0:0:0:
64,192,59058,1,0,0:0:0:0:
448,192,59058,1,0,0:0:0:0:
320,192,59058,1,0,0:0:0:0:
192,192,59135,1,0,0:0:0:0:
320,192,59212,1,0,0:0:0:0:
192,192,59289,1,0,0:0:0:0:
320,192,59366,1,0,0:0:0:0:
192,192,59443,1,0,0:0:0:0:
64,192,59520,1,0,0:0:0:0:
320,192,59520,1,0,0:0:0:0:
448,192,59520,1,0,0:0:0:0:
64,192,59635,1,0,0:0:0:0:
320,192,59751,1,0,0:0:0:0:
448,192,59751,1,0,0:0:0:0:
320,192,59866,1,0,0:0:0:0:
192,192,59981,1,0,0:0:0:0:
64,192,59981,1,0,0:0:0:0:
448,192,59981,1,0,0:0:0:0:
192,192,60212,1,0,0:0:0:0:
64,192,60443,1,0,0:0:0:0:
320,192,60443,1,0,0:0:0:0:
448,192,60674,1,0,0:0:0:0:
192,192,60905,1,0,0:0:0:0:
448,192,60905,1,0,0:0:0:0:
320,192,61135,1,0,0:0:0:0:
192,192,61251,1,0,0:0:0:0:
64,192,61366,1,0,0:0:0:0:
448,192,61366,1,0,0:0:0:0:
320,192,61481,1,0,0:0:0:0:
192,192,61597,1,0,0:0:0:0:
64,192,61712,1,0,0:0:0:0:
320,192,61828,1,0,0:0:0:0:
448,192,61828,1,0,0:0:0:0:
192,192,61943,1,0,0:0:0:0:
448,192,62058,1,0,0:0:0:0:
64,192,62174,1,0,0:0:0:0:
192,192,62289,1,0,0:0:0:0:
320,192,62289,1,0,0:0:0:0:
64,192,62405,1,0,0:0:0:0:
320,192,62520,1,0,0:0:0:0:
192,192,62635,1,0,0:0:0:0:
64,192,62751,1,0,0:0:0:0:
448,192,62751,1,0,0:0:0:0:
192,192,62981,1,0,0:0:0:0:
320,192,63097,1,0,0:0:0:0:
64,192,63212,1,0,0:0:0:0:
192,192,63212,1,0,0:0:0:0:
448,192,63328,1,0,0:0:0:0:
192,192,63443,1,0,0:0:0:0:
320,192,63558,1,0,0:0:0:0:
448,192,63674,1,0,0:0:0:0:
64,192,63674,1,0,0:0:0:0:
192,192,63905,1,0,0:0:0:0:
320,192,64020,1,0,0:0:0:0:
448,192,64135,1,0,0:0:0:0:
64,192,64135,1,0,0:0:0:0:
64,192,64366,1,0,0:0:0:0:
192,192,64481,1,0,0:0:0:0:
448,192,64597,1,0,0:0:0:0:
320,192,64597,1,0,0:0:0:0:
192,192,64828,1,0,0:0:0:0:
64,192,64943,1,0,0:0:0:0:
448,192,65058,1,0,0:0:0:0:
320,192,65058,1,0,0:0:0:0:
192,192,65174,1,0,0:0:0:0:
64,192,65289,1,0,0:0:0:0:
192,192,65405,1,0,0:0:0:0:
448,192,65520,1,0,0:0:0:0:
320,192,65520,1,0,0:0:0:0:
192,192,65751,1,0,0:0:0:0:
320,192,65866,1,0,0:0:0:0:
448,192,65981,1,0,0:0:0:0:
192,192,65981,1,0,0:0:0:0:
64,192,66097,1,0,0:0:0:0:
192,192,66212,1,0,0:0:0:0:
320,192,66328,1,0,0:0:0:0:
64,192,66443,1,0,0:0:0:0:
448,192,66443,1,0,0:0:0:0:
320,192,66520,1,0,0:0:0:0:
192,192,66597,1,0,0:0:0:0:
448,192,66674,1,0,0:0:0:0:
320,192,66751,1,0,0:0:0:0:
64,192,66828,1,0,0:0:0:0:
192,192,66905,1,0,0:0:0:0:
320,192,66981,1,0,0:0:0:0:
448,192,67058,1,0,0:0:0:0:
192,192,67135,1,0,0:0:0:0:
64,192,67135,1,0,0:0:0:0:
64,192,67251,1,0,0:0:0:0:
192,192,67251,1,0,0:0:0:0:
448,192,67366,1,0,0:0:0:0:
64,192,67366,1,0,0:0:0:0:
320,192,67366,1,0,0:0:0:0:
192,192,67597,1,0,0:0:0:0:
320,192,67828,1,0,0:0:0:0:
64,192,67828,1,0,0:0:0:0:
448,192,68058,1,0,0:0:0:0:
192,192,68289,1,0,0:0:0:0:
320,192,68289,1,0,0:0:0:0:
448,192,68520,1,0,0:0:0:0:
64,192,68635,1,0,0:0:0:0:
320,192,68751,1,0,0:0:0:0:
192,192,68751,1,0,0:0:0:0:
448,192,68866,1,0,0:0:0:0:
64,192,68981,1,0,0:0:0:0:
448,192,69097,1,0,0:0:0:0:
320,192,69212,1,0,0:0:0:0:
192,192,69212,1,0,0:0:0:0:
192,192,69443,1,0,0:0:0:0:
64,192,69558,1,0,0:0:0:0:
320,192,69674,1,0,0:0:0:0:
448,192,69674,1,0,0:0:0:0:
192,192,69789,1,0,0:0:0:0:
448,192,69905,1,0,0:0:0:0:
192,192,70020,1,0,0:0:0:0:
64,192,70135,1,0,0:0:0:0:
320,192,70135,1,0,0:0:0:0:
192,192,70366,1,0,0:0:0:0:
320,192,70597,1,0,0:0:0:0:
64,192,70597,1,0,0:0:0:0:
448,192,70828,1,0,0:0:0:0:
192,192,71058,1,0,0:0:0:0:
320,192,71058,1,0,0:0:0:0:
64,192,71174,1,0,0:0:0:0:
448,192,71289,1,0,0:0:0:0:
320,192,71405,1,0,0:0:0:0:
192,192,71520,1,0,0:0:0:0:
448,192,71520,1,0,0:0:0:0:
64,192,71635,1,0,0:0:0:0:
320,192,71751,1,0,0:0:0:0:
448,192,71866,1,0,0:0:0:0:
64,192,71981,1,0,0:0:0:0:
192,192,71981,1,0,0:0:0:0:
320,192,72097,1,0,0:0:0:0:
448,192,72212,1,0,0:0:0:0:
64,192,72328,1,0,0:0:0:0:
320,192,72443,1,0,0:0:0:0:
448,192,72443,1,0,0:0:0:0:
192,192,72558,1,0,0:0:0:0:
448,192,72674,1,0,0:0:0:0:
64,192,72789,1,0,0:0:0:0:
448,192,72905,1,0,0:0:0:0:
320,192,72905,1,0,0:0:0:0:
192,192,72905,1,0,0:0:0:0:
64,192,73020,1,0,0:0:0:0:
320,192,73135,1,0,0:0:0:0:
320,192,73251,1,0,0:0:0:0:
64,192,73366,1,0,0:0:0:0:
192,192,73366,1,0,0:0:0:0:
448,192,73366,1,0,0:0:0:0:
320,192,73481,1,0,0:0:0:0:
192,192,73597,1,0,0:0:0:0:
192,192,73712,1,0,0:0:0:0:
64,192,73828,1,0,0:0:0:0:
448,192,73828,1,0,0:0:0:0:
320,192,73828,1,0,0:0:0:0:
64,192,73943,1,0,0:0:0:0:
448,192,74058,1,0,0:0:0:0:
448,192,74174,1,0,0:0:0:0:
192,192,74289,1,0,0:0:0:0:
320,192,74289,1,0,0:0:0:0:
64,192,74289,1,0,0:0:0:0:
192,192,74405,1,0,0:0:0:0:
320,192,74520,1,0,0:0:0:0:
448,192,74520,1,0,0:0:0:0:
320,192,74635,1,0,0:0:0:0:
192,192,74751,1,0,0:0:0:0:
64,192,74751,1,0,0:0:0:0:
448,192,74751,1,0,0:0:0:0:
192,192,74981,1,0,0:0:0:0:
320,192,74981,1,0,0:0:0:0:
320,192,75212,1,0,0:0:0:0:
64,192,75212,1,0,0:0:0:0:
192,192,75443,1,0,0:0:0:0:
448,192,75443,1,0,0:0:0:0:
448,192,75674,1,0,0:0:0:0:
320,192,75674,1,0,0:0:0:0:
192,192,75905,1,0,0:0:0:0:
64,192,76020,1,0,0:0:0:0:
320,192,76135,1,0,0:0:0:0:
192,192,76135,1,0,0:0:0:0:
448,192,76251,1,0,0:0:0:0:
320,192,76366,1,0,0:0:0:0:
64,192,76481,1,0,0:0:0:0:
448,192,76597,1,0,0:0:0:0:
192,192,76597,1,0,0:0:0:0:
320,192,76712,1,0,0:0:0:0:
64,192,76828,1,0,0:0:0:0:
192,192,76943,1,0,0:0:0:0:
320,192,77058,1,0,0:0:0:0:
448,192,77058,1,0,0:0:0:0:
192,192,77174,1,0,0:0:0:0:
64,192,77289,1,0,0:0:0:0:
320,192,77405,1,0,0:0:0:0:
192,192,77520,1,0,0:0:0:0:
448,192,77520,1,0,0:0:0:0:
64,192,77751,1,0,0:0:0:0:
320,192,77866,1,0,0:0:0:0:
192,192,77981,1,0,0:0:0:0:
448,192,77981,1,0,0:0:0:0:
320,192,78097,1,0,0:0:0:0:
64,192,78212,1,0,0:0:0:0:
192,192,78328,1,0,0:0:0:0:
320,192,78443,1,0,0:0:0:0:
448,192,78443,1,0,0:0:0:0:
64,192,78674,1,0,0:0:0:0:
192,192,78789,1,0,0:0:0:0:
320,192,78905,1,0,0:0:0:0:
448,192,78905,1,0,0:0:0:0:
64,192,79135,1,0,0:0:0:0:
320,192,79251,1,0,0:0:0:0:
192,192,79366,1,0,0:0:0:0:
448,192,79366,1,0,0:0:0:0:
320,192,79597,1,0,0:0:0:0:
192,192,79712,1,0,0:0:0:0:
64,192,79828,1,0,0:0:0:0:
448,192,79828,1,0,0:0:0:0:
320,192,79943,1,0,0:0:0:0:
192,192,80058,1,0,0:0:0:0:
320,192,80174,1,0,0:0:0:0:
448,192,80289,1,0,0:0:0:0:
64,192,80289,1,0,0:0:0:0:
192,192,80520,1,0,0:0:0:0:
320,192,80635,1,0,0:0:0:0:
448,192,80751,1,0,0:0:0:0:
64,192,80751,1,0,0:0:0:0:
320,192,80866,1,0,0:0:0:0:
64,192,80981,1,0,0:0:0:0:
192,192,81097,1,0,0:0:0:0:
320,192,81212,1,0,0:0:0:0:
448,192,81212,1,0,0:0:0:0:
192,192,81289,1,0,0:0:0:0:
64,192,81366,1,0,0:0:0:0:
320,192,81443,1,0,0:0:0:0:
192,192,81520,1,0,0:0:0:0:
448,192,81597,1,0,0:0:0:0:
64,192,81674,1,0,0:0:0:0:
192,192,81751,1,0,0:0:0:0:
320,192,81828,1,0,0:0:0:0:
448,192,81905,1,0,0:0:0:0:
64,192,81981,1,0,0:0:0:0:
192,192,82058,1,0,0:0:0:0:
320,192,82135,1,0,0:0:0:0:
448,192,82135,1,0,0:0:0:0:
64,192,82135,1,0,0:0:0:0:
192,192,82366,1,0,0:0:0:0:
64,192,82597,1,0,0:0:0:0:
192,192,82597,1,0,0:0:0:0:
320,192,82712,1,0,0:0:0:0:
448,192,82828,1,0,0:0:0:0:
64,192,82828,1,0,0:0:0:0:
64,192,83058,1,0,0:0:0:0:
192,192,83058,1,0,0:0:0:0:
320,192,83058,1,0,0:0:0:0:
320,192,83289,1,0,0:0:0:0:
192,192,83405,1,0,0:0:0:0:
448,192,83520,1,0,0:0:0:0:
64,192,83520,1,0,0:0:0:0:
448,192,83635,1,0,0:0:0:0:
320,192,83751,1,0,0:0:0:0:
64,192,83751,1,0,0:0:0:0:
64,192,83866,1,0,0:0:0:0:
448,192,83981,1,0,0:0:0:0:
192,192,83981,1,0,0:0:0:0:
320,192,83981,1,0,0:0:0:0:
320,192,84212,1,0,0:0:0:0:
64,192,84328,1,0,0:0:0:0:
192,192,84328,1,0,0:0:0:0:
448,192,84328,1,0,0:0:0:0:
192,192,84558,1,0,0:0:0:0:
64,192,84674,1,0,0:0:0:0:
320,192,84674,1,0,0:0:0:0:
448,192,84674,1,0,0:0:0:0:
192,192,84789,1,0,0:0:0:0:
320,192,84905,1,0,0:0:0:0:
64,192,84905,1,0,0:0:0:0:
448,192,84905,1,0,0:0:0:0:
192,192,85135,1,0,0:0:0:0:
448,192,85135,1,0,0:0:0:0:
448,192,85251,1,0,0:0:0:0:
64,192,85366,1,0,0:0:0:0:
192,192,85366,1,0,0:0:0:0:
320,192,85366,1,0,0:0:0:0:
192,192,85481,1,0,0:0:0:0:
320,192,85597,1,0,0:0:0:0:
448,192,85597,1,0,0:0:0:0:
320,192,85712,1,0,0:0:0:0:
448,192,85828,1,0,0:0:0:0:
192,192,85828,1,0,0:0:0:0:
64,192,85828,1,0,0:0:0:0:
320,192,85943,1,0,0:0:0:0:
64,192,86058,1,0,0:0:0:0:
192,192,86174,1,0,0:0:0:0:
320,192,86289,1,0,0:0:0:0:
448,192,86289,1,0,0:0:0:0:
192,192,86405,1,0,0:0:0:0:
64,192,86520,1,0,0:0:0:0:
320,192,86635,1,0,0:0:0:0:
192,192,86751,1,0,0:0:0:0:
448,192,86751,1,0,0:0:0:0:
64,192,86751,1,0,0:0:0:0:
320,192,86866,1,0,0:0:0:0:
64,192,86981,1,0,0:0:0:0:
448,192,87097,1,0,0:0:0:0:
320,192,87212,1,0,0:0:0:0:
192,192,87212,1,0,0:0:0:0:
64,192,87328,1,0,0:0:0:0:
320,192,87443,1,0,0:0:0:0:
448,192,87443,1,0,0:0:0:0:
192,192,87558,1,0,0:0:0:0:
64,192,87558,1,0,0:0:0:0:
320,192,87674,1,0,0:0:0:0:
448,192,87674,1,0,0:0:0:0:
64,192,87674,1,0,0:0:0:0:
192,192,87789,1,0,0:0:0:0:
448,192,87905,1,0,0:0:0:0:
64,192,87905,1,0,0:0:0:0:
320,192,88020,1,0,0:0:0:0:
192,192,88020,1,0,0:0:0:0:
448,192,88135,1,0,0:0:0:0:
64,192,88135,1,0,0:0:0:0:
192,192,88135,1,0,0:0:0:0:
320,192,88251,1,0,0:0:0:0:
64,192,88366,1,0,0:0:0:0:
192,192,88366,1,0,0:0:0:0:
320,192,88481,1,0,0:0:0:0:
448,192,88481,1,0,0:0:0:0:
448,192,88597,1,0,0:0:0:0:
64,192,88597,1,0,0:0:0:0:
192,192,88597,1,0,0:0:0:0:
320,192,88712,1,0,0:0:0:0:
448,192,88828,1,0,0:0:0:0:
192,192,88828,1,0,0:0:0:0:
320,192,88943,1,0,0:0:0:0:
64,192,88943,1,0,0:0:0:0:
448,192,89058,1,0,0:0:0:0:
192,192,89058,1,0,0:0:0:0:
64,192,89058,1,0,0:0:0:0:
320,192,89174,1,0,0:0:0:0:
192,192,89174,1,0,0:0:0:0:
448,192,89289,1,0,0:0:0:0:
64,192,89289,1,0,0:0:0:0:
320,192,89405,1,0,0:0:0:0:
192,192,89405,1,0,0:0:0:0:
64,192,89520,1,0,0:0:0:0:
320,192,89520,1,0,0:0:0:0:
448,192,89520,1,0,0:0:0:0:
192,192,89751,1,0,0:0:0:0:
448,192,89866,1,0,0:0:0:0:
64,192,89981,1,0,0:0:0:0:
320,192,89981,1,0,0:0:0:0:
448,192,90097,1,0,0:0:0:0:
192,192,90097,1,0,0:0:0:0:
448,192,90328,1,0,0:0:0:0:
192,192,90328,1,0,0:0:0:0:
320,192,90443,1,0,0:0:0:0:
64,192,90443,1,0,0:0:0:0:
192,192,90674,1,0,0:0:0:0:
320,192,90674,1,0,0:0:0:0:
192,192,90789,1,0,0:0:0:0:
320,192,90789,1,0,0:0:0:0:
448,192,90905,1,0,0:0:0:0:
64,192,90905,1,0,0:0:0:0:
320,192,91020,1,0,0:0:0:0:
192,192,91135,1,0,0:0:0:0:
448,192,91251,1,0,0:0:0:0:
320,192,91366,1,0,0:0:0:0:
64,192,91366,1,0,0:0:0:0:
192,192,91597,1,0,0:0:0:0:
64,192,91597,1,0,0:0:0:0:
192,192,91712,1,0,0:0:0:0:
64,192,91712,1,0,0:0:0:0:
320,192,91828,1,0,0:0:0:0:
448,192,91828,1,0,0:0:0:0:
64,192,91943,1,0,0:0:0:0:
192,192,92058,1,0,0:0:0:0:
448,192,92174,1,0,0:0:0:0:
64,192,92289,1,0,0:0:0:0:
320,192,92289,1,0,0:0:0:0:
448,192,92405,1,0,0:0:0:0:
64,192,92520,1,0,0:0:0:0:
192,192,92635,1,0,0:0:0:0:
320,192,92751,1,0,0:0:0:0:
448,192,92751,1,0,0:0:0:0:
192,192,92866,1,0,0:0:0:0:
448,192,92981,1,0,0:0:0:0:
64,192,93097,1,0,0:0:0:0:
320,192,93212,1,0,0:0:0:0:
192,192,93212,1,0,0:0:0:0:
64,192,93328,1,0,0:0:0:0:
448,192,93443,1,0,0:0:0:0:
320,192,93558,1,0,0:0:0:0:
192,192,93674,1,0,0:0:0:0:
64,192,93674,1,0,0:0:0:0:
320,192,93789,1,0,0:0:0:0:
64,192,93905,1,0,0:0:0:0:
320,192,94020,1,0,0:0:0:0:
448,192,94135,1,0,0:0:0:0:
192,192,94135,1,0,0:0:0:0:
64,192,94251,1,0,0:0:0:0:
320,192,94366,1,0,0:0:0:0:
192,192,94481,1,0,0:0:0:0:
448,192,94597,1,0,0:0:0:0:
64,192,94597,1,0,0:0:0:0:
192,192,94712,1,0,0:0:0:0:
320,192,94828,1,0,0:0:0:0:
64,192,94943,1,0,0:0:0:0:
448,192,95058,1,0,0:0:0:0:
192,192,95058,1,0,0:0:0:0:
320,192,95135,1,0,0:0:0:0:
64,192,95212,1,0,0:0:0:0:
192,192,95289,1,0,0:0:0:0:
320,192,95366,1,0,0:0:0:0:
448,192,95443,1,0,0:0:0:0:
192,192,95520,1,0,0:0:0:0:
64,192,95597,1,0,0:0:0:0:
320,192,95674,1,0,0:0:0:0:
192,192,95751,1,0,0:0:0:0:
448,192,95828,1,0,0:0:0:0:
64,192,95905,1,0,0:0:0:0:
320,192,95981,1,0,0:0:0:0:
192,192,96058,1,0,0:0:0:0:
64,192,96135,1,0,0:0:0:0:
320,192,96212,1,0,0:0:0:0:
448,192,96289,1,0,0:0:0:0:
64,192,96366,1,0,0:0:0:0:
192,192,96443,1,0,0:0:0:0:
320,192,96520,1,0,0:0:0:0:
448,192,96597,1,0,0:0:0:0:
192,192,96674,1,0,0:0:0:0:
320,192,96751,1,0,0:0:0:0:
64,192,96828,1,0,0:0:0:0:
448,192,96905,1,0,0:0:0:0:
192,192,96905,1,0,0:0:0:0:
320,192,96905,1,0,0:0:0:0:
64,192,97020,1,0,0:0:0:0:
192,192,97135,1,0,0:0:0:0:
320,192,97251,1,0,0:0:0:0:
64,192,97366,1,0,0:0:0:0:
448,192,97366,1,0,0:0:0:0:
192,192,97481,1,0,0:0:0:0:
64,192,97597,1,0,0:0:0:0:
448,192,97712,1,0,0:0:0:0:
320,192,97828,1,0,0:0:0:0:
192,192,97828,1,0,0:0:0:0:
448,192,97905,1,0,0:0:0:0:
64,192,97981,1,0,0:0:0:0:
320,192,98058,1,0,0:0:0:0:
192,192,98135,1,0,0:0:0:0:
448,192,98212,1,0,0:0:0:0:
320,192,98289,1,0,0:0:0:0:
64,192,98366,1,0,0:0:0:0:
192,192,98443,1,0,0:0:0:0:
448,192,98520,1,0,0:0:0:0:
320,192,98597,1,0,0:0:0:0:
192,192,98674,1,0,0:0:0:0:
448,192,98751,1,0,0:0:0:0:
64,192,98751,1,0,0:0:0:0:
320,192,98866,1,0,0:0:0:0:
64,192,98981,1,0,0:0:0:0:
192,192,99097,1,0,0:0:0:0:
320,192,99212,1,0,0:0:0:0:
448,192,99212,1,0,0:0:0:0:
64,192,99328,1,0,0:0:0:0:
192,192,99443,1,0,0:0:0:0:
448,192,99558,1,0,0:0:0:0:
64,192,99674,1,0,0:0:0:0:
192,192,99703,1,0,0:0:0:0:
320,192,99731,1,0,0:0:0:0:
192,192,99905,1,0,0:0:0:0:
64,192,100020,1,0,0:0:0:0:
448,192,100135,1,0,0:0:0:0:
320,192,100135,1,0,0:0:0:0:
64,192,100251,1,0,0:0:0:0:
192,192,100366,1,0,0:0:0:0:
448,192,100481,1,0,0:0:0:0:
320,192,100597,1,0,0:0:0:0:
64,192,100597,1,0,0:0:0:0:
448,192,100712,1,0,0:0:0:0:
192,192,100828,1,0,0:0:0:0:
64,192,100943,1,0,0:0:0:0:
320,192,101058,1,0,0:0:0:0:
448,192,101058,1,0,0:0:0:0:
64,192,101174,1,0,0:0:0:0:
448,192,101289,1,0,0:0:0:0:
64,192,101405,1,0,0:0:0:0:
320,192,101520,1,0,0:0:0:0:
192,192,101520,1,0,0:0:0:0:
448,192,101635,1,0,0:0:0:0:
64,192,101751,1,0,0:0:0:0:
192,192,101866,1,0,0:0:0:0:
320,192,101981,1,0,0:0:0:0:
448,192,101981,1,0,0:0:0:0:
192,192,102097,1,0,0:0:0:0:
320,192,102212,1,0,0:0:0:0:
192,192,102328,1,0,0:0:0:0:
64,192,102443,1,0,0:0:0:0:
448,192,102443,1,0,0:0:0:0:
320,192,102443,1,0,0:0:0:0:
192,192,102558,1,0,0:0:0:0:
320,192,102674,1,0,0:0:0:0:
448,192,102674,1,0,0:0:0:0:
64,192,102789,1,0,0:0:0:0:
448,192,102905,1,0,0:0:0:0:
192,192,102905,1,0,0:0:0:0:
320,192,103020,1,0,0:0:0:0:
64,192,103020,1,0,0:0:0:0:
448,192,103135,1,0,0:0:0:0:
192,192,103251,1,0,0:0:0:0:
448,192,103366,1,0,0:0:0:0:
64,192,103366,1,0,0:0:0:0:
192,192,103481,1,0,0:0:0:0:
320,192,103597,1,0,0:0:0:0:
448,192,103597,1,0,0:0:0:0:
64,192,103712,1,0,0:0:0:0:
192,192,103828,1,0,0:0:0:0:
320,192,103828,1,0,0:0:0:0:
448,192,103943,1,0,0:0:0:0:
64,192,104058,1,0,0:0:0:0:
192,192,104058,1,0,0:0:0:0:
320,192,104174,1,0,0:0:0:0:
448,192,104289,1,0,0:0:0:0:
64,192,104289,1,0,0:0:0:0:
192,192,104289,1,0,0:0:0:0:
320,192,104520,1,0,0:0:0:0:
448,192,104635,1,0,0:0:0:0:
64,192,104751,1,0,0:0:0:0:
192,192,104751,1,0,0:0:0:0:
448,192,104866,1,0,0:0:0:0:
320,192,104866,1,0,0:0:0:0:
448,192,105097,1,0,0:0:0:0:
320,192,105097,1,0,0:0:0:0:
64,192,105212,1,0,0:0:0:0:
192,192,105212,1,0,0:0:0:0:
192,192,105443,1,0,0:0:0:0:
320,192,105443,1,0,0:0:0:0:
320,192,105558,1,0,0:0:0:0:
192,192,105558,1,0,0:0:0:0:
64,192,105674,1,0,0:0:0:0:
448,192,105674,1,0,0:0:0:0:
192,192,105789,1,0,0:0:0:0:
448,192,105905,1,0,0:0:0:0:
64,192,106020,1,0,0:0:0:0:
320,192,106135,1,0,0:0:0:0:
192,192,106135,1,0,0:0:0:0:
64,192,106366,1,0,0:0:0:0:
448,192,106366,1,0,0:0:0:0:
64,192,106481,1,0,0:0:0:0:
448,192,106481,1,0,0:0:0:0:
320,192,106597,1,0,0:0:0:0:
192,192,106597,1,0,0:0:0:0:
64,192,106712,1,0,0:0:0:0:
192,192,106828,1,0,0:0:0:0:
448,192,106943,1,0,0:0:0:0:
320,192,107058,1,0,0:0:0:0:
64,192,107058,1,0,0:0:0:0:
448,192,107174,1,0,0:0:0:0:
64,192,107289,1,0,0:0:0:0:
192,192,107405,1,0,0:0:0:0:
448,192,107520,1,0,0:0:0:0:
320,192,107520,1,0,0:0:0:0:
192,192,107635,1,0,0:0:0:0:
448,192,107751,1,0,0:0:0:0:
64,192,107866,1,0,0:0:0:0:
320,192,107981,1,0,0:0:0:0:
192,192,107981,1,0,0:0:0:0:
448,192,108097,1,0,0:0:0:0:
192,192,108212,1,0,0:0:0:0:
64,192,108328,1,0,0:0:0:0:
320,192,108443,1,0,0:0:0:0:
448,192,108443,1,0,0:0:0:0:
64,192,108558,1,0,0:0:0:0:
448,192,108674,1,0,0:0:0:0:
64,192,108789,1,0,0:0:0:0:
192,192,108905,1,0,0:0:0:0:
320,192,108905,1,0,0:0:0:0:
448,192,109020,1,0,0:0:0:0:
320,192,109135,1,0,0:0:0:0:
64,192,109251,1,0,0:0:0:0:
192,192,109366,1,0,0:0:0:0:
448,192,109366,1,0,0:0:0:0:
64,192,109481,1,0,0:0:0:0:
192,192,109597,1,0,0:0:0:0:
320,192,109712,1,0,0:0:0:0:
448,192,109828,1,0,0:0:0:0:
64,192,109828,1,0,0:0:0:0:
320,192,109905,1,0,0:0:0:0:
192,192,109981,1,0,0:0:0:0:
64,192,110058,1,0,0:0:0:0:
320,192,110135,1,0,0:0:0:0:
448,192,110212,1,0,0:0:0:0:
192,192,110289,1,0,0:0:0:0:
64,192,110366,1,0,0:0:0:0:
320,192,110443,1,0,0:0:0:0:
192,192,110520,1,0,0:0:0:0:
448,192,110597,1,0,0:0:0:0:
64,192,110674,1,0,0:0:0:0:
192,192,110751,1,0,0:0:0:0:
320,192,110828,1,0,0:0:0:0:
64,192,110905,1,0,0:0:0:0:
448,192,110981,1,0,0:0:0:0:
192,192,111058,1,0,0:0:0:0:
320,192,111135,1,0,0:0:0:0:
64,192,111212,1,0,0:0:0:0:
192,192,111289,1,0,0:0:0:0:
320,192,111366,1,0,0:0:0:0:
448,192,111443,1,0,0:0:0:0:
64,192,111520,1,0,0:0:0:0:
320,192,111597,1,0,0:0:0:0:
448,192,111674,1,0,0:0:0:0:
64,192,111674,1,0,0:0:0:0:
192,192,111674,1,0,0:0:0:0:
320,192,111789,1,0,0:0:0:0:
64,192,111905,1,0,0:0:0:0:
192,192,112020,1,0,0:0:0:0:
320,192,112135,1,0,0:0:0:0:
448,192,112135,1,0,0:0:0:0:
192,192,112251,1,0,0:0:0:0:
64,192,112366,1,0,0:0:0:0:
448,192,112481,1,0,0:0:0:0:
320,192,112597,1,0,0:0:0:0:
192,192,112597,1,0,0:0:0:0:
448,192,112674,1,0,0:0:0:0:
64,192,112751,1,0,0:0:0:0:
320,192,112828,1,0,0:0:0:0:
192,192,112905,1,0,0:0:0:0:
448,192,112981,1,0,0:0:0:0:
320,192,113058,1,0,0:0:0:0:
192,192,113135,1,0,0:0:0:0:
64,192,113212,1,0,0:0:0:0:
448,192,113289,1,0,0:0:0:0:
192,192,113366,1,0,0:0:0:0:
320,192,113443,1,0,0:0:0:0:
448,192,113520,1,0,0:0:0:0:
64,192,113520,1,0,0:0:0:0:
192,192,113635,1,0,0:0:0:0:
320,192,113751,1,0,0:0:0:0:
64,192,113866,1,0,0:0:0:0:
192,192,113981,1,0,0:0:0:0:
448,192,113981,1,0,0:0:0:0:
64,192,114097,1,0,0:0:0:0:
192,192,114212,1,0,0:0:0:0:
448,192,114328,1,0,0:0:0:0:
320,192,114443,1,0,0:0:0:0:
192,192,114472,1,0,0:0:0:0:
64,192,114501,1,0,0:0:0:0:
320,192,114674,1,0,0:0:0:0:
192,192,114789,1,0,0:0:0:0:
64,192,114905,1,0,0:0:0:0:
448,192,114905,1,0,0:0:0:0:
192,192,115020,1,0,0:0:0:0:
320,192,115135,1,0,0:0:0:0:
448,192,115251,1,0,0:0:0:0:
192,192,115366,1,0,0:0:0:0:
64,192,115366,1,0,0:0:0:0:
448,192,115481,1,0,0:0:0:0:
320,192,115597,1,0,0:0:0:0:
192,192,115712,1,0,0:0:0:0:
64,192,115828,1,0,0:0:0:0:
448,192,115828,1,0,0:0:0:0:
192,192,115943,1,0,0:0:0:0:
448,192,116058,1,0,0:0:0:0:
192,192,116174,1,0,0:0:0:0:
320,192,116289,1,0,0:0:0:0:
64,192,116289,1,0,0:0:0:0:
448,192,116405,1,0,0:0:0:0:
192,192,116520,1,0,0:0:0:0:
64,192,116635,1,0,0:0:0:0:
320,192,116751,1,0,0:0:0:0:
448,192,116751,1,0,0:0:0:0:
64,192,116866,1,0,0:0:0:0:
448,192,116981,1,0,0:0:0:0:
64,192,117097,1,0,0:0:0:0:
192,192,117212,1,0,0:0:0:0:
320,192,117212,1,0,0:0:0:0:
448,192,117212,1,0,0:0:0:0:
64,192,117328,1,0,0:0:0:0:
320,192,117443,1,0,0:0:0:0:
448,192,117558,1,0,0:0:0:0:
64,192,117674,1,0,0:0:0:0:
192,192,117674,1,0,0:0:0:0:
320,192,117789,1,0,0:0:0:0:
448,192,117789,1,0,0:0:0:0:
64,192,117905,1,0,0:0:0:0:
192,192,118020,1,0,0:0:0:0:
320,192,118135,1,0,0:0:0:0:
64,192,118135,1,0,0:0:0:0:
192,192,118251,1,0,0:0:0:0:
448,192,118366,1,0,0:0:0:0:
320,192,118366,1,0,0:0:0:0:
64,192,118481,1,0,0:0:0:0:
320,192,118597,1,0,0:0:0:0:
192,192,118597,1,0,0:0:0:0:
448,192,118712,1,0,0:0:0:0:
192,192,118828,1,0,0:0:0:0:
64,192,118828,1,0,0:0:0:0:
320,192,118943,1,0,0:0:0:0:
448,192,119058,1,0,0:0:0:0:
64,192,119058,1,0,0:0:0:0:
192,192,119058,1,0,0:0:0:0:
64,192,119289,1,0,0:0:0:0:
192,192,119289,1,0,0:0:0:0:
448,192,119405,1,0,0:0:0:0:
320,192,119405,1,0,0:0:0:0:
192,192,119520,1,0,0:0:0:0:
64,192,119520,1,0,0:0:0:0:
320,192,119635,1,0,0:0:0:0:
448,192,119751,1,0,0:0:0:0:
192,192,119866,1,0,0:0:0:0:
64,192,119981,1,0,0:0:0:0:
320,192,119981,1,0,0:0:0:0:
448,192,120212,1,0,0:0:0:0:
192,192,120212,1,0,0:0:0:0:
64,192,120328,1,0,0:0:0:0:
320,192,120328,1,0,0:0:0:0:
192,192,120443,1,0,0:0:0:0:
448,192,120443,1,0,0:0:0:0:
320,192,120558,1,0,0:0:0:0:
448,192,120674,1,0,0:0:0:0:
64,192,120789,1,0,0:0:0:0:
192,192,120905,1,0,0:0:0:0:
320,192,120905,1,0,0:0:0:0:
448,192,121135,1,0,0:0:0:0:
192,192,121251,1,0,0:0:0:0:
320,192,121366,1,0,0:0:0:0:
64,192,121366,1,0,0:0:0:0:
448,192,121597,1,0,0:0:0:0:
192,192,121597,1,0,0:0:0:0:
64,192,121828,1,0,0:0:0:0:
320,192,121828,1,0,0:0:0:0:
448,192,122058,1,0,0:0:0:0:
192,192,122058,1,0,0:0:0:0:
320,192,122289,1,0,0:0:0:0:
64,192,122289,1,0,0:0:0:0:
192,192,122405,1,0,0:0:0:0:
448,192,122520,1,0,0:0:0:0:
64,192,122635,1,0,0:0:0:0:
192,192,122751,1,0,0:0:0:0:
320,192,122751,1,0,0:0:0:0:
64,192,122866,1,0,0:0:0:0:
320,192,122981,1,0,0:0:0:0:
448,192,123097,1,0,0:0:0:0:
192,192,123212,1,0,0:0:0:0:
64,192,123212,1,0,0:0:0:0:
448,192,123328,1,0,0:0:0:0:
64,192,123443,1,0,0:0:0:0:
320,192,123558,1,0,0:0:0:0:
448,192,123674,1,0,0:0:0:0:
192,192,123674,1,0,0:0:0:0:
64,192,123789,1,0,0:0:0:0:
320,192,123905,1,0,0:0:0:0:
448,192,124020,1,0,0:0:0:0:
64,192,124135,1,0,0:0:0:0:
192,192,124135,1,0,0:0:0:0:
320,192,124251,1,0,0:0:0:0:
448,192,124366,1,0,0:0:0:0:
192,192,124481,1,0,0:0:0:0:
64,192,124597,1,0,0:0:0:0:
320,192,124597,1,0,0:0:0:0:
192,192,124828,1,0,0:0:0:0:
320,192,124943,1,0,0:0:0:0:
448,192,125058,1,0,0:0:0:0:
64,192,125058,1,0,0:0:0:0:
192,192,125174,1,0,0:0:0:0:
320,192,125289,1,0,0:0:0:0:
448,192,125405,1,0,0:0:0:0:
64,192,125520,1,0,0:0:0:0:
192,192,125520,1,0,0:0:0:0:
448,192,125597,1,0,0:0:0:0:
320,192,125674,1,0,0:0:0:0:
192,192,125751,1,0,0:0:0:0:
64,192,125828,1,0,0:0:0:0:
320,192,125905,1,0,0:0:0:0:
448,192,125981,1,0,0:0:0:0:
192,192,126058,1,0,0:0:0:0:
320,192,126135,1,0,0:0:0:0:
448,192,126212,1,0,0:0:0:0:
64,192,126289,1,0,0:0:0:0:
192,192,126366,1,0,0:0:0:0:
448,192,126443,1,0,0:0:0:0:
320,192,126443,1,0,0:0:0:0:
64,192,126443,1,0,0:0:0:0:
64,192,126674,1,0,0:0:0:0:
192,192,126674,1,0,0:0:0:0:
448,192,126789,1,0,0:0:0:0:
320,192,126789,1,0,0:0:0:0:
64,192,126905,1,0,0:0:0:0:
192,192,126905,1,0,0:0:0:0:
320,192,127020,1,0,0:0:0:0:
448,192,127135,1,0,0:0:0:0:
192,192,127251,1,0,0:0:0:0:
64,192,127366,1,0,0:0:0:0:
320,192,127366,1,0,0:0:0:0:
448,192,127366,1,0,0:0:0:0:
448,192,127597,1,0,0:0:0:0:
192,192,127712,1,0,0:0:0:0:
64,192,127828,1,0,0:0:0:0:
320,192,127828,1,0,0:0:0:0:
448,192,127828,1,0,0:0:0:0:
192,192,127943,1,0,0:0:0:0:
448,192,128058,1,0,0:0:0:0:
192,192,128174,1,0,0:0:0:0:
64,192,128289,1,0,0:0:0:0:
448,192,128289,1,0,0:0:0:0:
320,192,128289,1,0,0:0:0:0:
192,192,128520,1,0,0:0:0:0:
448,192,128635,1,0,0:0:0:0:
192,192,128635,1,0,0:0:0:0:
64,192,128635,1,0,0:0:0:0:
192,192,128981,1,0,0:0:0:0:
320,192,128981,1,0,0:0:0:0:
64,192,128981,1,0,0:0:0:0:
64,192,129212,1,0,0:0:0:0:
448,192,129212,1,0,0:0:0:0:
320,192,129443,1,0,0:0:0:0:
64,192,129443,1,0,0:0:0:0:
320,192,129558,1,0,0:0:0:0:
192,192,129674,1,0,0:0:0:0:
448,192,129674,1,0,0:0:0:0:
64,192,129674,1,0,0:0:0:0:
192,192,129789,1,0,0:0:0:0:
448,192,129905,1,0,0:0:0:0:
320,192,129905,1,0,0:0:0:0:
320,192,130020,1,0,0:0:0:0:
192,192,130135,1,0,0:0:0:0:
64,192,130135,1,0,0:0:0:0:
448,192,130135,1,0,0:0:0:0:
320,192,130251,1,0,0:0:0:0:
64,192,130366,1,0,0:0:0:0:
192,192,130481,1,0,0:0:0:0:
320,192,130597,1,0,0:0:0:0:
448,192,130597,1,0,0:0:0:0:
192,192,130712,1,0,0:0:0:0:
64,192,130828,1,0,0:0:0:0:
320,192,130943,1,0,0:0:0:0:
448,192,131058,1,0,0:0:0:0:
192,192,131058,1,0,0:0:0:0:
320,192,131116,1,0,0:0:0:0:
64,192,131174,1,0,0:0:0:0:
192,192,131231,1,0,0:0:0:0:
320,192,131289,1,0,0:0:0:0:
448,192,131347,1,0,0:0:0:0:
192,192,131405,1,0,0:0:0:0:
320,192,131462,1,0,0:0:0:0:
448,192,131520,1,0,0:0:0:0:
192,192,131578,1,0,0:0:0:0:
64,192,131635,1,0,0:0:0:0:
320,192,131693,1,0,0:0:0:0:
192,192,131751,1,0,0:0:0:0:
448,192,131808,1,0,0:0:0:0:
320,192,131866,1,0,0:0:0:0:
192,192,131924,1,0,0:0:0:0:
448,192,131981,1,0,0:0:0:0:
320,192,131981,1,0,0:0:0:0:
64,192,131981,1,0,0:0:0:0:
192,192,132212,1,0,0:0:0:0:
320,192,132328,1,0,0:0:0:0:
192,192,132443,1,0,0:0:0:0:
64,192,132443,1,0,0:0:0:0:
448,192,132443,1,0,0:0:0:0:
448,192,132674,1,0,0:0:0:0:
320,192,132674,1,0,0:0:0:0:
448,192,132905,1,0,0:0:0:0:
320,192,132905,1,0,0:0:0:0:
64,192,132905,1,0,0:0:0:0:
64,192,133135,1,0,0:0:0:0:
192,192,133135,1,0,0:0:0:0:
320,192,133251,1,0,0:0:0:0:
448,192,133366,1,0,0:0:0:0:
192,192,133366,1,0,0:0:0:0:
64,192,133366,1,0,0:0:0:0:
448,192,133481,1,0,0:0:0:0:
320,192,133597,1,0,0:0:0:0:
64,192,133597,1,0,0:0:0:0:
64,192,133712,1,0,0:0:0:0:
192,192,133828,1,0,0:0:0:0:
448,192,133828,1,0,0:0:0:0:
320,192,133828,1,0,0:0:0:0:
64,192,133943,1,0,0:0:0:0:
320,192,134058,1,0,0:0:0:0:
192,192,134174,1,0,0:0:0:0:
448,192,134289,1,0,0:0:0:0:
64,192,134289,1,0,0:0:0:0:
192,192,134405,1,0,0:0:0:0:
64,192,134520,1,0,0:0:0:0:
320,192,134635,1,0,0:0:0:0:
448,192,134751,1,0,0:0:0:0:
192,192,134751,1,0,0:0:0:0:
64,192,134866,1,0,0:0:0:0:
192,192,134981,1,0,0:0:0:0:
320,192,135097,1,0,0:0:0:0:
448,192,135212,1,0,0:0:0:0:
64,192,135212,1,0,0:0:0:0:
320,192,135328,1,0,0:0:0:0:
448,192,135443,1,0,0:0:0:0:
64,192,135558,1,0,0:0:0:0:
192,192,135674,1,0,0:0:0:0:
320,192,135674,1,0,0:0:0:0:
64,192,135751,1,0,0:0:0:0:
448,192,135828,1,0,0:0:0:0:
320,192,135905,1,0,0:0:0:0:
192,192,135981,1,0,0:0:0:0:
64,192,136058,1,0,0:0:0:0:
320,192,136135,1,0,0:0:0:0:
448,192,136212,1,0,0:0:0:0:
64,192,136289,1,0,0:0:0:0:
192,192,136366,1,0,0:0:0:0:
320,192,136443,1,0,0:0:0:0:
448,192,136520,1,0,0:0:0:0:
64,192,136597,1,0,0:0:0:0:
192,192,136626,1,0,0:0:0:0:
320,192,136655,1,0,0:0:0:0:
192,192,136828,1,0,0:0:0:0:
320,192,136856,1,0,0:0:0:0:
448,192,136885,1,0,0:0:0:0:
448,192,137058,1,0,0:0:0:0:
320,192,137087,1,0,0:0:0:0:
64,192,137116,1,0,0:0:0:0:
320,192,137289,1,0,0:0:0:0:
192,192,137318,1,0,0:0:0:0:
64,192,137347,1,0,0:0:0:0:
448,192,137520,1,0,0:0:0:0:
320,192,137520,1,0,0:0:0:0:
192,192,137635,1,0,0:0:0:0:
64,192,137751,1,0,0:0:0:0:
320,192,137866,1,0,0:0:0:0:
192,192,137981,1,0,0:0:0:0:
448,192,137981,1,0,0:0:0:0:
320,192,138097,1,0,0:0:0:0:
64,192,138212,1,0,0:0:0:0:
320,192,138328,1,0,0:0:0:0:
192,192,138443,1,0,0:0:0:0:
448,192,138443,1,0,0:0:0:0:
320,192,138558,1,0,0:0:0:0:
64,192,138674,1,0,0:0:0:0:
192,192,138789,1,0,0:0:0:0:
320,192,138905,1,0,0:0:0:0:
448,192,138905,1,0,0:0:0:0:
192,192,139020,1,0,0:0:0:0:
64,192,139135,1,0,0:0:0:0:
320,192,139251,1,0,0:0:0:0:
448,192,139366,1,0,0:0:0:0:
192,192,139366,1,0,0:0:0:0:
320,192,139443,1,0,0:0:0:0:
64,192,139520,1,0,0:0:0:0:
192,192,139597,1,0,0:0:0:0:
448,192,139674,1,0,0:0:0:0:
320,192,139751,1,0,0:0:0:0:
64,192,139828,1,0,0:0:0:0:
192,192,139905,1,0,0:0:0:0:
320,192,139981,1,0,0:0:0:0:
448,192,140058,1,0,0:0:0:0:
64,192,140135,1,0,0:0:0:0:
320,192,140212,1,0,0:0:0:0:
448,192,140289,1,0,0:0:0:0:
192,192,140318,1,0,0:0:0:0:
64,192,140347,1,0,0:0:0:0:
320,192,140520,1,0,0:0:0:0:
448,192,140520,1,0,0:0:0:0:
192,192,140635,1,0,0:0:0:0:
64,192,140635,1,0,0:0:0:0:
320,192,140751,1,0,0:0:0:0:
448,192,140751,1,0,0:0:0:0:
192,192,140866,1,0,0:0:0:0:
448,192,140981,1,0,0:0:0:0:
64,192,140981,1,0,0:0:0:0:
320,192,141097,1,0,0:0:0:0:
192,192,141212,1,0,0:0:0:0:
64,192,141212,1,0,0:0:0:0:
448,192,141212,1,0,0:0:0:0:
320,192,141328,1,0,0:0:0:0:
192,192,141443,1,0,0:0:0:0:
64,192,141558,1,0,0:0:0:0:
448,192,141674,1,0,0:0:0:0:
320,192,141674,1,0,0:0:0:0:
192,192,141789,1,0,0:0:0:0:
64,192,141905,1,0,0:0:0:0:
320,192,142020,1,0,0:0:0:0:
192,192,142135,1,0,0:0:0:0:
64,192,142135,1,0,0:0:0:0:
320,192,142251,1,0,0:0:0:0:
448,192,142366,1,0,0:0:0:0:
64,192,142481,1,0,0:0:0:0:
448,192,142597,1,0,0:0:0:0:
320,192,142597,1,0,0:0:0:0:
192,192,142712,1,0,0:0:0:0:
64,192,142828,1,0,0:0:0:0:
320,192,142943,1,0,0:0:0:0:
192,192,143058,1,0,0:0:0:0:
448,192,143058,1,0,0:0:0:0:
64,192,143174,1,0,0:0:0:0:
448,192,143289,1,0,0:0:0:0:
320,192,143405,1,0,0:0:0:0:
64,192,143520,1,0,0:0:0:0:
192,192,143520,1,0,0:0:0:0:
320,192,143635,1,0,0:0:0:0:
448,192,143751,1,0,0:0:0:0:
192,192,143866,1,0,0:0:0:0:
448,192,143981,1,0,0:0:0:0:
64,192,143981,1,0,0:0:0:0:
320,192,144039,1,0,0:0:0:0:
192,192,144097,1,0,0:0:0:0:
64,192,144155,1,0,0:0:0:0:
320,192,144212,1,0,0:0:0:0:
448,192,144270,1,0,0:0:0:0:
192,192,144328,1,0,0:0:0:0:
320,192,144385,1,0,0:0:0:0:
448,192,144443,1,0,0:0:0:0:
192,192,144501,1,0,0:0:0:0:
64,192,144558,1,0,0:0:0:0:
320,192,144616,1,0,0:0:0:0:
192,192,144674,1,0,0:0:0:0:
448,192,144731,1,0,0:0:0:0:
320,192,144789,1,0,0:0:0:0:
192,192,144847,1,0,0:0:0:0:
64,192,144905,1,0,0:0:0:0:
448,192,144905,1,0,0:0:0:0:
320,192,144905,1,0,0:0:0:0:
192,192,145020,1,0,0:0:0:0:
448,192,145135,1,0,0:0:0:0:
320,192,145251,1,0,0:0:0:0:
64,192,145366,1,0,0:0:0:0:
448,192,145366,1,0,0:0:0:0:
192,192,145481,1,0,0:0:0:0:
320,192,145597,1,0,0:0:0:0:
448,192,145712,1,0,0:0:0:0:
64,192,145828,1,0,0:0:0:0:
192,192,145828,1,0,0:0:0:0:
320,192,145828,1,0,0:0:0:0:
448,192,145943,1,0,0:0:0:0:
64,192,146058,1,0,0:0:0:0:
320,192,146174,1,0,0:0:0:0:
448,192,146289,1,0,0:0:0:0:
192,192,146289,1,0,0:0:0:0:
320,192,146405,1,0,0:0:0:0:
64,192,146520,1,0,0:0:0:0:
192,192,146635,1,0,0:0:0:0:
192,192,146751,1,0,0:0:0:0:
320,192,146751,1,0,0:0:0:0:
448,192,146751,1,0,0:0:0:0:
448,192,146981,1,0,0:0:0:0:
64,192,146981,1,0,0:0:0:0:
64,192,147097,1,0,0:0:0:0:
448,192,147212,1,0,0:0:0:0:
320,192,147212,1,0,0:0:0:0:
192,192,147212,1,0,0:0:0:0:
320,192,147328,1,0,0:0:0:0:
64,192,147443,1,0,0:0:0:0:
192,192,147443,1,0,0:0:0:0:
64,192,147558,1,0,0:0:0:0:
320,192,147674,1,0,0:0:0:0:
192,192,147674,1,0,0:0:0:0:
448,192,147674,1,0,0:0:0:0:
64,192,147751,1,0,0:0:0:0:
448,192,147828,1,0,0:0:0:0:
64,192,147905,1,0,0:0:0:0:
448,192,147981,1,0,0:0:0:0:
64,192,148058,1,0,0:0:0:0:
448,192,148135,1,0,0:0:0:0:
320,192,148135,1,0,0:0:0:0:
192,192,148135,1,0,0:0:0:0:
320,192,148251,1,0,0:0:0:0:
192,192,148366,1,0,0:0:0:0:
64,192,148366,1,0,0:0:0:0:
192,192,148481,1,0,0:0:0:0:
448,192,148597,5,0,0:0:0:0:
64,192,148597,1,0,0:0:0:0:
