osu file format v14

[General]
AudioFilename: audio.mp3
AudioLeadIn: 0
PreviewTime: 74741
Countdown: 0
SampleSet: None
StackLeniency: 0.7
Mode: 3
LetterboxInBreaks: 0
SpecialStyle: 0
WidescreenStoryboard: 1

[Editor]
Bookmarks: 905,30443,59981,74741,89520,104289,119058,133828,148597
DistanceSpacing: 1
BeatDivisor: 6
GridSize: 32
TimelineZoom: 0.7

[Metadata]
Title:Grin
TitleUnicode:Grin
Artist:HyuN
ArtistUnicode:HyuN
Creator:UnluckyCroco
Version:Normal
Source:osu!
Tags:토토리카 숲 In the Wind and In Time 바람과 시간 속 instrumental healing Innocent Records Totorica piano featured artist
BeatmapID:2300374
BeatmapSetID:1028266

[Difficulty]
HPDrainRate:7.5
CircleSize:4
OverallDifficulty:7.5
ApproachRate:5
SliderMultiplier:1.4
SliderTickRate:1

[Events]
//Background and Video events
0,0,"bvac.jpg",0,0
//Break Periods
//Storyboard Layer 0 (Background)
//Storyboard Layer 1 (Fail)
//Storyboard Layer 2 (Pass)
//Storyboard Layer 3 (Foreground)
//Storyboard Layer 4 (Overlay)
//Storyboard Sound Samples

[TimingPoints]
905,461.538461538462,4,2,1,50,1,0
30443,-100,4,2,1,50,0,1
59981,-100,4,2,1,50,0,0
74751,-100,4,2,1,50,0,1
148597,-100,4,2,1,50,0,0
149289,-100,4,2,1,48,0,0
149981,-100,4,2,1,45,0,0
151135,-100,4,2,1,43,0,0
152289,-100,4,2,1,38,0,0
152981,-100,4,2,1,35,0,0
153674,-100,4,2,1,33,0,0
154828,-100,4,2,1,30,0,0
155981,-100,4,2,1,25,0,0
156674,-100,4,2,1,23,0,0
157366,-100,4,2,1,20,0,0
158520,-100,4,2,1,18,0,0
159674,-100,4,2,1,15,0,0
160366,-100,4,2,1,13,0,0
160828,-100,4,2,1,10,0,0
161058,-100,4,2,1,8,0,0
161289,-100,4,2,1,6,0,0
161520,-100,4,2,1,5,0,0

[HitObjects]
448,192,30443,5,0,0:0:0:0:
320,192,30443,1,0,0:0:0:0:
192,192,30674,128,0,30905:0:0:0:0:
320,192,30905,1,0,0:0:0:0:
64,192,30905,128,0,31135:0:0:0:0:
448,192,31135,128,0,31366:0:0:0:0:
192,192,31366,1,0,0:0:0:0:
320,192,31366,1,0,0:0:0:0:
64,192,31597,128,0,31828:0:0:0:0:
448,192,31828,1,0,0:0:0:0:
192,192,31828,1,0,0:0:0:0:
448,192,32289,1,0,0:0:0:0:
320,192,32289,1,0,0:0:0:0:
64,192,32751,1,0,0:0:0:0:
448,192,32751,1,0,0:0:0:0:
320,192,32981,128,0,33212:0:0:0:0:
192,192,33212,1,0,0:0:0:0:
64,192,33212,1,0,0:0:0:0:
448,192,33443,128,0,33674:0:0:0:0:
192,192,33674,1,0,0:0:0:0:
320,192,33674,128,0,33905:0:0:0:0:
64,192,33905,128,0,34135:0:0:0:0:
320,192,34135,1,0,0:0:0:0:
448,192,34135,128,0,34366:0:0:0:0:
192,192,34366,128,0,34597:0:0:0:0:
320,192,34597,1,0,0:0:0:0:
64,192,34597,128,0,34828:0:0:0:0:
448,192,34828,128,0,35058:0:0:0:0:
192,192,35058,1,0,0:0:0:0:
320,192,35058,128,0,35289:0:0:0:0:
64,192,35289,128,0,35520:0:0:0:0:
192,192,35520,1,0,0:0:0:0:
448,192,35520,1,0,0:0:0:0:
192,192,35981,1,0,0:0:0:0:
64,192,35981,1,0,0:0:0:0:
320,192,36212,1,0,0:0:0:0:
448,192,36443,1,0,0:0:0:0:
64,192,36443,128,0,36674:0:0:0:0:
192,192,36674,128,0,36905:0:0:0:0:
320,192,36905,1,0,0:0:0:0:
448,192,36905,1,0,0:0:0:0:
64,192,37058,1,0,0:0:0:0:
448,192,37212,1,0,0:0:0:0:
320,192,37366,1,0,0:0:0:0:
64,192,37366,1,0,0:0:0:0:
192,192,37520,1,0,0:0:0:0:
320,192,37674,1,0,0:0:0:0:
64,192,37828,1,0,0:0:0:0:
448,192,37828,1,0,0:0:0:0:
192,192,38058,128,0,38289:0:0:0:0:
64,192,38289,1,0,0:0:0:0:
320,192,38289,1,0,0:0:0:0:
448,192,38520,128,0,38751:0:0:0:0:
192,192,38751,1,0,0:0:0:0:
320,192,38751,1,0,0:0:0:0:
64,192,38981,128,0,39212:0:0:0:0:
448,192,39212,1,0,0:0:0:0:
320,192,39212,1,0,0:0:0:0:
64,192,39443,1,0,0:0:0:0:
192,192,39558,1,0,0:0:0:0:
320,192,39674,1,0,0:0:0:0:
448,192,39674,1,0,0:0:0:0:
192,192,40020,1,0,0:0:0:0:
320,192,40020,1,0,0:0:0:0:
192,192,40366,1,0,0:0:0:0:
64,192,40366,1,0,0:0:0:0:
320,192,40597,1,0,0:0:0:0:
448,192,40597,1,0,0:0:0:0:
64,192,40828,1,0,0:0:0:0:
192,192,40943,1,0,0:0:0:0:
448,192,41058,1,0,0:0:0:0:
320,192,41058,1,0,0:0:0:0:
64,192,41174,1,0,0:0:0:0:
192,192,41289,1,0,0:0:0:0:
448,192,41405,1,0,0:0:0:0:
64,192,41520,128,0,41981:0:0:0:0:
320,192,41520,1,0,0:0:0:0:
192,192,41981,1,0,0:0:0:0:
448,192,41981,1,0,0:0:0:0:
320,192,42212,128,0,42443:0:0:0:0:
64,192,42443,1,0,0:0:0:0:
448,192,42443,128,0,42905:0:0:0:0:
192,192,42674,128,0,42905:0:0:0:0:
64,192,42905,128,0,43366:0:0:0:0:
320,192,42905,1,0,0:0:0:0:
448,192,43135,128,0,43366:0:0:0:0:
320,192,43366,1,0,0:0:0:0:
192,192,43366,1,0,0:0:0:0:
448,192,43828,1,0,0:0:0:0:
64,192,43828,1,0,0:0:0:0:
192,192,44058,1,0,0:0:0:0:
320,192,44289,1,0,0:0:0:0:
448,192,44289,1,0,0:0:0:0:
64,192,44520,128,0,44751:0:0:0:0:
320,192,44751,1,0,0:0:0:0:
192,192,44751,1,0,0:0:0:0:
448,192,44866,1,0,0:0:0:0:
64,192,44981,1,0,0:0:0:0:
192,192,45097,1,0,0:0:0:0:
448,192,45212,1,0,0:0:0:0:
320,192,45212,128,0,45674:0:0:0:0:
192,192,45674,1,0,0:0:0:0:
64,192,45674,1,0,0:0:0:0:
448,192,45905,128,0,46135:0:0:0:0:
192,192,46135,128,0,46597:0:0:0:0:
320,192,46135,1,0,0:0:0:0:
448,192,46597,1,0,0:0:0:0:
64,192,46597,1,0,0:0:0:0:
320,192,46828,128,0,47058:0:0:0:0:
192,192,47058,1,0,0:0:0:0:
448,192,47058,1,0,0:0:0:0:
64,192,47212,1,0,0:0:0:0:
320,192,47366,1,0,0:0:0:0:
64,192,47520,1,0,0:0:0:0:
192,192,47520,1,0,0:0:0:0:
448,192,47674,1,0,0:0:0:0:
192,192,47828,1,0,0:0:0:0:
64,192,47981,1,0,0:0:0:0:
320,192,47981,128,0,48212:0:0:0:0:
448,192,48212,1,0,0:0:0:0:
320,192,48443,1,0,0:0:0:0:
192,192,48443,128,0,48674:0:0:0:0:
64,192,48674,1,0,0:0:0:0:
320,192,48905,1,0,0:0:0:0:
448,192,48905,128,0,49366:0:0:0:0:
64,192,49366,1,0,0:0:0:0:
192,192,49366,1,0,0:0:0:0:
320,192,49597,128,0,49828:0:0:0:0:
448,192,49828,1,0,0:0:0:0:
64,192,49828,128,0,50289:0:0:0:0:
320,192,50289,128,0,50520:0:0:0:0:
192,192,50289,1,0,0:0:0:0:
448,192,50520,128,0,50751:0:0:0:0:
192,192,50751,1,0,0:0:0:0:
64,192,50751,1,0,0:0:0:0:
320,192,50905,1,0,0:0:0:0:
448,192,51058,1,0,0:0:0:0:
64,192,51212,1,0,0:0:0:0:
192,192,51366,1,0,0:0:0:0:
448,192,51520,1,0,0:0:0:0:
320,192,51674,1,0,0:0:0:0:
64,192,51674,1,0,0:0:0:0:
448,192,51905,128,0,52135:0:0:0:0:
64,192,52135,1,0,0:0:0:0:
192,192,52135,1,0,0:0:0:0:
320,192,52366,128,0,52597:0:0:0:0:
192,192,52597,1,0,0:0:0:0:
448,192,52597,128,0,52828:0:0:0:0:
64,192,52828,128,0,53058:0:0:0:0:
448,192,53058,128,0,53289:0:0:0:0:
320,192,53058,1,0,0:0:0:0:
64,192,53289,128,0,53520:0:0:0:0:
320,192,53520,128,0,53751:0:0:0:0:
192,192,53520,1,0,0:0:0:0:
448,192,53751,128,0,53981:0:0:0:0:
192,192,53981,128,0,54212:0:0:0:0:
64,192,53981,1,0,0:0:0:0:
320,192,54212,128,0,54443:0:0:0:0:
64,192,54443,128,0,54674:0:0:0:0:
448,192,54443,1,0,0:0:0:0:
192,192,54674,128,0,54905:0:0:0:0:
448,192,54905,128,0,55135:0:0:0:0:
320,192,54905,1,0,0:0:0:0:
192,192,55135,128,0,55366:0:0:0:0:
320,192,55366,1,0,0:0:0:0:
64,192,55366,128,0,55828:0:0:0:0:
448,192,55597,128,0,55828:0:0:0:0:
320,192,55828,128,0,56289:0:0:0:0:
192,192,55828,1,0,0:0:0:0:
64,192,56058,128,0,56289:0:0:0:0:
448,192,56289,1,0,0:0:0:0:
192,192,56289,128,0,56520:0:0:0:0:
320,192,56520,128,0,56751:0:0:0:0:
192,192,56751,128,0,56981:0:0:0:0:
448,192,56751,1,0,0:0:0:0:
320,192,56981,128,0,57212:0:0:0:0:
64,192,57212,1,0,0:0:0:0:
448,192,57212,128,0,57443:0:0:0:0:
192,192,57443,128,0,57674:0:0:0:0:
320,192,57674,128,0,57905:0:0:0:0:
448,192,57674,1,0,0:0:0:0:
64,192,57905,128,0,58135:0:0:0:0:
192,192,58135,1,0,0:0:0:0:
448,192,58135,1,0,0:0:0:0:
320,192,58366,1,0,0:0:0:0:
192,192,58481,1,0,0:0:0:0:
448,192,58597,1,0,0:0:0:0:
64,192,58597,1,0,0:0:0:0:
320,192,58712,1,0,0:0:0:0:
192,192,58828,1,0,0:0:0:0:
320,192,58943,1,0,0:0:0:0:
64,192,59058,128,0,59520:0:0:0:0:
448,192,59058,128,0,59520:0:0:0:0:
320,192,59520,1,0,0:0:0:0:
192,192,59635,1,0,0:0:0:0:
448,192,59751,1,0,0:0:0:0:
320,192,59866,1,0,0:0:0:0:
192,192,59981,1,0,0:0:0:0:
64,192,59981,1,0,0:0:0:0:
