osu file format v14

[General]
AudioFilename: audio.mp3
AudioLeadIn: 0
PreviewTime: 74741
Countdown: 0
SampleSet: Soft
StackLeniency: 0.7
Mode: 3
LetterboxInBreaks: 0
SpecialStyle: 0
WidescreenStoryboard: 1

[Editor]
Bookmarks: 905,30443,59981,74741,89520,104289,119058,133828,148597
DistanceSpacing: 1
BeatDivisor: 4
GridSize: 32
TimelineZoom: 1.4

[Metadata]
Title:Grin
TitleUnicode:Grin
Artist:HyuN
ArtistUnicode:HyuN
Creator:UnluckyCroco
Version:Hard
Source:osu!
Tags:토토리카 숲 In the Wind and In Time 바람과 시간 속 instrumental healing Innocent Records Totorica piano featured artist
BeatmapID:2295083
BeatmapSetID:1028266

[Difficulty]
HPDrainRate:7.5
CircleSize:4
OverallDifficulty:7.5
ApproachRate:5
SliderMultiplier:1.4
SliderTickRate:1

[Events]
//Background and Video events
0,0,"bvac.jpg",0,0
//Break Periods
//Storyboard Layer 0 (Background)
//Storyboard Layer 1 (Fail)
//Storyboard Layer 2 (Pass)
//Storyboard Layer 3 (Foreground)
//Storyboard Layer 4 (Overlay)
//Storyboard Sound Samples

[TimingPoints]
905,461.538461538462,4,2,1,50,1,0
30443,-100,4,2,1,50,0,1
59981,-100,4,2,1,50,0,0
74751,-100,4,2,1,50,0,1
148597,-100,4,2,1,50,0,0
149289,-100,4,2,1,48,0,0
149981,-100,4,2,1,45,0,0
151135,-100,4,2,1,43,0,0
152289,-100,4,2,1,38,0,0
152981,-100,4,2,1,35,0,0
153674,-100,4,2,1,33,0,0
154828,-100,4,2,1,30,0,0
155981,-100,4,2,1,25,0,0
156674,-100,4,2,1,23,0,0
157366,-100,4,2,1,20,0,0
158520,-100,4,2,1,18,0,0
159674,-100,4,2,1,15,0,0
160366,-100,4,2,1,13,0,0
160828,-100,4,2,1,10,0,0
161058,-100,4,2,1,8,0,0
161289,-100,4,2,1,6,0,0
161520,-100,4,2,1,5,0,0

[HitObjects]
448,192,905,5,0,0:0:0:0:
64,192,905,1,0,0:0:0:0:
320,192,1020,1,0,0:0:0:0:
64,192,1135,1,0,0:0:0:0:
192,192,1251,1,0,0:0:0:0:
448,192,1597,1,0,0:0:0:0:
192,192,1597,1,0,0:0:0:0:
320,192,1712,1,0,0:0:0:0:
64,192,1828,1,0,0:0:0:0:
192,192,1943,1,0,0:0:0:0:
448,192,2289,1,0,0:0:0:0:
320,192,2289,1,0,0:0:0:0:
192,192,2405,1,0,0:0:0:0:
64,192,2520,1,0,0:0:0:0:
320,192,2635,1,0,0:0:0:0:
448,192,2751,1,0,0:0:0:0:
64,192,2751,1,0,0:0:0:0:
320,192,3443,1,0,0:0:0:0:
192,192,3674,1,0,0:0:0:0:
448,192,3905,1,0,0:0:0:0:
192,192,4135,1,0,0:0:0:0:
64,192,4251,1,0,0:0:0:0:
320,192,4481,1,0,0:0:0:0:
448,192,4597,1,0,0:0:0:0:
64,192,4597,1,0,0:0:0:0:
192,192,4712,1,0,0:0:0:0:
448,192,4828,1,0,0:0:0:0:
320,192,4943,1,0,0:0:0:0:
320,192,5289,1,0,0:0:0:0:
64,192,5289,1,0,0:0:0:0:
192,192,5405,1,0,0:0:0:0:
448,192,5520,1,0,0:0:0:0:
320,192,5635,1,0,0:0:0:0:
64,192,5981,1,0,0:0:0:0:
192,192,5981,1,0,0:0:0:0:
320,192,6097,1,0,0:0:0:0:
448,192,6212,1,0,0:0:0:0:
192,192,6328,1,0,0:0:0:0:
64,192,6443,1,0,0:0:0:0:
320,192,6443,1,0,0:0:0:0:
448,192,7135,1,0,0:0:0:0:
64,192,7366,1,0,0:0:0:0:
192,192,7597,1,0,0:0:0:0:
320,192,7828,1,0,0:0:0:0:
448,192,7943,1,0,0:0:0:0:
448,192,8174,1,0,0:0:0:0:
192,192,8289,1,0,0:0:0:0:
64,192,8289,1,0,0:0:0:0:
320,192,8405,1,0,0:0:0:0:
64,192,8520,1,0,0:0:0:0:
448,192,8635,1,0,0:0:0:0:
320,192,8981,1,0,0:0:0:0:
192,192,8981,1,0,0:0:0:0:
64,192,9097,1,0,0:0:0:0:
320,192,9212,1,0,0:0:0:0:
448,192,9328,1,0,0:0:0:0:
192,192,9674,1,0,0:0:0:0:
448,192,9674,1,0,0:0:0:0:
320,192,9789,1,0,0:0:0:0:
64,192,9905,1,0,0:0:0:0:
448,192,10020,1,0,0:0:0:0:
320,192,10135,1,0,0:0:0:0:
192,192,10135,1,0,0:0:0:0:
448,192,10828,1,0,0:0:0:0:
192,192,11058,1,0,0:0:0:0:
320,192,11174,1,0,0:0:0:0:
448,192,11289,1,0,0:0:0:0:
64,192,11405,1,0,0:0:0:0:
448,192,11520,1,0,0:0:0:0:
64,192,11635,1,0,0:0:0:0:
192,192,11751,1,0,0:0:0:0:
320,192,11866,1,0,0:0:0:0:
64,192,11981,1,0,0:0:0:0:
448,192,11981,1,0,0:0:0:0:
192,192,12674,1,0,0:0:0:0:
320,192,12674,1,0,0:0:0:0:
320,192,13135,1,0,0:0:0:0:
64,192,13366,1,0,0:0:0:0:
192,192,13366,1,0,0:0:0:0:
320,192,13597,1,0,0:0:0:0:
448,192,13597,1,0,0:0:0:0:
320,192,13828,1,0,0:0:0:0:
64,192,13828,1,0,0:0:0:0:
320,192,14289,1,0,0:0:0:0:
64,192,14289,1,0,0:0:0:0:
320,192,14751,1,0,0:0:0:0:
448,192,14751,1,0,0:0:0:0:
192,192,14981,1,0,0:0:0:0:
448,192,15097,1,0,0:0:0:0:
192,192,15212,1,0,0:0:0:0:
64,192,15443,1,0,0:0:0:0:
192,192,15674,1,0,0:0:0:0:
448,192,15674,1,0,0:0:0:0:
64,192,15674,1,0,0:0:0:0:
320,192,15789,1,0,0:0:0:0:
192,192,15905,1,0,0:0:0:0:
320,192,16020,1,0,0:0:0:0:
448,192,16135,1,0,0:0:0:0:
448,192,16366,1,0,0:0:0:0:
192,192,16366,1,0,0:0:0:0:
320,192,16481,1,0,0:0:0:0:
64,192,16597,1,0,0:0:0:0:
192,192,16712,1,0,0:0:0:0:
320,192,16828,1,0,0:0:0:0:
448,192,17058,1,0,0:0:0:0:
320,192,17058,1,0,0:0:0:0:
192,192,17174,1,0,0:0:0:0:
64,192,17289,1,0,0:0:0:0:
320,192,17405,1,0,0:0:0:0:
64,192,17520,1,0,0:0:0:0:
448,192,17520,1,0,0:0:0:0:
192,192,17751,1,0,0:0:0:0:
320,192,17866,1,0,0:0:0:0:
448,192,17981,1,0,0:0:0:0:
64,192,17981,1,0,0:0:0:0:
320,192,18212,1,0,0:0:0:0:
192,192,18328,1,0,0:0:0:0:
448,192,18443,1,0,0:0:0:0:
64,192,18443,1,0,0:0:0:0:
448,192,18674,1,0,0:0:0:0:
320,192,18674,1,0,0:0:0:0:
192,192,18789,1,0,0:0:0:0:
320,192,18905,1,0,0:0:0:0:
64,192,18905,1,0,0:0:0:0:
192,192,19020,1,0,0:0:0:0:
320,192,19251,1,0,0:0:0:0:
448,192,19366,1,0,0:0:0:0:
64,192,19366,1,0,0:0:0:0:
192,192,19481,1,0,0:0:0:0:
448,192,19597,1,0,0:0:0:0:
320,192,19712,1,0,0:0:0:0:
192,192,19828,1,0,0:0:0:0:
64,192,20058,1,0,0:0:0:0:
320,192,20058,1,0,0:0:0:0:
192,192,20174,1,0,0:0:0:0:
448,192,20289,1,0,0:0:0:0:
320,192,20405,1,0,0:0:0:0:
64,192,20520,1,0,0:0:0:0:
64,192,20751,1,0,0:0:0:0:
192,192,20751,1,0,0:0:0:0:
320,192,20866,1,0,0:0:0:0:
448,192,20981,1,0,0:0:0:0:
192,192,21097,1,0,0:0:0:0:
64,192,21212,1,0,0:0:0:0:
320,192,21212,1,0,0:0:0:0:
448,192,21443,1,0,0:0:0:0:
192,192,21558,1,0,0:0:0:0:
320,192,21674,1,0,0:0:0:0:
64,192,21674,1,0,0:0:0:0:
448,192,21905,1,0,0:0:0:0:
320,192,22020,1,0,0:0:0:0:
64,192,22135,1,0,0:0:0:0:
192,192,22135,1,0,0:0:0:0:
448,192,22366,1,0,0:0:0:0:
320,192,22366,1,0,0:0:0:0:
64,192,22481,1,0,0:0:0:0:
192,192,22597,1,0,0:0:0:0:
320,192,22597,1,0,0:0:0:0:
448,192,22712,1,0,0:0:0:0:
448,192,22943,1,0,0:0:0:0:
192,192,23058,1,0,0:0:0:0:
64,192,23058,1,0,0:0:0:0:
320,192,23174,1,0,0:0:0:0:
192,192,23289,1,0,0:0:0:0:
448,192,23405,1,0,0:0:0:0:
64,192,23520,1,0,0:0:0:0:
320,192,23751,1,0,0:0:0:0:
192,192,23751,1,0,0:0:0:0:
64,192,23866,1,0,0:0:0:0:
320,192,23981,1,0,0:0:0:0:
448,192,24097,1,0,0:0:0:0:
192,192,24212,1,0,0:0:0:0:
448,192,24443,1,0,0:0:0:0:
64,192,24443,1,0,0:0:0:0:
320,192,24558,1,0,0:0:0:0:
192,192,24674,1,0,0:0:0:0:
448,192,24789,1,0,0:0:0:0:
192,192,24905,1,0,0:0:0:0:
320,192,24905,1,0,0:0:0:0:
64,192,25135,1,0,0:0:0:0:
448,192,25251,1,0,0:0:0:0:
320,192,25366,1,0,0:0:0:0:
192,192,25366,1,0,0:0:0:0:
64,192,25597,1,0,0:0:0:0:
448,192,25597,1,0,0:0:0:0:
320,192,25712,1,0,0:0:0:0:
64,192,25828,1,0,0:0:0:0:
192,192,25828,1,0,0:0:0:0:
320,192,25943,1,0,0:0:0:0:
448,192,26058,1,0,0:0:0:0:
64,192,26174,1,0,0:0:0:0:
320,192,26289,1,0,0:0:0:0:
192,192,26289,1,0,0:0:0:0:
448,192,26405,1,0,0:0:0:0:
64,192,26520,1,0,0:0:0:0:
192,192,26635,1,0,0:0:0:0:
320,192,26751,1,0,0:0:0:0:
448,192,26751,1,0,0:0:0:0:
192,192,26981,1,0,0:0:0:0:
320,192,27097,1,0,0:0:0:0:
448,192,27212,1,0,0:0:0:0:
64,192,27212,1,0,0:0:0:0:
192,192,27443,1,0,0:0:0:0:
320,192,27443,1,0,0:0:0:0:
64,192,27558,1,0,0:0:0:0:
448,192,27674,1,0,0:0:0:0:
320,192,27905,1,0,0:0:0:0:
64,192,27905,1,0,0:0:0:0:
448,192,28020,1,0,0:0:0:0:
64,192,28135,1,0,0:0:0:0:
192,192,28135,1,0,0:0:0:0:
448,192,28366,1,0,0:0:0:0:
320,192,28366,1,0,0:0:0:0:
192,192,28481,1,0,0:0:0:0:
320,192,28597,1,0,0:0:0:0:
64,192,28597,1,0,0:0:0:0:
448,192,28828,1,0,0:0:0:0:
192,192,28943,1,0,0:0:0:0:
320,192,29058,1,0,0:0:0:0:
64,192,29058,1,0,0:0:0:0:
192,192,29289,1,0,0:0:0:0:
64,192,29405,1,0,0:0:0:0:
320,192,29520,5,0,0:0:0:0:
448,192,29520,1,0,0:0:0:0:
192,192,29635,1,0,0:0:0:0:
64,192,29751,1,0,0:0:0:0:
448,192,29866,1,0,0:0:0:0:
320,192,29981,5,0,0:0:0:0:
64,192,29981,1,0,0:0:0:0:
192,192,30097,1,0,0:0:0:0:
320,192,30212,1,0,0:0:0:0:
448,192,30212,1,0,0:0:0:0:
64,192,30328,1,0,0:0:0:0:
192,192,30443,1,0,0:0:0:0:
320,192,30443,1,0,0:0:0:0:
448,192,30443,128,0,30674:0:0:0:0:
64,192,30674,128,0,30905:0:0:0:0:
448,192,30789,128,0,30905:0:0:0:0:
320,192,30905,1,0,0:0:0:0:
192,192,30905,1,0,0:0:0:0:
64,192,31020,1,0,0:0:0:0:
192,192,31135,1,0,0:0:0:0:
448,192,31251,1,0,0:0:0:0:
64,192,31366,1,0,0:0:0:0:
320,192,31366,128,0,31597:0:0:0:0:
448,192,31597,128,0,31828:0:0:0:0:
320,192,31712,128,0,31828:0:0:0:0:
64,192,31828,1,0,0:0:0:0:
192,192,31828,1,0,0:0:0:0:
448,192,31943,128,0,32058:0:0:0:0:
64,192,32058,1,0,0:0:0:0:
192,192,32174,128,0,32289:0:0:0:0:
320,192,32289,1,0,0:0:0:0:
448,192,32289,1,0,0:0:0:0:
192,192,32520,1,0,0:0:0:0:
320,192,32635,1,0,0:0:0:0:
64,192,32751,1,0,0:0:0:0:
448,192,32751,1,0,0:0:0:0:
320,192,32981,128,0,33212:0:0:0:0:
448,192,32981,1,0,0:0:0:0:
64,192,33212,128,0,33443:0:0:0:0:
192,192,33212,1,0,0:0:0:0:
448,192,33443,128,0,33674:0:0:0:0:
320,192,33443,1,0,0:0:0:0:
64,192,33674,1,0,0:0:0:0:
192,192,33674,128,0,33789:0:0:0:0:
320,192,33789,128,0,33905:0:0:0:0:
448,192,33905,128,0,34020:0:0:0:0:
64,192,34020,128,0,34135:0:0:0:0:
192,192,34135,128,0,34251:0:0:0:0:
448,192,34135,1,0,0:0:0:0:
320,192,34251,128,0,34366:0:0:0:0:
64,192,34366,128,0,34481:0:0:0:0:
448,192,34481,128,0,34597:0:0:0:0:
192,192,34597,128,0,34712:0:0:0:0:
320,192,34597,1,0,0:0:0:0:
64,192,34712,128,0,34828:0:0:0:0:
320,192,34828,128,0,34943:0:0:0:0:
448,192,34943,128,0,35058:0:0:0:0:
192,192,35058,128,0,35174:0:0:0:0:
64,192,35058,1,0,0:0:0:0:
320,192,35174,128,0,35289:0:0:0:0:
448,192,35289,128,0,35405:0:0:0:0:
64,192,35405,128,0,35520:0:0:0:0:
192,192,35520,128,0,35635:0:0:0:0:
320,192,35520,1,0,0:0:0:0:
448,192,35635,128,0,35981:0:0:0:0:
320,192,35866,128,0,35981:0:0:0:0:
192,192,35981,1,0,0:0:0:0:
64,192,35981,1,0,0:0:0:0:
192,192,36212,1,0,0:0:0:0:
320,192,36328,1,0,0:0:0:0:
448,192,36443,1,0,0:0:0:0:
64,192,36443,128,0,36558:0:0:0:0:
320,192,36558,128,0,36674:0:0:0:0:
192,192,36674,128,0,36789:0:0:0:0:
448,192,36789,128,0,36905:0:0:0:0:
64,192,36905,1,0,0:0:0:0:
320,192,36905,1,0,0:0:0:0:
192,192,36981,1,0,0:0:0:0:
448,192,37058,1,0,0:0:0:0:
320,192,37135,1,0,0:0:0:0:
192,192,37212,1,0,0:0:0:0:
64,192,37289,1,0,0:0:0:0:
320,192,37366,1,0,0:0:0:0:
448,192,37443,1,0,0:0:0:0:
192,192,37520,1,0,0:0:0:0:
320,192,37597,1,0,0:0:0:0:
448,192,37674,1,0,0:0:0:0:
192,192,37751,1,0,0:0:0:0:
64,192,37828,1,0,0:0:0:0:
320,192,37828,128,0,38058:0:0:0:0:
64,192,38058,128,0,38289:0:0:0:0:
320,192,38174,128,0,38289:0:0:0:0:
448,192,38289,1,0,0:0:0:0:
192,192,38289,1,0,0:0:0:0:
64,192,38405,128,0,38520:0:0:0:0:
320,192,38520,128,0,38635:0:0:0:0:
448,192,38635,128,0,38751:0:0:0:0:
64,192,38751,128,0,38981:0:0:0:0:
192,192,38751,1,0,0:0:0:0:
320,192,38751,1,0,0:0:0:0:
320,192,38981,128,0,39212:0:0:0:0:
192,192,39097,128,0,39212:0:0:0:0:
64,192,39212,1,0,0:0:0:0:
448,192,39212,1,0,0:0:0:0:
320,192,39328,128,0,39443:0:0:0:0:
192,192,39443,128,0,39558:0:0:0:0:
320,192,39558,128,0,39674:0:0:0:0:
448,192,39674,128,0,39905:0:0:0:0:
64,192,39674,128,0,39905:0:0:0:0:
320,192,39905,1,0,0:0:0:0:
192,192,40020,128,0,40251:0:0:0:0:
448,192,40020,128,0,40251:0:0:0:0:
64,192,40020,1,0,0:0:0:0:
320,192,40366,128,0,40597:0:0:0:0:
64,192,40366,128,0,40597:0:0:0:0:
448,192,40366,1,0,0:0:0:0:
192,192,40597,1,0,0:0:0:0:
448,192,40597,1,0,0:0:0:0:
320,192,40712,1,0,0:0:0:0:
64,192,40828,1,0,0:0:0:0:
192,192,40828,1,0,0:0:0:0:
448,192,40943,1,0,0:0:0:0:
320,192,41058,1,0,0:0:0:0:
64,192,41058,1,0,0:0:0:0:
192,192,41174,1,0,0:0:0:0:
448,192,41289,1,0,0:0:0:0:
320,192,41289,1,0,0:0:0:0:
64,192,41405,1,0,0:0:0:0:
448,192,41520,128,0,41635:0:0:0:0:
192,192,41520,1,0,0:0:0:0:
320,192,41520,1,0,0:0:0:0:
64,192,41635,128,0,41751:0:0:0:0:
320,192,41751,128,0,41866:0:0:0:0:
192,192,41866,128,0,41981:0:0:0:0:
448,192,41981,1,0,0:0:0:0:
192,192,42097,128,0,42212:0:0:0:0:
320,192,42212,128,0,42328:0:0:0:0:
64,192,42328,128,0,42443:0:0:0:0:
320,192,42443,1,0,0:0:0:0:
448,192,42443,128,0,42674:0:0:0:0:
192,192,42558,128,0,42674:0:0:0:0:
64,192,42674,128,0,42905:0:0:0:0:
448,192,42789,128,0,42905:0:0:0:0:
192,192,42905,1,0,0:0:0:0:
320,192,42905,128,0,43135:0:0:0:0:
64,192,43020,128,0,43135:0:0:0:0:
448,192,43135,128,0,43251:0:0:0:0:
192,192,43251,128,0,43366:0:0:0:0:
448,192,43366,128,0,43597:0:0:0:0:
64,192,43366,128,0,43597:0:0:0:0:
320,192,43366,1,0,0:0:0:0:
192,192,43597,1,0,0:0:0:0:
320,192,43712,1,0,0:0:0:0:
448,192,43828,128,0,44058:0:0:0:0:
192,192,43828,128,0,44058:0:0:0:0:
64,192,43828,1,0,0:0:0:0:
320,192,44058,1,0,0:0:0:0:
448,192,44289,128,0,44520:0:0:0:0:
320,192,44289,128,0,44520:0:0:0:0:
64,192,44289,1,0,0:0:0:0:
192,192,44520,128,0,44635:0:0:0:0:
320,192,44635,128,0,44751:0:0:0:0:
448,192,44751,1,0,0:0:0:0:
64,192,44751,1,0,0:0:0:0:
192,192,44751,1,0,0:0:0:0:
320,192,44866,1,0,0:0:0:0:
448,192,44981,1,0,0:0:0:0:
64,192,44981,1,0,0:0:0:0:
192,192,45097,1,0,0:0:0:0:
64,192,45212,1,0,0:0:0:0:
448,192,45212,128,0,45328:0:0:0:0:
320,192,45212,1,0,0:0:0:0:
192,192,45328,128,0,45443:0:0:0:0:
64,192,45443,128,0,45558:0:0:0:0:
320,192,45558,128,0,45674:0:0:0:0:
192,192,45674,1,0,0:0:0:0:
448,192,45674,1,0,0:0:0:0:
320,192,45789,128,0,45905:0:0:0:0:
64,192,45905,128,0,46020:0:0:0:0:
320,192,46020,128,0,46135:0:0:0:0:
192,192,46135,1,0,0:0:0:0:
448,192,46135,128,0,46251:0:0:0:0:
64,192,46251,128,0,46366:0:0:0:0:
192,192,46366,128,0,46481:0:0:0:0:
320,192,46481,128,0,46597:0:0:0:0:
64,192,46597,1,0,0:0:0:0:
448,192,46597,1,0,0:0:0:0:
320,192,46712,128,0,46828:0:0:0:0:
448,192,46828,128,0,46943:0:0:0:0:
192,192,46943,128,0,47058:0:0:0:0:
448,192,47058,1,0,0:0:0:0:
64,192,47058,1,0,0:0:0:0:
320,192,47135,1,0,0:0:0:0:
192,192,47212,1,0,0:0:0:0:
64,192,47289,1,0,0:0:0:0:
320,192,47366,1,0,0:0:0:0:
448,192,47443,1,0,0:0:0:0:
192,192,47520,1,0,0:0:0:0:
320,192,47597,1,0,0:0:0:0:
448,192,47674,1,0,0:0:0:0:
64,192,47751,1,0,0:0:0:0:
192,192,47828,1,0,0:0:0:0:
448,192,47905,1,0,0:0:0:0:
320,192,47981,128,0,48097:0:0:0:0:
64,192,47981,128,0,48097:0:0:0:0:
448,192,48212,128,0,48328:0:0:0:0:
192,192,48212,128,0,48328:0:0:0:0:
448,192,48443,128,0,48558:0:0:0:0:
320,192,48443,128,0,48558:0:0:0:0:
64,192,48674,128,0,48789:0:0:0:0:
192,192,48674,128,0,48789:0:0:0:0:
448,192,48905,1,0,0:0:0:0:
320,192,48905,128,0,49020:0:0:0:0:
192,192,49020,128,0,49135:0:0:0:0:
64,192,49135,128,0,49251:0:0:0:0:
448,192,49251,128,0,49366:0:0:0:0:
192,192,49366,1,0,0:0:0:0:
320,192,49366,1,0,0:0:0:0:
448,192,49481,128,0,49597:0:0:0:0:
64,192,49597,128,0,49712:0:0:0:0:
448,192,49712,128,0,49828:0:0:0:0:
192,192,49828,1,0,0:0:0:0:
320,192,49828,128,0,49943:0:0:0:0:
64,192,49943,128,0,50058:0:0:0:0:
192,192,50058,128,0,50174:0:0:0:0:
448,192,50174,128,0,50289:0:0:0:0:
64,192,50289,1,0,0:0:0:0:
320,192,50289,128,0,50405:0:0:0:0:
192,192,50405,128,0,50520:0:0:0:0:
448,192,50520,128,0,50635:0:0:0:0:
320,192,50635,128,0,50751:0:0:0:0:
64,192,50751,1,0,0:0:0:0:
448,192,50751,1,0,0:0:0:0:
192,192,50828,1,0,0:0:0:0:
320,192,50905,1,0,0:0:0:0:
448,192,50981,1,0,0:0:0:0:
64,192,51058,1,0,0:0:0:0:
320,192,51135,1,0,0:0:0:0:
192,192,51212,1,0,0:0:0:0:
64,192,51289,1,0,0:0:0:0:
320,192,51366,1,0,0:0:0:0:
448,192,51443,1,0,0:0:0:0:
64,192,51520,1,0,0:0:0:0:
192,192,51597,1,0,0:0:0:0:
320,192,51674,128,0,51789:0:0:0:0:
448,192,51674,128,0,51789:0:0:0:0:
448,192,51905,128,0,52020:0:0:0:0:
192,192,51905,128,0,52020:0:0:0:0:
320,192,52020,128,0,52135:0:0:0:0:
64,192,52020,128,0,52135:0:0:0:0:
192,192,52135,1,0,0:0:0:0:
448,192,52251,128,0,52366:0:0:0:0:
192,192,52366,128,0,52481:0:0:0:0:
320,192,52366,128,0,52481:0:0:0:0:
64,192,52481,128,0,52597:0:0:0:0:
448,192,52597,128,0,52712:0:0:0:0:
320,192,52597,1,0,0:0:0:0:
192,192,52712,128,0,52828:0:0:0:0:
320,192,52828,128,0,52943:0:0:0:0:
64,192,52943,128,0,53058:0:0:0:0:
448,192,53058,128,0,53174:0:0:0:0:
320,192,53058,1,0,0:0:0:0:
192,192,53174,128,0,53289:0:0:0:0:
320,192,53289,128,0,53405:0:0:0:0:
64,192,53405,128,0,53520:0:0:0:0:
192,192,53520,128,0,53635:0:0:0:0:
448,192,53520,1,0,0:0:0:0:
320,192,53635,128,0,53751:0:0:0:0:
64,192,53751,128,0,53866:0:0:0:0:
448,192,53866,128,0,53981:0:0:0:0:
320,192,53981,128,0,54097:0:0:0:0:
192,192,53981,1,0,0:0:0:0:
64,192,54097,128,0,54212:0:0:0:0:
448,192,54212,128,0,54328:0:0:0:0:
192,192,54328,128,0,54443:0:0:0:0:
448,192,54443,128,0,54558:0:0:0:0:
320,192,54443,1,0,0:0:0:0:
64,192,54558,128,0,54674:0:0:0:0:
320,192,54674,128,0,54789:0:0:0:0:
192,192,54789,128,0,54905:0:0:0:0:
448,192,54905,128,0,55020:0:0:0:0:
64,192,54905,1,0,0:0:0:0:
320,192,55020,128,0,55135:0:0:0:0:
192,192,55135,128,0,55251:0:0:0:0:
64,192,55251,128,0,55366:0:0:0:0:
192,192,55366,1,0,0:0:0:0:
448,192,55366,128,0,55597:0:0:0:0:
320,192,55481,128,0,55597:0:0:0:0:
64,192,55597,128,0,55828:0:0:0:0:
192,192,55712,128,0,55828:0:0:0:0:
320,192,55828,1,0,0:0:0:0:
448,192,55828,128,0,56058:0:0:0:0:
64,192,55943,128,0,56058:0:0:0:0:
320,192,56058,128,0,56289:0:0:0:0:
192,192,56058,1,0,0:0:0:0:
64,192,56174,128,0,56289:0:0:0:0:
448,192,56289,128,0,56405:0:0:0:0:
192,192,56289,1,0,0:0:0:0:
320,192,56405,128,0,56520:0:0:0:0:
64,192,56520,128,0,56635:0:0:0:0:
192,192,56635,128,0,56751:0:0:0:0:
448,192,56751,128,0,56866:0:0:0:0:
64,192,56751,1,0,0:0:0:0:
320,192,56866,128,0,56981:0:0:0:0:
192,192,56981,128,0,57097:0:0:0:0:
448,192,57097,128,0,57212:0:0:0:0:
320,192,57212,1,0,0:0:0:0:
64,192,57212,128,0,57328:0:0:0:0:
192,192,57328,128,0,57443:0:0:0:0:
320,192,57443,128,0,57558:0:0:0:0:
448,192,57558,128,0,57674:0:0:0:0:
192,192,57674,128,0,57789:0:0:0:0:
64,192,57674,1,0,0:0:0:0:
320,192,57789,128,0,57905:0:0:0:0:
64,192,57905,128,0,58020:0:0:0:0:
448,192,58020,128,0,58135:0:0:0:0:
320,192,58135,1,0,0:0:0:0:
192,192,58135,1,0,0:0:0:0:
448,192,58366,128,0,58481:0:0:0:0:
64,192,58481,128,0,58597:0:0:0:0:
448,192,58597,128,0,58712:0:0:0:0:
320,192,58597,1,0,0:0:0:0:
64,192,58712,128,0,58828:0:0:0:0:
192,192,58828,128,0,58943:0:0:0:0:
320,192,58943,128,0,59058:0:0:0:0:
64,192,59058,1,0,0:0:0:0:
192,192,59135,1,0,0:0:0:0:
448,192,59212,1,0,0:0:0:0:
320,192,59289,1,0,0:0:0:0:
64,192,59366,1,0,0:0:0:0:
192,192,59443,1,0,0:0:0:0:
448,192,59520,1,0,0:0:0:0:
320,192,59520,1,0,0:0:0:0:
192,192,59635,1,0,0:0:0:0:
64,192,59751,1,0,0:0:0:0:
448,192,59751,1,0,0:0:0:0:
320,192,59866,1,0,0:0:0:0:
192,192,59981,1,0,0:0:0:0:
64,192,59981,128,0,60212:0:0:0:0:
448,192,59981,1,0,0:0:0:0:
320,192,60212,1,0,0:0:0:0:
192,192,60443,1,0,0:0:0:0:
64,192,60443,1,0,0:0:0:0:
320,192,60674,1,0,0:0:0:0:
192,192,60905,128,0,61135:0:0:0:0:
320,192,60905,1,0,0:0:0:0:
448,192,61135,1,0,0:0:0:0:
320,192,61251,1,0,0:0:0:0:
192,192,61366,1,0,0:0:0:0:
448,192,61481,1,0,0:0:0:0:
64,192,61597,1,0,0:0:0:0:
192,192,61712,1,0,0:0:0:0:
320,192,61828,128,0,62058:0:0:0:0:
448,192,61828,1,0,0:0:0:0:
64,192,61943,1,0,0:0:0:0:
192,192,62058,1,0,0:0:0:0:
448,192,62174,1,0,0:0:0:0:
320,192,62289,1,0,0:0:0:0:
192,192,62405,1,0,0:0:0:0:
448,192,62520,1,0,0:0:0:0:
64,192,62635,1,0,0:0:0:0:
448,192,62751,128,0,62981:0:0:0:0:
320,192,62751,1,0,0:0:0:0:
192,192,62981,1,0,0:0:0:0:
320,192,63097,1,0,0:0:0:0:
64,192,63212,1,0,0:0:0:0:
192,192,63328,1,0,0:0:0:0:
320,192,63443,1,0,0:0:0:0:
192,192,63558,1,0,0:0:0:0:
448,192,63674,1,0,0:0:0:0:
64,192,63674,128,0,63905:0:0:0:0:
320,192,63905,1,0,0:0:0:0:
192,192,64020,1,0,0:0:0:0:
448,192,64135,1,0,0:0:0:0:
64,192,64135,1,0,0:0:0:0:
320,192,64366,1,0,0:0:0:0:
448,192,64481,1,0,0:0:0:0:
192,192,64597,128,0,64828:0:0:0:0:
64,192,64597,1,0,0:0:0:0:
448,192,64828,1,0,0:0:0:0:
64,192,64943,1,0,0:0:0:0:
192,192,65058,1,0,0:0:0:0:
448,192,65174,1,0,0:0:0:0:
64,192,65289,1,0,0:0:0:0:
448,192,65405,1,0,0:0:0:0:
320,192,65520,128,0,65751:0:0:0:0:
192,192,65520,1,0,0:0:0:0:
64,192,65751,1,0,0:0:0:0:
192,192,65866,1,0,0:0:0:0:
448,192,65981,1,0,0:0:0:0:
64,192,66097,1,0,0:0:0:0:
192,192,66212,1,0,0:0:0:0:
320,192,66328,1,0,0:0:0:0:
448,192,66443,1,0,0:0:0:0:
192,192,66520,1,0,0:0:0:0:
64,192,66597,1,0,0:0:0:0:
448,192,66674,1,0,0:0:0:0:
320,192,66751,1,0,0:0:0:0:
192,192,66828,1,0,0:0:0:0:
64,192,66905,1,0,0:0:0:0:
320,192,66981,1,0,0:0:0:0:
448,192,67058,1,0,0:0:0:0:
192,192,67135,1,0,0:0:0:0:
64,192,67135,1,0,0:0:0:0:
320,192,67251,1,0,0:0:0:0:
64,192,67366,128,0,67597:0:0:0:0:
448,192,67366,1,0,0:0:0:0:
192,192,67366,1,0,0:0:0:0:
320,192,67597,1,0,0:0:0:0:
192,192,67828,1,0,0:0:0:0:
64,192,67828,1,0,0:0:0:0:
320,192,68058,1,0,0:0:0:0:
192,192,68289,128,0,68520:0:0:0:0:
448,192,68289,1,0,0:0:0:0:
320,192,68520,1,0,0:0:0:0:
64,192,68635,1,0,0:0:0:0:
448,192,68751,1,0,0:0:0:0:
320,192,68866,1,0,0:0:0:0:
64,192,68981,1,0,0:0:0:0:
320,192,69097,1,0,0:0:0:0:
448,192,69212,128,0,69443:0:0:0:0:
192,192,69212,1,0,0:0:0:0:
320,192,69443,1,0,0:0:0:0:
64,192,69558,1,0,0:0:0:0:
192,192,69674,1,0,0:0:0:0:
448,192,69789,1,0,0:0:0:0:
64,192,69905,1,0,0:0:0:0:
448,192,70020,1,0,0:0:0:0:
320,192,70135,128,0,70366:0:0:0:0:
192,192,70135,1,0,0:0:0:0:
64,192,70366,1,0,0:0:0:0:
320,192,70597,1,0,0:0:0:0:
192,192,70597,1,0,0:0:0:0:
448,192,70828,1,0,0:0:0:0:
64,192,71058,128,0,71289:0:0:0:0:
320,192,71058,1,0,0:0:0:0:
192,192,71174,1,0,0:0:0:0:
448,192,71289,1,0,0:0:0:0:
64,192,71405,1,0,0:0:0:0:
320,192,71520,1,0,0:0:0:0:
192,192,71635,1,0,0:0:0:0:
448,192,71751,1,0,0:0:0:0:
64,192,71866,1,0,0:0:0:0:
192,192,71981,128,0,72212:0:0:0:0:
320,192,72097,1,0,0:0:0:0:
64,192,72212,1,0,0:0:0:0:
448,192,72328,1,0,0:0:0:0:
192,192,72443,1,0,0:0:0:0:
320,192,72558,1,0,0:0:0:0:
64,192,72674,1,0,0:0:0:0:
448,192,72789,1,0,0:0:0:0:
320,192,72905,128,0,73135:0:0:0:0:
64,192,72905,1,0,0:0:0:0:
192,192,73020,1,0,0:0:0:0:
64,192,73135,1,0,0:0:0:0:
448,192,73251,1,0,0:0:0:0:
320,192,73366,1,0,0:0:0:0:
192,192,73366,1,0,0:0:0:0:
64,192,73481,1,0,0:0:0:0:
320,192,73597,1,0,0:0:0:0:
192,192,73712,1,0,0:0:0:0:
448,192,73828,128,0,74058:0:0:0:0:
64,192,73828,1,0,0:0:0:0:
192,192,73943,1,0,0:0:0:0:
320,192,74058,1,0,0:0:0:0:
64,192,74174,1,0,0:0:0:0:
320,192,74289,1,0,0:0:0:0:
448,192,74289,1,0,0:0:0:0:
192,192,74405,1,0,0:0:0:0:
448,192,74520,1,0,0:0:0:0:
64,192,74635,1,0,0:0:0:0:
320,192,74751,1,0,0:0:0:0:
192,192,74751,128,0,75212:0:0:0:0:
448,192,74981,128,0,75212:0:0:0:0:
64,192,75212,128,0,75674:0:0:0:0:
320,192,75212,1,0,0:0:0:0:
192,192,75443,128,0,75674:0:0:0:0:
448,192,75674,1,0,0:0:0:0:
320,192,75674,128,0,75905:0:0:0:0:
64,192,75905,128,0,76020:0:0:0:0:
192,192,76020,128,0,76135:0:0:0:0:
448,192,76135,1,0,0:0:0:0:
320,192,76135,1,0,0:0:0:0:
64,192,76251,128,0,76366:0:0:0:0:
320,192,76366,128,0,76481:0:0:0:0:
192,192,76481,128,0,76597:0:0:0:0:
64,192,76597,1,0,0:0:0:0:
448,192,76597,128,0,76712:0:0:0:0:
320,192,76712,128,0,76828:0:0:0:0:
64,192,76828,128,0,76943:0:0:0:0:
192,192,76943,128,0,77058:0:0:0:0:
448,192,77058,128,0,77174:0:0:0:0:
64,192,77058,1,0,0:0:0:0:
320,192,77174,128,0,77289:0:0:0:0:
192,192,77289,128,0,77405:0:0:0:0:
448,192,77405,128,0,77520:0:0:0:0:
320,192,77520,1,0,0:0:0:0:
64,192,77520,1,0,0:0:0:0:
192,192,77751,128,0,77866:0:0:0:0:
320,192,77866,128,0,77981:0:0:0:0:
448,192,77981,128,0,78097:0:0:0:0:
64,192,77981,1,0,0:0:0:0:
192,192,78097,128,0,78212:0:0:0:0:
64,192,78212,128,0,78443:0:0:0:0:
448,192,78328,128,0,78443:0:0:0:0:
192,192,78443,1,0,0:0:0:0:
320,192,78443,1,0,0:0:0:0:
64,192,78674,128,0,78905:0:0:0:0:
448,192,78789,128,0,78905:0:0:0:0:
192,192,78905,1,0,0:0:0:0:
320,192,78905,1,0,0:0:0:0:
64,192,79135,128,0,79366:0:0:0:0:
320,192,79251,128,0,79366:0:0:0:0:
192,192,79366,1,0,0:0:0:0:
448,192,79366,1,0,0:0:0:0:
320,192,79597,128,0,79828:0:0:0:0:
192,192,79712,128,0,79828:0:0:0:0:
448,192,79828,1,0,0:0:0:0:
320,192,79943,128,0,80058:0:0:0:0:
192,192,80058,128,0,80174:0:0:0:0:
320,192,80174,128,0,80289:0:0:0:0:
448,192,80289,128,0,80520:0:0:0:0:
64,192,80289,1,0,0:0:0:0:
192,192,80520,128,0,80635:0:0:0:0:
320,192,80635,128,0,80751:0:0:0:0:
64,192,80751,128,0,80866:0:0:0:0:
448,192,80751,1,0,0:0:0:0:
192,192,80866,128,0,80981:0:0:0:0:
320,192,80981,128,0,81097:0:0:0:0:
64,192,81097,128,0,81212:0:0:0:0:
448,192,81212,1,0,0:0:0:0:
320,192,81212,1,0,0:0:0:0:
192,192,81289,1,0,0:0:0:0:
64,192,81366,1,0,0:0:0:0:
320,192,81443,1,0,0:0:0:0:
192,192,81520,1,0,0:0:0:0:
448,192,81597,1,0,0:0:0:0:
64,192,81674,1,0,0:0:0:0:
320,192,81751,1,0,0:0:0:0:
448,192,81828,1,0,0:0:0:0:
64,192,81905,1,0,0:0:0:0:
192,192,81981,1,0,0:0:0:0:
320,192,82058,1,0,0:0:0:0:
448,192,82135,1,0,0:0:0:0:
64,192,82135,128,0,82366:0:0:0:0:
320,192,82366,1,0,0:0:0:0:
64,192,82597,128,0,82828:0:0:0:0:
192,192,82597,1,0,0:0:0:0:
448,192,82828,128,0,83058:0:0:0:0:
192,192,83058,128,0,83289:0:0:0:0:
64,192,83058,1,0,0:0:0:0:
320,192,83058,1,0,0:0:0:0:
320,192,83289,128,0,83520:0:0:0:0:
64,192,83405,128,0,83520:0:0:0:0:
448,192,83520,1,0,0:0:0:0:
320,192,83635,128,0,83751:0:0:0:0:
64,192,83751,128,0,83866:0:0:0:0:
320,192,83866,128,0,83981:0:0:0:0:
448,192,83981,128,0,84212:0:0:0:0:
192,192,83981,1,0,0:0:0:0:
64,192,83981,1,0,0:0:0:0:
320,192,84212,128,0,84328:0:0:0:0:
64,192,84328,128,0,84558:0:0:0:0:
192,192,84328,1,0,0:0:0:0:
448,192,84328,1,0,0:0:0:0:
320,192,84558,128,0,84674:0:0:0:0:
192,192,84674,128,0,84789:0:0:0:0:
64,192,84674,1,0,0:0:0:0:
320,192,84789,128,0,84905:0:0:0:0:
192,192,84905,128,0,85135:0:0:0:0:
448,192,84905,1,0,0:0:0:0:
64,192,84905,1,0,0:0:0:0:
320,192,85135,1,0,0:0:0:0:
64,192,85135,1,0,0:0:0:0:
448,192,85251,1,0,0:0:0:0:
192,192,85366,1,0,0:0:0:0:
320,192,85366,1,0,0:0:0:0:
64,192,85481,1,0,0:0:0:0:
448,192,85597,1,0,0:0:0:0:
192,192,85597,1,0,0:0:0:0:
320,192,85712,1,0,0:0:0:0:
192,192,85828,1,0,0:0:0:0:
448,192,85828,128,0,85943:0:0:0:0:
64,192,85828,1,0,0:0:0:0:
320,192,85943,128,0,86058:0:0:0:0:
64,192,86058,128,0,86174:0:0:0:0:
192,192,86174,128,0,86289:0:0:0:0:
448,192,86289,128,0,86405:0:0:0:0:
64,192,86289,1,0,0:0:0:0:
320,192,86405,128,0,86520:0:0:0:0:
64,192,86520,128,0,86635:0:0:0:0:
192,192,86635,128,0,86751:0:0:0:0:
320,192,86751,128,0,86866:0:0:0:0:
448,192,86751,1,0,0:0:0:0:
64,192,86866,128,0,86981:0:0:0:0:
448,192,86981,128,0,87097:0:0:0:0:
192,192,87097,128,0,87212:0:0:0:0:
320,192,87212,128,0,87328:0:0:0:0:
448,192,87212,1,0,0:0:0:0:
64,192,87328,128,0,87443:0:0:0:0:
448,192,87443,128,0,87558:0:0:0:0:
192,192,87558,128,0,87674:0:0:0:0:
320,192,87674,1,0,0:0:0:0:
64,192,87674,1,0,0:0:0:0:
448,192,87789,1,0,0:0:0:0:
192,192,87905,1,0,0:0:0:0:
64,192,87905,1,0,0:0:0:0:
320,192,88020,1,0,0:0:0:0:
448,192,88135,1,0,0:0:0:0:
192,192,88135,1,0,0:0:0:0:
64,192,88251,1,0,0:0:0:0:
320,192,88366,1,0,0:0:0:0:
192,192,88366,1,0,0:0:0:0:
448,192,88481,1,0,0:0:0:0:
320,192,88597,1,0,0:0:0:0:
64,192,88597,1,0,0:0:0:0:
192,192,88712,1,0,0:0:0:0:
448,192,88828,1,0,0:0:0:0:
64,192,88943,1,0,0:0:0:0:
320,192,89058,1,0,0:0:0:0:
192,192,89058,1,0,0:0:0:0:
448,192,89174,1,0,0:0:0:0:
64,192,89289,1,0,0:0:0:0:
192,192,89289,1,0,0:0:0:0:
320,192,89405,1,0,0:0:0:0:
192,192,89520,1,0,0:0:0:0:
64,192,89520,128,0,89751:0:0:0:0:
448,192,89520,1,0,0:0:0:0:
320,192,89751,128,0,89981:0:0:0:0:
448,192,89866,128,0,89981:0:0:0:0:
192,192,89981,1,0,0:0:0:0:
64,192,89981,1,0,0:0:0:0:
448,192,90097,128,0,90212:0:0:0:0:
320,192,90097,128,0,90212:0:0:0:0:
448,192,90328,128,0,90443:0:0:0:0:
320,192,90328,128,0,90443:0:0:0:0:
192,192,90443,1,0,0:0:0:0:
64,192,90443,128,0,90674:0:0:0:0:
320,192,90674,128,0,90789:0:0:0:0:
448,192,90674,128,0,90789:0:0:0:0:
192,192,90789,128,0,90905:0:0:0:0:
64,192,90789,128,0,90905:0:0:0:0:
320,192,90905,1,0,0:0:0:0:
448,192,91020,128,0,91135:0:0:0:0:
64,192,91135,128,0,91251:0:0:0:0:
192,192,91251,128,0,91366:0:0:0:0:
448,192,91366,1,0,0:0:0:0:
320,192,91366,128,0,91597:0:0:0:0:
192,192,91597,128,0,91712:0:0:0:0:
64,192,91597,128,0,91712:0:0:0:0:
448,192,91712,128,0,91828:0:0:0:0:
320,192,91712,128,0,91828:0:0:0:0:
64,192,91828,1,0,0:0:0:0:
192,192,91943,128,0,92058:0:0:0:0:
320,192,92058,128,0,92174:0:0:0:0:
448,192,92174,128,0,92289:0:0:0:0:
192,192,92289,128,0,92405:0:0:0:0:
320,192,92289,1,0,0:0:0:0:
64,192,92405,128,0,92520:0:0:0:0:
320,192,92520,128,0,92635:0:0:0:0:
448,192,92635,128,0,92751:0:0:0:0:
192,192,92751,128,0,92866:0:0:0:0:
320,192,92751,1,0,0:0:0:0:
64,192,92866,128,0,92981:0:0:0:0:
448,192,92981,128,0,93097:0:0:0:0:
320,192,93097,128,0,93212:0:0:0:0:
192,192,93212,128,0,93328:0:0:0:0:
64,192,93212,1,0,0:0:0:0:
448,192,93328,128,0,93443:0:0:0:0:
320,192,93443,128,0,93558:0:0:0:0:
64,192,93558,128,0,93674:0:0:0:0:
448,192,93674,1,0,0:0:0:0:
192,192,93674,1,0,0:0:0:0:
64,192,93789,128,0,93905:0:0:0:0:
64,192,94020,128,0,94135:0:0:0:0:
192,192,94135,128,0,94251:0:0:0:0:
320,192,94135,1,0,0:0:0:0:
448,192,94251,128,0,94366:0:0:0:0:
320,192,94366,128,0,94481:0:0:0:0:
192,192,94481,128,0,94597:0:0:0:0:
448,192,94597,1,0,0:0:0:0:
64,192,94597,1,0,0:0:0:0:
192,192,94712,128,0,94828:0:0:0:0:
320,192,94828,128,0,94943:0:0:0:0:
64,192,94943,128,0,95058:0:0:0:0:
448,192,95058,1,0,0:0:0:0:
192,192,95058,1,0,0:0:0:0:
320,192,95135,1,0,0:0:0:0:
192,192,95212,1,0,0:0:0:0:
64,192,95289,1,0,0:0:0:0:
448,192,95366,1,0,0:0:0:0:
192,192,95443,1,0,0:0:0:0:
320,192,95520,1,0,0:0:0:0:
64,192,95597,1,0,0:0:0:0:
448,192,95674,1,0,0:0:0:0:
320,192,95751,1,0,0:0:0:0:
64,192,95828,1,0,0:0:0:0:
192,192,95905,1,0,0:0:0:0:
448,192,95981,1,0,0:0:0:0:
320,192,96058,1,0,0:0:0:0:
64,192,96135,1,0,0:0:0:0:
448,192,96212,1,0,0:0:0:0:
192,192,96289,1,0,0:0:0:0:
320,192,96366,1,0,0:0:0:0:
448,192,96443,1,0,0:0:0:0:
64,192,96520,1,0,0:0:0:0:
192,192,96597,1,0,0:0:0:0:
320,192,96674,1,0,0:0:0:0:
448,192,96751,1,0,0:0:0:0:
192,192,96828,1,0,0:0:0:0:
64,192,96905,1,0,0:0:0:0:
320,192,96905,128,0,97020:0:0:0:0:
448,192,97020,128,0,97135:0:0:0:0:
64,192,97135,128,0,97251:0:0:0:0:
192,192,97251,128,0,97366:0:0:0:0:
320,192,97366,128,0,97481:0:0:0:0:
64,192,97366,1,0,0:0:0:0:
448,192,97481,128,0,97597:0:0:0:0:
192,192,97597,128,0,97712:0:0:0:0:
448,192,97712,128,0,97828:0:0:0:0:
320,192,97828,1,0,0:0:0:0:
64,192,97828,1,0,0:0:0:0:
192,192,97905,1,0,0:0:0:0:
448,192,97981,1,0,0:0:0:0:
320,192,98058,1,0,0:0:0:0:
64,192,98135,1,0,0:0:0:0:
192,192,98212,1,0,0:0:0:0:
448,192,98289,1,0,0:0:0:0:
320,192,98366,1,0,0:0:0:0:
192,192,98443,1,0,0:0:0:0:
448,192,98520,1,0,0:0:0:0:
320,192,98597,1,0,0:0:0:0:
64,192,98674,1,0,0:0:0:0:
192,192,98751,1,0,0:0:0:0:
448,192,98751,128,0,98866:0:0:0:0:
320,192,98866,128,0,98981:0:0:0:0:
64,192,98981,128,0,99097:0:0:0:0:
192,192,99097,128,0,99212:0:0:0:0:
448,192,99212,128,0,99328:0:0:0:0:
64,192,99212,1,0,0:0:0:0:
320,192,99328,128,0,99443:0:0:0:0:
64,192,99443,128,0,99558:0:0:0:0:
448,192,99558,128,0,99674:0:0:0:0:
320,192,99674,1,0,0:0:0:0:
192,192,99674,1,0,0:0:0:0:
192,192,99905,128,0,100020:0:0:0:0:
320,192,100020,128,0,100135:0:0:0:0:
448,192,100135,128,0,100251:0:0:0:0:
64,192,100135,1,0,0:0:0:0:
192,192,100251,128,0,100366:0:0:0:0:
320,192,100366,128,0,100481:0:0:0:0:
64,192,100481,128,0,100597:0:0:0:0:
448,192,100597,1,0,0:0:0:0:
192,192,100597,128,0,100712:0:0:0:0:
320,192,100712,128,0,100828:0:0:0:0:
64,192,100828,128,0,100943:0:0:0:0:
448,192,100943,128,0,101058:0:0:0:0:
192,192,101058,1,0,0:0:0:0:
320,192,101058,1,0,0:0:0:0:
448,192,101174,128,0,101289:0:0:0:0:
448,192,101405,128,0,101520:0:0:0:0:
64,192,101520,128,0,101635:0:0:0:0:
320,192,101520,1,0,0:0:0:0:
192,192,101635,128,0,101751:0:0:0:0:
448,192,101751,128,0,101866:0:0:0:0:
64,192,101866,128,0,101981:0:0:0:0:
320,192,101981,1,0,0:0:0:0:
192,192,101981,1,0,0:0:0:0:
64,192,102097,128,0,102212:0:0:0:0:
64,192,102328,128,0,102443:0:0:0:0:
192,192,102443,1,0,0:0:0:0:
448,192,102443,128,0,102558:0:0:0:0:
320,192,102558,128,0,102674:0:0:0:0:
64,192,102674,128,0,102905:0:0:0:0:
192,192,102789,128,0,102905:0:0:0:0:
448,192,102905,128,0,103020:0:0:0:0:
320,192,102905,1,0,0:0:0:0:
64,192,103020,128,0,103135:0:0:0:0:
192,192,103135,1,0,0:0:0:0:
320,192,103251,1,0,0:0:0:0:
448,192,103366,1,0,0:0:0:0:
64,192,103366,1,0,0:0:0:0:
192,192,103481,1,0,0:0:0:0:
320,192,103597,1,0,0:0:0:0:
448,192,103597,1,0,0:0:0:0:
64,192,103712,1,0,0:0:0:0:
320,192,103828,1,0,0:0:0:0:
192,192,103828,1,0,0:0:0:0:
448,192,103943,1,0,0:0:0:0:
192,192,104058,1,0,0:0:0:0:
64,192,104058,1,0,0:0:0:0:
320,192,104174,1,0,0:0:0:0:
192,192,104289,1,0,0:0:0:0:
64,192,104289,1,0,0:0:0:0:
448,192,104289,128,0,104520:0:0:0:0:
320,192,104520,128,0,104751:0:0:0:0:
192,192,104635,128,0,104751:0:0:0:0:
64,192,104751,1,0,0:0:0:0:
320,192,104866,128,0,104981:0:0:0:0:
448,192,104866,128,0,104981:0:0:0:0:
448,192,105097,128,0,105212:0:0:0:0:
320,192,105097,128,0,105212:0:0:0:0:
64,192,105212,128,0,105443:0:0:0:0:
192,192,105212,1,0,0:0:0:0:
320,192,105443,128,0,105558:0:0:0:0:
192,192,105443,128,0,105558:0:0:0:0:
448,192,105558,128,0,105674:0:0:0:0:
64,192,105558,128,0,105674:0:0:0:0:
320,192,105674,1,0,0:0:0:0:
192,192,105789,128,0,105905:0:0:0:0:
448,192,105905,128,0,106020:0:0:0:0:
64,192,106020,128,0,106135:0:0:0:0:
320,192,106135,128,0,106366:0:0:0:0:
192,192,106135,1,0,0:0:0:0:
192,192,106366,128,0,106481:0:0:0:0:
64,192,106366,128,0,106481:0:0:0:0:
448,192,106481,128,0,106597:0:0:0:0:
320,192,106481,128,0,106597:0:0:0:0:
64,192,106597,1,0,0:0:0:0:
192,192,106712,128,0,106828:0:0:0:0:
448,192,106828,128,0,106943:0:0:0:0:
320,192,106943,128,0,107058:0:0:0:0:
192,192,107058,128,0,107174:0:0:0:0:
64,192,107058,1,0,0:0:0:0:
448,192,107174,128,0,107289:0:0:0:0:
64,192,107289,128,0,107405:0:0:0:0:
320,192,107405,128,0,107520:0:0:0:0:
192,192,107520,128,0,107635:0:0:0:0:
64,192,107520,1,0,0:0:0:0:
448,192,107635,128,0,107751:0:0:0:0:
64,192,107751,128,0,107866:0:0:0:0:
192,192,107866,128,0,107981:0:0:0:0:
448,192,107981,128,0,108097:0:0:0:0:
320,192,107981,1,0,0:0:0:0:
64,192,108097,128,0,108212:0:0:0:0:
320,192,108212,128,0,108328:0:0:0:0:
192,192,108328,128,0,108443:0:0:0:0:
448,192,108443,1,0,0:0:0:0:
64,192,108443,1,0,0:0:0:0:
192,192,108558,128,0,108674:0:0:0:0:
192,192,108789,128,0,108905:0:0:0:0:
320,192,108905,128,0,109020:0:0:0:0:
64,192,108905,1,0,0:0:0:0:
448,192,109020,128,0,109135:0:0:0:0:
192,192,109135,128,0,109251:0:0:0:0:
64,192,109251,128,0,109366:0:0:0:0:
320,192,109366,1,0,0:0:0:0:
448,192,109366,1,0,0:0:0:0:
64,192,109481,128,0,109597:0:0:0:0:
192,192,109597,128,0,109712:0:0:0:0:
320,192,109712,128,0,109828:0:0:0:0:
448,192,109828,1,0,0:0:0:0:
64,192,109828,1,0,0:0:0:0:
192,192,109905,1,0,0:0:0:0:
64,192,109981,1,0,0:0:0:0:
320,192,110058,1,0,0:0:0:0:
448,192,110135,1,0,0:0:0:0:
192,192,110212,1,0,0:0:0:0:
320,192,110289,1,0,0:0:0:0:
64,192,110366,1,0,0:0:0:0:
448,192,110443,1,0,0:0:0:0:
192,192,110520,1,0,0:0:0:0:
320,192,110597,1,0,0:0:0:0:
64,192,110674,1,0,0:0:0:0:
448,192,110751,1,0,0:0:0:0:
320,192,110828,1,0,0:0:0:0:
192,192,110905,1,0,0:0:0:0:
448,192,110981,1,0,0:0:0:0:
64,192,111058,1,0,0:0:0:0:
192,192,111135,1,0,0:0:0:0:
320,192,111212,1,0,0:0:0:0:
64,192,111289,1,0,0:0:0:0:
192,192,111366,1,0,0:0:0:0:
448,192,111443,1,0,0:0:0:0:
320,192,111520,1,0,0:0:0:0:
64,192,111597,1,0,0:0:0:0:
192,192,111674,1,0,0:0:0:0:
448,192,111674,128,0,111789:0:0:0:0:
320,192,111789,128,0,111905:0:0:0:0:
64,192,111905,128,0,112020:0:0:0:0:
192,192,112020,128,0,112135:0:0:0:0:
448,192,112135,128,0,112251:0:0:0:0:
64,192,112135,1,0,0:0:0:0:
320,192,112251,128,0,112366:0:0:0:0:
64,192,112366,128,0,112481:0:0:0:0:
448,192,112481,128,0,112597:0:0:0:0:
192,192,112597,1,0,0:0:0:0:
64,192,112597,1,0,0:0:0:0:
320,192,112674,1,0,0:0:0:0:
64,192,112751,1,0,0:0:0:0:
448,192,112828,1,0,0:0:0:0:
320,192,112905,1,0,0:0:0:0:
192,192,112981,1,0,0:0:0:0:
448,192,113058,1,0,0:0:0:0:
320,192,113135,1,0,0:0:0:0:
64,192,113212,1,0,0:0:0:0:
192,192,113289,1,0,0:0:0:0:
448,192,113366,1,0,0:0:0:0:
64,192,113443,1,0,0:0:0:0:
320,192,113520,1,0,0:0:0:0:
192,192,113520,128,0,113635:0:0:0:0:
64,192,113635,128,0,113751:0:0:0:0:
320,192,113751,128,0,113866:0:0:0:0:
448,192,113866,128,0,113981:0:0:0:0:
192,192,113981,128,0,114097:0:0:0:0:
320,192,113981,1,0,0:0:0:0:
64,192,114097,128,0,114212:0:0:0:0:
448,192,114212,128,0,114328:0:0:0:0:
320,192,114328,128,0,114443:0:0:0:0:
192,192,114443,1,0,0:0:0:0:
64,192,114443,1,0,0:0:0:0:
64,192,114674,128,0,114789:0:0:0:0:
320,192,114789,128,0,114905:0:0:0:0:
448,192,114905,128,0,115020:0:0:0:0:
64,192,114905,1,0,0:0:0:0:
192,192,115020,128,0,115135:0:0:0:0:
320,192,115135,128,0,115251:0:0:0:0:
64,192,115251,128,0,115366:0:0:0:0:
192,192,115366,128,0,115481:0:0:0:0:
320,192,115366,1,0,0:0:0:0:
448,192,115481,128,0,115597:0:0:0:0:
64,192,115597,128,0,115712:0:0:0:0:
320,192,115712,128,0,115828:0:0:0:0:
192,192,115828,1,0,0:0:0:0:
448,192,115828,1,0,0:0:0:0:
320,192,115943,128,0,116058:0:0:0:0:
320,192,116174,128,0,116289:0:0:0:0:
192,192,116289,128,0,116405:0:0:0:0:
64,192,116289,1,0,0:0:0:0:
448,192,116405,128,0,116520:0:0:0:0:
64,192,116520,128,0,116635:0:0:0:0:
192,192,116635,128,0,116751:0:0:0:0:
320,192,116751,1,0,0:0:0:0:
448,192,116751,1,0,0:0:0:0:
192,192,116866,128,0,116981:0:0:0:0:
192,192,117097,128,0,117212:0:0:0:0:
448,192,117212,128,0,117328:0:0:0:0:
64,192,117212,1,0,0:0:0:0:
320,192,117328,128,0,117443:0:0:0:0:
64,192,117443,128,0,117558:0:0:0:0:
192,192,117558,128,0,117674:0:0:0:0:
320,192,117674,128,0,117789:0:0:0:0:
64,192,117674,1,0,0:0:0:0:
448,192,117789,128,0,117905:0:0:0:0:
192,192,117905,1,0,0:0:0:0:
320,192,118020,128,0,118135:0:0:0:0:
448,192,118135,1,0,0:0:0:0:
64,192,118135,1,0,0:0:0:0:
192,192,118251,1,0,0:0:0:0:
448,192,118366,1,0,0:0:0:0:
320,192,118366,1,0,0:0:0:0:
64,192,118481,1,0,0:0:0:0:
320,192,118597,1,0,0:0:0:0:
192,192,118597,1,0,0:0:0:0:
448,192,118712,1,0,0:0:0:0:
192,192,118828,1,0,0:0:0:0:
64,192,118828,1,0,0:0:0:0:
320,192,118943,1,0,0:0:0:0:
64,192,119058,1,0,0:0:0:0:
448,192,119058,128,0,119289:0:0:0:0:
192,192,119058,1,0,0:0:0:0:
192,192,119289,128,0,119520:0:0:0:0:
448,192,119405,128,0,119520:0:0:0:0:
320,192,119520,1,0,0:0:0:0:
64,192,119520,1,0,0:0:0:0:
192,192,119635,128,0,119751:0:0:0:0:
320,192,119751,128,0,119866:0:0:0:0:
64,192,119866,128,0,119981:0:0:0:0:
192,192,119981,128,0,120212:0:0:0:0:
448,192,119981,1,0,0:0:0:0:
320,192,120212,128,0,120443:0:0:0:0:
192,192,120328,128,0,120443:0:0:0:0:
448,192,120443,1,0,0:0:0:0:
64,192,120443,1,0,0:0:0:0:
320,192,120558,128,0,120674:0:0:0:0:
192,192,120674,1,0,0:0:0:0:
64,192,120789,128,0,120905:0:0:0:0:
448,192,120905,1,0,0:0:0:0:
320,192,120905,1,0,0:0:0:0:
192,192,121135,1,0,0:0:0:0:
320,192,121251,1,0,0:0:0:0:
448,192,121366,1,0,0:0:0:0:
64,192,121366,1,0,0:0:0:0:
320,192,121597,128,0,121828:0:0:0:0:
192,192,121597,1,0,0:0:0:0:
64,192,121828,128,0,122058:0:0:0:0:
448,192,121828,1,0,0:0:0:0:
192,192,122058,128,0,122289:0:0:0:0:
320,192,122058,1,0,0:0:0:0:
64,192,122289,1,0,0:0:0:0:
448,192,122289,128,0,122405:0:0:0:0:
320,192,122405,128,0,122520:0:0:0:0:
64,192,122520,128,0,122635:0:0:0:0:
192,192,122635,128,0,122751:0:0:0:0:
448,192,122751,1,0,0:0:0:0:
320,192,122751,128,0,122866:0:0:0:0:
192,192,122866,128,0,122981:0:0:0:0:
64,192,122981,128,0,123097:0:0:0:0:
448,192,123097,128,0,123212:0:0:0:0:
320,192,123212,128,0,123328:0:0:0:0:
192,192,123212,1,0,0:0:0:0:
64,192,123328,128,0,123443:0:0:0:0:
192,192,123443,128,0,123558:0:0:0:0:
448,192,123558,128,0,123674:0:0:0:0:
64,192,123674,128,0,123789:0:0:0:0:
192,192,123674,1,0,0:0:0:0:
320,192,123789,128,0,123905:0:0:0:0:
448,192,123905,128,0,124020:0:0:0:0:
192,192,124020,128,0,124135:0:0:0:0:
320,192,124135,128,0,124251:0:0:0:0:
64,192,124135,1,0,0:0:0:0:
448,192,124251,128,0,124597:0:0:0:0:
64,192,124481,128,0,124597:0:0:0:0:
192,192,124597,1,0,0:0:0:0:
320,192,124597,1,0,0:0:0:0:
448,192,124828,1,0,0:0:0:0:
320,192,124943,1,0,0:0:0:0:
64,192,125058,1,0,0:0:0:0:
192,192,125058,128,0,125174:0:0:0:0:
448,192,125174,128,0,125289:0:0:0:0:
64,192,125289,128,0,125405:0:0:0:0:
320,192,125405,128,0,125520:0:0:0:0:
448,192,125520,1,0,0:0:0:0:
64,192,125520,1,0,0:0:0:0:
192,192,125597,1,0,0:0:0:0:
320,192,125674,1,0,0:0:0:0:
64,192,125751,1,0,0:0:0:0:
192,192,125828,1,0,0:0:0:0:
448,192,125905,1,0,0:0:0:0:
64,192,125981,1,0,0:0:0:0:
320,192,126058,1,0,0:0:0:0:
448,192,126135,1,0,0:0:0:0:
192,192,126212,1,0,0:0:0:0:
320,192,126289,1,0,0:0:0:0:
64,192,126366,1,0,0:0:0:0:
192,192,126443,1,0,0:0:0:0:
448,192,126443,128,0,126674:0:0:0:0:
64,192,126674,128,0,126905:0:0:0:0:
448,192,126789,128,0,126905:0:0:0:0:
320,192,126905,1,0,0:0:0:0:
192,192,126905,1,0,0:0:0:0:
64,192,127020,128,0,127135:0:0:0:0:
192,192,127135,128,0,127251:0:0:0:0:
448,192,127251,128,0,127366:0:0:0:0:
320,192,127366,128,0,127597:0:0:0:0:
192,192,127366,1,0,0:0:0:0:
64,192,127366,1,0,0:0:0:0:
448,192,127597,128,0,127828:0:0:0:0:
192,192,127712,128,0,127828:0:0:0:0:
320,192,127828,1,0,0:0:0:0:
64,192,127828,1,0,0:0:0:0:
448,192,127943,128,0,128058:0:0:0:0:
192,192,128058,128,0,128174:0:0:0:0:
448,192,128174,128,0,128289:0:0:0:0:
64,192,128289,1,0,0:0:0:0:
320,192,128289,128,0,128520:0:0:0:0:
192,192,128289,128,0,128520:0:0:0:0:
64,192,128635,128,0,128866:0:0:0:0:
320,192,128635,128,0,128866:0:0:0:0:
448,192,128635,1,0,0:0:0:0:
64,192,128981,128,0,129212:0:0:0:0:
192,192,128981,128,0,129212:0:0:0:0:
448,192,128981,1,0,0:0:0:0:
448,192,129212,1,0,0:0:0:0:
320,192,129212,1,0,0:0:0:0:
192,192,129328,1,0,0:0:0:0:
448,192,129443,1,0,0:0:0:0:
64,192,129443,1,0,0:0:0:0:
320,192,129558,1,0,0:0:0:0:
192,192,129674,1,0,0:0:0:0:
64,192,129674,1,0,0:0:0:0:
320,192,129789,1,0,0:0:0:0:
448,192,129905,1,0,0:0:0:0:
192,192,129905,1,0,0:0:0:0:
64,192,130020,1,0,0:0:0:0:
192,192,130135,1,0,0:0:0:0:
448,192,130135,1,0,0:0:0:0:
320,192,130135,128,0,130251:0:0:0:0:
64,192,130251,128,0,130366:0:0:0:0:
448,192,130366,128,0,130481:0:0:0:0:
192,192,130481,128,0,130597:0:0:0:0:
320,192,130597,1,0,0:0:0:0:
64,192,130597,1,0,0:0:0:0:
192,192,130712,128,0,130828:0:0:0:0:
448,192,130828,128,0,130943:0:0:0:0:
64,192,130943,128,0,131058:0:0:0:0:
192,192,131058,1,0,0:0:0:0:
320,192,131058,128,0,131289:0:0:0:0:
448,192,131174,128,0,131289:0:0:0:0:
64,192,131289,128,0,131520:0:0:0:0:
192,192,131405,128,0,131520:0:0:0:0:
320,192,131520,1,0,0:0:0:0:
448,192,131520,128,0,131751:0:0:0:0:
64,192,131635,128,0,131751:0:0:0:0:
192,192,131751,128,0,131866:0:0:0:0:
320,192,131866,128,0,131981:0:0:0:0:
64,192,131981,128,0,132212:0:0:0:0:
448,192,131981,1,0,0:0:0:0:
192,192,131981,1,0,0:0:0:0:
320,192,132212,1,0,0:0:0:0:
448,192,132328,1,0,0:0:0:0:
192,192,132443,128,0,132674:0:0:0:0:
64,192,132443,1,0,0:0:0:0:
320,192,132443,1,0,0:0:0:0:
448,192,132674,1,0,0:0:0:0:
64,192,132789,1,0,0:0:0:0:
192,192,132905,1,0,0:0:0:0:
320,192,132905,128,0,133135:0:0:0:0:
448,192,132905,1,0,0:0:0:0:
64,192,133135,128,0,133251:0:0:0:0:
192,192,133251,128,0,133366:0:0:0:0:
448,192,133366,128,0,133597:0:0:0:0:
320,192,133366,1,0,0:0:0:0:
64,192,133481,128,0,133597:0:0:0:0:
192,192,133597,128,0,133828:0:0:0:0:
320,192,133712,128,0,133828:0:0:0:0:
64,192,133828,1,0,0:0:0:0:
448,192,133828,128,0,133943:0:0:0:0:
192,192,133943,128,0,134058:0:0:0:0:
64,192,134058,128,0,134174:0:0:0:0:
320,192,134174,128,0,134289:0:0:0:0:
192,192,134289,1,0,0:0:0:0:
448,192,134289,1,0,0:0:0:0:
320,192,134405,128,0,134520:0:0:0:0:
64,192,134520,128,0,134635:0:0:0:0:
320,192,134635,128,0,134751:0:0:0:0:
192,192,134751,128,0,134866:0:0:0:0:
448,192,134751,1,0,0:0:0:0:
64,192,134866,128,0,134981:0:0:0:0:
320,192,134981,128,0,135097:0:0:0:0:
448,192,135097,128,0,135212:0:0:0:0:
192,192,135212,1,0,0:0:0:0:
64,192,135212,1,0,0:0:0:0:
448,192,135328,128,0,135443:0:0:0:0:
64,192,135443,128,0,135558:0:0:0:0:
192,192,135558,128,0,135674:0:0:0:0:
448,192,135674,1,0,0:0:0:0:
64,192,135674,1,0,0:0:0:0:
320,192,135751,1,0,0:0:0:0:
64,192,135828,1,0,0:0:0:0:
448,192,135905,1,0,0:0:0:0:
192,192,135981,1,0,0:0:0:0:
64,192,136058,1,0,0:0:0:0:
320,192,136135,1,0,0:0:0:0:
448,192,136212,1,0,0:0:0:0:
192,192,136289,1,0,0:0:0:0:
320,192,136366,1,0,0:0:0:0:
64,192,136443,1,0,0:0:0:0:
192,192,136520,1,0,0:0:0:0:
448,192,136597,128,0,136712:0:0:0:0:
320,192,136597,128,0,136712:0:0:0:0:
448,192,136828,128,0,136943:0:0:0:0:
64,192,136828,128,0,136943:0:0:0:0:
320,192,137058,128,0,137174:0:0:0:0:
64,192,137058,128,0,137174:0:0:0:0:
192,192,137289,128,0,137405:0:0:0:0:
320,192,137289,128,0,137405:0:0:0:0:
64,192,137520,1,0,0:0:0:0:
448,192,137520,128,0,137635:0:0:0:0:
192,192,137635,128,0,137751:0:0:0:0:
64,192,137751,128,0,137866:0:0:0:0:
320,192,137866,128,0,137981:0:0:0:0:
192,192,137981,1,0,0:0:0:0:
448,192,137981,1,0,0:0:0:0:
320,192,138097,128,0,138212:0:0:0:0:
64,192,138212,128,0,138328:0:0:0:0:
320,192,138328,128,0,138443:0:0:0:0:
448,192,138443,128,0,138558:0:0:0:0:
64,192,138443,1,0,0:0:0:0:
192,192,138558,128,0,138674:0:0:0:0:
320,192,138674,128,0,138789:0:0:0:0:
64,192,138789,128,0,138905:0:0:0:0:
448,192,138905,128,0,139020:0:0:0:0:
192,192,138905,1,0,0:0:0:0:
320,192,139020,128,0,139135:0:0:0:0:
64,192,139135,128,0,139251:0:0:0:0:
192,192,139251,128,0,139366:0:0:0:0:
448,192,139366,1,0,0:0:0:0:
64,192,139366,1,0,0:0:0:0:
320,192,139443,1,0,0:0:0:0:
64,192,139520,1,0,0:0:0:0:
448,192,139597,1,0,0:0:0:0:
192,192,139674,1,0,0:0:0:0:
64,192,139751,1,0,0:0:0:0:
320,192,139828,1,0,0:0:0:0:
192,192,139905,1,0,0:0:0:0:
64,192,139981,1,0,0:0:0:0:
320,192,140058,1,0,0:0:0:0:
448,192,140135,1,0,0:0:0:0:
192,192,140212,1,0,0:0:0:0:
320,192,140289,128,0,140405:0:0:0:0:
64,192,140289,128,0,140405:0:0:0:0:
448,192,140520,128,0,140635:0:0:0:0:
320,192,140520,128,0,140635:0:0:0:0:
192,192,140635,128,0,140751:0:0:0:0:
64,192,140635,128,0,140751:0:0:0:0:
448,192,140751,1,0,0:0:0:0:
320,192,140866,128,0,140981:0:0:0:0:
64,192,140981,128,0,141097:0:0:0:0:
192,192,141097,128,0,141212:0:0:0:0:
320,192,141212,1,0,0:0:0:0:
448,192,141212,128,0,141328:0:0:0:0:
64,192,141212,1,0,0:0:0:0:
192,192,141328,128,0,141443:0:0:0:0:
64,192,141443,128,0,141558:0:0:0:0:
320,192,141558,128,0,141674:0:0:0:0:
448,192,141674,128,0,141789:0:0:0:0:
64,192,141674,1,0,0:0:0:0:
192,192,141789,128,0,141905:0:0:0:0:
64,192,141905,128,0,142020:0:0:0:0:
192,192,142020,128,0,142135:0:0:0:0:
320,192,142135,128,0,142251:0:0:0:0:
448,192,142135,1,0,0:0:0:0:
64,192,142251,128,0,142366:0:0:0:0:
448,192,142366,128,0,142481:0:0:0:0:
192,192,142481,128,0,142597:0:0:0:0:
64,192,142597,128,0,142712:0:0:0:0:
320,192,142597,1,0,0:0:0:0:
448,192,142712,128,0,142828:0:0:0:0:
320,192,142828,128,0,142943:0:0:0:0:
192,192,142943,128,0,143058:0:0:0:0:
448,192,143058,128,0,143174:0:0:0:0:
320,192,143058,1,0,0:0:0:0:
64,192,143174,128,0,143289:0:0:0:0:
192,192,143289,128,0,143405:0:0:0:0:
320,192,143405,128,0,143520:0:0:0:0:
192,192,143520,128,0,143635:0:0:0:0:
448,192,143520,1,0,0:0:0:0:
64,192,143635,128,0,143751:0:0:0:0:
448,192,143751,128,0,143866:0:0:0:0:
320,192,143866,128,0,143981:0:0:0:0:
192,192,143981,128,0,144212:0:0:0:0:
448,192,143981,1,0,0:0:0:0:
64,192,144097,128,0,144212:0:0:0:0:
320,192,144212,128,0,144443:0:0:0:0:
64,192,144328,128,0,144443:0:0:0:0:
448,192,144443,128,0,144674:0:0:0:0:
192,192,144443,1,0,0:0:0:0:
320,192,144558,128,0,144674:0:0:0:0:
192,192,144674,128,0,144905:0:0:0:0:
64,192,144674,1,0,0:0:0:0:
448,192,144789,128,0,144905:0:0:0:0:
320,192,144905,1,0,0:0:0:0:
64,192,144905,128,0,145020:0:0:0:0:
192,192,145020,128,0,145135:0:0:0:0:
448,192,145135,128,0,145251:0:0:0:0:
320,192,145251,128,0,145366:0:0:0:0:
64,192,145366,128,0,145481:0:0:0:0:
448,192,145366,1,0,0:0:0:0:
192,192,145481,128,0,145597:0:0:0:0:
320,192,145597,128,0,145712:0:0:0:0:
448,192,145712,128,0,145828:0:0:0:0:
192,192,145828,128,0,145943:0:0:0:0:
64,192,145828,1,0,0:0:0:0:
320,192,145943,128,0,146058:0:0:0:0:
64,192,146058,128,0,146174:0:0:0:0:
448,192,146174,128,0,146289:0:0:0:0:
192,192,146289,128,0,146405:0:0:0:0:
320,192,146289,1,0,0:0:0:0:
64,192,146405,128,0,146520:0:0:0:0:
320,192,146520,128,0,146635:0:0:0:0:
448,192,146635,128,0,146751:0:0:0:0:
192,192,146751,1,0,0:0:0:0:
320,192,146751,1,0,0:0:0:0:
64,192,146751,128,0,146981:0:0:0:0:
320,192,146981,128,0,147097:0:0:0:0:
192,192,147097,128,0,147212:0:0:0:0:
64,192,147212,1,0,0:0:0:0:
448,192,147212,128,0,147328:0:0:0:0:
320,192,147328,128,0,147443:0:0:0:0:
64,192,147443,128,0,147558:0:0:0:0:
192,192,147558,128,0,147674:0:0:0:0:
448,192,147674,1,0,0:0:0:0:
320,192,147751,1,0,0:0:0:0:
64,192,147828,1,0,0:0:0:0:
192,192,147905,1,0,0:0:0:0:
448,192,147981,1,0,0:0:0:0:
320,192,148058,1,0,0:0:0:0:
192,192,148135,1,0,0:0:0:0:
64,192,148135,128,0,148366:0:0:0:0:
448,192,148251,128,0,148366:0:0:0:0:
320,192,148366,128,0,148597:0:0:0:0:
192,192,148481,128,0,148597:0:0:0:0:
448,192,148597,1,0,0:0:0:0:
64,192,148597,1,0,0:0:0:0:
