osu file format v14

[General]
AudioFilename: audio.mp3
AudioLeadIn: 0
PreviewTime: 118933
Countdown: 0
SampleSet: Drum
StackLeniency: 0.7
Mode: 2
LetterboxInBreaks: 0
WidescreenStoryboard: 0

[Editor]
Bookmarks: 15664,30433,45202,59971,74741,89510,104279,119048,133818,148587
DistanceSpacing: 1.6
BeatDivisor: 6
GridSize: 8
TimelineZoom: 1.9

[Metadata]
Title:Grin
TitleUnicode:Grin
Artist:HyuN
ArtistUnicode:HyuN
Creator:Absolute Zero
Version:Collab Overdose
Source:osu!
Tags:piano house jbhyperion jbh magic bomb mbomb ajamez jemzuu halfsmashed MUSIQLO instrumental featured artist mappers guild in the wind and in time 바람과 시간 속 1st healing concept album
BeatmapID:2230881
BeatmapSetID:1065368

[Difficulty]
HPDrainRate:6
CircleSize:4.2
OverallDifficulty:9.3
ApproachRate:9.3
SliderMultiplier:2.4
SliderTickRate:1

[Events]
//Background and Video events
0,0,"skypesmiley.jpg",0,0
//Break Periods
//Storyboard Layer 0 (Background)
//Storyboard Layer 1 (Fail)
//Storyboard Layer 2 (Pass)
//Storyboard Layer 3 (Foreground)
//Storyboard Layer 4 (Overlay)
//Storyboard Sound Samples

[TimingPoints]
895,461.538461538462,4,2,1,50,1,0
15664,-100,4,2,1,80,0,1
15779,-100,4,2,1,70,0,0
23741,-76.9230769230769,4,2,1,70,0,0
24895,-100,4,2,1,70,0,0
30433,-100,4,1,1,80,0,1
30548,-100,4,1,1,70,0,0
45202,-83.3333333333333,4,3,1,90,0,1
59971,-100,4,1,1,60,0,0
74741,-100,4,1,1,70,0,0
102895,-66.6666666666667,4,1,1,70,0,0
103010,-100,4,1,1,70,0,0
112587,-83.3333333333333,4,1,1,70,0,0
113510,-90.9090909090909,4,1,1,70,0,0
119048,-100,4,1,1,80,0,1
119164,-100,4,1,1,70,0,0
133818,-83.3333333333333,4,3,1,90,0,1
148587,-100,4,2,1,50,0,0
151356,-100,4,2,1,45,0,0
152279,-100,4,2,1,40,0,0
153202,-100,4,2,1,35,0,0
154125,-100,4,2,1,30,0,0
155048,-100,4,2,1,25,0,0
155971,-100,4,2,1,20,0,0
156895,-100,4,2,1,15,0,0
157818,-100,4,2,1,10,0,0
158741,-100,4,2,1,5,0,0

[Colours]
Combo1 : 0,91,183
Combo2 : 32,165,168
Combo3 : 153,153,153
Combo4 : 224,3,3

[HitObjects]
341,172,895,5,0,0:0:0:0:
272,174,1010,1,0,0:0:0:0:
341,172,1125,1,0,0:0:0:0:
272,174,1241,1,0,0:0:0:0:
63,174,1587,1,0,0:0:0:0:
132,175,1702,1,0,0:0:0:0:
63,174,1818,1,0,0:0:0:0:
132,175,1933,1,0,0:0:0:0:
322,198,2279,1,0,0:0:0:0:
387,198,2395,1,0,0:0:0:0:
446,196,2510,1,0,0:0:0:0:
387,198,2625,1,0,0:0:0:0:
254,267,2741,6,0,P|222:197|270:35,1,240
379,182,3433,2,0,L|379:135,1,30
282,118,3664,2,0,L|125:144,1,120
316,213,4125,2,0,L|410:200,1,60
263,141,4471,1,0,0:0:0:0:
174,141,4587,5,0,0:0:0:0:
105,145,4702,1,0,0:0:0:0:
174,141,4818,1,0,0:0:0:0:
105,145,4933,1,0,0:0:0:0:
312,144,5279,1,0,0:0:0:0:
381,145,5395,1,0,0:0:0:0:
312,144,5510,1,0,0:0:0:0:
381,145,5625,1,0,0:0:0:0:
191,270,5971,1,0,0:0:0:0:
126,271,6087,1,0,0:0:0:0:
62,271,6202,1,0,0:0:0:0:
126,271,6318,1,0,0:0:0:0:
257,269,6433,6,0,P|293:205|225:45,1,240
116,96,7125,2,0,L|116:49,1,40
227,56,7356,2,0,L|351:56,1,120
208,166,7818,2,0,L|120:156,1,60
15,149,8164,1,0,0:0:0:0:
137,272,8279,5,0,0:0:0:0:
207,272,8395,1,0,0:0:0:0:
137,272,8510,1,0,0:0:0:0:
207,272,8625,1,0,0:0:0:0:
413,275,8971,1,0,0:0:0:0:
349,278,9087,1,0,0:0:0:0:
413,275,9202,1,0,0:0:0:0:
477,271,9318,1,0,0:0:0:0:
268,116,9664,1,0,0:0:0:0:
195,135,9779,1,0,0:0:0:0:
268,116,9895,1,0,0:0:0:0:
195,135,10010,1,0,0:0:0:0:
316,283,10125,6,0,P|354:230|302:72,1,240
130,181,10818,2,0,L|130:134,1,30
267,56,11048,1,0,0:0:0:0:
334,78,11164,1,0,0:0:0:0:
338,141,11279,1,0,0:0:0:0:
265,157,11395,1,0,0:0:0:0:
181,157,11510,1,0,0:0:0:0:
247,157,11625,1,0,0:0:0:0:
181,157,11741,1,0,0:0:0:0:
105,157,11856,1,0,0:0:0:0:
208,247,11971,5,0,0:0:0:0:
265,247,12029,2,0,P|322:217|253:125,1,210
424,238,12663,5,0,0:0:0:0:
367,238,12721,2,0,P|310:208|379:116,1,210
236,86,13356,2,0,L|111:73,1,120
312,82,13818,6,0,L|292:337,1,240
512,326,14741,2,0,L|373:323,1,120
313,242,15087,1,0,0:0:0:0:
390,239,15202,2,0,L|388:116,1,120
44,313,15664,5,4,0:0:0:0:
80,214,15779,1,0,0:0:0:0:
157,142,15894,1,0,0:0:0:0:
257,113,16010,1,0,0:0:0:0:
257,113,16356,5,0,0:0:0:0:
157,142,16472,1,0,0:0:0:0:
80,214,16587,1,0,0:0:0:0:
44,313,16702,1,0,0:0:0:0:
44,313,17048,1,8,0:0:0:0:
136,332,17164,1,0,0:0:0:0:
44,313,17279,1,0,0:0:0:0:
136,332,17395,1,0,0:0:0:0:
287,343,17510,6,0,L|315:209,2,120,0|0|8,0:0|0:0|0:0,0:0:0:0:
487,184,18202,2,0,L|486:151,1,30
357,138,18433,2,0,B|350:77|350:77|356:140,1,120
178,181,18895,2,0,B|172:211|172:211|177:179,1,60,8|0,0:0|0:0,0:0:0:0:
481,329,19356,5,0,0:0:0:0:
445,230,19471,1,0,0:0:0:0:
368,158,19586,1,0,0:0:0:0:
268,129,19702,1,0,0:0:0:0:
268,129,20048,5,0,0:0:0:0:
368,158,20164,1,0,0:0:0:0:
445,230,20279,1,0,0:0:0:0:
481,329,20394,1,0,0:0:0:0:
481,329,20740,1,8,0:0:0:0:
389,348,20856,1,0,0:0:0:0:
481,329,20971,1,0,0:0:0:0:
389,348,21087,1,0,0:0:0:0:
228,360,21202,5,0,0:0:0:0:
228,360,21433,1,0,0:0:0:0:
228,360,21664,1,8,0:0:0:0:
28,307,21895,2,0,L|32:260,1,30
186,216,22125,2,0,P|106:199|50:207,1,120
291,160,22587,2,0,B|321:157|321:157|290:159,1,60,8|0,0:0|0:0,0:0:0:0:
115,113,22933,1,0,0:0:0:0:
328,146,23048,6,0,L|350:236,3,60
487,293,23741,2,0,L|379:304,3,77.9999964294435
203,276,24433,2,0,L|301:296,3,77.9999964294435,8|0|0|0,0:0|0:0|0:0|0:0,0:0:0:0:
157,206,24895,6,0,P|94:198|38:162,1,120
104,137,25241,1,0,0:0:0:0:
169,133,25356,1,8,0:0:0:0:
383,142,25587,2,0,L|389:94,1,30
232,53,25818,6,0,L|220:132,1,60
295,135,26048,2,0,L|305:202,1,60
401,216,26279,2,0,L|425:284,1,60,8|0,0:0|0:0,0:0:0:0:
323,295,26510,2,0,L|303:382,1,60
495,357,26741,6,0,L|461:349,1,30
336,353,26971,2,0,L|322:293,1,60
391,273,27202,1,8,0:0:0:0:
203,242,27433,2,0,P|119:233|60:191,1,120
256,142,27895,2,0,L|327:126,2,60,0|0|8,0:0|0:0|0:0,0:0:0:0:
439,90,28356,1,0,0:0:0:0:
125,64,28587,6,0,P|149:135|204:152,1,120,4|0,0:0|0:0,0:0:0:0:
258,159,28933,1,0,0:0:0:0:
473,260,29048,2,0,L|335:267,1,120,4|0,0:0|0:0,0:0:0:0:
425,312,29395,1,0,0:0:0:0:
234,358,29510,2,0,L|145:352,1,60,4|0,0:0|0:0,0:0:0:0:
208,287,29741,2,0,L|285:291,1,60
62,202,29971,2,0,L|146:186,1,60,6|2,0:0|0:0,0:0:0:0:
30,171,30202,2,0,L|22:96,1,60,6|2,0:0|0:0,0:0:0:0:
232,192,30433,6,0,P|312:168|344:128,1,120,4|0,0:0|0:0,0:0:0:0:
152,192,30779,2,0,L|80:192,2,60,0|8|0,0:0|0:0|0:0,0:0:0:0:
216,192,31125,1,0,0:0:0:0:
280,192,31241,1,0,0:0:0:0:
92,192,31356,2,4,P|52:136|84:112,1,120,4|0,0:0|0:0,0:0:0:0:
216,192,31702,2,0,L|288:192,1,60,0|8,0:0|0:0,0:0:0:0:
152,192,31933,2,0,L|88:192,1,60
280,192,32164,1,0,0:0:0:0:
392,192,32279,6,0,P|392:168|304:128,1,120,4|0,0:0|0:0,0:0:0:0:
256,192,32625,1,0,0:0:0:0:
192,192,32741,1,8,0:0:0:0:
496,192,32971,1,0,0:0:0:0:
144,192,33202,1,4,0:0:0:0:
496,192,33433,1,0,0:0:0:0:
144,192,33664,2,0,L|208:192,3,60,8|0|0|0,0:0|0:0|0:0|0:0,0:0:0:0:
400,192,34125,6,0,L|472:192,2,60,4|0|0,0:0|0:0|0:0,0:0:0:0:
208,192,34471,2,0,P|288:192|288:192,2,60,0|8|0,0:0|0:0|0:0,0:0:0:0:
88,192,34818,2,0,L|160:192,1,60
336,192,35048,1,4,0:0:0:0:
400,192,35164,1,0,0:0:0:0:
400,192,35279,1,0,0:0:0:0:
336,192,35395,1,0,0:0:0:0:
148,192,35510,1,8,0:0:0:0:
40,192,35625,2,0,L|40:128,1,60
224,192,35856,1,0,0:0:0:0:
336,192,35971,6,0,P|400:176|416:120,1,120,4|0,0:0|0:0,0:0:0:0:
352,192,36318,1,0,0:0:0:0:
296,192,36433,1,8,0:0:0:0:
352,192,36548,1,0,0:0:0:0:
416,192,36664,1,0,0:0:0:0:
296,192,36779,1,0,0:0:0:0:
96,192,36895,2,0,L|48:192,2,40,4|0|0,0:0|0:0|0:0,0:0:0:0:
56,192,37125,2,0,L|0:192,2,40
216,192,37356,2,0,L|256:192,2,40,8|0|0,0:0|0:0|0:0,0:0:0:0:
160,192,37587,2,0,L|112:192,2,40
328,192,37818,6,0,P|376:168|328:128,1,120,6|0,0:0|0:0,0:0:0:0:
128,192,38164,2,0,L|64:192,2,60,0|8|0,0:0|0:0|0:0,0:0:0:0:
248,192,38510,1,0,0:0:0:0:
368,192,38625,1,0,0:0:0:0:
144,192,38741,2,0,P|88:184|72:128,1,120,4|0,0:0|0:0,0:0:0:0:
144,192,39087,1,0,0:0:0:0:
328,192,39202,1,8,0:0:0:0:
392,192,39318,1,0,0:0:0:0:
328,192,39433,1,8,0:0:0:0:
264,192,39548,1,8,0:0:0:0:
480,192,39664,6,0,L|360:192,1,120,6|0,0:0|0:0,0:0:0:0:
136,192,40010,2,0,L|264:192,1,120,2|0,0:0|0:0,0:0:0:0:
480,192,40356,2,0,L|408:192,1,60,2|0,0:0|0:0,0:0:0:0:
200,192,40587,2,0,L|136:192,1,60,6|4,0:0|0:0,0:0:0:0:
264,192,40818,2,0,L|328:192,1,60,4|4,0:0|0:0,0:0:0:0:
128,192,41048,2,0,L|208:192,1,60,6|4,0:0|0:0,0:0:0:0:
312,192,41279,2,0,L|240:192,1,60,4|4,0:0|0:0,0:0:0:0:
72,192,41510,6,0,L|8:192,2,60,4|0|0,0:0|0:0|0:0,0:0:0:0:
200,192,41856,2,0,L|272:192,1,60,0|8,0:0|0:0,0:0:0:0:
184,192,42087,2,0,L|120:192,2,60
368,192,42433,5,4,0:0:0:0:
408,192,42491,1,0,0:0:0:0:
408,192,42548,1,0,0:0:0:0:
368,192,42606,1,0,0:0:0:0:
328,192,42664,1,0,0:0:0:0:
368,192,42721,1,0,0:0:0:0:
408,192,42779,1,0,0:0:0:0:
368,192,42837,1,0,0:0:0:0:
216,192,42895,2,0,P|176:184|168:128,1,90,8|0,0:0|0:0,0:0:0:0:
304,192,43125,1,0,0:0:0:0:
352,192,43183,1,0,0:0:0:0:
384,192,43241,1,0,0:0:0:0:
352,192,43298,1,0,0:0:0:0:
184,192,43356,6,0,P|128:184|96:120,1,120,6|0,0:0|0:0,0:0:0:0:
160,192,43702,1,0,0:0:0:0:
352,192,43818,2,0,L|352:64,1,120,6|4,0:0|0:0,0:0:0:0:
16,192,44279,2,0,P|56:144|136:136,1,120,6|4,0:0|0:0,0:0:0:0:
192,192,44625,1,0,0:0:0:0:
384,192,44741,2,0,L|296:192,1,60,6|4,0:0|0:0,0:0:0:0:
112,192,44971,2,0,L|176:192,1,60,4|4,0:0|0:0,0:0:0:0:
386,193,45202,6,0,L|467:193,1,71.9999978027344,4|0,0:0|0:0,0:0:0:0:
369,118,45433,2,0,L|446:118,1,71.9999978027344
202,192,45664,1,8,0:0:0:0:
118,107,45779,2,0,L|193:107,2,71.9999978027344
362,115,46125,6,0,L|363:199,1,71.9999978027344,4|0,0:0|0:0,0:0:0:0:
272,188,46356,1,0,0:0:0:0:
349,189,46471,1,0,0:0:0:0:
77,190,46587,1,8,0:0:0:0:
150,192,46702,1,0,0:0:0:0:
77,190,46818,1,0,0:0:0:0:
168,191,46933,1,0,0:0:0:0:
398,65,47048,6,0,L|450:65,1,47.9999985351563,4|0,0:0|0:0,0:0:0:0:
381,64,47202,1,0,0:0:0:0:
322,64,47279,2,0,L|256:64,1,47.9999985351563
274,64,47432,1,0,0:0:0:0:
432,138,47510,2,0,L|416:188,1,47.9999985351563,8|0,0:0|0:0,0:0:0:0:
341,123,47664,2,0,L|324:175,1,47.9999985351563
432,138,47818,2,0,L|415:202,1,47.9999985351563
231,193,47971,5,4,0:0:0:0:
426,198,48202,1,0,0:0:0:0:
106,179,48433,2,0,L|264:167,1,143.999995605469,8|0,0:0|0:0,0:0:0:0:
319,161,48779,1,0,0:0:0:0:
96,56,48894,6,0,L|96:138,1,71.9999978027344,4|0,0:0|0:0,0:0:0:0:
192,55,49125,2,0,L|276:44,1,71.9999978027344
485,49,49355,2,0,L|379:36,1,71.9999978027344,8|0,0:0|0:0,0:0:0:0:
342,128,49586,2,0,L|426:117,1,71.9999978027344
187,230,49817,6,0,L|177:147,1,71.9999978027344,4|0,0:0|0:0,0:0:0:0:
90,233,50048,2,0,L|89:137,1,71.9999978027344
297,160,50279,2,0,L|300:265,1,71.9999978027344,8|0,0:0|0:0,0:0:0:0:
192,156,50509,2,0,L|279:156,1,71.9999978027344
30,330,50741,5,4,0:0:0:0:
78,304,50818,1,0,0:0:0:0:
126,275,50895,2,0,L|55:255,1,47.9999985351563
37,237,51048,2,0,L|101:201,1,47.9999985351563
258,194,51202,2,0,L|204:157,1,47.9999985351563,8|0,0:0|0:0,0:0:0:0:
282,187,51356,2,0,L|345:155,1,47.9999985351563
261,117,51510,2,0,L|209:107,1,47.9999985351563
414,38,51664,6,0,L|250:50,1,143.999995605469,4|0,0:0|0:0,0:0:0:0:
182,56,52009,1,0,0:0:0:0:
390,175,52241,2,0,L|483:191,1,71.9999978027344
460,187,52471,1,0,0:0:0:0:
221,164,52586,5,6,0:0:0:0:
151,159,52702,2,0,L|72:159,1,71.9999978027344
155,226,52932,1,0,0:0:0:0:
399,221,53048,2,0,L|311:221,1,71.9999978027344,8|0,0:0|0:0,0:0:0:0:
418,152,53279,2,0,L|319:152,1,71.9999978027344
116,51,53509,6,0,L|117:133,1,71.9999978027344,4|0,0:0|0:0,0:0:0:0:
213,176,53740,2,0,L|106:174,1,71.9999978027344
357,280,53971,1,8,0:0:0:0:
434,281,54087,1,0,0:0:0:0:
357,280,54202,1,0,0:0:0:0:
434,281,54318,1,0,0:0:0:0:
213,204,54432,5,4,0:0:0:0:
305,203,54548,2,0,L|221:189,1,71.9999978027344
149,170,54778,1,0,0:0:0:0:
377,85,54894,2,0,L|456:66,1,71.9999978027344,8|0,0:0|0:0,0:0:0:0:
327,183,55125,2,0,L|413:168,1,71.9999978027344
149,90,55356,6,0,L|136:148,1,47.9999985351563,4|0,0:0|0:0,0:0:0:0:
231,88,55510,2,0,L|219:145,1,47.9999985351563
149,90,55664,2,0,L|133:163,1,47.9999985351563
328,111,55818,2,0,L|288:168,1,47.9999985351563,8|0,0:0|0:0,0:0:0:0:
357,110,55971,2,0,L|422:111,1,47.9999985351563
458,179,56125,2,0,L|398:179,1,47.9999985351563
179,195,56279,5,6,0:0:0:0:
270,195,56394,2,0,L|271:105,1,71.9999978027344
151,118,56625,1,0,0:0:0:0:
352,203,56741,1,8,0:0:0:0:
431,208,56855,2,0,L|431:127,1,71.9999978027344
310,129,57086,1,0,0:0:0:0:
133,199,57202,2,0,L|44:197,1,71.9999978027344,6|0,0:0|0:0,0:0:0:0:
177,275,57433,1,0,0:0:0:0:
42,278,57548,1,0,0:0:0:0:
294,270,57663,2,0,L|199:251,1,71.9999978027344,8|0,0:0|0:0,0:0:0:0:
318,203,57894,2,0,L|403:188,1,71.9999978027344,4|0,0:0|0:0,0:0:0:0:
139,144,58125,5,6,0:0:0:0:
360,62,58356,1,4,0:0:0:0:
134,60,58471,1,4,0:0:0:0:
357,121,58586,2,0,L|442:141,1,71.9999978027344,10|0,0:0|0:0,0:0:0:0:
191,120,58817,2,0,L|109:137,1,71.9999978027344,4|4,0:0|0:0,0:0:0:0:
355,197,59048,5,6,0:0:0:0:
405,199,59125,1,0,0:0:0:0:
442,169,59202,1,0,0:0:0:0:
455,125,59279,1,4,0:0:0:0:
433,169,59356,1,0,0:0:0:0:
389,198,59432,1,0,0:0:0:0:
182,187,59509,2,0,L|97:176,1,71.9999978027344,4|0,0:0|0:0,0:0:0:0:
185,92,59740,2,0,L|258:69,1,71.9999978027344,4|0,0:0|0:0,0:0:0:0:
448,273,59971,5,6,0:0:0:0:
211,120,60202,1,0,0:0:0:0:
65,143,60433,2,0,L|43:275,1,120,8|0,0:0|0:0,0:0:0:0:
266,332,60895,2,0,L|103:353,1,120,4|0,0:0|0:0,0:0:0:0:
229,294,61241,2,0,L|384:313,1,120
278,277,61587,2,0,L|263:179,1,60
468,193,61818,5,4,0:0:0:0:
410,186,61933,1,0,0:0:0:0:
384,134,62048,1,0,0:0:0:0:
413,84,62164,1,0,0:0:0:0:
470,80,62279,1,8,0:0:0:0:
409,57,62395,1,0,0:0:0:0:
479,43,62510,1,0,0:0:0:0:
405,25,62625,1,0,0:0:0:0:
192,146,62741,6,0,P|249:170|325:152,1,120,4|0,0:0|0:0,0:0:0:0:
217,180,63087,1,0,0:0:0:0:
323,215,63202,2,0,L|341:311,1,60,8|0,0:0|0:0,0:0:0:0:
448,287,63433,2,0,L|473:359,1,60
241,366,63664,5,4,0:0:0:0:
241,366,63895,2,0,L|161:361,1,60
43,248,64125,1,8,0:0:0:0:
43,248,64356,2,0,L|130:239,1,60
325,130,64587,5,4,0:0:0:0:
143,91,64818,1,0,0:0:0:0:
211,57,64933,2,0,L|347:31,1,120
261,26,65279,1,0,0:0:0:0:
328,34,65395,1,0,0:0:0:0:
132,175,65510,6,0,P|36:198|24:246,1,120,4|0,0:0|0:0,0:0:0:0:
95,238,65856,1,0,0:0:0:0:
28,234,65971,1,8,0:0:0:0:
105,254,66087,1,0,0:0:0:0:
32,257,66202,1,0,0:0:0:0:
116,265,66318,1,0,0:0:0:0:
345,337,66433,6,0,L|332:288,1,40,4|0,0:0|0:0,0:0:0:0:
259,288,66587,2,0,L|281:237,1,40
351,235,66741,2,0,L|311:212,1,40
239,198,66895,2,0,L|287:180,1,40,8|0,0:0|0:0,0:0:0:0:
364,153,67048,2,0,L|299:142,1,40,0|4,0:0|0:0,0:0:0:0:
234,109,67202,2,0,L|294:113,1,40
491,90,67356,6,0,L|500:224,1,120,6|0,0:0|0:0,0:0:0:0:
329,238,67818,2,0,L|312:365,1,120,8|0,0:0|0:0,0:0:0:0:
16,127,68279,2,0,L|148:102,1,120,4|0,0:0|0:0,0:0:0:0:
226,69,68625,2,0,L|69:49,1,120
180,31,68971,1,0,0:0:0:0:
106,53,69087,1,0,0:0:0:0:
339,143,69202,6,0,L|386:149,1,30,4|0,0:0|0:0,0:0:0:0:
212,220,69433,1,0,0:0:0:0:
291,236,69548,2,0,L|310:365,1,120
401,369,69895,2,0,L|321:357,1,60
119,363,70125,2,0,L|92:228,1,120,4|0,0:0|0:0,0:0:0:0:
283,159,70587,2,0,L|107:143,1,120,8|0,0:0|0:0,0:0:0:0:
468,194,71048,6,0,L|484:127,1,60,4|0,0:0|0:0,0:0:0:0:
369,106,71279,2,0,L|296:93,1,60
451,88,71510,2,0,L|426:156,1,60,8|0,0:0|0:0,0:0:0:0:
313,156,71741,2,0,L|227:157,1,60
409,217,71971,2,0,L|366:280,1,60,4|0,0:0|0:0,0:0:0:0:
241,251,72202,2,0,L|170:227,1,60
301,327,72433,2,0,L|199:340,1,60,8|0,0:0|0:0,0:0:0:0:
143,326,72664,2,0,L|95:278,1,60
326,257,72895,6,0,L|201:187,1,120,6|8,0:0|0:0,0:0:0:0:
294,173,73241,1,8,0:0:0:0:
88,124,73356,2,0,L|258:80,1,120,6|8,0:0|0:0,0:0:0:0:
122,71,73702,1,8,0:0:0:0:
350,42,73818,2,8,L|272:35,1,60
389,74,74048,2,8,L|460:80,1,60
225,168,74279,2,8,L|147:178,1,60
390,227,74510,2,8,L|303:246,1,60
128,192,74741,6,0,P|96:144|144:128,1,120,4|0,0:0|0:0,0:0:0:0:
336,192,75202,1,8,0:0:0:0:
120,192,75433,1,0,0:0:0:0:
456,192,75664,2,0,P|496:168|448:136,1,120,4|0,0:0|0:0,0:0:0:0:
328,192,76010,2,0,L|328:128,1,60,0|8,0:0|0:0,0:0:0:0:
396,192,76241,2,0,L|468:192,2,60
208,192,76587,6,0,L|144:192,3,60,4|0|0|0,0:0|0:0|0:0|0:0,0:0:0:0:
272,192,77048,2,0,L|344:192,1,60,8|0,0:0|0:0,0:0:0:0:
224,192,77279,1,0,0:0:0:0:
332,192,77395,1,0,0:0:0:0:
148,192,77510,2,0,P|116:136|164:136,1,120,4|0,0:0|0:0,0:0:0:0:
224,192,77856,1,0,0:0:0:0:
408,192,77971,1,8,0:0:0:0:
472,192,78087,1,0,0:0:0:0:
472,192,78202,1,0,0:0:0:0:
408,192,78318,1,0,0:0:0:0:
200,192,78433,6,0,L|56:192,1,120,4|0,0:0|0:0,0:0:0:0:
144,192,78779,1,0,0:0:0:0:
328,192,78895,2,0,L|200:192,1,120,8|0,0:0|0:0,0:0:0:0:
272,192,79241,1,0,0:0:0:0:
480,192,79356,2,0,L|328:192,1,120,4|0,0:0|0:0,0:0:0:0:
232,192,79702,1,0,0:0:0:0:
168,192,79818,1,8,0:0:0:0:
232,192,79933,1,0,0:0:0:0:
296,192,80048,1,0,0:0:0:0:
360,192,80164,1,0,0:0:0:0:
168,192,80279,6,0,P|96:176|88:120,1,120,4|0,0:0|0:0,0:0:0:0:
208,192,80625,1,0,0:0:0:0:
328,192,80741,2,0,L|400:192,1,60,8|0,0:0|0:0,0:0:0:0:
268,192,80971,2,0,L|204:192,1,60
400,192,81202,1,4,0:0:0:0:
448,192,81279,1,0,0:0:0:0:
472,192,81356,1,0,0:0:0:0:
472,192,81433,1,0,0:0:0:0:
448,192,81510,1,0,0:0:0:0:
400,192,81587,1,0,0:0:0:0:
240,192,81664,2,0,L|200:192,2,40,8|0|0,0:0|0:0|0:0,0:0:0:0:
296,192,81895,1,0,0:0:0:0:
256,192,81971,1,0,0:0:0:0:
208,192,82048,1,0,0:0:0:0:
368,192,82125,6,0,B|432:192|432:192|384:144,1,120,6|0,0:0|0:0,0:0:0:0:
168,192,82587,1,8,0:0:0:0:
384,192,82818,1,0,0:0:0:0:
48,192,83048,2,0,P|80:136|152:128,1,120,6|0,0:0|0:0,0:0:0:0:
256,192,83395,2,0,L|320:192,1,60,0|4,0:0|0:0,0:0:0:0:
192,192,83625,1,4,0:0:0:0:
80,192,83741,1,4,0:0:0:0:
192,192,83856,1,4,0:0:0:0:
408,192,83971,6,0,P|480:160|480:112,1,120,6|0,0:0|0:0,0:0:0:0:
264,192,84318,2,0,P|192:184|176:112,1,120,2|0,0:0|0:0,0:0:0:0:
384,192,84664,2,0,L|448:192,1,60,2|0,0:0|0:0,0:0:0:0:
216,192,84895,1,6,0:0:0:0:
416,192,85125,2,0,L|416:120,1,60,4|4,0:0|0:0,0:0:0:0:
216,192,85356,2,0,L|152:192,1,60,10|4,0:0|0:0,0:0:0:0:
344,192,85587,2,0,L|424:192,1,60,4|4,0:0|0:0,0:0:0:0:
184,192,85818,6,0,L|112:192,3,60,6|0|0|0,0:0|0:0|0:0|0:0,0:0:0:0:
244,192,86279,2,0,L|172:192,3,60,8|0|0|0,0:0|0:0|0:0|0:0,0:0:0:0:
368,192,86741,2,0,L|432:192,3,60,6|0|0|0,0:0|0:0|0:0|0:0,0:0:0:0:
308,192,87202,2,0,L|388:192,1,60,8|0,0:0|0:0,0:0:0:0:
256,192,87433,1,4,0:0:0:0:
368,192,87548,1,4,0:0:0:0:
144,192,87664,5,6,0:0:0:0:
144,192,87779,1,0,0:0:0:0:
208,192,87895,1,4,0:0:0:0:
272,192,88010,1,4,0:0:0:0:
88,192,88125,2,0,L|16:192,2,60,10|0|4,0:0|0:0|0:0,0:0:0:0:
208,192,88471,1,4,0:0:0:0:
428,192,88587,2,4,L|348:192,1,60,6|4,0:0|0:0,0:0:0:0:
184,192,88818,2,4,L|184:128,1,60
368,192,89048,2,4,L|288:192,1,60,6|4,0:0|0:0,0:0:0:0:
124,192,89279,2,4,L|196:192,1,60
401,107,89510,5,6,0:0:0:0:
272,109,89741,2,0,L|199:106,1,60
321,43,89971,1,8,0:0:0:0:
115,49,90087,2,0,P|73:78|123:109,1,120
204,168,90433,2,0,L|339:167,1,120,4|0,0:0|0:0,0:0:0:0:
257,248,90779,2,0,L|121:249,1,120
201,323,91126,2,0,L|272:323,1,60
69,320,91356,6,0,P|45:254|76:202,1,120,4|0,0:0|0:0,0:0:0:0:
177,150,91702,2,0,L|31:147,1,120
121,51,92049,2,0,L|212:51,1,60
366,47,92279,2,0,L|390:116,1,60,4|0,0:0|0:0,0:0:0:0:
281,44,92510,2,0,L|341:44,1,60
147,221,92741,2,0,L|80:221,1,60,8|0,0:0|0:0,0:0:0:0:
179,146,92972,2,0,L|82:146,1,60
347,147,93202,5,4,0:0:0:0:
417,147,93317,1,0,0:0:0:0:
490,145,93432,1,0,0:0:0:0:
490,145,93548,1,0,0:0:0:0:
304,261,93664,1,8,0:0:0:0:
381,262,93779,1,0,0:0:0:0:
228,264,94010,1,0,0:0:0:0:
40,255,94126,5,4,0:0:0:0:
106,255,94241,1,0,0:0:0:0:
40,255,94356,1,0,0:0:0:0:
106,255,94472,1,0,0:0:0:0:
300,256,94587,1,8,0:0:0:0:
375,217,94703,1,0,0:0:0:0:
375,217,94818,1,0,0:0:0:0:
300,256,94934,1,0,0:0:0:0:
106,71,95048,6,0,L|52:78,2,40,4|0|0,0:0|0:0|0:0,0:0:0:0:
154,71,95279,2,0,L|203:79,2,40
327,256,95510,2,0,L|385:256,1,40,8|0,0:0|0:0,0:0:0:0:
409,179,95664,2,0,L|369:180,1,40
318,108,95818,2,0,L|370:108,1,40
190,117,95972,6,0,L|125:106,1,40,4|0,0:0|0:0,0:0:0:0:
208,75,96126,2,0,L|260:69,1,40
203,55,96279,2,0,L|158:38,1,40
364,218,96433,2,0,L|405:175,1,40,8|0,0:0|0:0,0:0:0:0:
312,142,96587,2,0,L|312:86,1,40
217,139,96741,2,0,L|217:89,1,40
405,54,96895,5,6,0:0:0:0:
474,65,97010,1,0,0:0:0:0:
383,146,97125,2,0,L|314:158,1,60
129,169,97356,2,0,L|205:168,1,60,8|0,0:0|0:0,0:0:0:0:
109,243,97587,1,0,0:0:0:0:
192,240,97702,1,0,0:0:0:0:
388,174,97818,6,0,L|447:181,2,40,4|0|0,0:0|0:0|0:0,0:0:0:0:
304,169,98049,2,0,L|263:160,2,40
470,270,98279,2,0,L|488:209,1,40,8|0,0:0|0:0,0:0:0:0:
392,274,98433,2,0,L|373:218,1,40
470,270,98587,2,0,L|446:210,1,40
257,84,98741,5,4,0:0:0:0:
184,83,98856,1,0,0:0:0:0:
110,84,98971,1,0,0:0:0:0:
203,130,99087,1,0,0:0:0:0:
418,125,99202,5,8,0:0:0:0:
497,124,99317,1,0,0:0:0:0:
418,125,99432,1,0,0:0:0:0:
489,126,99548,1,0,0:0:0:0:
229,126,99664,1,4,0:0:0:0:
81,127,99895,2,0,L|3:113,1,60
123,257,100126,2,0,L|132:192,1,60,8|0,0:0|0:0,0:0:0:0:
240,137,100356,2,0,L|162:134,1,60
371,72,100587,5,4,0:0:0:0:
438,109,100702,1,0,0:0:0:0:
443,176,100817,1,0,0:0:0:0:
375,205,100933,1,0,0:0:0:0:
214,203,101164,1,0,0:0:0:0:
315,205,101279,2,0,L|388:204,1,60
149,288,101510,5,4,0:0:0:0:
78,262,101625,1,0,0:0:0:0:
84,192,101740,1,0,0:0:0:0:
152,158,101856,1,0,0:0:0:0:
314,157,102087,1,0,0:0:0:0:
152,158,102318,1,0,0:0:0:0:
367,265,102433,6,0,L|447:260,1,60,6|0,0:0|0:0,0:0:0:0:
317,76,102664,2,4,L|379:69,1,60
203,84,102895,2,0,L|91:84,1,90.0000034332277,10|0,0:0|0:0,0:0:0:0:
205,157,103126,1,0,0:0:0:0:
205,157,103241,1,0,0:0:0:0:
414,170,103356,6,4,L|499:176,1,60,6|4,0:0|0:0,0:0:0:0:
287,153,103587,2,4,L|246:149,2,40,8|0|0,0:0|0:0|0:0,0:0:0:0:
424,279,103818,6,8,L|483:277,1,60,10|8,0:0|0:0,0:0:0:0:
285,221,104049,2,8,L|221:221,1,60
457,99,104279,5,6,0:0:0:0:
270,195,104510,1,0,0:0:0:0:
348,228,104625,2,0,L|274:238,1,60,0|8,0:0|0:0,0:0:0:0:
85,178,104856,1,0,0:0:0:0:
277,104,105087,1,0,0:0:0:0:
45,99,105202,2,0,L|17:239,1,120,4|0,0:0|0:0,0:0:0:0:
148,230,105548,2,0,L|186:367,1,120
319,364,105895,2,0,L|390:372,1,60
148,230,106125,5,4,0:0:0:0:
318,181,106356,1,0,0:0:0:0:
250,138,106471,2,0,L|104:135,1,120
230,73,106818,2,0,L|246:160,1,60
34,163,107048,2,0,L|20:230,1,60,4|0,0:0|0:0,0:0:0:0:
117,238,107279,2,0,L|134:309,1,60
363,186,107510,2,0,L|377:253,1,60,8|0,0:0|0:0,0:0:0:0:
271,262,107741,2,0,L|254:333,1,60
488,354,107971,5,4,0:0:0:0:
429,362,108086,1,0,0:0:0:0:
378,333,108201,1,0,0:0:0:0:
356,279,108317,1,0,0:0:0:0:
177,248,108548,1,0,0:0:0:0:
356,206,108779,1,0,0:0:0:0:
119,240,108895,5,4,0:0:0:0:
177,248,109010,1,0,0:0:0:0:
228,219,109125,1,0,0:0:0:0:
250,165,109241,1,0,0:0:0:0:
434,134,109472,1,0,0:0:0:0:
358,109,109587,1,0,0:0:0:0:
447,65,109703,1,0,0:0:0:0:
226,50,109818,6,0,L|180:40,1,40,4|0,0:0|0:0,0:0:0:0:
238,62,109971,2,0,L|278:65,1,40
220,73,110125,2,0,L|177:73,1,40
21,143,110279,2,0,L|41:187,1,40,8|0,0:0|0:0,0:0:0:0:
117,190,110433,2,0,L|156:224,1,40
69,255,110587,2,0,L|114:289,1,40
278,305,110741,6,0,L|332:297,1,40,4|0,0:0|0:0,0:0:0:0:
252,287,110895,2,0,L|208:273,1,40
289,252,111048,2,0,L|321:217,1,40
117,211,111202,2,0,L|72:177,1,40,8|0,0:0|0:0,0:0:0:0:
160,157,111356,2,0,L|151:106,1,40
235,106,111510,2,0,L|252:62,1,40
454,33,111664,6,0,L|359:46,1,60,6|0,0:0|0:0,0:0:0:0:
320,68,111895,2,0,L|299:148,1,60
176,179,112125,2,0,L|208:251,1,60,8|0,0:0|0:0,0:0:0:0:
299,252,112356,1,0,0:0:0:0:
99,318,112471,1,0,0:0:0:0:
301,347,112587,6,0,L|377:357,2,47.9999985351563,4|0|0,0:0|0:0|0:0,0:0:0:0:
360,321,112818,2,0,L|424:311,2,47.9999985351563
288,272,113048,2,0,L|226:267,1,47.9999985351563,8|0,0:0|0:0,0:0:0:0:
171,217,113202,2,0,L|215:182,1,47.9999985351563
281,167,113356,2,0,L|233:122,1,47.9999985351563
53,93,113510,5,4,0:0:0:0:
17,145,113625,1,0,0:0:0:0:
41,204,113740,1,0,0:0:0:0:
103,217,113856,1,0,0:0:0:0:
236,224,113971,5,8,0:0:0:0:
175,269,114086,1,0,0:0:0:0:
224,335,114201,1,0,0:0:0:0:
309,346,114317,1,0,0:0:0:0:
83,379,114433,1,4,0:0:0:0:
260,282,114664,2,0,L|175:269,1,66.0000020141602
430,253,114895,2,0,L|442:174,1,66.0000020141602,8|0,0:0|0:0,0:0:0:0:
336,134,115125,2,0,L|434:122,1,66.0000020141602
189,79,115356,5,4,0:0:0:0:
253,87,115471,1,0,0:0:0:0:
303,129,115586,1,0,0:0:0:0:
321,191,115702,1,0,0:0:0:0:
141,232,115933,1,0,0:0:0:0:
312,275,116048,2,0,L|403:267,1,66.0000020141602
166,365,116279,5,4,0:0:0:0:
102,357,116394,1,0,0:0:0:0:
52,315,116509,1,0,0:0:0:0:
34,253,116625,1,0,0:0:0:0:
220,175,116856,1,0,0:0:0:0:
29,180,117087,1,0,0:0:0:0:
277,84,117202,6,0,L|186:79,1,66.0000020141602,6|0,0:0|0:0,0:0:0:0:
116,29,117433,2,4,L|199:22,1,66.0000020141602
410,144,117664,2,0,L|316:151,1,66.0000020141602,10|0,0:0|0:0,0:0:0:0:
440,171,117895,1,4,0:0:0:0:
244,218,118010,1,4,0:0:0:0:
451,249,118125,6,8,L|406:315,1,66.0000020141602,10|8,0:0|0:0,0:0:0:0:
209,339,118356,2,8,L|168:335,2,33.0000010070801,8|0|8,0:0|0:0|0:0,0:0:0:0:
451,374,118587,2,8,L|469:290,1,66.0000020141602,10|8,0:0|0:0,0:0:0:0:
264,282,118818,2,8,L|239:200,1,66.0000020141602
453,88,119048,6,0,L|314:67,1,120,6|0,0:0|0:0,0:0:0:0:
278,70,119395,1,0,0:0:0:0:
90,69,119510,2,0,L|108:149,1,60,8|0,0:0|0:0,0:0:0:0:
200,125,119741,1,0,0:0:0:0:
127,125,119856,1,0,0:0:0:0:
314,123,119971,2,0,L|467:104,1,120,4|0,0:0|0:0,0:0:0:0:
370,188,120318,1,0,0:0:0:0:
157,273,120433,1,8,0:0:0:0:
273,277,120548,2,0,L|337:277,1,60
273,277,120779,1,0,0:0:0:0:
83,284,120895,6,0,P|60:214|85:161,1,120,4|0,0:0|0:0,0:0:0:0:
136,175,121240,1,0,0:0:0:0:
340,163,121356,1,8,0:0:0:0:
160,70,121586,1,0,0:0:0:0:
345,60,121818,2,0,L|345:206,1,120,4|0,0:0|0:0,0:0:0:0:
146,184,122279,2,0,L|70:166,1,60,8|0,0:0|0:0,0:0:0:0:
214,126,122510,2,0,L|143:99,1,60
350,93,122741,6,0,L|422:93,2,60,4|0|0,0:0|0:0|0:0,0:0:0:0:
281,90,123087,1,0,0:0:0:0:
104,85,123202,2,0,L|166:86,1,60,8|0,0:0|0:0,0:0:0:0:
235,141,123433,2,0,L|163:141,1,60
380,110,123663,1,4,0:0:0:0:
447,110,123779,1,0,0:0:0:0:
380,110,123894,1,0,0:0:0:0:
447,110,124010,1,0,0:0:0:0:
255,105,124125,1,8,0:0:0:0:
182,105,124240,2,0,L|253:105,1,60
321,104,124471,1,0,0:0:0:0:
121,183,124587,6,0,P|94:116|121:59,1,120,4|0,0:0|0:0,0:0:0:0:
352,192,124933,1,0,0:0:0:0:
296,192,125048,1,8,0:0:0:0:
352,192,125163,1,0,0:0:0:0:
416,192,125279,1,0,0:0:0:0:
296,192,125394,1,0,0:0:0:0:
217,279,125510,2,0,L|169:279,2,40,4|0|0,0:0|0:0|0:0,0:0:0:0:
177,279,125741,2,0,L|121:279,2,40
329,280,125971,2,0,L|369:280,2,40,8|0|0,0:0|0:0|0:0,0:0:0:0:
369,280,126202,2,0,L|417:280,2,40
197,71,126433,6,0,L|58:71,1,120,6|0,0:0|0:0,0:0:0:0:
214,142,126779,2,8,L|278:142,2,60,0|8|0,0:0|0:0|0:0,0:0:0:0:
150,142,127125,1,0,0:0:0:0:
304,145,127240,1,0,0:0:0:0:
494,58,127356,2,0,L|332:98,1,120,6|0,0:0|0:0,0:0:0:0:
325,104,127702,1,0,0:0:0:0:
133,61,127817,1,10,0:0:0:0:
69,90,127933,1,0,0:0:0:0:
69,90,128048,1,4,0:0:0:0:
119,60,128163,1,4,0:0:0:0:
317,131,128279,6,0,L|197:131,1,120,10|0,0:0|0:0,0:0:0:0:
375,191,128625,2,0,L|503:191,1,120,10|0,0:0|0:0,0:0:0:0:
307,271,128971,2,0,L|235:271,1,60,8|0,0:0|0:0,0:0:0:0:
433,268,129202,2,8,L|433:173,1,60,10|8,0:0|0:0,0:0:0:0:
331,210,129433,2,8,L|395:210,1,60
159,64,129663,2,8,L|79:64,1,60,10|8,0:0|0:0,0:0:0:0:
98,125,129894,2,8,L|170:125,1,60
350,125,130125,6,0,L|286:125,2,60,6|0|0,0:0|0:0|0:0,0:0:0:0:
420,125,130471,1,0,0:0:0:0:
216,191,130587,1,8,0:0:0:0:
146,192,130702,2,0,L|82:192,2,60
369,49,131048,5,4,0:0:0:0:
421,78,131106,1,0,0:0:0:0:
457,122,131164,1,0,0:0:0:0:
468,179,131221,1,0,0:0:0:0:
468,179,131279,1,0,0:0:0:0:
457,122,131337,1,0,0:0:0:0:
421,78,131394,1,0,0:0:0:0:
369,49,131452,1,0,0:0:0:0:
231,47,131510,2,0,L|138:48,1,90,8|0,0:0|0:0,0:0:0:0:
102,73,131740,1,0,0:0:0:0:
92,119,131798,1,0,0:0:0:0:
102,73,131856,1,0,0:0:0:0:
141,47,131913,1,0,0:0:0:0:
276,286,131971,6,0,L|429:286,1,120,6|0,0:0|0:0,0:0:0:0:
329,206,132317,1,0,0:0:0:0:
102,204,132433,2,0,L|239:204,1,120,10|4,0:0|0:0,0:0:0:0:
382,92,132895,2,0,L|227:93,1,120,6|4,0:0|0:0,0:0:0:0:
206,96,133240,1,0,0:0:0:0:
392,191,133356,6,0,L|304:191,1,60,10|0,0:0|0:0,0:0:0:0:
407,273,133586,2,0,L|471:273,1,60,4|0,0:0|0:0,0:0:0:0:
66,262,133818,5,6,0:0:0:0:
155,240,133933,2,0,L|173:164,2,71.9999978027344
255,258,134279,2,0,L|172:270,1,71.9999978027344,8|0,0:0|0:0,0:0:0:0:
94,333,134510,2,0,L|199:345,1,71.9999978027344
387,342,134741,5,4,0:0:0:0:
293,340,134856,2,0,L|254:269,2,71.9999978027344
181,235,135202,2,0,L|260:220,1,71.9999978027344,8|0,0:0|0:0,0:0:0:0:
452,105,135433,2,0,L|372:93,1,71.9999978027344
185,49,135664,6,0,L|239:44,1,47.9999985351563,4|0,0:0|0:0,0:0:0:0:
175,60,135818,1,0,0:0:0:0:
119,91,135895,2,0,L|123:144,1,47.9999985351563
183,153,136048,1,0,0:0:0:0:
25,222,136125,2,0,L|41:272,1,47.9999985351563,8|0,0:0|0:0,0:0:0:0:
116,268,136279,2,0,L|147:315,1,47.9999985351563
61,340,136433,2,0,L|121:365,1,47.9999985351563
323,258,136587,5,4,0:0:0:0:
166,215,136818,1,0,0:0:0:0:
361,156,137048,2,0,L|519:144,1,143.999995605469,8|0,0:0|0:0,0:0:0:0:
423,119,137395,1,0,0:0:0:0:
223,79,137510,6,0,L|329:66,1,71.9999978027344,4|0,0:0|0:0,0:0:0:0:
205,42,137741,2,0,L|289:31,1,71.9999978027344
90,269,137971,2,0,L|-16:256,1,71.9999978027344,8|0,0:0|0:0,0:0:0:0:
108,232,138202,2,0,L|24:221,1,71.9999978027344
255,231,138433,2,0,L|265:148,1,71.9999978027344,4|0,0:0|0:0,0:0:0:0:
159,127,138664,2,0,L|243:112,1,71.9999978027344
452,140,138895,2,0,L|421:231,1,71.9999978027344,8|0,0:0|0:0,0:0:0:0:
330,205,139125,2,0,L|296:283,1,71.9999978027344
62,333,139356,6,0,L|126:322,1,47.9999985351563,4|0,0:0|0:0,0:0:0:0:
291,280,139510,2,0,L|220:260,1,47.9999985351563
102,225,139664,2,0,L|166:189,1,47.9999985351563
245,180,139818,2,0,L|191:143,1,47.9999985351563,8|0,0:0|0:0,0:0:0:0:
115,135,139971,2,0,L|156:88,1,47.9999985351563
235,81,140125,2,0,L|208:34,1,47.9999985351563
15,26,140279,6,0,P|63:66|144:65,1,143.999995605469,4|0,0:0|0:0,0:0:0:0:
375,164,140625,1,0,0:0:0:0:
164,238,140856,1,0,0:0:0:0:
345,309,140971,2,4,L|252:325,1,71.9999978027344
493,371,141202,5,6,0:0:0:0:
409,364,141318,2,0,L|393:284,1,71.9999978027344
305,273,141548,1,0,0:0:0:0:
86,227,141664,1,8,0:0:0:0:
179,223,141780,2,0,L|203:143,1,71.9999978027344
293,134,142010,1,0,0:0:0:0:
88,46,142125,6,0,L|75:127,1,71.9999978027344,4|0,0:0|0:0,0:0:0:0:
181,144,142356,2,0,L|197:239,1,71.9999978027344
434,329,142587,1,8,0:0:0:0:
327,270,142702,2,0,L|411:256,1,71.9999978027344
278,205,142933,1,0,0:0:0:0:
31,205,143048,5,4,0:0:0:0:
154,144,143163,2,0,L|70:130,1,71.9999978027344
285,80,143394,1,0,0:0:0:0:
74,52,143510,2,0,L|153:33,1,71.9999978027344,8|0,0:0|0:0,0:0:0:0:
53,124,143741,2,0,L|139:109,1,71.9999978027344
376,126,143971,6,0,L|303:149,1,47.9999985351563,4|0,0:0|0:0,0:0:0:0:
181,183,144125,2,0,L|169:240,1,47.9999985351563
305,256,144279,2,0,L|360:265,1,47.9999985351563
488,309,144433,2,0,L|503:362,1,47.9999985351563,8|0,0:0|0:0,0:0:0:0:
398,373,144587,2,0,L|334:383,1,47.9999985351563
247,369,144741,2,0,L|230:309,1,47.9999985351563
434,235,144895,5,6,0:0:0:0:
343,228,145010,2,0,L|319:148,1,71.9999978027344
422,128,145241,1,0,0:0:0:0:
217,147,145356,5,8,0:0:0:0:
112,134,145471,2,0,L|169:70,1,71.9999978027344
274,63,145702,1,0,0:0:0:0:
44,246,145818,5,6,0:0:0:0:
228,307,145933,2,0,L|157:278,1,71.9999978027344
334,211,146164,1,0,0:0:0:0:
73,141,146279,2,0,L|168:122,1,71.9999978027344,8|0,0:0|0:0,0:0:0:0:
318,71,146510,2,0,L|233:56,1,71.9999978027344,4|0,0:0|0:0,0:0:0:0:
489,64,146741,5,6,0:0:0:0:
300,22,146971,2,4,L|390:6,1,71.9999978027344
119,82,147202,2,0,L|204:102,1,71.9999978027344,10|0,0:0|0:0,0:0:0:0:
90,123,147433,2,4,L|8:140,1,71.9999978027344
436,181,147664,5,6,0:0:0:0:
303,197,147741,1,0,0:0:0:0:
168,242,147818,1,0,0:0:0:0:
23,292,147895,1,0,0:0:0:0:
187,335,147971,1,0,0:0:0:0:
356,336,148048,1,0,0:0:0:0:
198,363,148125,2,0,L|113:352,1,71.9999978027344,4|0,0:0|0:0,0:0:0:0:
155,295,148356,2,0,L|244:277,1,71.9999978027344,4|0,0:0|0:0,0:0:0:0:
407,174,148587,5,4,0:0:0:0:
333,176,148702,1,0,0:0:0:0:
407,174,148817,1,0,0:0:0:0:
333,176,148933,1,0,0:0:0:0:
131,186,149279,1,0,0:0:0:0:
56,187,149394,1,0,0:0:0:0:
131,186,149510,1,0,0:0:0:0:
56,187,149625,1,0,0:0:0:0:
265,186,149971,1,0,0:0:0:0:
330,186,150087,1,0,0:0:0:0:
265,186,150202,1,0,0:0:0:0:
343,185,150318,1,0,0:0:0:0:
202,41,150433,6,0,B|98:141|98:141|190:183,1,240
320,182,151125,2,0,L|320:135,1,30
207,270,151356,2,0,L|364:296,1,120
480,201,151817,2,0,L|398:201,1,60
253,201,152163,1,0,0:0:0:0:
256,192,152279,12,0,159664,0:0:0:0:
