osu file format v14

[General]
AudioFilename: audio.mp3
AudioLeadIn: 0
PreviewTime: 74741
Countdown: 0
SampleSet: Soft
StackLeniency: 0.7
Mode: 3
LetterboxInBreaks: 0
SpecialStyle: 0
WidescreenStoryboard: 1

[Editor]
Bookmarks: 15664,30433,45202,59971,74741,89510,104279,119048
DistanceSpacing: 1
BeatDivisor: 4
GridSize: 32
TimelineZoom: 1.6

[Metadata]
Title:Grin
TitleUnicode:Grin
Artist:HyuN
ArtistUnicode:HyuN
Creator:[GB]Sanae
Version:Yyotta's Hard
Source:
Tags:piano featured artist FA house MUSIQLO 토토리카 숲 totorica forest Healing 바람과 시간 속 in the wind and in time Innocent Records d3ip 35 hyunesis osu! Carpihat Alptraum Das-[Hikari]- -H i k a r i- _Hikari Critical_Star YyottaCat IceDynamix Eistal electronic instrumental
BeatmapID:3971897
BeatmapSetID:1923546

[Difficulty]
HPDrainRate:7.8
CircleSize:7
OverallDifficulty:7.8
ApproachRate:5
SliderMultiplier:1.4
SliderTickRate:1

[Events]
//Background and Video events
0,0,"28186b656f2e05bdef2b452ef1e29416.jpg",0,0
//Break Periods
//Storyboard Layer 0 (Background)
//Storyboard Layer 1 (Fail)
//Storyboard Layer 2 (Pass)
//Storyboard Layer 3 (Foreground)
//Storyboard Layer 4 (Overlay)
//Storyboard Sound Samples

[TimingPoints]
895,461.538461538462,4,2,1,40,1,0
45202,-100,4,2,1,40,0,1
59971,-100,4,2,1,40,0,0
133818,-100,4,2,1,40,0,1
148587,-100,4,2,1,40,0,0

[HitObjects]
110,192,895,5,0,0:0:0:0:
183,192,1010,1,0,0:0:0:0:
402,192,1125,1,0,0:0:0:0:
329,192,1241,1,0,0:0:0:0:
183,192,1587,1,0,0:0:0:0:
110,192,1702,1,0,0:0:0:0:
329,192,1818,1,0,0:0:0:0:
402,192,1933,1,0,0:0:0:0:
110,192,2279,1,0,0:0:0:0:
183,192,2395,1,0,0:0:0:0:
402,192,2510,1,0,0:0:0:0:
329,192,2625,1,0,0:0:0:0:
37,192,2741,1,0,0:0:0:0:
475,192,3433,1,0,0:0:0:0:
256,192,3664,1,0,0:0:0:0:
402,192,3895,1,0,0:0:0:0:
329,192,4125,1,0,0:0:0:0:
110,192,4241,1,0,0:0:0:0:
37,192,4471,1,0,0:0:0:0:
329,192,4587,1,0,0:0:0:0:
183,192,4702,1,0,0:0:0:0:
402,192,4818,1,0,0:0:0:0:
110,192,4933,1,0,0:0:0:0:
183,192,5279,1,0,0:0:0:0:
329,192,5395,1,0,0:0:0:0:
110,192,5510,1,0,0:0:0:0:
402,192,5625,1,0,0:0:0:0:
329,192,5971,1,0,0:0:0:0:
183,192,6087,1,0,0:0:0:0:
402,192,6202,1,0,0:0:0:0:
110,192,6318,1,0,0:0:0:0:
475,192,6433,1,0,0:0:0:0:
256,192,7125,1,0,0:0:0:0:
183,192,7356,1,0,0:0:0:0:
256,192,7587,1,0,0:0:0:0:
402,192,7818,1,0,0:0:0:0:
475,192,7933,1,0,0:0:0:0:
475,192,8164,1,0,0:0:0:0:
37,192,8279,1,0,0:0:0:0:
183,192,8395,1,0,0:0:0:0:
475,192,8510,1,0,0:0:0:0:
329,192,8625,1,0,0:0:0:0:
183,192,8971,1,0,0:0:0:0:
37,192,9087,1,0,0:0:0:0:
329,192,9202,1,0,0:0:0:0:
475,192,9318,1,0,0:0:0:0:
37,192,9664,1,0,0:0:0:0:
183,192,9779,1,0,0:0:0:0:
475,192,9895,1,0,0:0:0:0:
329,192,10010,1,0,0:0:0:0:
256,192,10125,1,0,0:0:0:0:
402,192,10818,1,0,0:0:0:0:
37,192,11048,1,0,0:0:0:0:
110,192,11164,1,0,0:0:0:0:
183,192,11279,1,0,0:0:0:0:
256,192,11395,1,0,0:0:0:0:
475,192,11510,1,0,0:0:0:0:
402,192,11625,1,0,0:0:0:0:
329,192,11741,1,0,0:0:0:0:
256,192,11856,1,0,0:0:0:0:
183,192,11971,1,0,0:0:0:0:
256,192,12664,1,0,0:0:0:0:
329,192,13125,1,0,0:0:0:0:
183,192,13356,1,0,0:0:0:0:
256,192,13587,1,0,0:0:0:0:
110,192,13818,1,0,0:0:0:0:
37,192,14279,1,0,0:0:0:0:
475,192,14741,1,0,0:0:0:0:
329,192,14971,1,0,0:0:0:0:
402,192,15087,1,0,0:0:0:0:
329,192,15202,1,0,0:0:0:0:
183,192,15433,1,0,0:0:0:0:
37,192,15664,1,4,0:0:0:0:
256,192,15664,1,0,0:0:0:0:
475,192,15664,1,0,0:0:0:0:
183,192,15779,1,0,0:0:0:0:
329,192,15895,1,0,0:0:0:0:
475,192,16010,1,0,0:0:0:0:
256,192,16125,1,0,0:0:0:0:
475,192,16356,1,0,0:0:0:0:
329,192,16471,1,0,0:0:0:0:
183,192,16587,1,0,0:0:0:0:
37,192,16702,1,0,0:0:0:0:
37,192,17048,1,0,0:0:0:0:
256,192,17048,1,0,0:0:0:0:
183,192,17164,1,0,0:0:0:0:
329,192,17279,1,0,0:0:0:0:
475,192,17395,1,0,0:0:0:0:
110,192,17510,1,0,0:0:0:0:
256,192,17971,1,0,0:0:0:0:
402,192,18202,1,0,0:0:0:0:
329,192,18433,1,0,0:0:0:0:
475,192,18664,1,0,0:0:0:0:
110,192,18895,1,0,0:0:0:0:
256,192,18895,1,0,0:0:0:0:
183,192,19010,1,0,0:0:0:0:
37,192,19241,1,0,0:0:0:0:
402,192,19356,1,0,0:0:0:0:
329,192,19471,1,0,0:0:0:0:
183,192,19587,1,0,0:0:0:0:
110,192,19702,1,0,0:0:0:0:
256,192,19818,1,0,0:0:0:0:
110,192,20048,1,0,0:0:0:0:
183,192,20164,1,0,0:0:0:0:
329,192,20279,1,0,0:0:0:0:
402,192,20395,1,0,0:0:0:0:
256,192,20741,1,0,0:0:0:0:
402,192,20741,1,0,0:0:0:0:
329,192,20856,1,0,0:0:0:0:
183,192,20971,1,0,0:0:0:0:
110,192,21087,1,0,0:0:0:0:
475,192,21202,1,0,0:0:0:0:
256,192,21664,1,0,0:0:0:0:
110,192,21895,1,0,0:0:0:0:
37,192,22125,1,0,0:0:0:0:
183,192,22356,1,0,0:0:0:0:
256,192,22587,1,0,0:0:0:0:
329,192,22587,1,0,0:0:0:0:
475,192,22702,1,0,0:0:0:0:
475,192,22933,1,0,0:0:0:0:
37,192,23048,1,0,0:0:0:0:
256,192,23048,1,0,0:0:0:0:
110,192,23164,1,0,0:0:0:0:
402,192,23279,1,0,0:0:0:0:
475,192,23395,1,0,0:0:0:0:
256,192,23510,1,0,0:0:0:0:
475,192,23741,1,0,0:0:0:0:
402,192,23856,1,0,0:0:0:0:
110,192,23971,1,0,0:0:0:0:
256,192,23971,1,0,0:0:0:0:
37,192,24087,1,0,0:0:0:0:
37,192,24433,1,0,0:0:0:0:
256,192,24433,1,0,0:0:0:0:
110,192,24548,1,0,0:0:0:0:
402,192,24664,1,0,0:0:0:0:
475,192,24779,1,0,0:0:0:0:
183,192,24895,1,0,0:0:0:0:
256,192,24895,1,0,0:0:0:0:
256,192,25356,1,0,0:0:0:0:
402,192,25587,1,0,0:0:0:0:
37,192,25818,1,0,0:0:0:0:
256,192,25818,1,0,0:0:0:0:
110,192,25933,1,0,0:0:0:0:
183,192,26048,1,0,0:0:0:0:
37,192,26164,1,0,0:0:0:0:
256,192,26279,1,0,0:0:0:0:
475,192,26279,1,0,0:0:0:0:
402,192,26395,1,0,0:0:0:0:
329,192,26510,1,0,0:0:0:0:
475,192,26625,1,0,0:0:0:0:
110,192,26741,1,0,0:0:0:0:
256,192,26741,1,0,0:0:0:0:
256,192,27202,1,0,0:0:0:0:
402,192,27433,1,0,0:0:0:0:
256,192,27664,1,0,0:0:0:0:
110,192,27895,1,0,0:0:0:0:
256,192,28125,1,0,0:0:0:0:
402,192,28125,1,0,0:0:0:0:
110,192,28356,1,0,0:0:0:0:
37,192,28587,1,8,0:0:0:0:
256,192,28587,1,4,0:0:0:0:
329,192,28587,1,0,0:0:0:0:
475,192,28587,1,0,0:0:0:0:
329,192,28818,1,8,0:0:0:0:
256,192,28933,1,8,0:0:0:0:
36,192,29048,1,8,0:0:0:0:
110,192,29048,1,4,0:0:0:0:
183,192,29048,1,0,0:0:0:0:
402,192,29048,1,0,0:0:0:0:
256,192,29279,1,8,0:0:0:0:
329,192,29395,1,8,0:0:0:0:
37,192,29510,1,8,0:0:0:0:
110,192,29510,1,4,0:0:0:0:
183,192,29510,1,0,0:0:0:0:
402,192,29510,1,0,0:0:0:0:
475,192,29741,1,8,0:0:0:0:
402,192,29856,1,8,0:0:0:0:
110,192,29971,1,4,0:0:0:0:
183,192,29971,1,8,0:0:0:0:
256,192,29971,1,2,0:0:0:0:
329,192,30087,1,8,0:0:0:0:
402,192,30087,1,2,0:0:0:0:
110,192,30202,1,12,0:0:0:0:
183,192,30202,1,2,0:0:0:0:
329,192,30318,1,8,0:0:0:0:
402,192,30318,1,2,0:0:0:0:
37,192,30433,1,2,0:0:0:0:
256,192,30433,1,4,0:0:0:0:
475,192,30433,1,0,0:0:0:0:
183,192,30664,1,0,0:0:0:0:
329,192,30779,1,0,0:0:0:0:
37,192,30895,1,8,0:0:0:0:
256,192,30895,1,2,0:0:0:0:
110,192,31010,1,0,0:0:0:0:
183,192,31125,1,0,0:0:0:0:
402,192,31241,1,0,0:0:0:0:
37,192,31356,1,2,0:0:0:0:
329,192,31356,1,0,0:0:0:0:
110,192,31587,1,0,0:0:0:0:
183,192,31702,1,0,0:0:0:0:
256,192,31818,1,8,0:0:0:0:
475,192,31818,1,2,0:0:0:0:
402,192,31933,1,0,0:0:0:0:
329,192,32164,1,0,0:0:0:0:
475,192,32279,1,2,0:0:0:0:
183,192,32510,1,0,0:0:0:0:
37,192,32741,1,8,0:0:0:0:
256,192,32741,1,2,0:0:0:0:
402,192,32971,1,0,0:0:0:0:
37,192,33202,1,2,0:0:0:0:
329,192,33202,1,0,0:0:0:0:
402,192,33433,1,0,0:0:0:0:
183,192,33664,1,8,0:0:0:0:
256,192,33664,1,2,0:0:0:0:
475,192,33664,1,0,0:0:0:0:
110,192,33779,1,0,0:0:0:0:
329,192,33895,1,0,0:0:0:0:
402,192,34010,1,0,0:0:0:0:
183,192,34125,1,2,0:0:0:0:
475,192,34125,1,0,0:0:0:0:
110,192,34241,1,0,0:0:0:0:
402,192,34356,1,0,0:0:0:0:
329,192,34471,1,0,0:0:0:0:
37,192,34587,1,8,0:0:0:0:
110,192,34587,1,2,0:0:0:0:
256,192,34587,1,0,0:0:0:0:
183,192,34702,1,0,0:0:0:0:
402,192,34818,1,0,0:0:0:0:
329,192,34933,1,0,0:0:0:0:
37,192,35048,1,2,0:0:0:0:
183,192,35048,1,0,0:0:0:0:
110,192,35164,1,0,0:0:0:0:
329,192,35279,1,0,0:0:0:0:
402,192,35395,1,0,0:0:0:0:
110,192,35510,1,8,0:0:0:0:
256,192,35510,1,2,0:0:0:0:
475,192,35510,1,0,0:0:0:0:
183,192,35625,1,0,0:0:0:0:
329,192,35856,1,0,0:0:0:0:
475,192,35971,1,2,0:0:0:0:
183,192,36202,1,0,0:0:0:0:
37,192,36433,1,8,0:0:0:0:
256,192,36433,1,2,0:0:0:0:
402,192,36433,1,0,0:0:0:0:
329,192,36548,1,0,0:0:0:0:
110,192,36664,1,0,0:0:0:0:
183,192,36779,1,0,0:0:0:0:
37,192,36895,1,2,0:0:0:0:
475,192,36895,1,0,0:0:0:0:
402,192,36971,1,0,0:0:0:0:
329,192,37048,1,0,0:0:0:0:
256,192,37125,1,0,0:0:0:0:
183,192,37202,1,0,0:0:0:0:
110,192,37279,1,0,0:0:0:0:
37,192,37356,1,8,0:0:0:0:
329,192,37356,1,2,0:0:0:0:
402,192,37433,1,0,0:0:0:0:
475,192,37510,1,0,0:0:0:0:
37,192,37587,1,0,0:0:0:0:
110,192,37664,1,0,0:0:0:0:
183,192,37741,1,0,0:0:0:0:
256,192,37818,1,2,0:0:0:0:
329,192,37818,1,4,0:0:0:0:
402,192,37818,1,8,0:0:0:0:
475,192,37818,1,0,0:0:0:0:
183,192,38164,1,0,0:0:0:0:
37,192,38279,1,8,0:0:0:0:
110,192,38279,1,2,0:0:0:0:
256,192,38279,1,0,0:0:0:0:
402,192,38510,1,0,0:0:0:0:
329,192,38625,1,0,0:0:0:0:
37,192,38741,1,4,0:0:0:0:
183,192,38741,1,2,0:0:0:0:
256,192,38741,1,8,0:0:0:0:
475,192,38741,1,0,0:0:0:0:
110,192,38971,1,0,0:0:0:0:
182,192,39087,1,0,0:0:0:0:
256,192,39202,1,2,0:0:0:0:
329,192,39202,1,4,0:0:0:0:
475,192,39202,1,0,0:0:0:0:
183,192,39318,1,0,0:0:0:0:
110,192,39433,1,2,0:0:0:0:
36,192,39548,1,2,0:0:0:0:
256,192,39664,1,2,0:0:0:0:
329,192,39664,1,8,0:0:0:0:
402,192,39664,1,0,0:0:0:0:
110,192,40010,1,4,0:0:0:0:
183,192,40010,1,2,0:0:0:0:
256,192,40010,1,0,0:0:0:0:
329,192,40010,1,0,0:0:0:0:
37,192,40356,1,4,0:0:0:0:
110,192,40356,1,2,0:0:0:0:
183,192,40356,1,0,0:0:0:0:
256,192,40356,1,0,0:0:0:0:
402,192,40587,1,6,0:0:0:0:
475,192,40587,1,8,0:0:0:0:
329,192,40702,1,2,0:0:0:0:
110,192,40818,1,2,0:0:0:0:
183,192,40818,1,8,0:0:0:0:
256,192,40933,1,2,0:0:0:0:
329,192,41048,1,6,0:0:0:0:
402,192,41048,1,8,0:0:0:0:
256,192,41164,1,2,0:0:0:0:
37,192,41279,1,2,0:0:0:0:
110,192,41279,1,8,0:0:0:0:
183,192,41395,1,2,0:0:0:0:
37,192,41510,1,4,0:0:0:0:
256,192,41510,1,2,0:0:0:0:
475,192,41510,1,8,0:0:0:0:
402,192,41625,1,0,0:0:0:0:
329,192,41741,1,0,0:0:0:0:
110,192,41856,1,0,0:0:0:0:
256,192,41971,1,2,0:0:0:0:
475,192,41971,1,8,0:0:0:0:
183,192,42087,1,0,0:0:0:0:
329,192,42202,1,0,0:0:0:0:
402,192,42318,1,0,0:0:0:0:
37,192,42433,1,2,0:0:0:0:
110,192,42433,1,0,0:0:0:0:
183,192,42548,1,0,0:0:0:0:
402,192,42664,1,0,0:0:0:0:
329,192,42779,1,0,0:0:0:0:
37,192,42895,1,2,0:0:0:0:
256,192,42895,1,8,0:0:0:0:
475,192,42895,1,0,0:0:0:0:
475,192,43125,1,0,0:0:0:0:
402,192,43241,1,0,0:0:0:0:
110,192,43356,1,2,0:0:0:0:
183,192,43356,1,4,0:0:0:0:
256,192,43356,1,0,0:0:0:0:
329,192,43356,1,0,0:0:0:0:
37,192,43587,1,0,0:0:0:0:
183,192,43818,1,4,0:0:0:0:
256,192,43818,1,8,0:0:0:0:
329,192,43818,1,2,0:0:0:0:
402,192,43818,1,0,0:0:0:0:
110,192,44048,1,2,0:0:0:0:
256,192,44279,1,8,0:0:0:0:
329,192,44279,1,2,0:0:0:0:
402,192,44279,1,4,0:0:0:0:
475,192,44279,1,0,0:0:0:0:
183,192,44510,1,2,0:0:0:0:
256,192,44625,1,0,0:0:0:0:
109,192,44741,1,8,0:0:0:0:
329,192,44741,1,2,0:0:0:0:
402,192,44741,1,4,0:0:0:0:
475,192,44741,1,0,0:0:0:0:
37,192,44856,1,2,0:0:0:0:
110,192,44971,1,2,0:0:0:0:
183,192,45087,1,2,0:0:0:0:
37,192,45202,1,2,0:0:0:0:
402,192,45202,1,4,0:0:0:0:
475,192,45202,1,0,0:0:0:0:
329,192,45318,1,0,0:0:0:0:
402,192,45433,1,0,0:0:0:0:
329,192,45548,1,0,0:0:0:0:
37,192,45664,1,8,0:0:0:0:
256,192,45664,1,2,0:0:0:0:
402,192,45895,1,0,0:0:0:0:
329,192,46010,1,0,0:0:0:0:
110,192,46125,1,2,0:0:0:0:
475,192,46125,1,0,0:0:0:0:
183,192,46241,1,0,0:0:0:0:
110,192,46356,1,0,0:0:0:0:
183,192,46471,1,0,0:0:0:0:
256,192,46587,1,8,0:0:0:0:
475,192,46587,1,0,0:0:0:0:
110,192,46818,1,0,0:0:0:0:
183,192,46933,1,0,0:0:0:0:
37,192,47048,1,2,0:0:0:0:
475,192,47048,1,0,0:0:0:0:
402,192,47125,1,0,0:0:0:0:
329,192,47202,1,0,0:0:0:0:
256,192,47279,1,0,0:0:0:0:
183,192,47356,1,0,0:0:0:0:
110,192,47433,1,0,0:0:0:0:
37,192,47510,1,8,0:0:0:0:
329,192,47510,1,0,0:0:0:0:
402,192,47587,1,0,0:0:0:0:
475,192,47664,1,0,0:0:0:0:
183,192,47741,1,0,0:0:0:0:
256,192,47818,1,0,0:0:0:0:
329,192,47895,1,0,0:0:0:0:
402,192,47971,1,2,0:0:0:0:
475,192,47971,1,0,0:0:0:0:
37,192,48202,1,0,0:0:0:0:
110,192,48202,1,0,0:0:0:0:
329,192,48433,1,8,0:0:0:0:
402,192,48433,1,0,0:0:0:0:
475,192,48433,1,0,0:0:0:0:
110,192,48664,1,0,0:0:0:0:
183,192,48664,1,0,0:0:0:0:
37,192,48895,1,2,0:0:0:0:
329,192,48895,1,0,0:0:0:0:
402,192,49010,1,0,0:0:0:0:
329,192,49125,1,0,0:0:0:0:
402,192,49241,1,0,0:0:0:0:
37,192,49356,1,8,0:0:0:0:
256,192,49356,1,0,0:0:0:0:
329,192,49587,1,0,0:0:0:0:
402,192,49702,1,0,0:0:0:0:
183,192,49818,1,2,0:0:0:0:
475,192,49818,1,0,0:0:0:0:
110,192,49933,1,0,0:0:0:0:
183,192,50048,1,0,0:0:0:0:
110,192,50164,1,0,0:0:0:0:
256,192,50279,1,8,0:0:0:0:
402,192,50279,1,0,0:0:0:0:
475,192,50279,1,0,0:0:0:0:
329,192,50395,1,0,0:0:0:0:
110,192,50510,1,0,0:0:0:0:
183,192,50625,1,0,0:0:0:0:
37,192,50741,1,2,0:0:0:0:
475,192,50741,1,0,0:0:0:0:
402,192,50818,1,0,0:0:0:0:
329,192,50895,1,0,0:0:0:0:
256,192,50971,1,0,0:0:0:0:
183,192,51048,1,0,0:0:0:0:
110,192,51125,1,0,0:0:0:0:
37,192,51202,1,8,0:0:0:0:
475,192,51202,1,0,0:0:0:0:
402,192,51279,1,0,0:0:0:0:
329,192,51356,1,0,0:0:0:0:
37,192,51433,1,0,0:0:0:0:
110,192,51510,1,0,0:0:0:0:
183,192,51587,1,0,0:0:0:0:
256,192,51664,1,2,0:0:0:0:
475,192,51664,1,0,0:0:0:0:
475,192,51895,1,0,0:0:0:0:
402,192,52010,1,0,0:0:0:0:
37,192,52125,1,8,0:0:0:0:
110,192,52125,1,0,0:0:0:0:
256,192,52241,1,0,0:0:0:0:
329,192,52356,1,2,0:0:0:0:
402,192,52471,1,0,0:0:0:0:
37,192,52587,1,2,0:0:0:0:
256,192,52587,1,4,0:0:0:0:
475,192,52587,1,0,0:0:0:0:
183,192,52702,1,0,0:0:0:0:
110,192,52818,1,0,0:0:0:0:
37,192,52933,1,0,0:0:0:0:
329,192,53048,1,8,0:0:0:0:
402,192,53048,1,2,0:0:0:0:
475,192,53048,1,0,0:0:0:0:
256,192,53164,1,0,0:0:0:0:
183,192,53279,1,0,0:0:0:0:
110,192,53395,1,0,0:0:0:0:
37,192,53510,1,2,0:0:0:0:
402,192,53510,1,0,0:0:0:0:
329,192,53625,1,0,0:0:0:0:
256,192,53741,1,0,0:0:0:0:
183,192,53856,1,0,0:0:0:0:
37,192,53971,1,8,0:0:0:0:
110,192,53971,1,0,0:0:0:0:
475,192,53971,1,0,0:0:0:0:
402,192,54087,1,0,0:0:0:0:
329,192,54202,1,0,0:0:0:0:
256,192,54318,1,0,0:0:0:0:
183,192,54433,1,2,0:0:0:0:
475,192,54433,1,0,0:0:0:0:
256,192,54548,1,0,0:0:0:0:
329,192,54664,1,0,0:0:0:0:
402,192,54779,1,0,0:0:0:0:
37,192,54895,1,8,0:0:0:0:
110,192,54895,1,0,0:0:0:0:
475,192,54895,1,0,0:0:0:0:
183,192,55010,1,0,0:0:0:0:
256,192,55125,1,0,0:0:0:0:
329,192,55241,1,0,0:0:0:0:
37,192,55356,1,2,0:0:0:0:
402,192,55356,1,0,0:0:0:0:
110,192,55471,1,0,0:0:0:0:
183,192,55587,1,0,0:0:0:0:
256,192,55702,1,0,0:0:0:0:
329,192,55818,1,8,0:0:0:0:
402,192,55818,1,0,0:0:0:0:
475,192,55818,1,0,0:0:0:0:
256,192,55933,1,0,0:0:0:0:
183,192,56048,1,2,0:0:0:0:
110,192,56164,1,0,0:0:0:0:
37,192,56279,1,2,0:0:0:0:
402,192,56279,1,4,0:0:0:0:
475,192,56279,1,0,0:0:0:0:
329,192,56395,1,0,0:0:0:0:
256,192,56510,1,0,0:0:0:0:
183,192,56625,1,0,0:0:0:0:
37,192,56741,1,8,0:0:0:0:
110,192,56741,1,2,0:0:0:0:
475,192,56741,1,0,0:0:0:0:
402,192,56856,1,0,0:0:0:0:
329,192,56971,1,0,0:0:0:0:
256,192,57087,1,0,0:0:0:0:
37,192,57202,1,8,0:0:0:0:
110,192,57202,1,2,0:0:0:0:
183,192,57202,1,4,0:0:0:0:
256,192,57318,1,0,0:0:0:0:
329,192,57433,1,0,0:0:0:0:
402,192,57548,1,0,0:0:0:0:
37,192,57664,1,8,0:0:0:0:
110,192,57664,1,2,0:0:0:0:
475,192,57664,1,0,0:0:0:0:
183,192,57779,1,0,0:0:0:0:
256,192,57895,1,8,0:0:0:0:
329,192,58010,1,0,0:0:0:0:
110,192,58125,1,8,0:0:0:0:
402,192,58125,1,2,0:0:0:0:
475,192,58125,1,4,0:0:0:0:
37,192,58356,1,10,0:0:0:0:
110,192,58471,1,8,0:0:0:0:
183,192,58587,1,2,0:0:0:0:
256,192,58587,1,4,0:0:0:0:
329,192,58587,1,0,0:0:0:0:
402,192,58702,1,0,0:0:0:0:
110,192,58818,1,10,0:0:0:0:
183,192,58933,1,8,0:0:0:0:
37,192,59048,1,2,0:0:0:0:
329,192,59048,1,4,0:0:0:0:
402,192,59125,1,2,0:0:0:0:
183,192,59202,1,2,0:0:0:0:
110,192,59279,1,10,0:0:0:0:
402,192,59356,1,2,0:0:0:0:
329,192,59433,1,2,0:0:0:0:
110,192,59510,1,2,0:0:0:0:
475,192,59510,1,4,0:0:0:0:
183,192,59625,1,2,0:0:0:0:
329,192,59741,1,10,0:0:0:0:
402,192,59856,1,2,0:0:0:0:
37,192,59971,1,2,0:0:0:0:
256,192,59971,1,4,0:0:0:0:
475,192,59971,1,0,0:0:0:0:
183,192,60202,1,0,0:0:0:0:
110,192,60433,1,8,0:0:0:0:
402,192,60433,1,2,0:0:0:0:
475,192,60433,1,0,0:0:0:0:
329,192,60664,1,0,0:0:0:0:
37,192,60895,1,2,0:0:0:0:
402,192,60895,1,0,0:0:0:0:
110,192,61125,1,0,0:0:0:0:
183,192,61241,1,0,0:0:0:0:
37,192,61356,1,8,0:0:0:0:
256,192,61356,1,2,0:0:0:0:
402,192,61471,1,0,0:0:0:0:
329,192,61587,1,0,0:0:0:0:
183,192,61702,1,0,0:0:0:0:
110,192,61818,1,2,0:0:0:0:
475,192,61818,1,0,0:0:0:0:
183,192,61933,1,0,0:0:0:0:
329,192,62048,1,0,0:0:0:0:
402,192,62164,1,0,0:0:0:0:
110,192,62279,1,8,0:0:0:0:
256,192,62279,1,2,0:0:0:0:
475,192,62279,1,0,0:0:0:0:
183,192,62395,1,0,0:0:0:0:
402,192,62510,1,0,0:0:0:0:
329,192,62625,1,0,0:0:0:0:
37,192,62741,1,2,0:0:0:0:
110,192,62741,1,0,0:0:0:0:
402,192,62971,1,0,0:0:0:0:
329,192,63087,1,0,0:0:0:0:
37,192,63202,1,8,0:0:0:0:
183,192,63202,1,2,0:0:0:0:
256,192,63202,1,0,0:0:0:0:
329,192,63318,1,0,0:0:0:0:
402,192,63433,1,0,0:0:0:0:
110,192,63548,1,0,0:0:0:0:
183,192,63664,1,2,0:0:0:0:
475,192,63664,1,0,0:0:0:0:
329,192,63895,1,0,0:0:0:0:
402,192,64010,1,0,0:0:0:0:
37,192,64125,1,8,0:0:0:0:
256,192,64125,1,2,0:0:0:0:
475,192,64125,1,0,0:0:0:0:
183,192,64356,1,0,0:0:0:0:
110,192,64471,1,0,0:0:0:0:
37,192,64587,1,2,0:0:0:0:
329,192,64587,1,0,0:0:0:0:
402,192,64818,1,0,0:0:0:0:
329,192,64933,1,0,0:0:0:0:
37,192,65048,1,8,0:0:0:0:
256,192,65048,1,2,0:0:0:0:
109,192,65164,1,0,0:0:0:0:
182,192,65279,1,0,0:0:0:0:
329,192,65395,1,0,0:0:0:0:
402,192,65510,1,2,0:0:0:0:
475,192,65510,1,0,0:0:0:0:
110,192,65741,1,0,0:0:0:0:
183,192,65856,1,0,0:0:0:0:
37,192,65971,1,8,0:0:0:0:
256,192,65971,1,2,0:0:0:0:
475,192,65971,1,0,0:0:0:0:
329,192,66087,1,0,0:0:0:0:
402,192,66202,1,0,0:0:0:0:
110,192,66318,1,0,0:0:0:0:
37,192,66433,1,2,0:0:0:0:
475,192,66433,1,0,0:0:0:0:
402,192,66510,1,0,0:0:0:0:
329,192,66587,1,0,0:0:0:0:
256,192,66664,1,0,0:0:0:0:
183,192,66741,1,0,0:0:0:0:
110,192,66818,1,0,0:0:0:0:
37,192,66895,1,8,0:0:0:0:
256,192,66895,1,2,0:0:0:0:
329,192,66971,1,0,0:0:0:0:
402,192,67048,1,0,0:0:0:0:
475,192,67125,1,2,0:0:0:0:
110,192,67202,1,0,0:0:0:0:
183,192,67279,1,0,0:0:0:0:
37,192,67356,1,4,0:0:0:0:
256,192,67356,1,2,0:0:0:0:
475,192,67356,1,0,0:0:0:0:
329,192,67587,1,0,0:0:0:0:
256,192,67818,1,8,0:0:0:0:
475,192,67818,1,2,0:0:0:0:
183,192,68048,1,0,0:0:0:0:
37,192,68279,1,2,0:0:0:0:
110,192,68279,1,0,0:0:0:0:
402,192,68510,1,0,0:0:0:0:
329,192,68625,1,0,0:0:0:0:
37,192,68741,1,8,0:0:0:0:
256,192,68741,1,2,0:0:0:0:
182,192,68856,1,0,0:0:0:0:
110,192,68971,1,0,0:0:0:0:
183,192,69087,1,0,0:0:0:0:
402,192,69202,1,2,0:0:0:0:
475,192,69202,1,0,0:0:0:0:
110,192,69433,1,0,0:0:0:0:
183,192,69548,1,0,0:0:0:0:
256,192,69664,1,8,0:0:0:0:
475,192,69664,1,2,0:0:0:0:
402,192,69779,1,0,0:0:0:0:
329,192,69895,1,0,0:0:0:0:
402,192,70010,1,0,0:0:0:0:
37,192,70125,1,2,0:0:0:0:
110,192,70125,1,0,0:0:0:0:
183,192,70356,1,0,0:0:0:0:
37,192,70587,1,8,0:0:0:0:
256,192,70587,1,2,0:0:0:0:
329,192,70818,1,0,0:0:0:0:
183,192,71048,1,2,0:0:0:0:
402,192,71048,1,0,0:0:0:0:
475,192,71048,1,0,0:0:0:0:
110,192,71164,1,0,0:0:0:0:
37,192,71279,1,0,0:0:0:0:
110,192,71395,1,0,0:0:0:0:
256,192,71510,1,8,0:0:0:0:
329,192,71510,1,2,0:0:0:0:
475,192,71510,1,0,0:0:0:0:
183,192,71625,1,0,0:0:0:0:
110,192,71741,1,0,0:0:0:0:
183,192,71856,1,0,0:0:0:0:
37,192,71971,1,2,0:0:0:0:
329,192,71971,1,0,0:0:0:0:
402,192,72087,1,0,0:0:0:0:
475,192,72202,1,0,0:0:0:0:
402,192,72318,1,0,0:0:0:0:
37,192,72433,1,8,0:0:0:0:
183,192,72433,1,2,0:0:0:0:
256,192,72433,1,0,0:0:0:0:
329,192,72548,1,0,0:0:0:0:
402,192,72664,1,0,0:0:0:0:
329,192,72779,1,0,0:0:0:0:
37,192,72895,1,2,0:0:0:0:
256,192,72895,1,4,0:0:0:0:
475,192,72895,1,8,0:0:0:0:
110,192,73010,1,0,0:0:0:0:
183,192,73125,1,8,0:0:0:0:
256,192,73241,1,8,0:0:0:0:
329,192,73356,1,2,0:0:0:0:
402,192,73356,1,4,0:0:0:0:
475,192,73356,1,8,0:0:0:0:
256,192,73471,1,0,0:0:0:0:
183,192,73587,1,8,0:0:0:0:
110,192,73702,1,8,0:0:0:0:
37,192,73818,1,2,0:0:0:0:
256,192,73818,1,4,0:0:0:0:
475,192,73818,1,8,0:0:0:0:
329,192,73933,1,8,0:0:0:0:
402,192,74048,1,8,0:0:0:0:
475,192,74164,1,8,0:0:0:0:
183,192,74279,1,8,0:0:0:0:
256,192,74279,1,4,0:0:0:0:
329,192,74279,1,2,0:0:0:0:
37,192,74395,1,8,0:0:0:0:
110,192,74510,1,10,0:0:0:0:
183,192,74625,1,8,0:0:0:0:
37,192,74741,1,2,0:0:0:0:
256,192,74741,1,4,0:0:0:0:
475,192,74741,1,8,0:0:0:0:
329,192,74971,1,0,0:0:0:0:
110,192,75202,1,2,0:0:0:0:
402,192,75202,1,8,0:0:0:0:
475,192,75202,1,0,0:0:0:0:
329,192,75433,1,0,0:0:0:0:
37,192,75664,1,2,0:0:0:0:
402,192,75664,1,0,0:0:0:0:
110,192,75895,1,0,0:0:0:0:
183,192,76010,1,0,0:0:0:0:
37,192,76125,1,2,0:0:0:0:
256,192,76125,1,8,0:0:0:0:
402,192,76241,1,0,0:0:0:0:
329,192,76356,1,0,0:0:0:0:
183,192,76471,1,0,0:0:0:0:
110,192,76587,1,2,0:0:0:0:
475,192,76587,1,0,0:0:0:0:
183,192,76702,1,0,0:0:0:0:
329,192,76818,1,0,0:0:0:0:
402,192,76933,1,0,0:0:0:0:
110,192,77048,1,2,0:0:0:0:
256,192,77048,1,8,0:0:0:0:
475,192,77048,1,0,0:0:0:0:
183,192,77164,1,0,0:0:0:0:
402,192,77279,1,0,0:0:0:0:
329,192,77395,1,0,0:0:0:0:
37,192,77510,1,2,0:0:0:0:
110,192,77510,1,0,0:0:0:0:
402,192,77741,1,0,0:0:0:0:
329,192,77856,1,0,0:0:0:0:
37,192,77971,1,2,0:0:0:0:
183,192,77971,1,8,0:0:0:0:
256,192,77971,1,0,0:0:0:0:
329,192,78087,1,0,0:0:0:0:
402,192,78202,1,0,0:0:0:0:
110,192,78318,1,0,0:0:0:0:
183,192,78433,1,2,0:0:0:0:
475,192,78433,1,0,0:0:0:0:
329,192,78664,1,0,0:0:0:0:
402,192,78779,1,0,0:0:0:0:
37,192,78895,1,2,0:0:0:0:
256,192,78895,1,8,0:0:0:0:
475,192,78895,1,0,0:0:0:0:
183,192,79125,1,0,0:0:0:0:
110,192,79241,1,0,0:0:0:0:
37,192,79356,1,2,0:0:0:0:
329,192,79356,1,0,0:0:0:0:
402,192,79587,1,0,0:0:0:0:
329,192,79702,1,0,0:0:0:0:
37,192,79818,1,2,0:0:0:0:
256,192,79818,1,8,0:0:0:0:
109,192,79933,1,0,0:0:0:0:
182,192,80048,1,0,0:0:0:0:
329,192,80164,1,0,0:0:0:0:
402,192,80279,1,2,0:0:0:0:
475,192,80279,1,0,0:0:0:0:
110,192,80510,1,0,0:0:0:0:
183,192,80625,1,0,0:0:0:0:
37,192,80741,1,2,0:0:0:0:
256,192,80741,1,8,0:0:0:0:
475,192,80741,1,0,0:0:0:0:
329,192,80856,1,0,0:0:0:0:
402,192,80971,1,0,0:0:0:0:
110,192,81087,1,0,0:0:0:0:
37,192,81202,1,2,0:0:0:0:
475,192,81202,1,0,0:0:0:0:
402,192,81279,1,0,0:0:0:0:
329,192,81356,1,0,0:0:0:0:
256,192,81433,1,0,0:0:0:0:
183,192,81510,1,0,0:0:0:0:
110,192,81587,1,0,0:0:0:0:
37,192,81664,1,2,0:0:0:0:
256,192,81664,1,8,0:0:0:0:
329,192,81741,1,0,0:0:0:0:
402,192,81818,1,0,0:0:0:0:
475,192,81895,1,0,0:0:0:0:
110,192,81971,1,0,0:0:0:0:
183,192,82048,1,0,0:0:0:0:
37,192,82125,1,4,0:0:0:0:
256,192,82125,1,2,0:0:0:0:
475,192,82125,1,0,0:0:0:0:
329,192,82356,1,0,0:0:0:0:
256,192,82587,1,8,0:0:0:0:
475,192,82587,1,2,0:0:0:0:
183,192,82818,1,0,0:0:0:0:
37,192,83048,1,2,0:0:0:0:
110,192,83048,1,4,0:0:0:0:
256,192,83048,1,8,0:0:0:0:
402,192,83279,1,2,0:0:0:0:
329,192,83395,1,0,0:0:0:0:
37,192,83510,1,2,0:0:0:0:
256,192,83510,1,8,0:0:0:0:
182,192,83625,1,2,0:0:0:0:
110,192,83741,1,2,0:0:0:0:
183,192,83856,1,2,0:0:0:0:
329,192,83971,1,8,0:0:0:0:
402,192,83971,1,4,0:0:0:0:
475,192,83971,1,2,0:0:0:0:
110,192,84202,1,0,0:0:0:0:
37,192,84318,1,2,0:0:0:0:
183,192,84318,1,4,0:0:0:0:
475,192,84318,1,8,0:0:0:0:
256,192,84548,1,0,0:0:0:0:
110,192,84664,1,8,0:0:0:0:
183,192,84664,1,4,0:0:0:0:
329,192,84664,1,2,0:0:0:0:
402,192,84779,1,0,0:0:0:0:
37,192,84895,1,2,0:0:0:0:
256,192,84895,1,4,0:0:0:0:
475,192,84895,1,8,0:0:0:0:
183,192,85125,1,2,0:0:0:0:
37,192,85356,1,8,0:0:0:0:
110,192,85356,1,4,0:0:0:0:
256,192,85356,1,2,0:0:0:0:
329,192,85587,1,2,0:0:0:0:
183,192,85818,1,2,0:0:0:0:
402,192,85818,1,4,0:0:0:0:
475,192,85818,1,0,0:0:0:0:
110,192,85933,1,0,0:0:0:0:
37,192,86048,1,2,0:0:0:0:
110,192,86164,1,0,0:0:0:0:
256,192,86279,1,2,0:0:0:0:
329,192,86279,1,8,0:0:0:0:
475,192,86279,1,0,0:0:0:0:
183,192,86395,1,0,0:0:0:0:
110,192,86510,1,2,0:0:0:0:
183,192,86625,1,0,0:0:0:0:
37,192,86741,1,4,0:0:0:0:
256,192,86741,1,2,0:0:0:0:
329,192,86741,1,0,0:0:0:0:
402,192,86856,1,0,0:0:0:0:
475,192,86971,1,2,0:0:0:0:
402,192,87087,1,0,0:0:0:0:
37,192,87202,1,8,0:0:0:0:
183,192,87202,1,2,0:0:0:0:
256,192,87202,1,0,0:0:0:0:
329,192,87318,1,0,0:0:0:0:
402,192,87433,1,2,0:0:0:0:
329,192,87548,1,2,0:0:0:0:
37,192,87664,1,2,0:0:0:0:
256,192,87664,1,4,0:0:0:0:
475,192,87664,1,8,0:0:0:0:
110,192,87779,1,2,0:0:0:0:
183,192,87895,1,2,0:0:0:0:
256,192,88010,1,2,0:0:0:0:
329,192,88125,1,8,0:0:0:0:
402,192,88125,1,4,0:0:0:0:
475,192,88125,1,2,0:0:0:0:
256,192,88241,1,2,0:0:0:0:
183,192,88356,1,2,0:0:0:0:
110,192,88471,1,2,0:0:0:0:
37,192,88587,1,2,0:0:0:0:
256,192,88587,1,4,0:0:0:0:
475,192,88587,1,8,0:0:0:0:
329,192,88702,1,2,0:0:0:0:
402,192,88818,1,2,0:0:0:0:
475,192,88933,1,2,0:0:0:0:
183,192,89048,1,8,0:0:0:0:
256,192,89048,1,4,0:0:0:0:
329,192,89048,1,2,0:0:0:0:
37,192,89164,1,2,0:0:0:0:
110,192,89279,1,2,0:0:0:0:
183,192,89395,1,2,0:0:0:0:
37,192,89510,1,2,0:0:0:0:
256,192,89510,1,4,0:0:0:0:
475,192,89510,1,8,0:0:0:0:
402,192,89741,1,0,0:0:0:0:
329,192,89856,1,0,0:0:0:0:
256,192,89971,1,2,0:0:0:0:
475,192,89971,1,8,0:0:0:0:
110,192,90087,1,0,0:0:0:0:
110,192,90318,1,0,0:0:0:0:
37,192,90433,1,2,0:0:0:0:
183,192,90433,1,0,0:0:0:0:
402,192,90664,1,0,0:0:0:0:
402,192,90779,1,0,0:0:0:0:
37,192,90895,1,2,0:0:0:0:
256,192,90895,1,8,0:0:0:0:
110,192,91010,1,0,0:0:0:0:
183,192,91125,1,0,0:0:0:0:
329,192,91241,1,0,0:0:0:0:
402,192,91356,1,2,0:0:0:0:
475,192,91356,1,0,0:0:0:0:
110,192,91587,1,0,0:0:0:0:
110,192,91702,1,0,0:0:0:0:
256,192,91818,1,2,0:0:0:0:
475,192,91818,1,8,0:0:0:0:
402,192,91933,1,0,0:0:0:0:
329,192,92048,1,0,0:0:0:0:
183,192,92164,1,0,0:0:0:0:
37,192,92279,1,2,0:0:0:0:
110,192,92279,1,0,0:0:0:0:
329,192,92395,1,0,0:0:0:0:
402,192,92510,1,0,0:0:0:0:
110,192,92625,1,0,0:0:0:0:
37,192,92741,1,2,0:0:0:0:
183,192,92741,1,8,0:0:0:0:
256,192,92741,1,0,0:0:0:0:
402,192,92856,1,0,0:0:0:0:
329,192,92971,1,0,0:0:0:0:
110,192,93087,1,0,0:0:0:0:
183,192,93202,1,2,0:0:0:0:
475,192,93202,1,0,0:0:0:0:
402,192,93318,1,0,0:0:0:0:
329,192,93433,1,0,0:0:0:0:
110,192,93548,1,0,0:0:0:0:
256,192,93664,1,2,0:0:0:0:
475,192,93664,1,8,0:0:0:0:
183,192,93779,1,0,0:0:0:0:
329,192,93895,1,0,0:0:0:0:
183,192,94010,1,0,0:0:0:0:
37,192,94125,1,2,0:0:0:0:
402,192,94125,1,0,0:0:0:0:
475,192,94241,1,0,0:0:0:0:
329,192,94356,1,0,0:0:0:0:
183,192,94471,1,0,0:0:0:0:
37,192,94587,1,2,0:0:0:0:
256,192,94587,1,8,0:0:0:0:
110,192,94702,1,0,0:0:0:0:
183,192,94818,1,0,0:0:0:0:
256,192,94933,1,0,0:0:0:0:
475,192,95048,1,2,0:0:0:0:
402,192,95125,1,0,0:0:0:0:
329,192,95202,1,0,0:0:0:0:
37,192,95279,1,0,0:0:0:0:
110,192,95356,1,0,0:0:0:0:
183,192,95433,1,0,0:0:0:0:
256,192,95510,1,2,0:0:0:0:
475,192,95510,1,8,0:0:0:0:
402,192,95587,1,0,0:0:0:0:
329,192,95664,1,0,0:0:0:0:
183,192,95741,1,0,0:0:0:0:
110,192,95818,1,0,0:0:0:0:
37,192,95895,1,0,0:0:0:0:
329,192,95971,1,2,0:0:0:0:
402,192,96048,1,0,0:0:0:0:
475,192,96125,1,0,0:0:0:0:
37,192,96202,1,0,0:0:0:0:
110,192,96279,1,0,0:0:0:0:
183,192,96356,1,0,0:0:0:0:
256,192,96433,1,2,0:0:0:0:
475,192,96433,1,8,0:0:0:0:
402,192,96510,1,0,0:0:0:0:
329,192,96587,1,0,0:0:0:0:
183,192,96664,1,2,0:0:0:0:
110,192,96741,1,0,0:0:0:0:
37,192,96818,1,0,0:0:0:0:
183,192,96895,1,4,0:0:0:0:
256,192,96895,1,2,0:0:0:0:
475,192,96895,1,0,0:0:0:0:
329,192,97010,1,0,0:0:0:0:
402,192,97125,1,0,0:0:0:0:
475,192,97241,1,0,0:0:0:0:
37,192,97356,1,2,0:0:0:0:
256,192,97356,1,8,0:0:0:0:
329,192,97356,1,0,0:0:0:0:
110,192,97471,1,0,0:0:0:0:
183,192,97587,1,0,0:0:0:0:
256,192,97702,1,0,0:0:0:0:
475,192,97818,1,2,0:0:0:0:
402,192,97895,1,0,0:0:0:0:
329,192,97971,1,0,0:0:0:0:
183,192,98048,1,0,0:0:0:0:
110,192,98125,1,0,0:0:0:0:
37,192,98202,1,0,0:0:0:0:
256,192,98279,1,2,0:0:0:0:
475,192,98279,1,8,0:0:0:0:
329,192,98356,1,0,0:0:0:0:
402,192,98433,1,0,0:0:0:0:
37,192,98510,1,0,0:0:0:0:
110,192,98587,1,0,0:0:0:0:
183,192,98664,1,0,0:0:0:0:
256,192,98741,1,2,0:0:0:0:
475,192,98741,1,0,0:0:0:0:
402,192,98856,1,0,0:0:0:0:
329,192,98971,1,0,0:0:0:0:
183,192,99087,1,0,0:0:0:0:
37,192,99202,1,2,0:0:0:0:
110,192,99202,1,8,0:0:0:0:
256,192,99202,1,0,0:0:0:0:
402,192,99318,1,0,0:0:0:0:
329,192,99433,1,0,0:0:0:0:
183,192,99548,1,0,0:0:0:0:
37,192,99664,1,2,0:0:0:0:
110,192,99664,1,0,0:0:0:0:
329,192,99895,1,0,0:0:0:0:
402,192,100010,1,0,0:0:0:0:
256,192,100125,1,2,0:0:0:0:
475,192,100125,1,8,0:0:0:0:
110,192,100241,1,0,0:0:0:0:
183,192,100356,1,0,0:0:0:0:
329,192,100471,1,0,0:0:0:0:
402,192,100587,1,2,0:0:0:0:
475,192,100587,1,0,0:0:0:0:
329,192,100702,1,0,0:0:0:0:
183,192,100818,1,0,0:0:0:0:
110,192,100933,1,0,0:0:0:0:
37,192,101048,1,2,0:0:0:0:
256,192,101048,1,8,0:0:0:0:
329,192,101164,1,0,0:0:0:0:
329,192,101395,1,0,0:0:0:0:
37,192,101510,1,2,0:0:0:0:
402,192,101510,1,0,0:0:0:0:
183,192,101625,1,0,0:0:0:0:
110,192,101741,1,0,0:0:0:0:
183,192,101856,1,0,0:0:0:0:
256,192,101971,1,2,0:0:0:0:
475,192,101971,1,8,0:0:0:0:
110,192,102087,1,0,0:0:0:0:
110,192,102318,1,0,0:0:0:0:
37,192,102433,1,2,0:0:0:0:
329,192,102433,1,4,0:0:0:0:
402,192,102433,1,0,0:0:0:0:
475,192,102433,1,0,0:0:0:0:
183,192,102664,1,2,0:0:0:0:
256,192,102779,1,2,0:0:0:0:
110,192,102895,1,8,0:0:0:0:
329,192,102895,1,4,0:0:0:0:
402,192,102895,1,2,0:0:0:0:
183,192,103010,1,0,0:0:0:0:
329,192,103241,1,2,0:0:0:0:
110,192,103356,1,2,0:0:0:0:
256,192,103356,1,4,0:0:0:0:
402,192,103356,1,0,0:0:0:0:
182,192,103471,1,2,0:0:0:0:
37,192,103587,1,2,0:0:0:0:
475,192,103587,1,0,0:0:0:0:
329,192,103702,1,2,0:0:0:0:
37,192,103818,1,8,0:0:0:0:
256,192,103818,1,4,0:0:0:0:
475,192,103818,1,2,0:0:0:0:
182,192,103933,1,2,0:0:0:0:
110,192,104048,1,2,0:0:0:0:
402,192,104048,1,8,0:0:0:0:
329,192,104164,1,2,0:0:0:0:
37,192,104279,1,2,0:0:0:0:
256,192,104279,1,4,0:0:0:0:
475,192,104279,1,8,0:0:0:0:
402,192,104510,1,0,0:0:0:0:
329,192,104625,1,0,0:0:0:0:
256,192,104741,1,2,0:0:0:0:
475,192,104741,1,8,0:0:0:0:
110,192,104856,1,0,0:0:0:0:
110,192,105087,1,0,0:0:0:0:
37,192,105202,1,2,0:0:0:0:
183,192,105202,1,0,0:0:0:0:
402,192,105433,1,0,0:0:0:0:
402,192,105548,1,0,0:0:0:0:
37,192,105664,1,2,0:0:0:0:
256,192,105664,1,8,0:0:0:0:
110,192,105779,1,0,0:0:0:0:
183,192,105895,1,0,0:0:0:0:
329,192,106010,1,0,0:0:0:0:
402,192,106125,1,2,0:0:0:0:
475,192,106125,1,0,0:0:0:0:
110,192,106356,1,0,0:0:0:0:
110,192,106471,1,0,0:0:0:0:
256,192,106587,1,2,0:0:0:0:
475,192,106587,1,8,0:0:0:0:
402,192,106702,1,0,0:0:0:0:
329,192,106818,1,0,0:0:0:0:
183,192,106933,1,0,0:0:0:0:
37,192,107048,1,2,0:0:0:0:
110,192,107048,1,0,0:0:0:0:
329,192,107164,1,0,0:0:0:0:
402,192,107279,1,0,0:0:0:0:
110,192,107395,1,0,0:0:0:0:
37,192,107510,1,2,0:0:0:0:
183,192,107510,1,8,0:0:0:0:
256,192,107510,1,0,0:0:0:0:
402,192,107625,1,0,0:0:0:0:
329,192,107741,1,0,0:0:0:0:
110,192,107856,1,0,0:0:0:0:
183,192,107971,1,2,0:0:0:0:
475,192,107971,1,0,0:0:0:0:
402,192,108087,1,0,0:0:0:0:
329,192,108202,1,0,0:0:0:0:
110,192,108318,1,0,0:0:0:0:
256,192,108433,1,2,0:0:0:0:
475,192,108433,1,8,0:0:0:0:
183,192,108548,1,0,0:0:0:0:
329,192,108664,1,0,0:0:0:0:
183,192,108779,1,0,0:0:0:0:
37,192,108895,1,2,0:0:0:0:
402,192,108895,1,0,0:0:0:0:
475,192,109010,1,0,0:0:0:0:
329,192,109125,1,0,0:0:0:0:
183,192,109241,1,0,0:0:0:0:
37,192,109356,1,2,0:0:0:0:
256,192,109356,1,8,0:0:0:0:
110,192,109471,1,0,0:0:0:0:
183,192,109587,1,0,0:0:0:0:
256,192,109702,1,0,0:0:0:0:
475,192,109818,1,2,0:0:0:0:
402,192,109895,1,0,0:0:0:0:
329,192,109971,1,0,0:0:0:0:
37,192,110048,1,0,0:0:0:0:
110,192,110125,1,0,0:0:0:0:
183,192,110202,1,0,0:0:0:0:
256,192,110279,1,2,0:0:0:0:
475,192,110279,1,8,0:0:0:0:
402,192,110356,1,0,0:0:0:0:
329,192,110433,1,0,0:0:0:0:
183,192,110510,1,0,0:0:0:0:
110,192,110587,1,0,0:0:0:0:
37,192,110664,1,0,0:0:0:0:
329,192,110741,1,2,0:0:0:0:
402,192,110818,1,0,0:0:0:0:
475,192,110895,1,0,0:0:0:0:
37,192,110971,1,0,0:0:0:0:
110,192,111048,1,0,0:0:0:0:
183,192,111125,1,0,0:0:0:0:
256,192,111202,1,2,0:0:0:0:
475,192,111202,1,8,0:0:0:0:
402,192,111279,1,0,0:0:0:0:
329,192,111356,1,0,0:0:0:0:
183,192,111433,1,2,0:0:0:0:
110,192,111510,1,0,0:0:0:0:
37,192,111587,1,0,0:0:0:0:
183,192,111664,1,4,0:0:0:0:
256,192,111664,1,2,0:0:0:0:
475,192,111664,1,0,0:0:0:0:
329,192,111779,1,0,0:0:0:0:
402,192,111895,1,0,0:0:0:0:
475,192,112010,1,0,0:0:0:0:
37,192,112125,1,2,0:0:0:0:
256,192,112125,1,8,0:0:0:0:
329,192,112125,1,0,0:0:0:0:
110,192,112241,1,0,0:0:0:0:
183,192,112356,1,0,0:0:0:0:
256,192,112471,1,0,0:0:0:0:
475,192,112587,1,2,0:0:0:0:
402,192,112664,1,0,0:0:0:0:
329,192,112741,1,0,0:0:0:0:
183,192,112818,1,0,0:0:0:0:
110,192,112895,1,0,0:0:0:0:
37,192,112971,1,0,0:0:0:0:
256,192,113048,1,2,0:0:0:0:
475,192,113048,1,8,0:0:0:0:
329,192,113125,1,0,0:0:0:0:
402,192,113202,1,0,0:0:0:0:
37,192,113279,1,0,0:0:0:0:
110,192,113356,1,0,0:0:0:0:
183,192,113433,1,0,0:0:0:0:
256,192,113510,1,2,0:0:0:0:
475,192,113510,1,0,0:0:0:0:
402,192,113625,1,0,0:0:0:0:
329,192,113741,1,0,0:0:0:0:
183,192,113856,1,0,0:0:0:0:
37,192,113971,1,2,0:0:0:0:
110,192,113971,1,8,0:0:0:0:
256,192,113971,1,0,0:0:0:0:
402,192,114087,1,0,0:0:0:0:
329,192,114202,1,0,0:0:0:0:
183,192,114318,1,0,0:0:0:0:
37,192,114433,1,2,0:0:0:0:
110,192,114433,1,0,0:0:0:0:
329,192,114664,1,0,0:0:0:0:
402,192,114779,1,0,0:0:0:0:
256,192,114895,1,2,0:0:0:0:
475,192,114895,1,8,0:0:0:0:
110,192,115010,1,0,0:0:0:0:
183,192,115125,1,0,0:0:0:0:
329,192,115241,1,0,0:0:0:0:
402,192,115356,1,2,0:0:0:0:
475,192,115356,1,0,0:0:0:0:
329,192,115471,1,0,0:0:0:0:
183,192,115587,1,0,0:0:0:0:
110,192,115702,1,0,0:0:0:0:
37,192,115818,1,2,0:0:0:0:
256,192,115818,1,8,0:0:0:0:
329,192,115933,1,0,0:0:0:0:
329,192,116164,1,0,0:0:0:0:
37,192,116279,1,2,0:0:0:0:
402,192,116279,1,0,0:0:0:0:
183,192,116395,1,0,0:0:0:0:
110,192,116510,1,0,0:0:0:0:
183,192,116625,1,0,0:0:0:0:
256,192,116741,1,2,0:0:0:0:
475,192,116741,1,8,0:0:0:0:
110,192,116856,1,0,0:0:0:0:
110,192,117087,1,0,0:0:0:0:
37,192,117202,1,2,0:0:0:0:
329,192,117202,1,4,0:0:0:0:
402,192,117202,1,0,0:0:0:0:
475,192,117202,1,0,0:0:0:0:
183,192,117433,1,8,0:0:0:0:
256,192,117548,1,8,0:0:0:0:
110,192,117664,1,8,0:0:0:0:
329,192,117664,1,4,0:0:0:0:
402,192,117664,1,2,0:0:0:0:
183,192,117779,1,0,0:0:0:0:
182,192,118010,1,8,0:0:0:0:
110,192,118125,1,2,0:0:0:0:
256,192,118125,1,4,0:0:0:0:
402,192,118125,1,8,0:0:0:0:
329,192,118241,1,8,0:0:0:0:
37,192,118356,1,8,0:0:0:0:
475,192,118356,1,0,0:0:0:0:
182,192,118471,1,8,0:0:0:0:
37,192,118587,1,8,0:0:0:0:
256,192,118587,1,4,0:0:0:0:
475,192,118587,1,2,0:0:0:0:
329,192,118702,1,8,0:0:0:0:
110,192,118818,1,8,0:0:0:0:
402,192,118818,1,2,0:0:0:0:
329,192,118933,1,8,0:0:0:0:
37,192,119048,1,2,0:0:0:0:
256,192,119048,1,4,0:0:0:0:
475,192,119048,1,0,0:0:0:0:
183,192,119279,1,0,0:0:0:0:
329,192,119395,1,0,0:0:0:0:
37,192,119510,1,8,0:0:0:0:
256,192,119510,1,2,0:0:0:0:
110,192,119625,1,0,0:0:0:0:
183,192,119741,1,0,0:0:0:0:
402,192,119856,1,0,0:0:0:0:
37,192,119971,1,2,0:0:0:0:
329,192,119971,1,0,0:0:0:0:
110,192,120202,1,0,0:0:0:0:
183,192,120318,1,0,0:0:0:0:
256,192,120433,1,8,0:0:0:0:
475,192,120433,1,2,0:0:0:0:
402,192,120548,1,0,0:0:0:0:
329,192,120779,1,0,0:0:0:0:
475,192,120895,1,2,0:0:0:0:
183,192,121125,1,0,0:0:0:0:
37,192,121356,1,8,0:0:0:0:
256,192,121356,1,2,0:0:0:0:
402,192,121587,1,0,0:0:0:0:
37,192,121818,1,2,0:0:0:0:
329,192,121818,1,0,0:0:0:0:
402,192,122048,1,0,0:0:0:0:
183,192,122279,1,8,0:0:0:0:
256,192,122279,1,2,0:0:0:0:
475,192,122279,1,0,0:0:0:0:
110,192,122395,1,0,0:0:0:0:
329,192,122510,1,0,0:0:0:0:
402,192,122625,1,0,0:0:0:0:
183,192,122741,1,2,0:0:0:0:
475,192,122741,1,0,0:0:0:0:
110,192,122856,1,0,0:0:0:0:
402,192,122971,1,0,0:0:0:0:
329,192,123087,1,0,0:0:0:0:
37,192,123202,1,8,0:0:0:0:
110,192,123202,1,2,0:0:0:0:
256,192,123202,1,0,0:0:0:0:
183,192,123318,1,0,0:0:0:0:
402,192,123433,1,0,0:0:0:0:
329,192,123548,1,0,0:0:0:0:
37,192,123664,1,2,0:0:0:0:
183,192,123664,1,0,0:0:0:0:
110,192,123779,1,0,0:0:0:0:
329,192,123895,1,0,0:0:0:0:
402,192,124010,1,0,0:0:0:0:
110,192,124125,1,8,0:0:0:0:
256,192,124125,1,2,0:0:0:0:
475,192,124125,1,0,0:0:0:0:
183,192,124241,1,0,0:0:0:0:
329,192,124471,1,0,0:0:0:0:
475,192,124587,1,2,0:0:0:0:
183,192,124818,1,0,0:0:0:0:
37,192,125048,1,8,0:0:0:0:
256,192,125048,1,2,0:0:0:0:
402,192,125048,1,0,0:0:0:0:
329,192,125164,1,0,0:0:0:0:
110,192,125279,1,0,0:0:0:0:
183,192,125395,1,0,0:0:0:0:
37,192,125510,1,2,0:0:0:0:
475,192,125510,1,0,0:0:0:0:
402,192,125587,1,0,0:0:0:0:
329,192,125664,1,0,0:0:0:0:
256,192,125741,1,0,0:0:0:0:
183,192,125818,1,0,0:0:0:0:
110,192,125895,1,0,0:0:0:0:
37,192,125971,1,8,0:0:0:0:
329,192,125971,1,2,0:0:0:0:
402,192,126048,1,0,0:0:0:0:
475,192,126125,1,0,0:0:0:0:
37,192,126202,1,2,0:0:0:0:
110,192,126279,1,0,0:0:0:0:
183,192,126356,1,0,0:0:0:0:
256,192,126433,1,4,0:0:0:0:
329,192,126433,1,2,0:0:0:0:
402,192,126433,1,0,0:0:0:0:
475,192,126433,1,0,0:0:0:0:
183,192,126779,1,0,0:0:0:0:
37,192,126895,1,8,0:0:0:0:
110,192,126895,1,2,0:0:0:0:
256,192,126895,1,0,0:0:0:0:
402,192,127125,1,0,0:0:0:0:
329,192,127241,1,0,0:0:0:0:
37,192,127356,1,2,0:0:0:0:
183,192,127356,1,4,0:0:0:0:
256,192,127356,1,0,0:0:0:0:
475,192,127356,1,0,0:0:0:0:
110,192,127587,1,0,0:0:0:0:
183,192,127702,1,0,0:0:0:0:
256,192,127818,1,8,0:0:0:0:
329,192,127818,1,2,0:0:0:0:
402,192,127818,1,4,0:0:0:0:
183,192,127933,1,0,0:0:0:0:
110,192,128048,1,2,0:0:0:0:
37,192,128164,1,2,0:0:0:0:
256,192,128279,1,4,0:0:0:0:
329,192,128279,1,2,0:0:0:0:
402,192,128279,1,0,0:0:0:0:
475,192,128279,1,0,0:0:0:0:
110,192,128625,1,8,0:0:0:0:
183,192,128625,1,2,0:0:0:0:
256,192,128625,1,4,0:0:0:0:
329,192,128625,1,0,0:0:0:0:
37,192,128971,1,2,0:0:0:0:
110,192,128971,1,4,0:0:0:0:
183,192,128971,1,0,0:0:0:0:
256,192,128971,1,0,0:0:0:0:
402,192,129202,1,6,0:0:0:0:
475,192,129202,1,8,0:0:0:0:
329,192,129318,1,8,0:0:0:0:
110,192,129433,1,8,0:0:0:0:
183,192,129433,1,2,0:0:0:0:
256,192,129548,1,8,0:0:0:0:
329,192,129664,1,12,0:0:0:0:
402,192,129664,1,2,0:0:0:0:
256,192,129779,1,8,0:0:0:0:
37,192,129895,1,8,0:0:0:0:
110,192,129895,1,2,0:0:0:0:
183,192,130010,1,8,0:0:0:0:
37,192,130125,1,2,0:0:0:0:
256,192,130125,1,4,0:0:0:0:
475,192,130125,1,8,0:0:0:0:
402,192,130241,1,0,0:0:0:0:
329,192,130356,1,0,0:0:0:0:
110,192,130471,1,0,0:0:0:0:
256,192,130587,1,2,0:0:0:0:
475,192,130587,1,8,0:0:0:0:
183,192,130702,1,0,0:0:0:0:
329,192,130818,1,0,0:0:0:0:
402,192,130933,1,0,0:0:0:0:
37,192,131048,1,2,0:0:0:0:
110,192,131048,1,0,0:0:0:0:
183,192,131164,1,0,0:0:0:0:
402,192,131279,1,0,0:0:0:0:
329,192,131395,1,0,0:0:0:0:
37,192,131510,1,2,0:0:0:0:
256,192,131510,1,8,0:0:0:0:
475,192,131510,1,0,0:0:0:0:
475,192,131741,1,0,0:0:0:0:
402,192,131856,1,0,0:0:0:0:
110,192,131971,1,4,0:0:0:0:
183,192,131971,1,2,0:0:0:0:
256,192,131971,1,0,0:0:0:0:
329,192,131971,1,0,0:0:0:0:
37,192,132202,1,0,0:0:0:0:
183,192,132433,1,8,0:0:0:0:
256,192,132433,1,2,0:0:0:0:
329,192,132433,1,4,0:0:0:0:
402,192,132433,1,0,0:0:0:0:
110,192,132664,1,2,0:0:0:0:
256,192,132895,1,4,0:0:0:0:
329,192,132895,1,2,0:0:0:0:
402,192,132895,1,0,0:0:0:0:
475,192,132895,1,0,0:0:0:0:
183,192,133125,1,2,0:0:0:0:
256,192,133241,1,0,0:0:0:0:
329,192,133356,1,2,0:0:0:0:
402,192,133356,1,4,0:0:0:0:
475,192,133356,1,8,0:0:0:0:
37,192,133471,1,2,0:0:0:0:
110,192,133587,1,2,0:0:0:0:
183,192,133702,1,2,0:0:0:0:
37,192,133818,1,2,0:0:0:0:
402,192,133818,1,4,0:0:0:0:
475,192,133818,1,0,0:0:0:0:
329,192,133933,1,0,0:0:0:0:
402,192,134048,1,0,0:0:0:0:
329,192,134164,1,0,0:0:0:0:
37,192,134279,1,8,0:0:0:0:
256,192,134279,1,2,0:0:0:0:
402,192,134510,1,0,0:0:0:0:
329,192,134625,1,0,0:0:0:0:
110,192,134741,1,2,0:0:0:0:
475,192,134741,1,0,0:0:0:0:
183,192,134856,1,0,0:0:0:0:
110,192,134971,1,0,0:0:0:0:
183,192,135087,1,0,0:0:0:0:
256,192,135202,1,8,0:0:0:0:
475,192,135202,1,0,0:0:0:0:
110,192,135433,1,0,0:0:0:0:
183,192,135548,1,0,0:0:0:0:
37,192,135664,1,2,0:0:0:0:
475,192,135664,1,0,0:0:0:0:
402,192,135741,1,0,0:0:0:0:
329,192,135818,1,0,0:0:0:0:
256,192,135895,1,0,0:0:0:0:
183,192,135971,1,0,0:0:0:0:
110,192,136048,1,0,0:0:0:0:
37,192,136125,1,8,0:0:0:0:
329,192,136125,1,0,0:0:0:0:
402,192,136202,1,0,0:0:0:0:
475,192,136279,1,0,0:0:0:0:
183,192,136356,1,0,0:0:0:0:
256,192,136433,1,0,0:0:0:0:
329,192,136510,1,0,0:0:0:0:
402,192,136587,1,2,0:0:0:0:
475,192,136587,1,0,0:0:0:0:
37,192,136818,1,0,0:0:0:0:
110,192,136818,1,0,0:0:0:0:
329,192,137048,1,8,0:0:0:0:
402,192,137048,1,0,0:0:0:0:
475,192,137048,1,0,0:0:0:0:
110,192,137279,1,0,0:0:0:0:
183,192,137279,1,0,0:0:0:0:
37,192,137510,1,2,0:0:0:0:
329,192,137510,1,0,0:0:0:0:
402,192,137625,1,0,0:0:0:0:
329,192,137741,1,0,0:0:0:0:
402,192,137856,1,0,0:0:0:0:
37,192,137971,1,8,0:0:0:0:
256,192,137971,1,0,0:0:0:0:
329,192,138202,1,0,0:0:0:0:
402,192,138318,1,0,0:0:0:0:
183,192,138433,1,2,0:0:0:0:
475,192,138433,1,0,0:0:0:0:
110,192,138548,1,0,0:0:0:0:
183,192,138664,1,0,0:0:0:0:
110,192,138779,1,0,0:0:0:0:
256,192,138895,1,8,0:0:0:0:
402,192,138895,1,0,0:0:0:0:
475,192,138895,1,0,0:0:0:0:
329,192,139010,1,0,0:0:0:0:
110,192,139125,1,0,0:0:0:0:
183,192,139241,1,0,0:0:0:0:
37,192,139356,1,2,0:0:0:0:
475,192,139356,1,0,0:0:0:0:
402,192,139433,1,0,0:0:0:0:
329,192,139510,1,0,0:0:0:0:
256,192,139587,1,0,0:0:0:0:
183,192,139664,1,0,0:0:0:0:
110,192,139741,1,0,0:0:0:0:
37,192,139818,1,8,0:0:0:0:
475,192,139818,1,0,0:0:0:0:
402,192,139895,1,0,0:0:0:0:
329,192,139971,1,0,0:0:0:0:
37,192,140048,1,0,0:0:0:0:
110,192,140125,1,0,0:0:0:0:
183,192,140202,1,0,0:0:0:0:
256,192,140279,1,2,0:0:0:0:
475,192,140279,1,0,0:0:0:0:
475,192,140510,1,0,0:0:0:0:
402,192,140625,1,0,0:0:0:0:
37,192,140741,1,8,0:0:0:0:
110,192,140741,1,0,0:0:0:0:
256,192,140856,1,0,0:0:0:0:
329,192,140971,1,2,0:0:0:0:
402,192,141087,1,0,0:0:0:0:
37,192,141202,1,4,0:0:0:0:
256,192,141202,1,2,0:0:0:0:
475,192,141202,1,0,0:0:0:0:
183,192,141318,1,0,0:0:0:0:
110,192,141433,1,0,0:0:0:0:
37,192,141548,1,0,0:0:0:0:
329,192,141664,1,8,0:0:0:0:
402,192,141664,1,2,0:0:0:0:
475,192,141664,1,0,0:0:0:0:
256,192,141779,1,0,0:0:0:0:
183,192,141895,1,0,0:0:0:0:
110,192,142010,1,0,0:0:0:0:
37,192,142125,1,2,0:0:0:0:
402,192,142125,1,0,0:0:0:0:
329,192,142241,1,0,0:0:0:0:
256,192,142356,1,0,0:0:0:0:
183,192,142471,1,0,0:0:0:0:
37,192,142587,1,8,0:0:0:0:
110,192,142587,1,0,0:0:0:0:
475,192,142587,1,0,0:0:0:0:
402,192,142702,1,0,0:0:0:0:
329,192,142818,1,0,0:0:0:0:
256,192,142933,1,0,0:0:0:0:
183,192,143048,1,2,0:0:0:0:
475,192,143048,1,0,0:0:0:0:
256,192,143164,1,0,0:0:0:0:
329,192,143279,1,0,0:0:0:0:
402,192,143395,1,0,0:0:0:0:
37,192,143510,1,8,0:0:0:0:
110,192,143510,1,0,0:0:0:0:
475,192,143510,1,0,0:0:0:0:
183,192,143625,1,0,0:0:0:0:
256,192,143741,1,0,0:0:0:0:
329,192,143856,1,0,0:0:0:0:
37,192,143971,1,2,0:0:0:0:
402,192,143971,1,0,0:0:0:0:
110,192,144087,1,0,0:0:0:0:
183,192,144202,1,0,0:0:0:0:
256,192,144318,1,0,0:0:0:0:
329,192,144433,1,8,0:0:0:0:
402,192,144433,1,0,0:0:0:0:
475,192,144433,1,0,0:0:0:0:
256,192,144548,1,0,0:0:0:0:
183,192,144664,1,2,0:0:0:0:
110,192,144779,1,0,0:0:0:0:
37,192,144895,1,2,0:0:0:0:
402,192,144895,1,4,0:0:0:0:
475,192,144895,1,0,0:0:0:0:
329,192,145010,1,0,0:0:0:0:
256,192,145125,1,0,0:0:0:0:
183,192,145241,1,0,0:0:0:0:
37,192,145356,1,8,0:0:0:0:
110,192,145356,1,2,0:0:0:0:
475,192,145356,1,0,0:0:0:0:
402,192,145471,1,0,0:0:0:0:
329,192,145587,1,0,0:0:0:0:
256,192,145702,1,0,0:0:0:0:
37,192,145818,1,8,0:0:0:0:
110,192,145818,1,2,0:0:0:0:
183,192,145818,1,4,0:0:0:0:
256,192,145933,1,0,0:0:0:0:
329,192,146048,1,0,0:0:0:0:
402,192,146164,1,0,0:0:0:0:
37,192,146279,1,8,0:0:0:0:
110,192,146279,1,2,0:0:0:0:
475,192,146279,1,0,0:0:0:0:
183,192,146395,1,0,0:0:0:0:
256,192,146510,1,8,0:0:0:0:
329,192,146625,1,0,0:0:0:0:
110,192,146741,1,8,0:0:0:0:
402,192,146741,1,2,0:0:0:0:
475,192,146741,1,4,0:0:0:0:
37,192,146971,1,10,0:0:0:0:
110,192,147087,1,8,0:0:0:0:
183,192,147202,1,2,0:0:0:0:
256,192,147202,1,4,0:0:0:0:
329,192,147202,1,0,0:0:0:0:
402,192,147318,1,0,0:0:0:0:
110,192,147433,1,10,0:0:0:0:
183,192,147548,1,8,0:0:0:0:
37,192,147664,1,2,0:0:0:0:
329,192,147664,1,4,0:0:0:0:
402,192,147741,1,2,0:0:0:0:
183,192,147818,1,2,0:0:0:0:
110,192,147895,1,10,0:0:0:0:
402,192,147971,1,2,0:0:0:0:
329,192,148048,1,2,0:0:0:0:
110,192,148125,1,2,0:0:0:0:
475,192,148125,1,4,0:0:0:0:
183,192,148241,1,2,0:0:0:0:
329,192,148356,1,10,0:0:0:0:
402,192,148471,1,2,0:0:0:0:
37,192,148587,1,2,0:0:0:0:
256,192,148587,1,4,0:0:0:0:
475,192,148587,1,0,0:0:0:0:
