osu file format v14

[General]
AudioFilename: audio.mp3
AudioLeadIn: 0
PreviewTime: 74741
Countdown: 0
SampleSet: Soft
StackLeniency: 0.7
Mode: 3
LetterboxInBreaks: 0
SpecialStyle: 0
WidescreenStoryboard: 1

[Editor]
Bookmarks: 15664,30433,45202,59971,74741,89510,104279,119048
DistanceSpacing: 1
BeatDivisor: 4
GridSize: 32
TimelineZoom: 1.8

[Metadata]
Title:Grin
TitleUnicode:Grin
Artist:HyuN
ArtistUnicode:HyuN
Creator:[GB]Sanae
Version:Alptraum's Normal
Source:
Tags:piano featured artist FA house MUSIQLO 토토리카 숲 totorica forest Healing 바람과 시간 속 in the wind and in time Innocent Records d3ip 35 hyunesis osu! Carpihat Alptraum Das-[Hikari]- -H i k a r i- _Hikari Critical_Star YyottaCat IceDynamix Eistal electronic instrumental
BeatmapID:3971899
BeatmapSetID:1923546

[Difficulty]
HPDrainRate:7.4
CircleSize:7
OverallDifficulty:7.4
ApproachRate:5
SliderMultiplier:1.4
SliderTickRate:1

[Events]
//Background and Video events
0,0,"28186b656f2e05bdef2b452ef1e29416.jpg",0,0
//Break Periods
//Storyboard Layer 0 (Background)
//Storyboard Layer 1 (Fail)
//Storyboard Layer 2 (Pass)
//Storyboard Layer 3 (Foreground)
//Storyboard Layer 4 (Overlay)
//Storyboard Sound Samples

[TimingPoints]
895,461.538461538462,4,2,1,40,1,0
45202,-100,4,2,1,40,0,1
59971,-100,4,2,1,40,0,0
133818,-100,4,2,1,40,0,1
148587,-100,4,2,1,40,0,0

[HitObjects]
182,192,895,5,0,0:0:0:0:
475,192,895,1,0,0:0:0:0:
182,192,1587,1,0,0:0:0:0:
475,192,1587,1,0,0:0:0:0:
182,192,2279,1,0,0:0:0:0:
475,192,2279,1,0,0:0:0:0:
36,192,2741,1,0,0:0:0:0:
256,192,2741,1,0,0:0:0:0:
475,192,3433,1,0,0:0:0:0:
182,192,3664,1,0,0:0:0:0:
402,192,3895,1,0,0:0:0:0:
256,192,4125,1,0,0:0:0:0:
36,192,4241,1,0,0:0:0:0:
329,192,4471,1,0,0:0:0:0:
182,192,4587,1,0,0:0:0:0:
475,192,4587,1,0,0:0:0:0:
182,192,5279,1,0,0:0:0:0:
475,192,5279,1,0,0:0:0:0:
182,192,5971,1,0,0:0:0:0:
475,192,5971,1,0,0:0:0:0:
36,192,6433,1,0,0:0:0:0:
256,192,6433,1,0,0:0:0:0:
329,192,7125,1,0,0:0:0:0:
109,192,7356,1,0,0:0:0:0:
475,192,7587,1,0,0:0:0:0:
182,192,7818,1,0,0:0:0:0:
402,192,7933,1,0,0:0:0:0:
36,192,8164,1,0,0:0:0:0:
182,192,8279,1,0,0:0:0:0:
475,192,8279,1,0,0:0:0:0:
182,192,8971,1,0,0:0:0:0:
475,192,8971,1,0,0:0:0:0:
182,192,9664,1,0,0:0:0:0:
475,192,9664,1,0,0:0:0:0:
36,192,10125,1,0,0:0:0:0:
256,192,10125,1,0,0:0:0:0:
109,192,10818,1,0,0:0:0:0:
402,192,11048,1,0,0:0:0:0:
329,192,11279,1,0,0:0:0:0:
402,192,11510,1,0,0:0:0:0:
329,192,11741,1,0,0:0:0:0:
36,192,11971,1,0,0:0:0:0:
475,192,11971,1,0,0:0:0:0:
182,192,12664,1,0,0:0:0:0:
329,192,13125,1,0,0:0:0:0:
109,192,13356,1,0,0:0:0:0:
402,192,13587,1,0,0:0:0:0:
36,192,13818,1,0,0:0:0:0:
329,192,14279,1,0,0:0:0:0:
475,192,14741,1,0,0:0:0:0:
109,192,14971,1,0,0:0:0:0:
256,192,15087,1,0,0:0:0:0:
402,192,15202,1,0,0:0:0:0:
36,192,15433,1,0,0:0:0:0:
182,192,15664,1,4,0:0:0:0:
475,192,15664,1,0,0:0:0:0:
329,192,15895,1,0,0:0:0:0:
182,192,16356,1,0,0:0:0:0:
475,192,16356,1,0,0:0:0:0:
329,192,16587,1,0,0:0:0:0:
182,192,17048,1,0,0:0:0:0:
475,192,17048,1,0,0:0:0:0:
329,192,17279,1,0,0:0:0:0:
36,192,17510,1,0,0:0:0:0:
256,192,17510,1,0,0:0:0:0:
475,192,18202,1,0,0:0:0:0:
182,192,18433,1,0,0:0:0:0:
402,192,18664,1,0,0:0:0:0:
36,192,18895,1,0,0:0:0:0:
329,192,19010,1,0,0:0:0:0:
109,192,19241,1,0,0:0:0:0:
182,192,19356,1,0,0:0:0:0:
475,192,19356,1,0,0:0:0:0:
329,192,19587,1,0,0:0:0:0:
182,192,20048,1,0,0:0:0:0:
475,192,20048,1,0,0:0:0:0:
329,192,20279,1,0,0:0:0:0:
182,192,20741,1,0,0:0:0:0:
475,192,20741,1,0,0:0:0:0:
329,192,20971,1,0,0:0:0:0:
36,192,21202,1,0,0:0:0:0:
256,192,21202,1,0,0:0:0:0:
329,192,21895,1,0,0:0:0:0:
109,192,22125,1,0,0:0:0:0:
475,192,22356,1,0,0:0:0:0:
256,192,22587,1,0,0:0:0:0:
182,192,22702,1,0,0:0:0:0:
475,192,22933,1,0,0:0:0:0:
36,192,23048,1,0,0:0:0:0:
329,192,23048,1,0,0:0:0:0:
182,192,23279,1,0,0:0:0:0:
36,192,23741,1,0,0:0:0:0:
329,192,23741,1,0,0:0:0:0:
182,192,23971,1,0,0:0:0:0:
36,192,24433,1,0,0:0:0:0:
329,192,24433,1,0,0:0:0:0:
182,192,24664,1,0,0:0:0:0:
256,192,24895,1,0,0:0:0:0:
475,192,24895,1,0,0:0:0:0:
109,192,25587,1,0,0:0:0:0:
402,192,25818,1,0,0:0:0:0:
329,192,26048,1,0,0:0:0:0:
402,192,26279,1,0,0:0:0:0:
329,192,26510,1,0,0:0:0:0:
36,192,26741,1,0,0:0:0:0:
475,192,26741,1,0,0:0:0:0:
256,192,27433,1,0,0:0:0:0:
402,192,27433,1,0,0:0:0:0:
329,192,27895,1,0,0:0:0:0:
182,192,28125,1,0,0:0:0:0:
256,192,28356,1,0,0:0:0:0:
109,192,28587,1,8,0:0:0:0:
402,192,28587,1,4,0:0:0:0:
109,192,29048,1,8,0:0:0:0:
402,192,29048,1,4,0:0:0:0:
329,192,29510,1,8,0:0:0:0:
475,192,29510,1,4,0:0:0:0:
182,192,29741,1,8,0:0:0:0:
402,192,29856,1,8,0:0:0:0:
36,192,29971,1,12,0:0:0:0:
329,192,29971,1,2,0:0:0:0:
36,192,30202,1,14,0:0:0:0:
402,192,30433,1,2,0:0:0:0:
475,192,30433,1,4,0:0:0:0:
182,192,30664,1,0,0:0:0:0:
329,192,30779,1,0,0:0:0:0:
475,192,30779,1,0,0:0:0:0:
109,192,31010,1,0,0:0:0:0:
256,192,31125,1,0,0:0:0:0:
402,192,31241,1,0,0:0:0:0:
182,192,31356,1,2,0:0:0:0:
475,192,31356,1,0,0:0:0:0:
329,192,31587,1,0,0:0:0:0:
36,192,31702,1,0,0:0:0:0:
182,192,31702,1,0,0:0:0:0:
402,192,31933,1,0,0:0:0:0:
475,192,31933,1,0,0:0:0:0:
109,192,32164,1,0,0:0:0:0:
256,192,32164,1,0,0:0:0:0:
475,192,32971,1,0,0:0:0:0:
256,192,33202,1,2,0:0:0:0:
475,192,33433,1,0,0:0:0:0:
182,192,33664,1,10,0:0:0:0:
329,192,33779,1,0,0:0:0:0:
109,192,33895,1,0,0:0:0:0:
256,192,34010,1,0,0:0:0:0:
36,192,34125,128,2,34471:0:0:0:0:
475,192,34125,1,0,0:0:0:0:
402,192,34471,128,0,34818:0:0:0:0:
109,192,34818,128,0,35048:0:0:0:0:
329,192,35048,128,2,35279:0:0:0:0:
256,192,35279,128,0,35510:0:0:0:0:
109,192,35510,1,10,0:0:0:0:
182,192,35625,1,0,0:0:0:0:
475,192,35625,1,0,0:0:0:0:
36,192,35856,1,0,0:0:0:0:
329,192,35856,1,0,0:0:0:0:
109,192,36433,1,10,0:0:0:0:
182,192,36548,1,0,0:0:0:0:
329,192,36664,1,0,0:0:0:0:
402,192,36779,1,0,0:0:0:0:
475,192,36895,128,2,37125:0:0:0:0:
329,192,37125,128,0,37356:0:0:0:0:
182,192,37356,128,10,37587:0:0:0:0:
36,192,37587,128,0,37818:0:0:0:0:
182,192,37818,1,6,0:0:0:0:
402,192,37818,1,8,0:0:0:0:
182,192,38164,1,0,0:0:0:0:
402,192,38164,1,0,0:0:0:0:
182,192,38510,1,0,0:0:0:0:
402,192,38510,1,0,0:0:0:0:
36,192,38741,1,6,0:0:0:0:
329,192,38741,1,8,0:0:0:0:
256,192,38971,1,0,0:0:0:0:
182,192,39087,1,0,0:0:0:0:
329,192,39318,1,0,0:0:0:0:
109,192,39433,1,2,0:0:0:0:
402,192,39548,1,2,0:0:0:0:
182,192,39664,1,2,0:0:0:0:
475,192,39664,1,8,0:0:0:0:
109,192,40010,1,4,0:0:0:0:
402,192,40010,1,2,0:0:0:0:
36,192,40356,1,4,0:0:0:0:
329,192,40356,1,2,0:0:0:0:
329,192,40818,1,2,0:0:0:0:
402,192,40818,1,8,0:0:0:0:
109,192,41048,1,6,0:0:0:0:
182,192,41048,1,8,0:0:0:0:
329,192,41279,1,2,0:0:0:0:
402,192,41279,1,8,0:0:0:0:
402,192,41510,1,14,0:0:0:0:
182,192,41625,1,0,0:0:0:0:
329,192,41741,1,0,0:0:0:0:
109,192,41856,1,0,0:0:0:0:
109,192,42087,1,0,0:0:0:0:
256,192,42202,1,0,0:0:0:0:
402,192,42318,1,0,0:0:0:0:
36,192,42433,128,2,42664:0:0:0:0:
182,192,42664,128,0,42895:0:0:0:0:
329,192,42895,128,10,43125:0:0:0:0:
475,192,43125,128,0,43356:0:0:0:0:
36,192,43356,1,2,0:0:0:0:
109,192,43356,1,4,0:0:0:0:
256,192,43356,1,0,0:0:0:0:
109,192,43818,1,4,0:0:0:0:
182,192,43818,1,8,0:0:0:0:
329,192,43818,1,2,0:0:0:0:
36,192,44279,1,8,0:0:0:0:
329,192,44279,1,2,0:0:0:0:
475,192,44279,1,4,0:0:0:0:
182,192,44510,1,2,0:0:0:0:
36,192,44741,128,10,45202:0:0:0:0:
402,192,44741,1,4,0:0:0:0:
256,192,44971,1,2,0:0:0:0:
182,192,45202,1,2,0:0:0:0:
475,192,45202,1,4,0:0:0:0:
329,192,45433,1,0,0:0:0:0:
182,192,45664,1,8,0:0:0:0:
475,192,45664,1,2,0:0:0:0:
329,192,45895,1,0,0:0:0:0:
109,192,46125,1,2,0:0:0:0:
402,192,46125,1,0,0:0:0:0:
256,192,46356,1,0,0:0:0:0:
109,192,46587,1,8,0:0:0:0:
402,192,46587,1,0,0:0:0:0:
256,192,46818,1,0,0:0:0:0:
36,192,47048,1,2,0:0:0:0:
475,192,47048,128,0,47279:0:0:0:0:
402,192,47279,128,0,47510:0:0:0:0:
36,192,47510,1,8,0:0:0:0:
329,192,47510,128,0,47741:0:0:0:0:
256,192,47741,128,0,47971:0:0:0:0:
109,192,47971,1,2,0:0:0:0:
182,192,47971,1,0,0:0:0:0:
402,192,48202,1,0,0:0:0:0:
475,192,48202,1,0,0:0:0:0:
36,192,48433,1,8,0:0:0:0:
109,192,48433,1,0,0:0:0:0:
256,192,48664,1,0,0:0:0:0:
329,192,48664,1,0,0:0:0:0:
182,192,48895,1,2,0:0:0:0:
475,192,48895,1,0,0:0:0:0:
402,192,49125,1,0,0:0:0:0:
109,192,49356,1,8,0:0:0:0:
256,192,49356,1,0,0:0:0:0:
402,192,49587,1,0,0:0:0:0:
36,192,49818,1,2,0:0:0:0:
329,192,49818,1,0,0:0:0:0:
109,192,50048,1,0,0:0:0:0:
256,192,50279,1,8,0:0:0:0:
402,192,50279,1,0,0:0:0:0:
109,192,50510,1,0,0:0:0:0:
182,192,50741,1,2,0:0:0:0:
475,192,50741,128,0,50971:0:0:0:0:
329,192,50971,128,0,51202:0:0:0:0:
36,192,51202,128,8,51433:0:0:0:0:
256,192,51202,1,0,0:0:0:0:
182,192,51433,128,0,51664:0:0:0:0:
329,192,51664,1,2,0:0:0:0:
475,192,51664,1,0,0:0:0:0:
402,192,51895,1,0,0:0:0:0:
109,192,52010,1,0,0:0:0:0:
109,192,52241,1,0,0:0:0:0:
256,192,52356,1,2,0:0:0:0:
475,192,52471,1,0,0:0:0:0:
36,192,52587,1,2,0:0:0:0:
329,192,52587,1,4,0:0:0:0:
182,192,52818,1,0,0:0:0:0:
36,192,53048,1,8,0:0:0:0:
329,192,53048,1,2,0:0:0:0:
182,192,53279,1,0,0:0:0:0:
109,192,53510,1,2,0:0:0:0:
402,192,53510,1,0,0:0:0:0:
256,192,53741,1,0,0:0:0:0:
109,192,53971,1,8,0:0:0:0:
402,192,53971,1,0,0:0:0:0:
256,192,54202,1,0,0:0:0:0:
182,192,54433,1,2,0:0:0:0:
475,192,54433,1,0,0:0:0:0:
329,192,54664,1,0,0:0:0:0:
182,192,54895,1,8,0:0:0:0:
475,192,54895,1,0,0:0:0:0:
329,192,55125,1,0,0:0:0:0:
36,192,55356,1,2,0:0:0:0:
402,192,55356,128,0,55587:0:0:0:0:
182,192,55587,128,0,55818:0:0:0:0:
36,192,55818,1,8,0:0:0:0:
329,192,55818,128,0,56048:0:0:0:0:
109,192,56048,128,2,56279:0:0:0:0:
475,192,56048,1,0,0:0:0:0:
256,192,56279,1,2,0:0:0:0:
402,192,56279,1,4,0:0:0:0:
475,192,56510,1,0,0:0:0:0:
182,192,56741,1,8,0:0:0:0:
329,192,56741,1,2,0:0:0:0:
402,192,56971,1,0,0:0:0:0:
109,192,57202,1,10,0:0:0:0:
256,192,57202,1,4,0:0:0:0:
329,192,57433,1,0,0:0:0:0:
36,192,57664,1,8,0:0:0:0:
182,192,57664,1,2,0:0:0:0:
256,192,57895,1,8,0:0:0:0:
402,192,57895,1,0,0:0:0:0:
36,192,58125,1,8,0:0:0:0:
182,192,58125,1,2,0:0:0:0:
475,192,58125,1,4,0:0:0:0:
329,192,58356,1,10,0:0:0:0:
182,192,58471,1,8,0:0:0:0:
109,192,58587,1,2,0:0:0:0:
402,192,58587,1,4,0:0:0:0:
256,192,58818,1,10,0:0:0:0:
109,192,58933,1,8,0:0:0:0:
36,192,59048,1,2,0:0:0:0:
475,192,59048,128,4,59510:0:0:0:0:
109,192,59279,128,10,59510:0:0:0:0:
182,192,59510,1,6,0:0:0:0:
329,192,59625,1,2,0:0:0:0:
182,192,59741,1,10,0:0:0:0:
329,192,59856,1,2,0:0:0:0:
109,192,59971,1,6,0:0:0:0:
109,192,60433,1,10,0:0:0:0:
109,192,60895,1,2,0:0:0:0:
109,192,61356,1,10,0:0:0:0:
402,192,61818,1,2,0:0:0:0:
402,192,62279,1,10,0:0:0:0:
402,192,62741,1,2,0:0:0:0:
402,192,63202,1,10,0:0:0:0:
182,192,63664,1,2,0:0:0:0:
182,192,64125,1,10,0:0:0:0:
182,192,64587,1,2,0:0:0:0:
182,192,65048,1,10,0:0:0:0:
329,192,65510,1,2,0:0:0:0:
329,192,65971,1,10,0:0:0:0:
329,192,66433,1,2,0:0:0:0:
329,192,66895,1,10,0:0:0:0:
182,192,67125,1,2,0:0:0:0:
329,192,67241,1,2,0:0:0:0:
36,192,67356,1,4,0:0:0:0:
182,192,67356,1,2,0:0:0:0:
36,192,67818,1,10,0:0:0:0:
109,192,68279,1,2,0:0:0:0:
329,192,68279,1,0,0:0:0:0:
329,192,68741,1,10,0:0:0:0:
182,192,69202,1,2,0:0:0:0:
475,192,69202,1,0,0:0:0:0:
475,192,69664,1,10,0:0:0:0:
109,192,70125,1,2,0:0:0:0:
402,192,70125,1,0,0:0:0:0:
109,192,70587,1,10,0:0:0:0:
329,192,71048,1,2,0:0:0:0:
182,192,71279,1,0,0:0:0:0:
329,192,71510,1,10,0:0:0:0:
182,192,71741,1,0,0:0:0:0:
256,192,71971,1,2,0:0:0:0:
109,192,72202,1,0,0:0:0:0:
256,192,72433,1,10,0:0:0:0:
109,192,72664,1,0,0:0:0:0:
402,192,72895,1,6,0:0:0:0:
475,192,72895,1,8,0:0:0:0:
36,192,73125,1,8,0:0:0:0:
109,192,73241,1,8,0:0:0:0:
182,192,73356,1,6,0:0:0:0:
329,192,73356,1,8,0:0:0:0:
475,192,73587,1,8,0:0:0:0:
402,192,73702,1,8,0:0:0:0:
36,192,73818,128,6,74048:0:0:0:0:
329,192,73818,1,8,0:0:0:0:
109,192,74048,128,8,74279:0:0:0:0:
182,192,74279,1,12,0:0:0:0:
402,192,74279,128,2,74510:0:0:0:0:
182,192,74510,1,2,0:0:0:0:
475,192,74510,128,8,74741:0:0:0:0:
36,192,74741,1,6,0:0:0:0:
329,192,74741,1,8,0:0:0:0:
182,192,74971,1,0,0:0:0:0:
109,192,75202,1,2,0:0:0:0:
402,192,75202,1,8,0:0:0:0:
256,192,75433,1,0,0:0:0:0:
182,192,75664,1,2,0:0:0:0:
475,192,75664,1,0,0:0:0:0:
329,192,75895,1,0,0:0:0:0:
109,192,76010,1,0,0:0:0:0:
402,192,76241,1,0,0:0:0:0:
329,192,76356,1,0,0:0:0:0:
256,192,76471,1,0,0:0:0:0:
36,192,76587,1,2,0:0:0:0:
475,192,76587,1,0,0:0:0:0:
182,192,76818,1,0,0:0:0:0:
36,192,77048,1,2,0:0:0:0:
402,192,77048,1,8,0:0:0:0:
182,192,77279,1,0,0:0:0:0:
329,192,77510,1,2,0:0:0:0:
475,192,77510,1,0,0:0:0:0:
402,192,77741,1,0,0:0:0:0:
109,192,77971,1,2,0:0:0:0:
256,192,77971,1,8,0:0:0:0:
182,192,78202,1,0,0:0:0:0:
329,192,78318,1,0,0:0:0:0:
36,192,78433,1,2,0:0:0:0:
402,192,78433,1,0,0:0:0:0:
182,192,78664,1,0,0:0:0:0:
329,192,78779,1,0,0:0:0:0:
36,192,78895,1,2,0:0:0:0:
402,192,78895,1,8,0:0:0:0:
256,192,79125,1,0,0:0:0:0:
402,192,79241,1,0,0:0:0:0:
182,192,79356,1,2,0:0:0:0:
475,192,79356,1,0,0:0:0:0:
329,192,79587,1,0,0:0:0:0:
109,192,79702,1,0,0:0:0:0:
402,192,79933,1,0,0:0:0:0:
182,192,80048,1,0,0:0:0:0:
402,192,80164,1,0,0:0:0:0:
36,192,80279,1,2,0:0:0:0:
256,192,80279,1,0,0:0:0:0:
329,192,80510,1,0,0:0:0:0:
182,192,80625,1,0,0:0:0:0:
36,192,80741,1,2,0:0:0:0:
475,192,80741,1,8,0:0:0:0:
256,192,80971,1,0,0:0:0:0:
182,192,81202,1,2,0:0:0:0:
475,192,81202,128,0,81433:0:0:0:0:
402,192,81433,128,0,81664:0:0:0:0:
36,192,81664,1,2,0:0:0:0:
329,192,81664,128,8,81895:0:0:0:0:
256,192,81895,128,0,82125:0:0:0:0:
36,192,82125,1,4,0:0:0:0:
475,192,82125,1,2,0:0:0:0:
109,192,82356,1,0,0:0:0:0:
182,192,82587,1,8,0:0:0:0:
402,192,82587,1,2,0:0:0:0:
329,192,82818,1,0,0:0:0:0:
36,192,83048,1,6,0:0:0:0:
182,192,83048,1,8,0:0:0:0:
402,192,83279,1,2,0:0:0:0:
256,192,83395,1,0,0:0:0:0:
329,192,83625,1,2,0:0:0:0:
109,192,83741,1,2,0:0:0:0:
402,192,83856,1,2,0:0:0:0:
36,192,83971,1,12,0:0:0:0:
475,192,83971,1,2,0:0:0:0:
256,192,84202,1,0,0:0:0:0:
109,192,84318,1,6,0:0:0:0:
402,192,84318,1,8,0:0:0:0:
256,192,84548,1,0,0:0:0:0:
182,192,84664,1,12,0:0:0:0:
329,192,84664,1,2,0:0:0:0:
36,192,84895,1,6,0:0:0:0:
475,192,84895,1,8,0:0:0:0:
109,192,85125,1,2,0:0:0:0:
329,192,85125,1,0,0:0:0:0:
182,192,85356,1,12,0:0:0:0:
402,192,85356,1,2,0:0:0:0:
256,192,85587,1,2,0:0:0:0:
475,192,85587,1,0,0:0:0:0:
36,192,85818,1,2,0:0:0:0:
329,192,85818,1,4,0:0:0:0:
182,192,86048,1,2,0:0:0:0:
36,192,86279,1,2,0:0:0:0:
329,192,86279,1,8,0:0:0:0:
182,192,86510,1,2,0:0:0:0:
109,192,86741,1,4,0:0:0:0:
402,192,86741,1,2,0:0:0:0:
256,192,86971,1,2,0:0:0:0:
109,192,87202,1,8,0:0:0:0:
402,192,87202,1,2,0:0:0:0:
256,192,87433,1,2,0:0:0:0:
402,192,87548,1,2,0:0:0:0:
182,192,87664,1,6,0:0:0:0:
475,192,87664,1,8,0:0:0:0:
36,192,87895,1,2,0:0:0:0:
329,192,87895,1,0,0:0:0:0:
182,192,88125,1,12,0:0:0:0:
475,192,88125,1,2,0:0:0:0:
109,192,88356,1,2,0:0:0:0:
402,192,88356,1,0,0:0:0:0:
36,192,88587,1,6,0:0:0:0:
329,192,88587,1,8,0:0:0:0:
109,192,88818,1,2,0:0:0:0:
402,192,88818,1,0,0:0:0:0:
182,192,89048,1,12,0:0:0:0:
475,192,89048,1,2,0:0:0:0:
256,192,89279,1,2,0:0:0:0:
329,192,89279,1,0,0:0:0:0:
36,192,89510,1,6,0:0:0:0:
109,192,89510,1,8,0:0:0:0:
256,192,89741,1,0,0:0:0:0:
329,192,89856,1,0,0:0:0:0:
182,192,90087,1,0,0:0:0:0:
475,192,90087,1,0,0:0:0:0:
475,192,90318,1,0,0:0:0:0:
36,192,90433,1,2,0:0:0:0:
256,192,90433,1,0,0:0:0:0:
329,192,90664,1,0,0:0:0:0:
182,192,90779,1,0,0:0:0:0:
182,192,91125,1,0,0:0:0:0:
329,192,91241,1,0,0:0:0:0:
109,192,91356,1,2,0:0:0:0:
475,192,91356,1,0,0:0:0:0:
402,192,91587,1,0,0:0:0:0:
256,192,91702,1,0,0:0:0:0:
256,192,91933,1,0,0:0:0:0:
329,192,92048,1,0,0:0:0:0:
36,192,92164,1,0,0:0:0:0:
109,192,92279,1,2,0:0:0:0:
475,192,92279,1,0,0:0:0:0:
402,192,92510,1,0,0:0:0:0:
182,192,92741,1,2,0:0:0:0:
475,192,92741,1,8,0:0:0:0:
329,192,92971,1,0,0:0:0:0:
36,192,93202,1,2,0:0:0:0:
182,192,93202,1,0,0:0:0:0:
475,192,93318,1,0,0:0:0:0:
109,192,93433,1,0,0:0:0:0:
329,192,93548,1,0,0:0:0:0:
329,192,93779,1,0,0:0:0:0:
36,192,94010,1,0,0:0:0:0:
329,192,94125,1,2,0:0:0:0:
475,192,94125,1,0,0:0:0:0:
109,192,94241,1,0,0:0:0:0:
402,192,94356,1,0,0:0:0:0:
182,192,94471,1,0,0:0:0:0:
182,192,94702,1,0,0:0:0:0:
475,192,94818,1,0,0:0:0:0:
402,192,94933,1,0,0:0:0:0:
109,192,95048,128,2,95510:0:0:0:0:
329,192,95048,1,0,0:0:0:0:
182,192,95510,128,2,95971:0:0:0:0:
475,192,95510,1,8,0:0:0:0:
36,192,95971,1,2,0:0:0:0:
329,192,95971,128,0,96433:0:0:0:0:
109,192,96433,1,2,0:0:0:0:
402,192,96433,128,8,96895:0:0:0:0:
109,192,96664,1,2,0:0:0:0:
182,192,96895,1,4,0:0:0:0:
475,192,96895,1,2,0:0:0:0:
329,192,97125,1,0,0:0:0:0:
182,192,97356,1,2,0:0:0:0:
402,192,97356,1,8,0:0:0:0:
256,192,97587,1,0,0:0:0:0:
36,192,97818,1,2,0:0:0:0:
475,192,97818,128,0,98048:0:0:0:0:
329,192,98048,128,0,98279:0:0:0:0:
182,192,98279,128,2,98510:0:0:0:0:
475,192,98279,1,8,0:0:0:0:
36,192,98510,128,0,98741:0:0:0:0:
182,192,98741,1,2,0:0:0:0:
402,192,98741,1,0,0:0:0:0:
256,192,98971,1,0,0:0:0:0:
109,192,99202,1,2,0:0:0:0:
329,192,99202,1,8,0:0:0:0:
256,192,99433,1,0,0:0:0:0:
182,192,99664,1,2,0:0:0:0:
402,192,99664,1,0,0:0:0:0:
402,192,99895,1,0,0:0:0:0:
36,192,100125,1,2,0:0:0:0:
329,192,100125,1,8,0:0:0:0:
182,192,100356,1,0,0:0:0:0:
109,192,100587,1,2,0:0:0:0:
402,192,100587,1,0,0:0:0:0:
329,192,100702,1,0,0:0:0:0:
182,192,100818,1,0,0:0:0:0:
256,192,100933,1,0,0:0:0:0:
256,192,101164,1,0,0:0:0:0:
402,192,101395,1,0,0:0:0:0:
36,192,101510,1,2,0:0:0:0:
475,192,101510,1,0,0:0:0:0:
109,192,101625,1,0,0:0:0:0:
329,192,101741,1,0,0:0:0:0:
256,192,101856,1,0,0:0:0:0:
256,192,102087,1,0,0:0:0:0:
109,192,102318,1,0,0:0:0:0:
402,192,102433,1,2,0:0:0:0:
475,192,102433,1,4,0:0:0:0:
182,192,102664,1,2,0:0:0:0:
256,192,102779,1,2,0:0:0:0:
329,192,102895,1,12,0:0:0:0:
402,192,102895,1,2,0:0:0:0:
182,192,103125,1,2,0:0:0:0:
36,192,103241,1,2,0:0:0:0:
256,192,103356,1,2,0:0:0:0:
329,192,103356,1,4,0:0:0:0:
36,192,103587,1,2,0:0:0:0:
475,192,103587,1,0,0:0:0:0:
109,192,103818,1,12,0:0:0:0:
402,192,103818,1,2,0:0:0:0:
182,192,104048,1,2,0:0:0:0:
329,192,104048,1,8,0:0:0:0:
36,192,104279,1,6,0:0:0:0:
475,192,104279,1,8,0:0:0:0:
256,192,104510,1,0,0:0:0:0:
329,192,104625,1,0,0:0:0:0:
182,192,104856,1,0,0:0:0:0:
475,192,104856,1,0,0:0:0:0:
475,192,105087,1,0,0:0:0:0:
36,192,105202,1,2,0:0:0:0:
256,192,105202,1,0,0:0:0:0:
329,192,105433,1,0,0:0:0:0:
182,192,105548,1,0,0:0:0:0:
182,192,105895,1,0,0:0:0:0:
329,192,106010,1,0,0:0:0:0:
109,192,106125,1,2,0:0:0:0:
475,192,106125,1,0,0:0:0:0:
402,192,106356,1,0,0:0:0:0:
256,192,106471,1,0,0:0:0:0:
256,192,106702,1,0,0:0:0:0:
329,192,106818,1,0,0:0:0:0:
109,192,106933,1,0,0:0:0:0:
36,192,107048,1,2,0:0:0:0:
475,192,107048,1,0,0:0:0:0:
402,192,107279,1,0,0:0:0:0:
182,192,107510,1,2,0:0:0:0:
475,192,107510,1,8,0:0:0:0:
329,192,107741,1,0,0:0:0:0:
109,192,107971,1,2,0:0:0:0:
402,192,107971,1,0,0:0:0:0:
182,192,108087,1,0,0:0:0:0:
329,192,108202,1,0,0:0:0:0:
256,192,108318,1,0,0:0:0:0:
256,192,108548,1,0,0:0:0:0:
109,192,108779,1,0,0:0:0:0:
36,192,108895,1,2,0:0:0:0:
475,192,108895,1,0,0:0:0:0:
402,192,109010,1,0,0:0:0:0:
182,192,109125,1,0,0:0:0:0:
256,192,109241,1,0,0:0:0:0:
475,192,109471,1,0,0:0:0:0:
402,192,109587,1,0,0:0:0:0:
329,192,109702,1,0,0:0:0:0:
109,192,109818,128,2,110279:0:0:0:0:
256,192,109818,1,0,0:0:0:0:
182,192,110279,128,2,110741:0:0:0:0:
402,192,110279,1,8,0:0:0:0:
36,192,110741,1,2,0:0:0:0:
329,192,110741,128,0,111202:0:0:0:0:
109,192,111202,1,2,0:0:0:0:
402,192,111202,128,8,111664:0:0:0:0:
109,192,111433,1,2,0:0:0:0:
182,192,111664,1,4,0:0:0:0:
475,192,111664,1,2,0:0:0:0:
329,192,111895,1,0,0:0:0:0:
182,192,112125,1,2,0:0:0:0:
402,192,112125,1,8,0:0:0:0:
256,192,112356,1,0,0:0:0:0:
36,192,112587,1,2,0:0:0:0:
475,192,112587,128,0,112818:0:0:0:0:
329,192,112818,128,0,113048:0:0:0:0:
182,192,113048,128,2,113279:0:0:0:0:
475,192,113048,1,8,0:0:0:0:
36,192,113279,128,0,113510:0:0:0:0:
182,192,113510,1,2,0:0:0:0:
402,192,113510,1,0,0:0:0:0:
256,192,113741,1,0,0:0:0:0:
109,192,113971,1,2,0:0:0:0:
329,192,113971,1,8,0:0:0:0:
256,192,114202,1,0,0:0:0:0:
182,192,114433,1,2,0:0:0:0:
402,192,114433,1,0,0:0:0:0:
402,192,114664,1,0,0:0:0:0:
36,192,114895,1,2,0:0:0:0:
329,192,114895,1,8,0:0:0:0:
182,192,115125,1,0,0:0:0:0:
109,192,115356,1,2,0:0:0:0:
402,192,115356,1,0,0:0:0:0:
329,192,115471,1,0,0:0:0:0:
182,192,115587,1,0,0:0:0:0:
256,192,115702,1,0,0:0:0:0:
256,192,115933,1,0,0:0:0:0:
402,192,116164,1,0,0:0:0:0:
36,192,116279,1,2,0:0:0:0:
475,192,116279,1,0,0:0:0:0:
109,192,116395,1,0,0:0:0:0:
402,192,116510,1,0,0:0:0:0:
256,192,116625,1,0,0:0:0:0:
256,192,116856,1,0,0:0:0:0:
182,192,117087,1,0,0:0:0:0:
329,192,117202,1,2,0:0:0:0:
475,192,117202,1,4,0:0:0:0:
36,192,117433,1,8,0:0:0:0:
182,192,117548,1,8,0:0:0:0:
329,192,117664,1,12,0:0:0:0:
402,192,117664,1,2,0:0:0:0:
109,192,117895,1,8,0:0:0:0:
256,192,118010,1,8,0:0:0:0:
402,192,118125,1,6,0:0:0:0:
475,192,118125,1,8,0:0:0:0:
36,192,118356,1,8,0:0:0:0:
329,192,118356,1,0,0:0:0:0:
109,192,118587,1,12,0:0:0:0:
402,192,118587,1,2,0:0:0:0:
36,192,118818,1,8,0:0:0:0:
256,192,118818,1,2,0:0:0:0:
402,192,119048,1,2,0:0:0:0:
475,192,119048,1,4,0:0:0:0:
182,192,119279,1,0,0:0:0:0:
329,192,119395,1,0,0:0:0:0:
475,192,119395,1,0,0:0:0:0:
109,192,119625,1,0,0:0:0:0:
256,192,119741,1,0,0:0:0:0:
402,192,119856,1,0,0:0:0:0:
182,192,119971,1,2,0:0:0:0:
475,192,119971,1,0,0:0:0:0:
329,192,120202,1,0,0:0:0:0:
36,192,120318,1,0,0:0:0:0:
182,192,120318,1,0,0:0:0:0:
402,192,120548,1,0,0:0:0:0:
475,192,120548,1,0,0:0:0:0:
109,192,120779,1,0,0:0:0:0:
256,192,120779,1,0,0:0:0:0:
329,192,120895,1,2,0:0:0:0:
182,192,121125,1,0,0:0:0:0:
36,192,121356,1,10,0:0:0:0:
475,192,121587,1,0,0:0:0:0:
256,192,121818,1,2,0:0:0:0:
475,192,122048,1,0,0:0:0:0:
182,192,122279,1,10,0:0:0:0:
329,192,122395,1,0,0:0:0:0:
109,192,122510,1,0,0:0:0:0:
256,192,122625,1,0,0:0:0:0:
36,192,122741,128,2,123087:0:0:0:0:
475,192,122741,1,0,0:0:0:0:
402,192,123087,128,0,123433:0:0:0:0:
109,192,123433,128,0,123664:0:0:0:0:
182,192,123664,1,2,0:0:0:0:
329,192,123664,128,0,123895:0:0:0:0:
256,192,123895,128,0,124125:0:0:0:0:
109,192,124125,1,10,0:0:0:0:
182,192,124241,1,0,0:0:0:0:
475,192,124241,1,0,0:0:0:0:
36,192,124471,1,0,0:0:0:0:
329,192,124471,1,0,0:0:0:0:
402,192,124587,1,2,0:0:0:0:
256,192,124818,1,0,0:0:0:0:
109,192,125048,1,10,0:0:0:0:
182,192,125164,1,0,0:0:0:0:
329,192,125279,1,0,0:0:0:0:
402,192,125395,1,0,0:0:0:0:
36,192,125510,1,2,0:0:0:0:
475,192,125510,128,0,125741:0:0:0:0:
329,192,125741,128,0,125971:0:0:0:0:
182,192,125971,128,8,126202:0:0:0:0:
475,192,125971,1,2,0:0:0:0:
36,192,126202,128,2,126433:0:0:0:0:
182,192,126433,1,4,0:0:0:0:
402,192,126433,1,2,0:0:0:0:
182,192,126779,1,0,0:0:0:0:
402,192,126779,1,0,0:0:0:0:
182,192,127125,1,0,0:0:0:0:
402,192,127125,1,0,0:0:0:0:
36,192,127356,1,2,0:0:0:0:
329,192,127356,1,4,0:0:0:0:
256,192,127587,1,0,0:0:0:0:
182,192,127702,1,0,0:0:0:0:
329,192,127933,1,0,0:0:0:0:
109,192,128048,1,2,0:0:0:0:
402,192,128164,1,2,0:0:0:0:
182,192,128279,1,4,0:0:0:0:
475,192,128279,1,2,0:0:0:0:
109,192,128625,1,10,0:0:0:0:
402,192,128625,1,4,0:0:0:0:
36,192,128971,1,2,0:0:0:0:
329,192,128971,1,4,0:0:0:0:
256,192,129202,1,14,0:0:0:0:
329,192,129433,1,8,0:0:0:0:
402,192,129433,1,2,0:0:0:0:
109,192,129664,1,12,0:0:0:0:
182,192,129664,1,2,0:0:0:0:
329,192,129895,1,8,0:0:0:0:
402,192,129895,1,2,0:0:0:0:
402,192,130125,1,14,0:0:0:0:
182,192,130241,1,0,0:0:0:0:
329,192,130356,1,0,0:0:0:0:
109,192,130471,1,0,0:0:0:0:
109,192,130702,1,0,0:0:0:0:
256,192,130818,1,0,0:0:0:0:
402,192,130933,1,0,0:0:0:0:
36,192,131048,128,2,131279:0:0:0:0:
475,192,131048,1,0,0:0:0:0:
182,192,131279,128,0,131510:0:0:0:0:
36,192,131510,1,2,0:0:0:0:
329,192,131510,128,8,131741:0:0:0:0:
475,192,131741,128,0,131971:0:0:0:0:
36,192,131971,1,4,0:0:0:0:
109,192,131971,1,2,0:0:0:0:
256,192,131971,1,0,0:0:0:0:
109,192,132433,1,8,0:0:0:0:
182,192,132433,1,2,0:0:0:0:
329,192,132433,1,4,0:0:0:0:
36,192,132895,1,4,0:0:0:0:
329,192,132895,1,2,0:0:0:0:
475,192,132895,1,0,0:0:0:0:
182,192,133125,1,2,0:0:0:0:
36,192,133356,128,6,133818:0:0:0:0:
402,192,133356,1,8,0:0:0:0:
256,192,133587,1,2,0:0:0:0:
182,192,133818,1,2,0:0:0:0:
475,192,133818,1,4,0:0:0:0:
329,192,134048,1,0,0:0:0:0:
182,192,134279,1,8,0:0:0:0:
475,192,134279,1,2,0:0:0:0:
329,192,134510,1,0,0:0:0:0:
109,192,134741,1,2,0:0:0:0:
402,192,134741,1,0,0:0:0:0:
256,192,134971,1,0,0:0:0:0:
109,192,135202,1,8,0:0:0:0:
402,192,135202,1,0,0:0:0:0:
256,192,135433,1,0,0:0:0:0:
36,192,135664,1,2,0:0:0:0:
475,192,135664,128,0,135895:0:0:0:0:
402,192,135895,128,0,136125:0:0:0:0:
36,192,136125,1,8,0:0:0:0:
329,192,136125,128,0,136356:0:0:0:0:
256,192,136356,128,0,136587:0:0:0:0:
109,192,136587,1,2,0:0:0:0:
182,192,136587,1,0,0:0:0:0:
402,192,136818,1,0,0:0:0:0:
475,192,136818,1,0,0:0:0:0:
36,192,137048,1,8,0:0:0:0:
109,192,137048,1,0,0:0:0:0:
256,192,137279,1,0,0:0:0:0:
329,192,137279,1,0,0:0:0:0:
182,192,137510,1,2,0:0:0:0:
475,192,137510,1,0,0:0:0:0:
402,192,137741,1,0,0:0:0:0:
109,192,137971,1,8,0:0:0:0:
256,192,137971,1,0,0:0:0:0:
402,192,138202,1,0,0:0:0:0:
36,192,138433,1,2,0:0:0:0:
329,192,138433,1,0,0:0:0:0:
109,192,138664,1,0,0:0:0:0:
256,192,138895,1,8,0:0:0:0:
402,192,138895,1,0,0:0:0:0:
109,192,139125,1,0,0:0:0:0:
182,192,139356,1,2,0:0:0:0:
475,192,139356,128,0,139587:0:0:0:0:
329,192,139587,128,0,139818:0:0:0:0:
36,192,139818,128,8,140048:0:0:0:0:
256,192,139818,1,0,0:0:0:0:
182,192,140048,128,0,140279:0:0:0:0:
329,192,140279,1,2,0:0:0:0:
475,192,140279,1,0,0:0:0:0:
402,192,140510,1,0,0:0:0:0:
109,192,140625,1,0,0:0:0:0:
109,192,140856,1,0,0:0:0:0:
256,192,140971,1,2,0:0:0:0:
475,192,141087,1,0,0:0:0:0:
36,192,141202,1,4,0:0:0:0:
329,192,141202,1,2,0:0:0:0:
182,192,141433,1,0,0:0:0:0:
36,192,141664,1,8,0:0:0:0:
329,192,141664,1,2,0:0:0:0:
182,192,141895,1,0,0:0:0:0:
109,192,142125,1,2,0:0:0:0:
402,192,142125,1,0,0:0:0:0:
256,192,142356,1,0,0:0:0:0:
109,192,142587,1,8,0:0:0:0:
402,192,142587,1,0,0:0:0:0:
256,192,142818,1,0,0:0:0:0:
182,192,143048,1,2,0:0:0:0:
475,192,143048,1,0,0:0:0:0:
329,192,143279,1,0,0:0:0:0:
182,192,143510,1,8,0:0:0:0:
475,192,143510,1,0,0:0:0:0:
329,192,143741,1,0,0:0:0:0:
36,192,143971,1,2,0:0:0:0:
402,192,143971,128,0,144202:0:0:0:0:
182,192,144202,128,0,144433:0:0:0:0:
36,192,144433,1,8,0:0:0:0:
329,192,144433,128,0,144664:0:0:0:0:
109,192,144664,128,2,144895:0:0:0:0:
475,192,144664,1,0,0:0:0:0:
256,192,144895,1,2,0:0:0:0:
402,192,144895,1,4,0:0:0:0:
475,192,145125,1,0,0:0:0:0:
182,192,145356,1,8,0:0:0:0:
329,192,145356,1,2,0:0:0:0:
402,192,145587,1,0,0:0:0:0:
109,192,145818,1,10,0:0:0:0:
256,192,145818,1,4,0:0:0:0:
329,192,146048,1,0,0:0:0:0:
36,192,146279,1,8,0:0:0:0:
182,192,146279,1,2,0:0:0:0:
256,192,146510,1,8,0:0:0:0:
402,192,146510,1,0,0:0:0:0:
36,192,146741,1,8,0:0:0:0:
182,192,146741,1,2,0:0:0:0:
475,192,146741,1,4,0:0:0:0:
402,192,146971,1,10,0:0:0:0:
256,192,147087,1,8,0:0:0:0:
36,192,147202,1,2,0:0:0:0:
109,192,147202,1,4,0:0:0:0:
402,192,147433,1,10,0:0:0:0:
256,192,147548,1,8,0:0:0:0:
109,192,147664,1,2,0:0:0:0:
475,192,147664,128,4,148125:0:0:0:0:
36,192,147895,128,10,148125:0:0:0:0:
182,192,148125,1,6,0:0:0:0:
329,192,148241,1,2,0:0:0:0:
182,192,148356,1,10,0:0:0:0:
329,192,148471,1,2,0:0:0:0:
36,192,148587,1,6,0:0:0:0:
