osu file format v14

[General]
AudioFilename: audio.mp3
AudioLeadIn: 0
PreviewTime: 45231
Countdown: 0
SampleSet: Soft
StackLeniency: 0.7
Mode: 3
LetterboxInBreaks: 0
SpecialStyle: 0
WidescreenStoryboard: 1

[Editor]
Bookmarks: 15737,30506,37891,74814,89583,119121,133891
DistanceSpacing: 1.8
BeatDivisor: 8
GridSize: 8
TimelineZoom: 1.3

[Metadata]
Title:Dance With Nightsky
TitleUnicode:Dance With Nightsky
Artist:HyuN
ArtistUnicode:HyuN
Creator:Unpredictable
Version:Normal
Source:
Tags:Kang Sunghyeon INFX 이노픽스 FAMoss FA Featured Artist Mappers' Guild MPG Jazz Electronic Instrumental Saxophone Piano Pasteboard
BeatmapID:2786122
BeatmapSetID:1139370

[Difficulty]
HPDrainRate:7.5
CircleSize:4
OverallDifficulty:7.5
ApproachRate:5
SliderMultiplier:1.4
SliderTickRate:1

[Events]
//Background and Video events
0,0,"stevebg.png",0,0
//Break Periods
//Storyboard Layer 0 (Background)
//Storyboard Layer 1 (Fail)
//Storyboard Layer 2 (Pass)
//Storyboard Layer 3 (Foreground)
//Storyboard Layer 4 (Overlay)
//Storyboard Sound Samples
Sample,17121,0,"Cymatics - Terror Closed Hi Hat 015.wav",70
Sample,18968,0,"Cymatics - Terror Closed Hi Hat 015.wav",70
Sample,20814,0,"Cymatics - Terror Closed Hi Hat 015.wav",70
Sample,22660,0,"Cymatics - Terror Closed Hi Hat 015.wav",70
Sample,24506,0,"Cymatics - Terror Closed Hi Hat 015.wav",70
Sample,26352,0,"Cymatics - Terror Closed Hi Hat 015.wav",70
Sample,28198,0,"Cymatics - Terror Closed Hi Hat 015.wav",70
Sample,30044,0,"Cymatics - Terror Closed Hi Hat 015.wav",70
Sample,39275,0,"Cymatics - Terror Closed Hi Hat 015.wav",70
Sample,42968,0,"Cymatics - Terror Closed Hi Hat 015.wav",70
Sample,43891,0,"Cymatics - Terror Closed Hi Hat 015.wav",70
Sample,44814,0,"Cymatics - Terror Closed Hi Hat 015.wav",70
Sample,48506,0,"Cymatics - Terror Closed Hi Hat 015.wav",70
Sample,50352,0,"Cymatics - Terror Closed Hi Hat 015.wav",70
Sample,51737,0,"Cymatics - Terror Closed Hi Hat 015.wav",70
Sample,52198,0,"Cymatics - Terror Closed Hi Hat 015.wav",70
Sample,54044,0,"Cymatics - Terror Closed Hi Hat 015.wav",70
Sample,55891,0,"Cymatics - Terror Closed Hi Hat 015.wav",70
Sample,57737,0,"Cymatics - Terror Closed Hi Hat 015.wav",70
Sample,59121,0,"Cymatics - Terror Closed Hi Hat 015.wav",70
Sample,75275,0,"Cymatics - Terror Closed Hi Hat 015.wav",70
Sample,75737,0,"Cymatics - Terror Closed Hi Hat 015.wav",70
Sample,76198,0,"Cymatics - Terror Closed Hi Hat 015.wav",70
Sample,76660,0,"Cymatics - Terror Closed Hi Hat 015.wav",70
Sample,77121,0,"Cymatics - Terror Closed Hi Hat 015.wav",70
Sample,77583,0,"Cymatics - Terror Closed Hi Hat 015.wav",70
Sample,78044,0,"Cymatics - Terror Closed Hi Hat 015.wav",70
Sample,79429,0,"Cymatics - Terror Closed Hi Hat 015.wav",70
Sample,79891,0,"Cymatics - Terror Closed Hi Hat 015.wav",70
Sample,80352,0,"Cymatics - Terror Closed Hi Hat 015.wav",70
Sample,80814,0,"Cymatics - Terror Closed Hi Hat 015.wav",70
Sample,81275,0,"Cymatics - Terror Closed Hi Hat 015.wav",70
Sample,81737,0,"Cymatics - Terror Closed Hi Hat 015.wav",70
Sample,82198,0,"Cymatics - Terror Closed Hi Hat 015.wav",70
Sample,82660,0,"Cymatics - Terror Closed Hi Hat 015.wav",70
Sample,83121,0,"Cymatics - Terror Closed Hi Hat 015.wav",70
Sample,83583,0,"Cymatics - Terror Closed Hi Hat 015.wav",70
Sample,84506,0,"Cymatics - Terror Closed Hi Hat 015.wav",70
Sample,84968,0,"Cymatics - Terror Closed Hi Hat 015.wav",70
Sample,85429,0,"Cymatics - Terror Closed Hi Hat 015.wav",70
Sample,85891,0,"Cymatics - Terror Closed Hi Hat 015.wav",70
Sample,86814,0,"Cymatics - Terror Closed Hi Hat 015.wav",70
Sample,87275,0,"Cymatics - Terror Closed Hi Hat 015.wav",70
Sample,89121,0,"Cymatics - Terror Closed Hi Hat 015.wav",70
Sample,98352,0,"Cymatics - Terror Closed Hi Hat 015.wav",70
Sample,100198,0,"Cymatics - Terror Closed Hi Hat 015.wav",70
Sample,102044,0,"Cymatics - Terror Closed Hi Hat 015.wav",70
Sample,102968,0,"Cymatics - Terror Closed Hi Hat 015.wav",70
Sample,103891,0,"Cymatics - Terror Closed Hi Hat 015.wav",70
Sample,107583,0,"Cymatics - Terror Closed Hi Hat 015.wav",70
Sample,109429,0,"Cymatics - Terror Closed Hi Hat 015.wav",70
Sample,110814,0,"Cymatics - Terror Closed Hi Hat 015.wav",70
Sample,111275,0,"Cymatics - Terror Closed Hi Hat 015.wav",70
Sample,113121,0,"Cymatics - Terror Closed Hi Hat 015.wav",70
Sample,114968,0,"Cymatics - Terror Closed Hi Hat 015.wav",70
Sample,116814,0,"Cymatics - Terror Closed Hi Hat 015.wav",70
Sample,118198,0,"Cymatics - Terror Closed Hi Hat 015.wav",70
Sample,120506,0,"Cymatics - Terror Closed Hi Hat 015.wav",70
Sample,120968,0,"Cymatics - Terror Closed Hi Hat 015.wav",70
Sample,122352,0,"Cymatics - Terror Closed Hi Hat 015.wav",70
Sample,122814,0,"Cymatics - Terror Closed Hi Hat 015.wav",70
Sample,124198,0,"Cymatics - Terror Closed Hi Hat 015.wav",70
Sample,124660,0,"Cymatics - Terror Closed Hi Hat 015.wav",70
Sample,126044,0,"Cymatics - Terror Closed Hi Hat 015.wav",70
Sample,126506,0,"Cymatics - Terror Closed Hi Hat 015.wav",70
Sample,127891,0,"Cymatics - Terror Closed Hi Hat 015.wav",70
Sample,128352,0,"Cymatics - Terror Closed Hi Hat 015.wav",70
Sample,129737,0,"Cymatics - Terror Closed Hi Hat 015.wav",70
Sample,130198,0,"Cymatics - Terror Closed Hi Hat 015.wav",70
Sample,131583,0,"Cymatics - Terror Closed Hi Hat 015.wav",70
Sample,133429,0,"Cymatics - Terror Closed Hi Hat 015.wav",70

[TimingPoints]
968,461.538461538462,4,2,1,60,1,0
45275,-100,4,2,1,60,0,1
60044,-100,4,2,1,60,0,0
104352,-100,4,2,1,60,0,1
119121,-100,4,2,1,60,0,0

[HitObjects]
320,192,968,128,2,1429:0:0:0:0:
64,192,1429,1,2,0:0:0:0:
192,192,1429,1,8,0:0:0:0:
192,192,1660,1,0,0:0:0:0:
448,192,1891,128,2,2583:0:0:0:0:
64,192,2352,1,10,0:0:0:0:
320,192,2814,128,2,3275:0:0:0:0:
64,192,3275,1,2,0:0:0:0:
192,192,3275,1,8,0:0:0:0:
192,192,3506,1,0,0:0:0:0:
448,192,3737,128,2,4429:0:0:0:0:
64,192,4198,1,10,0:0:0:0:
320,192,4660,128,2,5121:0:0:0:0:
64,192,5121,1,2,0:0:0:0:
192,192,5121,1,8,0:0:0:0:
192,192,5352,1,0,0:0:0:0:
448,192,5583,128,2,6275:0:0:0:0:
64,192,6044,1,10,0:0:0:0:
320,192,6506,128,2,6968:0:0:0:0:
64,192,6968,1,2,0:0:0:0:
192,192,6968,1,8,0:0:0:0:
192,192,7198,1,0,0:0:0:0:
448,192,7429,128,2,8121:0:0:0:0:
64,192,7891,1,10,0:0:0:0:
192,192,8352,128,2,8814:0:0:0:0:
320,192,8814,1,8,0:0:0:0:
448,192,8814,1,2,0:0:0:0:
320,192,9044,1,0,0:0:0:0:
64,192,9275,128,2,9968:0:0:0:0:
448,192,9737,1,10,0:0:0:0:
192,192,10198,128,2,10660:0:0:0:0:
320,192,10660,1,8,0:0:0:0:
448,192,10660,1,2,0:0:0:0:
320,192,10891,1,0,0:0:0:0:
64,192,11121,128,2,11814:0:0:0:0:
448,192,11583,1,10,0:0:0:0:
192,192,12044,128,2,12506:0:0:0:0:
320,192,12506,1,8,0:0:0:0:
448,192,12506,1,2,0:0:0:0:
320,192,12737,1,0,0:0:0:0:
64,192,12968,128,2,13660:0:0:0:0:
448,192,13429,1,10,0:0:0:0:
192,192,13891,128,2,14352:0:0:0:0:
320,192,14352,1,8,0:0:0:0:
448,192,14352,1,2,0:0:0:0:
320,192,14583,1,0,0:0:0:0:
64,192,14814,128,2,15506:0:0:0:0:
448,192,15275,1,10,0:0:0:0:
192,192,15737,1,2,0:0:0:0:
320,192,15737,128,0,16198:0:0:0:70:Cymatics - Terror Closed Hi Hat 015.wav
448,192,15968,1,0,0:0:0:0:
64,192,16198,1,10,0:0:0:0:
192,192,16198,1,0,0:0:0:70:Cymatics - Terror Closed Hi Hat 015.wav
192,192,16429,1,0,0:0:0:0:
320,192,16660,1,2,0:0:0:0:
448,192,16660,128,0,17352:0:0:0:70:Cymatics - Terror Closed Hi Hat 015.wav
64,192,16891,1,0,0:0:0:0:
192,192,17006,1,0,0:0:0:0:
64,192,17121,1,10,0:0:0:0:
320,192,17352,1,0,0:0:0:0:
192,192,17583,1,2,0:0:0:0:
320,192,17583,128,0,18044:0:0:0:70:Cymatics - Terror Closed Hi Hat 015.wav
448,192,17814,1,0,0:0:0:0:
64,192,18044,1,10,0:0:0:0:
192,192,18044,1,0,0:0:0:70:Cymatics - Terror Closed Hi Hat 015.wav
192,192,18275,1,0,0:0:0:0:
320,192,18506,1,2,0:0:0:0:
448,192,18506,128,0,19198:0:0:0:70:Cymatics - Terror Closed Hi Hat 015.wav
64,192,18737,1,0,0:0:0:0:
192,192,18852,1,0,0:0:0:0:
64,192,18968,1,10,0:0:0:0:
320,192,19198,1,0,0:0:0:0:
192,192,19429,1,2,0:0:0:0:
320,192,19429,128,0,19891:0:0:0:70:Cymatics - Terror Closed Hi Hat 015.wav
448,192,19660,1,0,0:0:0:0:
64,192,19891,1,10,0:0:0:0:
192,192,19891,1,0,0:0:0:70:Cymatics - Terror Closed Hi Hat 015.wav
192,192,20121,1,0,0:0:0:0:
320,192,20352,1,2,0:0:0:0:
448,192,20352,128,0,21044:0:0:0:70:Cymatics - Terror Closed Hi Hat 015.wav
64,192,20583,1,0,0:0:0:0:
192,192,20698,1,0,0:0:0:0:
64,192,20814,1,10,0:0:0:0:
320,192,21044,1,0,0:0:0:0:
192,192,21275,1,2,0:0:0:0:
320,192,21275,128,0,21737:0:0:0:70:Cymatics - Terror Closed Hi Hat 015.wav
448,192,21506,1,0,0:0:0:0:
64,192,21737,1,10,0:0:0:0:
192,192,21737,1,0,0:0:0:70:Cymatics - Terror Closed Hi Hat 015.wav
192,192,21968,1,0,0:0:0:0:
320,192,22198,1,2,0:0:0:0:
448,192,22198,128,0,22891:0:0:0:70:Cymatics - Terror Closed Hi Hat 015.wav
64,192,22429,1,0,0:0:0:0:
192,192,22544,1,0,0:0:0:0:
64,192,22660,1,10,0:0:0:0:
320,192,22891,1,0,0:0:0:0:
192,192,23121,128,2,23583:0:0:0:0:
320,192,23121,1,0,0:0:0:70:Cymatics - Terror Closed Hi Hat 015.wav
320,192,23583,1,10,0:0:0:0:
448,192,23583,1,0,0:0:0:70:Cymatics - Terror Closed Hi Hat 015.wav
320,192,23814,1,0,0:0:0:0:
64,192,24044,128,2,24737:0:0:0:0:
192,192,24044,1,0,0:0:0:70:Cymatics - Terror Closed Hi Hat 015.wav
448,192,24275,1,0,0:0:0:0:
320,192,24391,1,0,0:0:0:0:
448,192,24506,1,10,0:0:0:0:
192,192,24737,1,0,0:0:0:0:
192,192,24968,128,2,25429:0:0:0:0:
320,192,24968,1,0,0:0:0:70:Cymatics - Terror Closed Hi Hat 015.wav
64,192,25198,1,0,0:0:0:0:
320,192,25429,1,10,0:0:0:0:
448,192,25429,1,0,0:0:0:70:Cymatics - Terror Closed Hi Hat 015.wav
320,192,25660,1,0,0:0:0:0:
64,192,25891,128,2,26583:0:0:0:0:
192,192,25891,1,0,0:0:0:70:Cymatics - Terror Closed Hi Hat 015.wav
448,192,26121,1,0,0:0:0:0:
320,192,26237,1,0,0:0:0:0:
448,192,26352,1,10,0:0:0:0:
192,192,26583,1,0,0:0:0:0:
192,192,26814,128,2,27275:0:0:0:0:
320,192,26814,1,0,0:0:0:70:Cymatics - Terror Closed Hi Hat 015.wav
64,192,27044,1,0,0:0:0:0:
320,192,27275,1,10,0:0:0:0:
448,192,27275,1,0,0:0:0:70:Cymatics - Terror Closed Hi Hat 015.wav
320,192,27506,1,0,0:0:0:0:
64,192,27737,128,2,28429:0:0:0:0:
192,192,27737,1,0,0:0:0:70:Cymatics - Terror Closed Hi Hat 015.wav
448,192,27968,1,0,0:0:0:0:
320,192,28083,1,0,0:0:0:0:
448,192,28198,1,10,0:0:0:0:
192,192,28429,1,0,0:0:0:0:
192,192,28660,128,2,29121:0:0:0:0:
320,192,28660,1,0,0:0:0:70:Cymatics - Terror Closed Hi Hat 015.wav
64,192,28891,1,2,0:0:0:0:
320,192,29121,1,10,0:0:0:0:
448,192,29121,1,0,0:0:0:70:Cymatics - Terror Closed Hi Hat 015.wav
320,192,29352,1,2,0:0:0:0:
64,192,29583,128,2,30044:0:0:0:0:
448,192,29583,1,0,0:0:0:70:Cymatics - Terror Closed Hi Hat 015.wav
192,192,29814,1,2,0:0:0:0:
448,192,30044,128,10,30506:0:0:0:0:
320,192,30275,1,2,0:0:0:0:
64,192,30506,1,4,0:0:0:0:
192,192,30506,1,0,0:0:0:0:
320,192,30737,1,0,0:0:0:0:
192,192,30968,1,8,0:0:0:0:
448,192,31198,1,0,0:0:0:0:
64,192,31429,1,0,0:0:0:0:
320,192,31660,1,0,0:0:0:0:
448,192,31775,128,0,32121:0:0:0:0:
64,192,32121,1,0,0:0:0:0:
192,192,32352,1,0,0:0:0:0:
320,192,32468,1,0,0:0:0:0:
192,192,32583,1,0,0:0:0:0:
320,192,32698,1,0,0:0:0:0:
64,192,32814,1,8,0:0:0:0:
448,192,32814,128,0,33044:0:0:0:0:
64,192,33044,128,0,33275:0:0:0:0:
320,192,33275,1,0,0:0:0:0:
192,192,33506,1,0,0:0:0:0:
320,192,33621,1,0,0:0:0:0:
320,192,33852,1,0,0:0:0:0:
192,192,33968,1,0,0:0:0:0:
64,192,34198,1,0,0:0:0:0:
320,192,34429,1,0,0:0:0:0:
192,192,34660,1,8,0:0:0:0:
448,192,34891,1,0,0:0:0:0:
64,192,35121,1,0,0:0:0:0:
192,192,35352,1,0,0:0:0:0:
320,192,35468,128,0,35814:0:0:0:0:
64,192,35814,1,0,0:0:0:0:
448,192,35929,1,0,0:0:0:0:
192,192,36044,1,0,0:0:0:0:
320,192,36275,1,0,0:0:0:0:
448,192,36506,1,8,0:0:0:0:
64,192,36621,1,0,0:0:0:0:
448,192,36852,128,0,37660:0:0:0:0:
64,192,37891,1,0,0:0:0:70:Cymatics - Terror Closed Hi Hat 015.wav
448,192,37891,1,0,0:0:0:0:
320,192,38121,1,0,0:0:0:0:
64,192,38352,1,8,0:0:0:0:
192,192,38352,1,0,0:0:0:70:Cymatics - Terror Closed Hi Hat 015.wav
448,192,38583,1,0,0:0:0:0:
64,192,38814,1,0,0:0:0:70:Cymatics - Terror Closed Hi Hat 015.wav
320,192,38814,1,0,0:0:0:0:
320,192,39044,1,0,0:0:0:0:
448,192,39160,128,0,39506:0:0:0:0:
192,192,39275,1,8,0:0:0:0:
64,192,39506,1,0,0:0:0:0:
192,192,39737,1,0,0:0:0:70:Cymatics - Terror Closed Hi Hat 015.wav
320,192,39852,1,0,0:0:0:0:
192,192,39968,1,0,0:0:0:0:
320,192,40083,1,0,0:0:0:0:
64,192,40198,1,8,0:0:0:0:
448,192,40198,128,0,40429:0:0:0:70:Cymatics - Terror Closed Hi Hat 015.wav
64,192,40429,128,0,40660:0:0:0:0:
320,192,40660,1,0,0:0:0:70:Cymatics - Terror Closed Hi Hat 015.wav
448,192,40660,1,0,0:0:0:0:
192,192,40891,1,0,0:0:0:0:
320,192,41006,1,0,0:0:0:0:
320,192,41237,1,0,0:0:0:0:
192,192,41352,1,0,0:0:0:0:
64,192,41583,1,0,0:0:0:70:Cymatics - Terror Closed Hi Hat 015.wav
448,192,41583,1,0,0:0:0:0:
320,192,41814,1,0,0:0:0:0:
64,192,42044,1,8,0:0:0:0:
192,192,42044,1,0,0:0:0:70:Cymatics - Terror Closed Hi Hat 015.wav
448,192,42275,1,0,0:0:0:0:
64,192,42506,1,0,0:0:0:70:Cymatics - Terror Closed Hi Hat 015.wav
320,192,42506,1,0,0:0:0:0:
192,192,42737,1,0,0:0:0:0:
320,192,42852,128,0,43198:0:0:0:0:
64,192,42968,1,8,0:0:0:0:
448,192,43198,1,0,0:0:0:0:
192,192,43314,1,0,0:0:0:0:
64,192,43429,1,0,0:0:0:70:Cymatics - Terror Closed Hi Hat 015.wav
320,192,43429,1,0,0:0:0:0:
192,192,43660,1,0,0:0:0:0:
448,192,43775,1,0,0:0:0:0:
320,192,43891,1,8,0:0:0:0:
64,192,44006,1,0,0:0:0:0:
192,192,44121,128,0,44468:0:0:0:0:
64,192,44468,1,0,0:0:0:0:
320,192,44583,1,0,0:0:0:0:
64,192,44698,1,0,0:0:0:0:
448,192,44814,128,8,45044:0:0:0:0:
192,192,45044,128,0,45275:0:0:0:0:
64,192,45275,1,2,0:0:0:0:
448,192,45275,1,4,0:0:0:0:
320,192,45506,1,0,0:0:0:0:
64,192,45737,1,10,0:0:0:0:
192,192,45737,1,0,0:0:0:70:Cymatics - Terror Closed Hi Hat 015.wav
448,192,45968,1,0,0:0:0:0:
64,192,46198,1,2,0:0:0:0:
320,192,46198,1,0,0:0:0:70:Cymatics - Terror Closed Hi Hat 015.wav
320,192,46429,1,0,0:0:0:0:
448,192,46544,128,0,46891:0:0:0:0:
192,192,46660,1,10,0:0:0:0:
64,192,46891,1,0,0:0:0:0:
192,192,47121,1,2,0:0:0:0:
448,192,47121,1,0,0:0:0:70:Cymatics - Terror Closed Hi Hat 015.wav
320,192,47237,1,0,0:0:0:0:
192,192,47352,1,0,0:0:0:0:
320,192,47468,1,0,0:0:0:0:
64,192,47583,1,10,0:0:0:0:
448,192,47583,128,0,47814:0:0:0:70:Cymatics - Terror Closed Hi Hat 015.wav
64,192,47814,128,0,48044:0:0:0:0:
320,192,48044,1,2,0:0:0:0:
448,192,48044,1,0,0:0:0:70:Cymatics - Terror Closed Hi Hat 015.wav
192,192,48275,1,0,0:0:0:0:
320,192,48391,1,0,0:0:0:0:
64,192,48506,1,10,0:0:0:0:
320,192,48621,1,0,0:0:0:0:
192,192,48737,1,0,0:0:0:0:
64,192,48968,1,2,0:0:0:0:
448,192,48968,1,0,0:0:0:70:Cymatics - Terror Closed Hi Hat 015.wav
320,192,49198,1,0,0:0:0:0:
64,192,49429,1,10,0:0:0:0:
192,192,49429,1,0,0:0:0:70:Cymatics - Terror Closed Hi Hat 015.wav
448,192,49660,1,0,0:0:0:0:
64,192,49891,1,2,0:0:0:0:
320,192,49891,1,0,0:0:0:70:Cymatics - Terror Closed Hi Hat 015.wav
192,192,50121,1,0,0:0:0:0:
320,192,50237,128,0,50583:0:0:0:0:
64,192,50352,1,10,0:0:0:0:
448,192,50583,1,0,0:0:0:0:
192,192,50698,1,0,0:0:0:0:
64,192,50814,1,2,0:0:0:0:
320,192,50814,1,0,0:0:0:70:Cymatics - Terror Closed Hi Hat 015.wav
192,192,51044,1,0,0:0:0:0:
320,192,51275,1,10,0:0:0:0:
448,192,51275,1,0,0:0:0:70:Cymatics - Terror Closed Hi Hat 015.wav
192,192,51391,1,0,0:0:0:0:
448,192,51621,128,0,52429:0:0:0:0:
64,192,51737,1,2,0:0:0:0:
320,192,51968,1,0,0:0:0:0:
192,192,52083,1,0,0:0:0:0:
320,192,52198,1,10,0:0:0:0:
64,192,52660,1,2,0:0:0:0:
448,192,52660,1,0,0:0:0:70:Cymatics - Terror Closed Hi Hat 015.wav
320,192,52891,1,0,0:0:0:0:
64,192,53121,1,10,0:0:0:0:
192,192,53121,1,0,0:0:0:70:Cymatics - Terror Closed Hi Hat 015.wav
448,192,53352,1,0,0:0:0:0:
64,192,53583,1,2,0:0:0:0:
320,192,53583,1,0,0:0:0:70:Cymatics - Terror Closed Hi Hat 015.wav
320,192,53814,1,0,0:0:0:0:
448,192,53929,128,0,54275:0:0:0:0:
192,192,54044,1,10,0:0:0:0:
64,192,54275,1,0,0:0:0:0:
192,192,54506,1,2,0:0:0:0:
448,192,54506,1,0,0:0:0:70:Cymatics - Terror Closed Hi Hat 015.wav
320,192,54621,1,0,0:0:0:0:
192,192,54737,1,0,0:0:0:0:
320,192,54852,1,0,0:0:0:0:
64,192,54968,1,10,0:0:0:0:
448,192,54968,128,0,55198:0:0:0:70:Cymatics - Terror Closed Hi Hat 015.wav
64,192,55198,128,0,55429:0:0:0:0:
320,192,55429,1,2,0:0:0:0:
448,192,55429,1,0,0:0:0:70:Cymatics - Terror Closed Hi Hat 015.wav
192,192,55660,1,0,0:0:0:0:
320,192,55775,1,0,0:0:0:0:
64,192,55891,1,10,0:0:0:0:
320,192,56006,1,0,0:0:0:0:
192,192,56121,1,0,0:0:0:0:
64,192,56352,1,2,0:0:0:0:
448,192,56352,1,0,0:0:0:70:Cymatics - Terror Closed Hi Hat 015.wav
320,192,56583,1,0,0:0:0:0:
64,192,56814,1,10,0:0:0:0:
192,192,56814,1,0,0:0:0:70:Cymatics - Terror Closed Hi Hat 015.wav
448,192,57044,1,0,0:0:0:0:
64,192,57275,1,2,0:0:0:0:
320,192,57275,1,0,0:0:0:70:Cymatics - Terror Closed Hi Hat 015.wav
192,192,57506,1,0,0:0:0:0:
320,192,57621,128,0,57968:0:0:0:0:
64,192,57737,1,10,0:0:0:0:
448,192,57968,1,0,0:0:0:0:
192,192,58083,1,0,0:0:0:0:
64,192,58198,128,2,59583:0:0:0:0:
448,192,58198,1,0,0:0:0:70:Cymatics - Terror Closed Hi Hat 015.wav
320,192,58660,1,10,0:0:0:0:
448,192,58660,1,0,0:0:0:70:Cymatics - Terror Closed Hi Hat 015.wav
192,192,58891,1,0,0:0:0:0:
448,192,59121,1,2,0:0:0:0:
192,192,59352,1,0,0:0:0:0:
320,192,59583,1,10,0:0:0:0:
448,192,59583,1,0,0:0:0:70:Cymatics - Terror Closed Hi Hat 015.wav
192,192,59814,1,0,0:0:0:0:
64,192,60044,1,4,0:0:0:0:
448,192,60044,1,2,0:0:0:0:
320,192,60275,1,0,0:0:0:0:
192,192,60391,1,0,0:0:0:0:
320,192,60506,1,10,0:0:0:0:
192,192,60621,1,0,0:0:0:0:
320,192,60737,1,0,0:0:0:0:
192,192,60968,1,2,0:0:0:0:
320,192,61083,1,0,0:0:0:0:
64,192,61198,1,0,0:0:0:0:
320,192,61314,1,0,0:0:0:0:
192,192,61429,128,10,61891:0:0:0:0:
320,192,61891,1,2,0:0:0:0:
448,192,62006,1,0,0:0:0:0:
320,192,62121,1,0,0:0:0:0:
64,192,62237,1,0,0:0:0:0:
192,192,62352,1,10,0:0:0:0:
192,192,62583,1,0,0:0:0:0:
320,192,62698,1,0,0:0:0:0:
192,192,62814,1,2,0:0:0:0:
320,192,62929,1,0,0:0:0:0:
448,192,63044,1,0,0:0:0:0:
192,192,63275,1,10,0:0:0:0:
320,192,63391,1,0,0:0:0:0:
64,192,63506,1,0,0:0:0:0:
448,192,63621,1,0,0:0:0:0:
192,192,63737,1,2,0:0:0:0:
320,192,63737,1,0,0:0:0:0:
192,192,63968,1,0,0:0:0:0:
320,192,63968,1,0,0:0:0:0:
64,192,64083,1,0,0:0:0:0:
64,192,64314,1,0,0:0:0:0:
320,192,64429,1,0,0:0:0:0:
448,192,64429,1,0,0:0:0:0:
320,192,64775,1,0,0:0:0:0:
64,192,64891,1,0,0:0:0:0:
192,192,65006,1,0,0:0:0:0:
320,192,65121,1,10,0:0:0:0:
192,192,65352,1,0,0:0:0:0:
320,192,65468,1,0,0:0:0:0:
448,192,65583,128,2,65814:0:0:0:0:
192,192,65814,128,0,66044:0:0:0:0:
320,192,66044,128,10,66275:0:0:0:0:
448,192,66275,128,0,66506:0:0:0:0:
64,192,66506,1,2,0:0:0:0:
320,192,66737,1,0,0:0:0:0:
64,192,66852,1,0,0:0:0:0:
448,192,66968,1,10,0:0:0:0:
192,192,67083,1,0,0:0:0:0:
448,192,67198,1,0,0:0:0:0:
320,192,67429,1,2,0:0:0:0:
192,192,67544,1,0,0:0:0:0:
64,192,67660,1,0,0:0:0:0:
320,192,67775,1,0,0:0:0:0:
192,192,67891,1,10,0:0:0:0:
192,192,68121,1,0,0:0:0:0:
320,192,68237,1,0,0:0:0:0:
64,192,68352,1,2,0:0:0:0:
320,192,68468,1,0,0:0:0:0:
448,192,68583,1,0,0:0:0:0:
320,192,68814,1,10,0:0:0:0:
64,192,68929,1,0,0:0:0:0:
192,192,69044,1,0,0:0:0:0:
320,192,69160,1,0,0:0:0:0:
64,192,69275,1,2,0:0:0:0:
448,192,69275,1,0,0:0:0:0:
64,192,69621,1,0,0:0:0:0:
448,192,69621,1,0,0:0:0:0:
192,192,69968,1,0,0:0:0:0:
448,192,69968,1,0,0:0:0:0:
320,192,70314,1,0,0:0:0:0:
448,192,70314,1,0,0:0:0:0:
192,192,70660,1,10,0:0:0:0:
64,192,70891,1,0,0:0:0:0:
448,192,71121,1,2,0:0:0:0:
320,192,71237,1,0,0:0:0:0:
192,192,71352,1,0,0:0:0:0:
320,192,71468,1,0,0:0:0:0:
192,192,71698,1,0,0:0:0:0:
320,192,71814,1,0,0:0:0:0:
448,192,71929,1,0,0:0:0:0:
64,192,72044,1,2,0:0:0:0:
192,192,72160,1,0,0:0:0:0:
320,192,72275,1,0,0:0:0:0:
320,192,72506,1,10,0:0:0:0:
192,192,72621,1,0,0:0:0:0:
64,192,72737,1,0,0:0:0:0:
448,192,72852,1,0,0:0:0:0:
192,192,72968,1,2,0:0:0:0:
320,192,73429,128,10,73891:0:0:0:0:
64,192,73891,1,2,0:0:0:0:
192,192,74006,1,0,0:0:0:0:
448,192,74121,1,0,0:0:0:0:
320,192,74237,1,0,0:0:0:0:
64,192,74468,1,0,0:0:0:0:
320,192,74583,1,0,0:0:0:0:
192,192,74698,1,0,0:0:0:0:
64,192,74814,1,2,0:0:0:0:
448,192,74814,1,4,0:0:0:0:
320,192,75044,1,0,0:0:0:0:
192,192,75160,1,0,0:0:0:0:
320,192,75275,1,10,0:0:0:0:
192,192,75391,1,0,0:0:0:0:
320,192,75506,1,0,0:0:0:0:
192,192,75737,1,2,0:0:0:0:
320,192,75852,1,0,0:0:0:0:
64,192,75968,1,0,0:0:0:0:
320,192,76083,1,0,0:0:0:0:
192,192,76198,128,10,76660:0:0:0:0:
320,192,76660,1,2,0:0:0:0:
448,192,76775,1,0,0:0:0:0:
320,192,76891,1,0,0:0:0:0:
64,192,77006,1,0,0:0:0:0:
192,192,77121,1,10,0:0:0:0:
192,192,77352,1,0,0:0:0:0:
320,192,77468,1,0,0:0:0:0:
192,192,77583,1,2,0:0:0:0:
320,192,77698,1,0,0:0:0:0:
448,192,77814,1,0,0:0:0:0:
192,192,78044,1,10,0:0:0:0:
320,192,78160,1,0,0:0:0:0:
64,192,78275,1,0,0:0:0:0:
448,192,78391,1,0,0:0:0:0:
192,192,78506,1,2,0:0:0:0:
320,192,78506,1,0,0:0:0:70:Cymatics - Terror Closed Hi Hat 015.wav
192,192,78737,1,0,0:0:0:0:
320,192,78737,1,0,0:0:0:0:
64,192,78852,1,0,0:0:0:0:
64,192,79083,1,0,0:0:0:0:
320,192,79198,1,0,0:0:0:0:
448,192,79198,1,0,0:0:0:0:
192,192,79429,1,2,0:0:0:0:
320,192,79544,1,0,0:0:0:0:
64,192,79660,1,0,0:0:0:0:
192,192,79775,1,0,0:0:0:0:
320,192,79891,1,10,0:0:0:0:
192,192,80121,1,0,0:0:0:0:
320,192,80237,1,0,0:0:0:0:
448,192,80352,128,2,80583:0:0:0:0:
192,192,80583,128,0,80814:0:0:0:0:
320,192,80814,128,10,81044:0:0:0:0:
448,192,81044,128,0,81275:0:0:0:0:
64,192,81275,1,2,0:0:0:0:
320,192,81506,1,0,0:0:0:0:
64,192,81621,1,0,0:0:0:0:
448,192,81737,1,10,0:0:0:0:
192,192,81852,1,0,0:0:0:0:
448,192,81968,1,0,0:0:0:0:
320,192,82198,1,2,0:0:0:0:
192,192,82314,1,0,0:0:0:0:
64,192,82429,1,0,0:0:0:0:
320,192,82544,1,0,0:0:0:0:
192,192,82660,1,10,0:0:0:0:
448,192,82891,1,0,0:0:0:0:
320,192,83006,1,0,0:0:0:0:
64,192,83121,1,2,0:0:0:0:
320,192,83237,1,0,0:0:0:0:
448,192,83352,1,0,0:0:0:0:
320,192,83583,1,10,0:0:0:0:
64,192,83698,1,0,0:0:0:0:
192,192,83814,1,0,0:0:0:0:
320,192,83929,1,0,0:0:0:0:
64,192,84044,1,2,0:0:0:0:
448,192,84044,1,0,0:0:0:70:Cymatics - Terror Closed Hi Hat 015.wav
64,192,84391,1,0,0:0:0:0:
448,192,84391,1,0,0:0:0:0:
320,192,84506,1,10,0:0:0:0:
192,192,84737,1,0,0:0:0:0:
448,192,84737,1,0,0:0:0:0:
64,192,84968,1,2,0:0:0:0:
320,192,85083,1,0,0:0:0:0:
448,192,85083,1,0,0:0:0:0:
192,192,85429,1,10,0:0:0:0:
64,192,85660,1,0,0:0:0:0:
448,192,85891,1,2,0:0:0:0:
320,192,86006,1,0,0:0:0:0:
192,192,86121,1,0,0:0:0:0:
320,192,86237,1,0,0:0:0:0:
192,192,86468,1,0,0:0:0:0:
320,192,86583,1,0,0:0:0:0:
448,192,86698,1,0,0:0:0:0:
64,192,86814,1,2,0:0:0:0:
192,192,86929,1,0,0:0:0:0:
320,192,87044,1,0,0:0:0:0:
192,192,87275,1,10,0:0:0:0:
320,192,87391,1,0,0:0:0:0:
64,192,87506,1,0,0:0:0:0:
448,192,87621,1,0,0:0:0:0:
192,192,87737,1,0,0:0:0:70:Cymatics - Terror Closed Hi Hat 015.wav
64,192,88198,128,0,88429:0:0:0:70:Cymatics - Terror Closed Hi Hat 015.wav
448,192,88429,128,0,88660:0:0:0:0:
64,192,88660,128,0,88891:0:0:0:70:Cymatics - Terror Closed Hi Hat 015.wav
448,192,88891,128,0,89121:0:0:0:0:
320,192,89121,1,10,0:0:0:0:
192,192,89237,1,2,0:0:0:0:
320,192,89352,1,2,0:0:0:0:
192,192,89468,1,2,0:0:0:0:
64,192,89583,1,4,0:0:0:0:
448,192,89583,1,0,0:0:0:0:
320,192,89814,1,0,0:0:0:0:
192,192,90044,1,8,0:0:0:0:
448,192,90275,1,0,0:0:0:0:
64,192,90506,1,0,0:0:0:0:
320,192,90737,1,0,0:0:0:0:
448,192,90852,128,0,91198:0:0:0:0:
64,192,91198,1,0,0:0:0:0:
192,192,91429,1,0,0:0:0:0:
320,192,91544,1,0,0:0:0:0:
192,192,91660,1,0,0:0:0:0:
320,192,91775,1,0,0:0:0:0:
64,192,91891,1,8,0:0:0:0:
448,192,91891,128,0,92121:0:0:0:0:
64,192,92121,128,0,92352:0:0:0:0:
320,192,92352,1,0,0:0:0:0:
192,192,92583,1,0,0:0:0:0:
320,192,92698,1,0,0:0:0:0:
320,192,92929,1,0,0:0:0:0:
192,192,93044,1,0,0:0:0:0:
64,192,93275,1,0,0:0:0:0:
320,192,93506,1,0,0:0:0:0:
192,192,93737,1,8,0:0:0:0:
448,192,93968,1,0,0:0:0:0:
64,192,94198,1,0,0:0:0:0:
192,192,94429,1,0,0:0:0:0:
320,192,94544,128,0,94891:0:0:0:0:
64,192,94891,1,0,0:0:0:0:
448,192,95006,1,0,0:0:0:0:
192,192,95121,1,0,0:0:0:0:
320,192,95352,1,0,0:0:0:0:
448,192,95583,1,8,0:0:0:0:
64,192,95698,1,0,0:0:0:0:
448,192,95929,128,0,96737:0:0:0:0:
64,192,96968,1,0,0:0:0:70:Cymatics - Terror Closed Hi Hat 015.wav
448,192,96968,1,0,0:0:0:0:
320,192,97198,1,0,0:0:0:0:
64,192,97429,1,8,0:0:0:0:
192,192,97429,1,0,0:0:0:70:Cymatics - Terror Closed Hi Hat 015.wav
448,192,97660,1,0,0:0:0:0:
64,192,97891,1,0,0:0:0:70:Cymatics - Terror Closed Hi Hat 015.wav
320,192,97891,1,0,0:0:0:0:
320,192,98121,1,0,0:0:0:0:
448,192,98237,128,0,98583:0:0:0:0:
192,192,98352,1,8,0:0:0:0:
64,192,98583,1,0,0:0:0:0:
192,192,98814,1,0,0:0:0:70:Cymatics - Terror Closed Hi Hat 015.wav
320,192,98929,1,0,0:0:0:0:
192,192,99044,1,0,0:0:0:0:
320,192,99160,1,0,0:0:0:0:
64,192,99275,1,8,0:0:0:0:
448,192,99275,128,0,99506:0:0:0:70:Cymatics - Terror Closed Hi Hat 015.wav
64,192,99506,128,0,99737:0:0:0:0:
320,192,99737,1,0,0:0:0:70:Cymatics - Terror Closed Hi Hat 015.wav
448,192,99737,1,0,0:0:0:0:
192,192,99968,1,0,0:0:0:0:
320,192,100083,1,0,0:0:0:0:
320,192,100314,1,0,0:0:0:0:
192,192,100429,1,0,0:0:0:0:
64,192,100660,1,0,0:0:0:70:Cymatics - Terror Closed Hi Hat 015.wav
448,192,100660,1,0,0:0:0:0:
320,192,100891,1,0,0:0:0:0:
64,192,101121,1,8,0:0:0:0:
192,192,101121,1,0,0:0:0:70:Cymatics - Terror Closed Hi Hat 015.wav
448,192,101352,1,0,0:0:0:0:
64,192,101583,1,0,0:0:0:70:Cymatics - Terror Closed Hi Hat 015.wav
320,192,101583,1,0,0:0:0:0:
192,192,101814,1,0,0:0:0:0:
320,192,101929,128,0,102275:0:0:0:0:
64,192,102044,1,8,0:0:0:0:
448,192,102275,1,0,0:0:0:0:
192,192,102391,1,0,0:0:0:0:
64,192,102506,1,0,0:0:0:70:Cymatics - Terror Closed Hi Hat 015.wav
320,192,102506,1,0,0:0:0:0:
192,192,102737,1,0,0:0:0:0:
448,192,102852,1,0,0:0:0:0:
320,192,102968,1,8,0:0:0:0:
64,192,103083,1,0,0:0:0:0:
192,192,103198,128,0,103544:0:0:0:0:
64,192,103544,1,0,0:0:0:0:
320,192,103660,1,0,0:0:0:0:
64,192,103775,1,0,0:0:0:0:
448,192,103891,128,8,104121:0:0:0:0:
192,192,104121,128,0,104352:0:0:0:0:
64,192,104352,1,4,0:0:0:0:
448,192,104352,1,2,0:0:0:0:
320,192,104583,1,0,0:0:0:0:
64,192,104814,1,10,0:0:0:0:
192,192,104814,1,0,0:0:0:70:Cymatics - Terror Closed Hi Hat 015.wav
448,192,105044,1,0,0:0:0:0:
64,192,105275,1,2,0:0:0:0:
320,192,105275,1,0,0:0:0:70:Cymatics - Terror Closed Hi Hat 015.wav
320,192,105506,1,0,0:0:0:0:
448,192,105621,128,0,105968:0:0:0:0:
192,192,105737,1,10,0:0:0:0:
64,192,105968,1,0,0:0:0:0:
192,192,106198,1,2,0:0:0:0:
448,192,106198,1,0,0:0:0:70:Cymatics - Terror Closed Hi Hat 015.wav
320,192,106314,1,0,0:0:0:0:
192,192,106429,1,0,0:0:0:0:
320,192,106544,1,0,0:0:0:0:
64,192,106660,1,10,0:0:0:0:
448,192,106660,128,0,106891:0:0:0:70:Cymatics - Terror Closed Hi Hat 015.wav
64,192,106891,128,0,107121:0:0:0:0:
320,192,107121,1,2,0:0:0:0:
448,192,107121,1,0,0:0:0:70:Cymatics - Terror Closed Hi Hat 015.wav
192,192,107352,1,0,0:0:0:0:
320,192,107468,1,0,0:0:0:0:
64,192,107583,1,10,0:0:0:0:
320,192,107698,1,0,0:0:0:0:
192,192,107814,1,0,0:0:0:0:
64,192,108044,1,2,0:0:0:0:
448,192,108044,1,0,0:0:0:70:Cymatics - Terror Closed Hi Hat 015.wav
320,192,108275,1,0,0:0:0:0:
64,192,108506,1,10,0:0:0:0:
192,192,108506,1,0,0:0:0:70:Cymatics - Terror Closed Hi Hat 015.wav
448,192,108737,1,0,0:0:0:0:
64,192,108968,1,2,0:0:0:0:
320,192,108968,1,0,0:0:0:70:Cymatics - Terror Closed Hi Hat 015.wav
192,192,109198,1,0,0:0:0:0:
320,192,109314,128,0,109660:0:0:0:0:
64,192,109429,1,10,0:0:0:0:
448,192,109660,1,0,0:0:0:0:
192,192,109775,1,0,0:0:0:0:
64,192,109891,1,2,0:0:0:0:
320,192,109891,1,0,0:0:0:70:Cymatics - Terror Closed Hi Hat 015.wav
192,192,110121,1,0,0:0:0:0:
320,192,110352,1,10,0:0:0:0:
448,192,110352,1,0,0:0:0:70:Cymatics - Terror Closed Hi Hat 015.wav
192,192,110468,1,0,0:0:0:0:
448,192,110698,128,0,111506:0:0:0:0:
64,192,110814,1,2,0:0:0:0:
320,192,111044,1,0,0:0:0:0:
192,192,111160,1,0,0:0:0:0:
320,192,111275,1,10,0:0:0:0:
64,192,111737,1,2,0:0:0:0:
448,192,111737,1,0,0:0:0:70:Cymatics - Terror Closed Hi Hat 015.wav
320,192,111968,1,0,0:0:0:0:
64,192,112198,1,10,0:0:0:0:
192,192,112198,1,0,0:0:0:70:Cymatics - Terror Closed Hi Hat 015.wav
448,192,112429,1,0,0:0:0:0:
64,192,112660,1,2,0:0:0:0:
320,192,112660,1,0,0:0:0:70:Cymatics - Terror Closed Hi Hat 015.wav
320,192,112891,1,0,0:0:0:0:
448,192,113006,128,0,113352:0:0:0:0:
192,192,113121,1,10,0:0:0:0:
64,192,113352,1,0,0:0:0:0:
192,192,113583,1,2,0:0:0:0:
448,192,113583,1,0,0:0:0:70:Cymatics - Terror Closed Hi Hat 015.wav
320,192,113698,1,0,0:0:0:0:
192,192,113814,1,0,0:0:0:0:
320,192,113929,1,0,0:0:0:0:
64,192,114044,1,10,0:0:0:0:
448,192,114044,128,0,114275:0:0:0:70:Cymatics - Terror Closed Hi Hat 015.wav
64,192,114275,128,0,114506:0:0:0:0:
320,192,114506,1,2,0:0:0:0:
448,192,114506,1,0,0:0:0:70:Cymatics - Terror Closed Hi Hat 015.wav
192,192,114737,1,0,0:0:0:0:
320,192,114852,1,0,0:0:0:0:
64,192,114968,1,10,0:0:0:0:
320,192,115083,1,0,0:0:0:0:
192,192,115198,1,0,0:0:0:0:
64,192,115429,1,2,0:0:0:0:
448,192,115429,1,0,0:0:0:70:Cymatics - Terror Closed Hi Hat 015.wav
320,192,115660,1,0,0:0:0:0:
64,192,115891,1,10,0:0:0:0:
192,192,115891,1,0,0:0:0:70:Cymatics - Terror Closed Hi Hat 015.wav
448,192,116121,1,0,0:0:0:0:
64,192,116352,1,2,0:0:0:0:
320,192,116352,1,0,0:0:0:70:Cymatics - Terror Closed Hi Hat 015.wav
192,192,116583,1,0,0:0:0:0:
320,192,116698,128,0,117044:0:0:0:0:
64,192,116814,1,10,0:0:0:0:
448,192,117044,1,0,0:0:0:0:
192,192,117160,1,0,0:0:0:0:
64,192,117275,128,2,118660:0:0:0:0:
448,192,117275,1,0,0:0:0:70:Cymatics - Terror Closed Hi Hat 015.wav
320,192,117737,1,10,0:0:0:0:
448,192,117737,1,0,0:0:0:70:Cymatics - Terror Closed Hi Hat 015.wav
192,192,117968,1,0,0:0:0:0:
448,192,118198,1,2,0:0:0:0:
192,192,118429,1,0,0:0:0:0:
320,192,118660,1,10,0:0:0:0:
448,192,118660,1,0,0:0:0:70:Cymatics - Terror Closed Hi Hat 015.wav
192,192,118891,1,0,0:0:0:0:
64,192,119121,1,2,0:0:0:0:
320,192,119121,128,4,119583:0:0:0:0:
448,192,119352,1,0,0:0:0:0:
64,192,119583,1,10,0:0:0:0:
192,192,119583,1,0,0:0:0:70:Cymatics - Terror Closed Hi Hat 015.wav
192,192,119814,1,0,0:0:0:0:
320,192,120044,1,2,0:0:0:0:
448,192,120044,128,0,120737:0:0:0:70:Cymatics - Terror Closed Hi Hat 015.wav
64,192,120275,1,0,0:0:0:0:
192,192,120391,1,0,0:0:0:0:
64,192,120506,1,10,0:0:0:0:
320,192,120737,1,0,0:0:0:0:
320,192,120968,128,2,121429:0:0:0:0:
192,192,120968,1,0,0:0:0:0:
448,192,121198,1,0,0:0:0:0:
64,192,121429,1,10,0:0:0:0:
192,192,121429,1,0,0:0:0:70:Cymatics - Terror Closed Hi Hat 015.wav
192,192,121660,1,0,0:0:0:0:
320,192,121891,1,2,0:0:0:0:
448,192,121891,128,0,122583:0:0:0:70:Cymatics - Terror Closed Hi Hat 015.wav
64,192,122121,1,0,0:0:0:0:
192,192,122237,1,0,0:0:0:0:
64,192,122352,1,10,0:0:0:0:
320,192,122583,1,0,0:0:0:0:
320,192,122814,128,2,123275:0:0:0:0:
192,192,122814,1,0,0:0:0:0:
448,192,123044,1,0,0:0:0:0:
64,192,123275,1,10,0:0:0:0:
192,192,123275,1,0,0:0:0:70:Cymatics - Terror Closed Hi Hat 015.wav
192,192,123506,1,0,0:0:0:0:
320,192,123737,1,2,0:0:0:0:
448,192,123737,128,0,124429:0:0:0:70:Cymatics - Terror Closed Hi Hat 015.wav
64,192,123968,1,0,0:0:0:0:
192,192,124083,1,0,0:0:0:0:
64,192,124198,1,10,0:0:0:0:
320,192,124429,1,0,0:0:0:0:
320,192,124660,128,2,125121:0:0:0:0:
192,192,124660,1,0,0:0:0:0:
448,192,124891,1,0,0:0:0:0:
64,192,125121,1,10,0:0:0:0:
192,192,125121,1,0,0:0:0:70:Cymatics - Terror Closed Hi Hat 015.wav
192,192,125352,1,0,0:0:0:0:
320,192,125583,1,2,0:0:0:0:
448,192,125583,128,0,126275:0:0:0:70:Cymatics - Terror Closed Hi Hat 015.wav
64,192,125814,1,0,0:0:0:0:
192,192,125929,1,0,0:0:0:0:
64,192,126044,1,10,0:0:0:0:
320,192,126275,1,0,0:0:0:0:
192,192,126506,128,2,126968:0:0:0:0:
320,192,126506,1,0,0:0:0:0:
320,192,126968,1,10,0:0:0:0:
448,192,126968,1,0,0:0:0:70:Cymatics - Terror Closed Hi Hat 015.wav
320,192,127198,1,0,0:0:0:0:
64,192,127429,128,2,128121:0:0:0:0:
192,192,127429,1,0,0:0:0:70:Cymatics - Terror Closed Hi Hat 015.wav
448,192,127660,1,0,0:0:0:0:
320,192,127775,1,0,0:0:0:0:
448,192,127891,1,10,0:0:0:0:
192,192,128121,1,0,0:0:0:0:
192,192,128352,128,2,128814:0:0:0:0:
320,192,128352,1,0,0:0:0:0:
64,192,128583,1,0,0:0:0:0:
320,192,128814,1,10,0:0:0:0:
448,192,128814,1,0,0:0:0:70:Cymatics - Terror Closed Hi Hat 015.wav
320,192,129044,1,0,0:0:0:0:
64,192,129275,128,2,129968:0:0:0:0:
192,192,129275,1,0,0:0:0:70:Cymatics - Terror Closed Hi Hat 015.wav
448,192,129506,1,0,0:0:0:0:
320,192,129621,1,0,0:0:0:0:
448,192,129737,1,10,0:0:0:0:
192,192,129968,1,0,0:0:0:0:
192,192,130198,128,2,130660:0:0:0:0:
320,192,130198,1,0,0:0:0:0:
64,192,130429,1,0,0:0:0:0:
320,192,130660,1,10,0:0:0:0:
448,192,130660,1,0,0:0:0:70:Cymatics - Terror Closed Hi Hat 015.wav
320,192,130891,1,0,0:0:0:0:
64,192,131121,128,2,131814:0:0:0:0:
192,192,131121,1,0,0:0:0:70:Cymatics - Terror Closed Hi Hat 015.wav
448,192,131352,1,0,0:0:0:0:
320,192,131468,1,0,0:0:0:0:
448,192,131583,1,10,0:0:0:0:
192,192,131814,1,0,0:0:0:0:
192,192,132044,128,2,132506:0:0:0:0:
320,192,132044,1,0,0:0:0:70:Cymatics - Terror Closed Hi Hat 015.wav
64,192,132275,1,0,0:0:0:0:
320,192,132506,1,10,0:0:0:0:
448,192,132506,1,0,0:0:0:70:Cymatics - Terror Closed Hi Hat 015.wav
320,192,132737,1,0,0:0:0:0:
64,192,132968,128,2,133660:0:0:0:0:
192,192,132968,1,0,0:0:0:70:Cymatics - Terror Closed Hi Hat 015.wav
448,192,133198,1,0,0:0:0:0:
320,192,133314,1,0,0:0:0:0:
448,192,133429,1,10,0:0:0:0:
192,192,133660,1,0,0:0:0:0:
192,192,133891,1,4,0:0:0:0:
320,192,133891,128,2,134352:0:0:0:0:
64,192,134352,1,2,0:0:0:0:
192,192,134352,1,8,0:0:0:0:
192,192,134583,1,0,0:0:0:0:
448,192,134814,128,2,135506:0:0:0:0:
64,192,135044,1,0,0:0:0:0:
192,192,135160,1,0,0:0:0:0:
64,192,135275,1,10,0:0:0:0:
320,192,135506,1,0,0:0:0:0:
320,192,135737,128,2,136198:0:0:0:0:
448,192,135968,1,0,0:0:0:0:
64,192,136198,1,2,0:0:0:0:
192,192,136198,1,8,0:0:0:0:
192,192,136429,1,0,0:0:0:0:
448,192,136660,128,2,137352:0:0:0:0:
64,192,136891,1,0,0:0:0:0:
192,192,137006,1,0,0:0:0:0:
64,192,137121,1,10,0:0:0:0:
320,192,137352,1,0,0:0:0:0:
320,192,137583,128,2,138044:0:0:0:0:
448,192,137814,1,0,0:0:0:0:
64,192,138044,1,2,0:0:0:0:
192,192,138044,1,8,0:0:0:0:
192,192,138275,1,0,0:0:0:0:
448,192,138506,128,2,139198:0:0:0:0:
64,192,138737,1,0,0:0:0:0:
192,192,138852,1,0,0:0:0:0:
64,192,138968,1,10,0:0:0:0:
320,192,139198,1,0,0:0:0:0:
320,192,139429,128,2,139891:0:0:0:0:
448,192,139660,1,0,0:0:0:0:
64,192,139891,1,2,0:0:0:0:
192,192,139891,1,8,0:0:0:0:
192,192,140121,1,0,0:0:0:0:
320,192,140352,1,2,0:0:0:0:
448,192,140352,128,0,141044:0:0:0:0:
64,192,140583,1,0,0:0:0:0:
192,192,140698,1,0,0:0:0:0:
64,192,140814,1,10,0:0:0:0:
320,192,141044,1,0,0:0:0:0:
192,192,141275,128,2,141737:0:0:0:0:
320,192,141737,1,8,0:0:0:0:
448,192,141737,1,2,0:0:0:0:
320,192,141968,1,0,0:0:0:0:
64,192,142198,128,2,142891:0:0:0:0:
448,192,142429,1,0,0:0:0:0:
320,192,142544,1,0,0:0:0:0:
448,192,142660,1,10,0:0:0:0:
192,192,142891,1,0,0:0:0:0:
192,192,143121,128,2,143583:0:0:0:0:
64,192,143352,1,0,0:0:0:0:
320,192,143583,1,8,0:0:0:0:
448,192,143583,1,2,0:0:0:0:
320,192,143814,1,0,0:0:0:0:
64,192,144044,128,2,144737:0:0:0:0:
448,192,144275,1,0,0:0:0:0:
320,192,144391,1,0,0:0:0:0:
448,192,144506,1,10,0:0:0:0:
192,192,144737,1,0,0:0:0:0:
192,192,144968,128,2,145429:0:0:0:0:
64,192,145198,1,0,0:0:0:0:
320,192,145429,1,8,0:0:0:0:
448,192,145429,1,2,0:0:0:0:
320,192,145660,1,0,0:0:0:0:
64,192,145891,128,2,146583:0:0:0:0:
448,192,146121,1,0,0:0:0:0:
320,192,146237,1,0,0:0:0:0:
448,192,146352,1,10,0:0:0:0:
192,192,146583,1,0,0:0:0:0:
192,192,146814,128,2,147275:0:0:0:0:
320,192,146814,1,0,0:0:0:0:
64,192,147044,1,2,0:0:0:0:
320,192,147275,1,2,0:0:0:0:
448,192,147275,1,8,0:0:0:0:
320,192,147506,1,2,0:0:0:0:
64,192,147737,128,2,148198:0:0:0:0:
448,192,147737,1,0,0:0:0:0:
192,192,147968,1,2,0:0:0:0:
448,192,148198,128,10,148660:0:0:0:0:
320,192,148429,1,2,0:0:0:0:
64,192,148660,1,4,0:0:0:0:
192,192,148660,1,0,0:0:0:0:
