osu file format v14

[General]
AudioFilename: audio.mp3
AudioLeadIn: 0
PreviewTime: 113494
Countdown: 0
SampleSet: None
StackLeniency: 0.4
Mode: 0
LetterboxInBreaks: 0
WidescreenStoryboard: 0

[Editor]
Bookmarks: 16197,26575,36954,47332,57711,68089,81062,92738,103116,113494,123873,134251
DistanceSpacing: 0.1
BeatDivisor: 4
GridSize: 32
TimelineZoom: 3.799999

[Metadata]
Title:CrossRevolution (feat. LyuU)
TitleUnicode:Cross†Revolution (feat. LyuU)
Artist:HyuN
ArtistUnicode:HyuN
Creator:EijiKuinbii
Version:Eiji x hawkens' Special Collab
Source:VOEZ
Tags:Frakturehawkens SCTL a.k.a. 35 Studio EMP
BeatmapID:1794456
BeatmapSetID:858630

[Difficulty]
HPDrainRate:5.4
CircleSize:4
OverallDifficulty:8.4
ApproachRate:9.3
SliderMultiplier:1.5
SliderTickRate:1

[Events]
//Background and Video events
0,0,"1.jpg",0,0
//Break Periods
//Storyboard Layer 0 (Background)
//Storyboard Layer 1 (Fail)
//Storyboard Layer 2 (Pass)
//Storyboard Layer 3 (Foreground)
//Storyboard Sound Samples

[TimingPoints]
630,324.324324324324,4,2,1,65,1,0
16197,-47.6190476190476,4,2,1,65,0,0
26575,-133.333333333333,4,2,1,25,0,0
36954,-114.942528735632,4,2,1,35,0,0
42143,-100,4,2,1,35,0,0
47332,-66.6666666666667,4,2,1,45,0,0
68089,-100,4,2,1,45,0,0
69386,-66.6666666666667,4,2,1,60,0,0
88846,-57.1428571428571,4,2,1,60,0,0
92089,-50,4,2,1,60,0,0
92738,-100,4,2,1,25,0,0
108305,-86.9565217391304,4,2,1,35,0,0
113494,-55.5555555555556,4,2,1,60,0,0
134251,-100,4,2,1,60,0,0
135548,-66.6666666666667,4,2,1,60,0,0
136846,-100,4,2,1,40,0,0

[Colours]
Combo1 : 217,230,225
Combo2 : 237,137,174
Combo3 : 121,218,223
Combo4 : 243,234,152

[HitObjects]
256,192,16197,6,0,P|255:230|265:275,1,78.7499975967408,2|0,1:0|0:0,0:0:0:0:
343,320,16359,1,0,1:0:0:0:
240,105,16521,2,2,P|206:123|172:154,1,78.7499975967408,2|2,1:0|0:0,0:0:0:0:
340,222,16684,2,2,P|372:241|416:255,1,78.7499975967408,2|2,1:0|0:0,0:0:0:0:
494,210,16846,1,0,1:0:0:0:
307,47,17008,2,2,P|274:27|230:13,1,78.7499975967408
389,77,17170,2,2,P|390:39|380:-6,1,78.7499975967408
365,208,17332,6,2,B|354:248|354:248|280:206|282:122|282:122|322:133,1,236.249992790222,2|2,1:0|0:0,0:0:0:0:
432,152,17657,1,2,1:0:0:0:
432,152,17738,1,0,1:0:0:0:
432,152,17819,1,2,1:0:0:0:
210,143,17981,1,2,1:0:0:0:
342,329,18143,2,2,P|381:323|415:303,1,78.7499975967408,2|2,1:0|0:0,0:0:0:0:
278,268,18305,2,0,B|261:278|261:278|260:298,3,39.3749987983704,0|0|0|0,1:0|1:0|1:0|1:0,1:0:0:0:
228,341,18467,2,2,P|232:262|232:262,1,78.7499975967408,2|2,1:0|0:0,0:0:0:0:
298,218,18629,2,0,P|232:262|232:262,1,78.7499975967408,0|0,1:0|1:0,1:0:0:0:
105,179,18792,5,2,1:0:0:0:
342,329,18954,1,2,1:0:0:0:
417,210,19116,1,2,1:0:0:0:
105,179,19278,2,2,P|55:163|20:159,1,78.7499975967408,2|2,1:0|0:0,0:0:0:0:
9,251,19440,1,0,1:0:0:0:
208,116,19602,2,2,P|196:64|182:32,1,78.7499975967408,2|2,1:0|0:0,0:0:0:0:
314,173,19765,2,2,P|352:137|373:109,1,78.7499975967408,2|2,1:0|0:0,0:0:0:0:
254,298,19927,6,2,B|274:336|267:372|267:372|208:317|211:228,1,236.249992790222,2|2,1:0|0:0,0:0:0:0:
290,91,20251,2,2,P|263:28|187:41,2,157.499995193482,2|2|2,1:0|1:0|1:0,1:0:0:0:
322,254,20738,2,2,L|403:270,1,78.7499975967408,2|2,1:0|0:0,0:0:0:0:
460,341,20900,1,0,1:0:0:0:
448,328,20981,1,0,1:0:0:0:
399,269,21062,5,2,1:0:0:0:
373,340,21143,1,0,1:0:0:0:
300,361,21224,1,0,1:0:0:0:
241,313,21305,1,0,1:0:0:0:
244,238,21386,6,2,B|246:221|256:206|256:206|54:237,1,236.249992790222,2|2,1:0|0:0,0:0:0:0:
47,314,21711,2,2,L|58:221,1,78.7499975967408
163,296,21873,2,0,L|156:254,4,39.3749987983704,2|0|0|0|0,1:0|1:0|1:0|1:0|1:0,1:0:0:0:
126,62,22197,2,2,L|137:139,1,78.7499975967408,2|2,1:0|0:0,0:0:0:0:
18,37,22359,2,2,L|44:110,1,78.7499975967408,2|2,1:0|0:0,0:0:0:0:
220,5,22521,2,2,L|217:83,1,78.7499975967408,2|2,1:0|1:0,1:0:0:0:
156,257,22684,5,0,1:0:0:0:
217,83,22846,2,2,L|220:5,1,78.7499975967408
126,62,23008,2,2,L|137:139,1,78.7499975967408,2|2,1:0|0:0,0:0:0:0:
238,257,23170,2,0,L|226:179,1,78.7499975967408,0|0,1:0|0:0,0:0:0:0:
320,257,23332,2,2,P|347:193|305:123,1,157.499995193482,2|2,1:0|1:0,1:0:0:0:
126,62,23657,2,2,P|70:103|71:185,1,157.499995193482,2|2,1:0|1:0,1:0:0:0:
288,332,23981,6,2,B|283:351|283:351|396:321|396:321|383:306,1,157.499995193482,2|2,1:0|1:0,1:0:0:0:
367,26,24305,2,2,L|351:103,1,78.7499975967408,2|2,1:0|0:0,0:0:0:0:
320,257,24467,2,2,L|335:179,1,78.7499975967408,2|2,1:0|0:0,0:0:0:0:
258,124,24629,1,0,1:0:0:0:
429,159,24792,1,0,0:0:0:0:
134,104,24953,6,2,L|149:181,1,78.7499975967408,2|2,1:0|0:0,0:0:0:0:
181,335,25115,1,0,0:0:0:0:
173,296,25196,1,0,0:0:0:0:
165,257,25278,5,0,1:0:0:0:
112,285,25359,1,0,0:0:0:0:
63,314,25440,2,2,L|47:236,1,78.7499975967408,2|2,1:0|0:0,0:0:0:0:
16,83,25602,1,0,1:0:0:0:
252,125,25765,1,0,1:0:0:0:
232,121,25846,1,0,1:0:0:0:
213,118,25927,5,2,1:0:0:0:
219,192,26008,1,0,1:0:0:0:
288,222,26089,1,0,1:0:0:0:
356,251,26170,1,0,1:0:0:0:
363,326,26251,5,2,1:0:0:0:
291,350,26332,1,0,1:0:0:0:
251,286,26413,1,0,1:0:0:0:
288,222,26494,1,0,1:0:0:0:
301,224,26575,6,0,B|323:232|323:232|304:357|304:357|336:366,1,168.750006437302
399,340,27224,1,0,0:0:0:0:
409,335,27548,5,0,0:0:0:0:
322,362,27711,1,0,0:0:0:0:
234,334,27873,2,0,P|215:309|153:275,1,84.3750032186509
158,282,28197,1,0,0:0:0:0:
268,226,28521,6,0,P|272:194|252:127,1,84.3750032186509
260,238,28845,1,0,0:0:0:0:
120,95,29170,6,0,B|175:85|220:111|220:111|227:119|227:119|277:155|345:134,1,225.000008583069
164,175,30143,1,0,0:0:0:0:
339,213,30467,6,0,P|362:176|248:103,1,196.875007510186
252,176,31116,2,0,L|268:283,1,84.3750032186509
334,300,31440,2,0,L|318:407,1,84.3750032186509
223,328,31765,6,0,B|110:295|181:225|36:183,1,225.000008583069
51,187,32738,5,0,0:0:0:0:
157,180,32900,1,0,0:0:0:0:
266,170,33062,2,0,L|388:158,1,112.500004291535
430,262,33711,1,0,0:0:0:0:
456,80,34035,1,0,0:0:0:0:
439,267,34359,6,0,B|477:281|477:281|458:138,1,168.750006437302
376,190,35008,1,0,0:0:0:0:
364,188,35170,1,0,0:0:0:0:
285,151,35332,1,0,0:0:0:0:
273,153,35494,1,0,0:0:0:0:
217,219,35657,6,0,L|154:212,1,56.2500021457673
83,204,35981,1,0,0:0:0:0:
83,204,36143,1,0,0:0:0:0:
207,305,36305,6,0,P|256:298|268:287,1,56.2500021457673
321,229,36629,2,0,P|348:227|374:239,1,56.2500021457673
322,136,36954,6,0,P|290:138|264:157,2,65.2500005475998
418,157,37440,1,0,0:0:0:0:
370,56,37602,2,0,P|340:42|308:44,1,65.2500005475998
425,166,37927,1,0,0:0:0:0:
321,229,38089,1,0,0:0:0:0:
227,147,38251,2,0,P|257:115|264:158,1,97.8750008213997
321,229,38575,2,0,P|315:272|284:241,1,97.8750008213997
196,217,38900,2,0,P|157:182|155:122,1,97.8750008213997
58,90,39224,2,0,P|110:95|147:142,1,97.8750008213997
128,300,39548,5,0,0:0:0:0:
15,185,39710,1,0,0:0:0:0:
41,166,39873,1,0,0:0:0:0:
73,170,40035,1,0,0:0:0:0:
196,217,40197,5,0,0:0:0:0:
48,302,40359,1,0,0:0:0:0:
50,280,40522,1,0,0:0:0:0:
67,267,40684,1,0,0:0:0:0:
221,140,40846,5,0,0:0:0:0:
142,354,41007,1,0,0:0:0:0:
135,340,41170,1,0,0:0:0:0:
141,327,41332,1,0,0:0:0:0:
205,229,41494,2,0,B|308:211|299:323|426:288,1,228.375001916599
435,300,42143,6,0,P|428:248|379:214,1,112.5,0|0,1:0|0:0,0:0:0:0:
274,209,42467,2,0,B|236:208|236:208|205:227,1,75,0|0,1:0|0:0,0:0:0:0:
332,151,42792,2,0,B|350:118|350:118|350:82,1,75,0|0,1:0|0:0,0:0:0:0:
198,107,43116,2,0,P|176:155|196:216,1,112.5,0|0,1:0|0:0,0:0:0:0:
331,150,43440,6,0,L|257:162,1,75,0|0,1:0|0:0,0:0:0:0:
158,284,43765,2,0,L|83:272,1,75,0|0,1:0|0:0,0:0:0:0:
306,306,44089,2,0,B|232:294|232:294|266:277,1,112.5,0|0,1:0|0:0,0:0:0:0:
183,174,44413,2,0,P|139:181|139:181,1,37.5,0|0,1:0|0:0,0:0:0:0:
69,192,44575,1,0,1:0:0:0:
306,306,44738,5,0,1:0:0:0:
83,272,44900,1,0,1:0:0:0:
257,162,45062,1,0,1:0:0:0:
69,192,45224,1,0,1:0:0:0:
281,233,45386,5,0,1:0:0:0:
355,18,45548,1,0,1:0:0:0:
233,90,45711,1,0,1:0:0:0:
306,306,45873,1,0,1:0:0:0:
445,126,46035,5,0,1:0:0:0:
401,109,46116,1,0,1:0:0:0:
355,112,46197,1,0,1:0:0:0:
314,135,46278,1,0,1:0:0:0:
288,173,46359,1,0,1:0:0:0:
261,211,46440,1,0,1:0:0:0:
220,233,46521,1,0,1:0:0:0:
174,237,46602,1,0,1:0:0:0:
132,218,46684,6,0,B|57:202|57:202|137:206|137:206,1,150
131,206,47332,6,0,B|209:223|209:223|211:230|211:230|299:249,1,168.750006437302,0|0,1:0|0:0,0:0:0:0:
355,183,47657,2,0,B|316:141|316:141|255:163,1,112.500004291535,0|0,1:0|0:0,0:0:0:0:
224,311,47981,2,0,B|263:353|263:353|324:331,1,112.500004291535,0|0,1:0|0:0,0:0:0:0:
415,253,48305,1,0,1:0:0:0:
418,244,48386,1,0,0:0:0:0:
425,238,48467,1,0,0:0:0:0:
466,335,48629,6,0,P|454:232|519:164,1,168.750006437302,0|0,1:0|0:0,0:0:0:0:
483,100,48954,2,0,P|449:115|412:115,1,56.2500021457673,0|0,1:0|0:0,0:0:0:0:
413,266,49116,2,0,P|385:261|360:249,1,56.2500021457673
351,163,49278,2,0,B|333:127|333:127|239:115|239:115|207:144,1,168.750006437302,0|0,1:0|0:0,0:0:0:0:
139,164,49602,2,0,B|121:199|121:199|27:211|27:211|-4:182,1,168.750006437302,0|0,1:0|0:0,0:0:0:0:
65,118,49927,6,2,L|90:361,1,225.000008583069,2|2,1:0|1:0,1:0:0:0:
11,324,50332,2,2,L|5:268,1,56.2500021457673
95,330,50575,2,0,P|174:377|265:358,1,168.750006437302,0|0,1:0|0:0,0:0:0:0:
327,375,50900,2,0,B|333:325|333:325|337:323|337:323|345:253,1,112.500004291535,0|0,1:0|0:0,0:0:0:0:
391,195,51224,6,0,B|408:201|408:201|364:152|364:152|303:183|303:183|331:180,1,168.750006437302,0|0,1:0|0:0,0:0:0:0:
421,280,51548,2,0,P|469:262|500:261,1,56.2500021457673,0|0,1:0|0:0,0:0:0:0:
267,252,51711,2,0,P|225:222|195:213,1,56.2500021457673
162,274,51873,2,0,B|132:303|132:303|143:156,1,168.750006437302,0|0,1:0|0:0,0:0:0:0:
44,297,52197,1,0,1:0:0:0:
149,89,52359,1,0,0:0:0:0:
174,276,52521,6,0,B|268:261|225:200|341:186,1,168.750006437302,0|0,1:0|0:0,0:0:0:0:
396,223,52846,2,0,P|450:231|493:197,1,112.500004291535,0|0,1:0|0:0,0:0:0:0:
465,101,53170,2,0,P|410:92|367:126,1,112.500004291535,0|0,1:0|0:0,0:0:0:0:
350,298,53494,2,0,B|362:287|362:287|379:152|379:152|344:107,1,168.750006437302,0|0,1:0|0:0,0:0:0:0:
439,315,53819,5,0,1:0:0:0:
277,346,53981,1,0,0:0:0:0:
512,350,54143,2,0,B|489:377|489:377|476:228,1,168.750006437302,0|0,1:0|0:0,0:0:0:0:
490,111,54467,2,0,B|441:129|465:175|412:186,1,112.500004291535,0|0,1:0|0:0,0:0:0:0:
326,118,54792,2,0,B|303:165|352:180|323:225,1,112.500004291535,0|0,1:0|0:0,0:0:0:0:
354,306,55116,6,0,B|272:300|272:300|267:294|267:294|135:285,1,168.750006437302,0|0,1:0|0:0,0:0:0:0:
426,269,55440,1,0,1:0:0:0:
179,279,55602,2,0,B|100:273,1,56.2500021457673
49,339,55765,2,0,L|34:218,1,112.500004291535,0|0,1:0|0:0,0:0:0:0:
24,119,56089,6,0,P|64:142|76:160,1,56.2500021457673
133,112,56251,2,0,P|145:156|140:177,1,56.2500021457673,0|0,1:0|0:0,0:0:0:0:
133,309,56413,6,0,P|173:286|185:268,1,56.2500021457673,0|0,1:0|0:0,0:0:0:0:
250,318,56575,2,0,P|262:273|257:252,1,56.2500021457673,0|0,1:0|0:0,0:0:0:0:
339,241,56738,2,0,P|316:201|298:189,1,56.2500021457673,0|0,1:0|0:0,0:0:0:0:
234,32,56900,6,0,P|278:57|291:77,1,56.2500021457673,0|0,1:0|0:0,0:0:0:0:
362,22,57062,2,0,P|375:71|370:94,1,56.2500021457673,0|0,1:0|0:0,0:0:0:0:
460,106,57225,2,0,P|434:150|414:163,1,56.2500021457673
398,330,57386,6,0,P|347:330|325:319,1,56.2500021457673,0|0,1:0|0:0,0:0:0:0:
193,247,57548,2,0,P|179:197|184:174,1,56.2500021457673
280,60,57711,6,0,B|308:89|308:89|262:209,1,168.750006437302,0|0,1:0|0:0,0:0:0:0:
313,280,58035,2,0,P|366:191|362:158,1,112.500004291535,0|0,1:0|0:0,0:0:0:0:
198,123,58360,2,0,P|173:172|176:228,1,112.500004291535,0|0,1:0|0:0,0:0:0:0:
222,312,58684,1,0,1:0:0:0:
222,312,58765,1,0,0:0:0:0:
222,312,58846,1,0,0:0:0:0:
366,186,59008,6,0,P|430:197|476:226,1,112.500004291535,0|0,1:0|0:0,0:0:0:0:
306,101,59332,2,0,P|250:101|198:122,1,112.500004291535,0|0,1:0|0:0,0:0:0:0:
218,316,59657,2,0,P|284:273|267:195,1,168.750006437302,0|0,1:0|0:0,0:0:0:0:
146,67,59981,2,0,B|182:131|126:173|178:228,1,168.750006437302,0|0,1:0|0:0,0:0:0:0:
218,316,60305,6,2,L|277:324,1,56.2500021457673,2|2,1:0|0:0,0:0:0:0:
357,336,60467,1,0,0:0:0:0:
178,228,60629,2,2,L|237:220,1,56.2500021457673,2|2,1:0|0:0,0:0:0:0:
317,208,60791,1,0,0:0:0:0:
122,307,60954,2,0,P|85:255|98:178,1,112.500004291535,0|0,1:0|0:0,0:0:0:0:
143,155,61197,1,0,0:0:0:0:
200,92,61278,2,0,B|223:78|223:78|113:49|113:49|126:72,1,168.750006437302,0|0,1:0|0:0,0:0:0:0:
57,141,61602,6,0,P|95:178|143:155,1,112.500004291535,0|0,1:0|0:0,0:0:0:0:
200,92,61846,1,0,0:0:0:0:
200,92,61927,2,0,L|254:104,1,56.2500021457673,0|0,1:0|0:0,0:0:0:0:
280,185,62089,2,0,P|335:128|312:44,1,168.750006437302
405,20,62413,2,0,P|355:7|315:47,2,112.500004291535,0|0|0,0:0|1:0|0:0,0:0:0:0:
376,245,62900,6,0,B|366:132,1,112.500004291535,0|0,1:0|0:0,0:0:0:0:
296,300,63224,2,0,B|248:316|248:316|120:284|120:284,1,168.750006437302,0|0,1:0|0:0,0:0:0:0:
83,354,63548,2,0,P|86:296|49:260,1,112.500004291535,0|0,1:0|0:0,0:0:0:0:
82,165,63873,2,0,P|86:219|49:259,1,112.500004291535,0|0,1:0|0:0,0:0:0:0:
218,244,64197,6,0,P|271:231|296:183,1,112.500004291535,0|0,1:0|0:0,0:0:0:0:
204,27,64521,2,0,P|257:39|284:87,1,112.500004291535,0|0,1:0|0:0,0:0:0:0:
358,259,64846,2,0,B|388:278|388:278|419:206|376:133,1,168.750006437302,0|0,1:0|0:0,0:0:0:0:
387,36,65170,2,0,B|420:25|420:25|432:102|371:162,1,168.750006437302,0|0,1:0|0:0,0:0:0:0:
349,249,65494,6,0,P|294:226|243:231,2,112.500004291535,0|0|0,1:0|0:0|1:0,0:0:0:0:
307,371,65981,2,0,L|283:321,1,56.2500021457673
242,231,66143,1,0,1:0:0:0:
349,249,66305,1,0,0:0:0:0:
177,301,66467,5,0,1:0:0:0:
391,337,66629,1,0,1:0:0:0:
316,134,66792,5,0,1:0:0:0:
171,154,66954,1,0,1:0:0:0:
177,301,67116,1,0,1:0:0:0:
333,112,67278,5,0,1:0:0:0:
149,136,67440,1,0,1:0:0:0:
159,322,67602,1,0,1:0:0:0:
337,298,67765,5,0,1:0:0:0:
340,303,67846,1,0,1:0:0:0:
346,301,67927,1,0,1:0:0:0:
346,295,68008,1,0,1:0:0:0:
340,293,68089,6,0,B|224:306|281:222|115:229,1,225,0|0,1:0|1:0,0:0:0:0:
53,312,68738,2,0,L|41:234,1,75
153,320,69062,1,0,1:0:0:0:
35,158,69224,1,0,1:0:0:0:
129,124,69386,6,2,P|199:83|255:83,1,112.500004291535,0|0,1:0|0:0,0:0:0:0:
280,157,69629,2,2,P|325:189|379:201,1,112.500004291535,2|0,1:0|0:0,0:0:0:0:
455,229,69873,2,2,P|472:194|470:159,1,56.2500021457673,2|0,1:0|0:0,0:0:0:0:
410,24,70035,5,2,0:0:0:0:
461,93,70197,1,2,1:0:0:0:
376,209,70359,1,2,1:0:0:0:
325,278,70521,1,2,1:0:0:0:
353,293,70602,1,2,1:0:0:0:
392,295,70684,1,0,1:0:0:0:
228,301,70846,5,0,0:0:0:0:
234,315,71170,1,0,0:0:0:0:
257,110,71332,6,0,L|250:211,2,75.000002861023
337,149,71657,5,0,0:0:0:0:
343,155,71765,1,0,0:0:0:0:
351,158,71873,1,0,0:0:0:0:
175,138,71981,5,0,1:0:0:0:
93,170,72089,1,0,0:0:0:0:
29,109,72197,1,0,0:0:0:0:
178,147,72305,6,0,P|178:196|183:235,2,75.000002861023
24,116,72629,2,0,P|9:163|-7:199,2,75.000002861023,0|0|0,1:0|0:0|0:0,0:0:0:0:
78,258,72954,5,0,0:0:0:0:
93,170,73062,1,0,0:0:0:0:
108,85,73170,1,0,0:0:0:0:
73,269,73278,6,0,B|50:315|50:315|174:290,1,150.000005722046,0|0,1:0|0:0,0:0:0:0:
215,255,73602,2,0,B|278:263|278:263|295:289|295:289|363:298,1,150.000005722046
463,227,73927,5,0,1:0:0:0:
463,242,74035,1,0,0:0:0:0:
475,235,74143,1,0,0:0:0:0:
428,316,74251,5,0,0:0:0:0:
386,222,74359,2,0,L|377:147,1,75.000002861023
484,108,74575,5,0,1:0:0:0:
400,138,74684,1,0,0:0:0:0:
334,81,74792,1,0,0:0:0:0:
252,100,74900,6,0,L|337:93,2,75.000002861023
159,160,75224,5,0,1:0:0:0:
152,151,75332,1,0,0:0:0:0:
145,147,75440,1,0,0:0:0:0:
66,149,75548,6,0,B|58:195|58:195|104:242|104:242|156:239,1,150.000005722046
420,232,75873,2,0,B|428:211|428:211|275:224,1,150.000005722046,0|0,1:0|0:0,0:0:0:0:
223,232,76197,1,0,0:0:0:0:
228,241,76305,2,0,L|219:335,1,75.000002861023
137,342,76521,5,0,1:0:0:0:
124,335,76629,1,0,0:0:0:0:
137,325,76738,1,0,0:0:0:0:
307,312,76846,5,0,0:0:0:0:
320,305,76954,1,0,0:0:0:0:
307,295,77063,1,0,0:0:0:0:
215,251,77170,5,0,1:0:0:0:
184,172,77278,1,0,0:0:0:0:
226,102,77386,1,0,0:0:0:0:
295,154,77494,5,0,0:0:0:0:
298,180,77602,1,0,0:0:0:0:
289,204,77711,1,0,0:0:0:0:
174,173,77819,6,0,L|99:181,2,75.000002861023,0|0|0,1:0|0:0|0:0,0:0:0:0:
304,156,78143,2,0,L|378:147,2,75.000002861023
240,0,78467,6,0,L|228:161,1,112.500004291535,0|0,1:0|0:0,0:0:0:0:
214,253,78711,1,0,0:0:0:0:
206,256,78792,2,0,P|246:282|279:278,1,56.2500021457673
316,340,78954,1,0,0:0:0:0:
327,342,79035,1,0,0:0:0:0:
340,346,79116,2,0,L|411:340,1,56.2500021457673,0|0,1:0|0:0,0:0:0:0:
512,268,79278,1,0,0:0:0:0:
501,270,79359,1,0,0:0:0:0:
474,282,79440,5,0,0:0:0:0:
454,244,79521,1,0,0:0:0:0:
417,213,79602,1,0,1:0:0:0:
366,204,79684,1,0,0:0:0:0:
312,209,79765,6,0,L|324:271,1,56.2500021457673,0|0,1:0|0:0,0:0:0:0:
427,211,79927,6,2,L|482:201,1,56.2500021457673,2|2,1:0|0:0,0:0:0:0:
211,248,80089,2,2,L|145:259,1,56.2500021457673,2|2,1:0|0:0,0:0:0:0:
293,131,80251,5,2,1:0:0:0:
288,103,80332,1,0,1:0:0:0:
282,75,80413,2,0,L|271:19,1,56.2500021457673,0|0,1:0|0:0,0:0:0:0:
330,286,80575,2,2,L|340:341,1,56.2500021457673,2|2,1:0|0:0,0:0:0:0:
208,264,80738,5,0,1:0:0:0:
274,233,80819,1,0,0:0:0:0:
321,177,80900,1,0,1:0:0:0:
343,107,80981,1,0,1:0:0:0:
344,33,81062,6,0,B|333:115|428:124|383:228,1,168.750006437302,0|0,1:0|0:0,0:0:0:0:
444,252,81386,2,0,B|470:267|470:267|366:295|366:295|382:269,1,168.750006437302,0|0,1:0|0:0,0:0:0:0:
225,239,81711,5,0,1:0:0:0:
261,249,81819,1,0,0:0:0:0:
298,259,81927,1,0,0:0:0:0:
147,309,82035,5,0,1:0:0:0:
219,290,82143,1,0,0:0:0:0:
292,271,82251,1,0,0:0:0:0:
152,218,82359,6,0,L|79:197,2,75.000002861023,0|0|0,1:0|0:0|0:0,0:0:0:0:
225,239,82684,5,0,1:0:0:0:
262,244,82792,1,0,0:0:0:0:
282,233,82900,1,0,0:0:0:0:
292,221,83008,5,0,1:0:0:0:
295,214,83116,1,0,0:0:0:0:
273,219,83224,1,0,0:0:0:0:
239,202,83332,5,0,1:0:0:0:
232,150,83440,1,0,0:0:0:0:
294,125,83548,1,0,0:0:0:0:
396,174,83657,6,0,B|384:237|384:237|401:258|401:258|408:367,1,150.000005722046,0|0,1:0|0:0,0:0:0:0:
404,316,83981,2,0,B|416:253|416:253|399:232|399:232|392:123,1,150.000005722046,0|0,1:0|0:0,0:0:0:0:
441,15,84305,5,0,1:0:0:0:
426,88,84413,1,0,0:0:0:0:
412,162,84521,1,0,0:0:0:0:
227,154,84629,5,0,1:0:0:0:
244,245,84737,1,0,0:0:0:0:
262,337,84845,1,0,0:0:0:0:
354,319,84954,5,0,1:0:0:0:
319,252,85062,1,0,0:0:0:0:
244,245,85170,1,0,0:0:0:0:
128,342,85278,6,0,P|164:337|181:305,2,75.000002861023,0|0|0,1:0|0:0|0:0,0:0:0:0:
115,268,85602,5,0,1:0:0:0:
130,233,85711,1,0,0:0:0:0:
178,212,85819,1,0,0:0:0:0:
302,178,85927,6,0,B|373:184|373:184|373:192|373:192|444:198,1,150.000005722046,0|0,1:0|0:0,0:0:0:0:
322,318,86251,6,0,B|315:246|315:246|307:246|307:246|301:175,1,150.000005722046,0|0,1:0|0:0,0:0:0:0:
468,76,86575,6,0,B|399:82|399:82|399:90|399:90|328:97,1,150.000005722046,0|0,1:0|0:0,0:0:0:0:
46,137,86900,5,0,1:0:0:0:
102,132,87008,1,0,0:0:0:0:
158,127,87116,1,0,0:0:0:0:
278,223,87224,5,0,1:0:0:0:
208,216,87332,1,0,0:0:0:0:
138,211,87440,1,0,0:0:0:0:
43,301,87549,5,0,1:0:0:0:
80,297,87657,1,0,0:0:0:0:
117,294,87765,1,0,0:0:0:0:
206,339,87873,5,0,1:0:0:0:
204,321,87981,1,0,0:0:0:0:
202,302,88089,1,0,0:0:0:0:
65,222,88197,5,0,1:0:0:0:
66,212,88305,1,0,0:0:0:0:
67,203,88413,1,0,0:0:0:0:
83,115,88521,6,0,B|37:155|65:203|65:203|106:167|85:121,1,187.500007152558,0|0,1:0|0:0,0:0:0:0:
129,28,88846,6,0,P|160:48|228:36,1,65.6250006258488,0|0,1:0|0:0,0:0:0:0:
286,43,89008,5,0,0:0:0:0:
315,58,89089,1,0,0:0:0:0:
299,86,89170,2,0,P|284:115|258:134,1,65.6250006258488,0|0,1:0|0:0,0:0:0:0:
150,160,89332,5,0,0:0:0:0:
113,177,89413,1,0,0:0:0:0:
133,212,89494,2,0,P|151:248|183:273,1,65.6250006258488,0|0,1:0|0:0,0:0:0:0:
262,272,89657,5,0,0:0:0:0:
308,293,89738,1,0,0:0:0:0:
283,337,89819,1,0,1:0:0:0:
258,381,89900,1,0,0:0:0:0:
214,356,89981,1,0,0:0:0:0:
239,312,90062,1,0,0:0:0:0:
375,272,90143,6,0,B|442:303,1,65.6250006258488,0|0,1:0|0:0,0:0:0:0:
234,205,90305,2,2,B|166:174,1,65.6250006258488
367,105,90467,2,2,B|339:164,1,65.6250006258488,2|2,1:0|0:0,0:0:0:0:
283,282,90629,5,2,1:0:0:0:
262,326,90710,1,0,1:0:0:0:
242,371,90791,1,0,1:0:0:0:
251,94,90954,2,0,B|224:24,1,65.6250006258488,0|2,1:0|0:0,0:0:0:0:
451,187,91116,2,2,B|512:163,1,65.6250006258488,2|2,1:0|0:0,0:0:0:0:
339,164,91278,1,0,1:0:0:0:
325,193,91359,1,0,1:0:0:0:
406,124,91440,5,0,1:0:0:0:
401,84,91521,1,0,1:0:0:0:
395,44,91602,1,0,1:0:0:0:
360,66,91683,1,0,1:0:0:0:
326,88,91765,5,0,1:0:0:0:
341,150,91846,1,0,1:0:0:0:
314,209,91927,1,0,1:0:0:0:
257,239,92008,1,0,1:0:0:0:
194,227,92089,6,0,P|171:189|175:137,1,75,0|0,1:0|1:0,1:0:0:0:
123,75,92251,2,0,P|93:97|76:130,1,75,0|0,1:0|1:0,1:0:0:0:
265,161,92413,6,0,P|299:176|337:174,1,75,0|0,1:0|1:0,1:0:0:0:
363,24,92575,2,0,P|341:62|294:85,1,75,0|0,1:0|1:0,1:0:0:0:
230,78,92738,6,0,L|-6:100,1,225,0|0,1:0|0:0,0:0:0:0:
0,87,93386,1,0,0:0:0:0:
97,176,93711,6,0,P|98:214|126:259,1,75
21,242,94035,1,0,0:0:0:0:
200,260,94197,2,0,L|310:246,1,75
489,326,94521,6,0,B|395:299|441:243|336:204,1,187.5
274,259,95008,2,0,L|200:269,1,75
115,303,95332,1,0,0:0:0:0:
108,296,95494,1,0,0:0:0:0:
115,303,95819,6,0,B|57:205|57:205|279:260,1,337.5
359,320,96629,1,0,0:0:0:0:
354,305,96792,1,0,0:0:0:0:
332,384,97602,5,0,0:0:0:0:
354,305,97765,1,0,0:0:0:0:
379,217,97927,2,0,B|370:152|297:171|256:266|423:296|487:244,1,262.5
452,175,98575,1,0,0:0:0:0:
459,186,98900,5,0,0:0:0:0:
430,100,99062,1,0,0:0:0:0:
500,42,99224,2,0,P|402:93|294:81,1,187.5
255,123,99711,2,0,B|243:88|207:68|207:68|248:64|283:25,1,150
327,91,100197,1,0,0:0:0:0:
336,101,100359,1,0,0:0:0:0:
227,205,100521,5,0,0:0:0:0:
413,141,100684,1,0,0:0:0:0:
353,202,100846,5,0,0:0:0:0:
352,211,101008,1,0,0:0:0:0:
416,260,101170,5,0,0:0:0:0:
402,273,101332,1,0,0:0:0:0:
428,349,101494,5,0,0:0:0:0:
386,354,101657,1,0,0:0:0:0:
202,281,101819,5,0,0:0:0:0:
313,296,101981,1,0,0:0:0:0:
197,275,102143,1,0,0:0:0:0:
319,291,102305,1,0,0:0:0:0:
245,203,102467,5,0,0:0:0:0:
122,219,102629,1,0,0:0:0:0:
250,196,102791,1,0,0:0:0:0:
116,214,102953,1,0,0:0:0:0:
328,168,103116,6,0,L|178:156,1,150
130,75,103602,2,0,P|95:111|88:162,2,75
187,260,104089,2,0,P|200:206|178:156,1,112.5
44,219,104413,6,0,L|119:215,1,75
194,270,104657,1,0,0:0:0:0:
200,279,104738,1,0,0:0:0:0:
44,219,104900,2,0,B|229:229|229:229|188:257,1,225
305,235,105548,1,0,0:0:0:0:
444,294,105711,6,0,B|491:217|409:207|456:115,1,187.5
431,91,106197,2,0,B|375:202|473:215|417:308,1,225
312,350,106846,1,0,0:0:0:0:
398,226,107008,6,0,B|385:208|384:176|384:176|321:205|296:156|222:191,1,187.5
235,80,107494,2,0,P|172:114|152:209,1,150
175,205,107981,2,0,P|174:177|185:154,1,37.5
197,56,108143,2,0,P|223:47|248:52,1,37.5
181,214,108305,6,0,B|145:291|214:306|192:386,2,172.500003290176,0|0|0,1:0|1:0|1:0,1:0:0:0:
252,256,109116,1,0,0:0:0:0:
92,281,109278,2,0,L|42:287,1,43.1250008225441,0|0,1:0|0:0,0:0:0:0:
259,266,109440,2,0,L|301:271,1,43.1250008225441
163,129,109602,6,0,P|154:95|88:157,1,172.500003290176,0|0,1:0|1:0,0:0:0:0:
332,87,110089,2,0,P|311:16|250:58,1,172.500003290176
252,256,110575,1,0,1:0:0:0:
271,152,110738,1,0,1:0:0:0:
105,175,110900,5,0,1:0:0:0:
417,232,111063,1,0,1:0:0:0:
290,47,111224,1,0,1:0:0:0:
233,360,111387,1,0,1:0:0:0:
391,113,111548,5,0,1:0:0:0:
171,73,111711,1,0,1:0:0:0:
131,294,111872,1,0,1:0:0:0:
351,334,112035,1,0,1:0:0:0:
261,204,112197,5,0,1:0:0:0:
239,166,112278,1,0,1:0:0:0:
191,186,112359,1,0,1:0:0:0:
194,246,112440,1,0,1:0:0:0:
249,286,112521,1,0,1:0:0:0:
324,270,112602,1,0,1:0:0:0:
364,192,112684,1,0,1:0:0:0:
334,101,112765,1,0,1:0:0:0:
243,50,112846,6,0,B|163:59|163:59|217:65,1,129.375002467632
414,36,113170,2,0,B|494:30|494:30|442:46,1,129.375002467632
246,179,113494,6,0,P|164:140|39:124,1,202.499993820191,0|0,1:0|0:0,0:0:0:0:
193,279,113819,1,0,1:0:0:0:
186,264,113900,1,0,0:0:0:0:
187,245,113981,1,0,0:0:0:0:
311,116,114142,2,0,B|352:170|352:170|325:240,1,134.999995880127,0|0,1:0|0:0,0:0:0:0:
127,335,114467,2,0,B|86:281|86:281|113:211,1,134.999995880127,0|0,1:0|0:0,0:0:0:0:
302,325,114711,1,0,0:0:0:0:
379,324,114792,6,0,B|398:298|398:298|208:318,1,202.499993820191,0|0,1:0|0:0,0:0:0:0:
44,161,115116,2,0,P|81:164|106:186,1,67.4999979400635,0|0,1:0|0:0,0:0:0:0:
211,165,115278,2,0,P|227:136|257:121,1,67.4999979400635
143,62,115440,2,0,L|168:262,1,202.499993820191,0|0,1:0|0:0,0:0:0:0:
381,336,115765,2,0,L|406:135,1,202.499993820191,0|0,1:0|0:0,0:0:0:0:
449,64,116089,6,2,P|332:95|362:205,1,202.499993820191,2|0,1:0|0:0,0:0:0:0:
367,241,116413,2,2,L|212:254,1,134.999995880127,2|0,1:0|0:0,0:0:0:0:
41,168,116657,1,0,0:0:0:0:
27,162,116738,2,0,P|144:193|114:303,1,202.499993820191,0|0,1:0|0:0,0:0:0:0:
84,332,117062,2,0,L|308:350,1,202.499993820191,0|0,1:0|0:0,0:0:0:0:
471,359,117386,6,0,B|358:340|435:266|284:231,1,202.499993820191,0|0,1:0|0:0,0:0:0:0:
183,255,117711,2,0,B|217:269|217:269|257:226,1,67.4999979400635,0|0,1:0|0:0,0:0:0:0:
210,100,117873,2,0,B|176:86|176:86|136:129,1,67.4999979400635
21,199,118035,2,0,L|155:182,1,134.999995880127,0|0,1:0|0:0,0:0:0:0:
318,159,118278,1,0,0:0:0:0:
318,76,118359,2,0,B|298:48|298:48|281:138,1,67.4999979400635,0|0,1:0|0:0,0:0:0:0:
316,240,118521,2,0,B|335:267|335:267|352:177,1,67.4999979400635
155,182,118684,6,0,L|21:199,1,134.999995880127,0|0,1:0|0:0,0:0:0:0:
268,304,118927,1,0,0:0:0:0:
257,308,119008,2,0,P|323:336|391:324,1,134.999995880127,0|0,1:0|0:0,0:0:0:0:
445,68,119251,1,0,0:0:0:0:
454,56,119332,2,0,P|387:47|326:75,1,134.999995880127,0|0,1:0|0:0,0:0:0:0:
212,240,119657,2,0,P|223:186|241:164,1,67.4999979400635,0|0,1:0|0:0,0:0:0:0:
168,128,119819,2,0,P|213:97|242:94,1,67.4999979400635
308,153,119981,6,0,P|408:192|510:174,1,202.499993820191,0|0,1:0|0:0,0:0:0:0:
305,74,120305,1,0,1:0:0:0:
370,277,120467,1,0,0:0:0:0:
297,65,120629,2,0,P|197:52|105:90,1,202.499993820191,0|0,1:0|0:0,0:0:0:0:
36,245,120954,2,0,B|21:204|57:162|57:162|52:188|69:210,1,134.999995880127,0|0,1:0|0:0,0:0:0:0:
188,199,121197,1,0,0:0:0:0:
264,206,121278,6,0,B|287:161|287:161|136:176,1,202.499993820191,0|0,1:0|0:0,0:0:0:0:
256,296,121602,2,0,P|369:293|463:325,1,202.499993820191,0|0,1:0|0:0,0:0:0:0:
499,205,121927,2,0,P|410:157|342:82,1,202.499993820191,0|0,1:0|0:0,0:0:0:0:
251,68,122251,6,0,B|224:92|224:92|286:103,1,67.4999979400635,0|0,1:0|0:0,0:0:0:0:
426,62,122413,2,0,B|453:38|453:38|391:27,1,67.4999979400635,0|0,1:0|0:0,0:0:0:0:
257,325,122575,6,0,P|215:367|151:370,1,67.4999979400635,0|0,1:0|0:0,0:0:0:0:
132,237,122738,2,0,P|118:207|117:174,1,67.4999979400635,0|0,1:0|0:0,0:0:0:0:
270,173,122900,2,0,P|303:176|333:192,1,67.4999979400635,0|0,1:0|0:0,0:0:0:0:
426,270,123062,5,0,1:0:0:0:
220,244,123224,1,0,1:0:0:0:
439,284,123386,1,0,0:0:0:0:
128,208,123548,5,0,1:0:0:0:
200,166,123629,1,0,1:0:0:0:
221,79,123711,1,0,1:0:0:0:
278,148,123792,1,0,1:0:0:0:
361,154,123873,6,0,P|299:188|279:311,1,202.499993820191,0|0,1:0|0:0,0:0:0:0:
130,215,124197,2,0,P|200:214|278:310,1,202.499993820191,0|0,1:0|0:0,0:0:0:0:
327,210,124521,2,0,P|337:181|380:141,1,67.4999979400635,0|0,1:0|0:0,0:0:0:0:
341,367,124684,2,0,P|361:341|363:308,1,67.4999979400635
481,254,124846,2,0,B|419:230|419:230|488:242,1,134.999995880127,0|0,1:0|0:0,0:0:0:0:
236,192,125170,6,0,B|176:196|176:196|178:184|178:184|112:188|112:188|117:199|117:199|52:204,1,202.499993820191,0|0,1:0|0:0,0:0:0:0:
156,356,125494,2,0,L|152:289,1,67.4999979400635,0|0,1:0|0:0,0:0:0:0:
138,89,125657,2,0,L|133:14,1,67.4999979400635
352,88,125819,2,0,B|384:126|384:126|233:96,1,202.499993820191,0|0,1:0|0:0,0:0:0:0:
472,96,126143,2,0,B|503:58|503:58|352:88,1,202.499993820191,0|0,1:0|0:0,0:0:0:0:
180,176,126467,6,2,L|184:243,1,67.4999979400635,2|0,1:0|0:0,0:0:0:0:
294,205,126629,1,0,0:0:0:0:
403,166,126792,2,2,L|408:234,1,67.4999979400635,2|0,1:0|0:0,0:0:0:0:
294,205,126954,1,0,0:0:0:0:
113,275,127116,6,0,B|94:222|39:213|39:213|92:195|101:140,1,202.499993820191,0|0,1:0|0:0,0:0:0:0:
26,2,127440,2,0,P|88:77|55:168,1,202.499993820191,0|0,1:0|0:0,0:0:0:0:
103,286,127765,6,0,B|148:275|148:275|189:284|189:284|224:314,1,134.999995880127,0|0,1:0|0:0,0:0:0:0:
151,358,128008,1,0,0:0:0:0:
176,249,128089,2,0,P|185:211|207:184,1,67.4999979400635,0|0,1:0|0:0,0:0:0:0:
328,288,128251,2,0,B|355:304|385:299|385:299|336:241|257:247,1,202.499993820191
345,158,128575,2,0,B|366:158|382:145|382:145|334:128|292:158,1,134.999995880127,0|0,0:0|1:0,0:0:0:0:
451,243,128900,1,0,0:0:0:0:
274,0,129062,6,0,B|251:50|251:50|251:61|251:61|200:189,1,202.499993820191,0|0,1:0|0:0,0:0:0:0:
63,27,129386,2,0,B|96:111|96:111|96:118|96:118|112:152,1,134.999995880127,0|0,1:0|0:0,0:0:0:0:
125,247,129629,1,0,0:0:0:0:
308,269,129711,2,0,B|236:213|236:213|229:211|229:211|201:188,1,134.999995880127,0|0,1:0|0:0,0:0:0:0:
112,152,129954,1,0,0:0:0:0:
138,342,130035,2,0,B|215:328|215:328|177:297|177:297|168:298|168:298|108:248,1,202.499993820191,0|0,1:0|0:0,0:0:0:0:
302,366,130359,6,0,B|352:320|352:320|308:270,1,134.999995880127,0|0,1:0|0:0,0:0:0:0:
310,259,130602,1,0,0:0:0:0:
445,237,130684,2,0,P|457:157|433:109,1,134.999995880127,0|0,1:0|0:0,0:0:0:0:
226,32,131008,2,0,P|291:41|341:86,1,134.999995880127,0|0,1:0|0:0,0:0:0:0:
81,181,131332,2,0,B|94:132|155:115|155:115|125:135|136:133,1,134.999995880127,0|0,1:0|0:0,0:0:0:0:
163,235,131575,1,0,0:0:0:0:
226,306,131657,6,0,P|278:222|253:126,1,202.499993820191,0|0,1:0|0:0,0:0:0:0:
68,61,131981,2,0,B|31:38|31:38|190:54,1,202.499993820191,0|0,1:0|0:0,0:0:0:0:
346,17,132305,2,0,P|317:33|284:35,1,67.4999979400635,0|0,1:0|0:0,0:0:0:0:
190,54,132467,1,0,0:0:0:0:
407,173,132629,2,0,P|373:172|343:158,1,67.4999979400635,0|0,1:0|0:0,0:0:0:0:
190,54,132791,1,0,1:0:0:0:
256,288,132954,5,0,1:0:0:0:
284,35,133116,1,0,1:0:0:0:
265,303,133278,1,0,1:0:0:0:
459,182,133440,5,0,1:0:0:0:
80,140,133602,1,0,1:0:0:0:
451,169,133765,1,0,1:0:0:0:
274,318,133927,5,0,1:0:0:0:
182,347,134008,1,0,1:0:0:0:
119,275,134089,1,0,1:0:0:0:
160,189,134170,1,0,1:0:0:0:
256,192,134251,6,0,P|186:235|66:138,1,225,0|0,1:0|1:0,1:0:0:0:
0,136,134900,2,0,P|12:110|57:81,1,75
9,14,135224,2,0,P|35:4|88:15,1,75,0|0,1:0|1:0,1:0:0:0:
168,126,135548,6,2,B|262:111|262:111|283:129,1,112.500004291535,2|0,1:0|0:0,0:0:0:0:
344,86,135792,2,2,B|357:97|357:97|451:82,1,112.500004291535,2|0,1:0|0:0,0:0:0:0:
477,241,136035,5,2,1:0:0:0:
484,232,136116,1,0,0:0:0:0:
491,215,136197,2,2,L|482:147,1,56.2500021457673,2|0,1:0|0:0,0:0:0:0:
266,178,136359,1,2,1:0:0:0:
259,169,136440,1,0,0:0:0:0:
252,152,136521,2,2,L|261:84,1,56.2500021457673,2|0,1:0|0:0,0:0:0:0:
392,197,136684,5,2,1:0:0:0:
354,115,136765,1,2,1:0:0:0:
384,31,136846,2,0,L|370:304,1,262.5,0|0,1:0|0:0,0:0:0:0:
440,342,137494,6,0,B|292:332|353:232|187:217,1,262.5
41,276,138143,5,0,0:0:0:0:
30,272,138184,1,0,0:0:0:0:
35,282,138224,2,0,L|39:257,1,18.75
