osu file format v14

[General]
AudioFilename: audio.mp3
AudioLeadIn: 0
PreviewTime: 120076
Countdown: 0
SampleSet: Soft
StackLeniency: 0.7
Mode: 1
LetterboxInBreaks: 0
WidescreenStoryboard: 1

[Editor]
DistanceSpacing: 1
BeatDivisor: 4
GridSize: 32
TimelineZoom: 2.3

[Metadata]
Title:Apocalypse in Love
TitleUnicode:Apocalypse in Love
Artist:HyuN & Ritoru
ArtistUnicode:HyuN & Ritoru
Creator:zerth
Version:Muzukashii
Source:osu!
Tags:EDM Electronic DJ techno
BeatmapID:2150309
BeatmapSetID:1028369

[Difficulty]
HPDrainRate:5
CircleSize:4
OverallDifficulty:5
ApproachRate:5
SliderMultiplier:1.2
SliderTickRate:1

[Events]
//Background and Video events
0,0,"planet_space_photoshop_129003_1366x768.jpg",0,0
//Break Periods
2,98943,102876
//Storyboard Layer 0 (Background)
//Storyboard Layer 1 (Fail)
//Storyboard Layer 2 (Pass)
//Storyboard Layer 3 (Foreground)
//Storyboard Layer 4 (Overlay)
//Storyboard Sound Samples

[TimingPoints]
1410,333.333333333333,4,2,0,100,1,0
6743,-100,4,2,0,100,0,0
22743,-95.2380952380952,4,2,0,100,0,1
33076,-95.2380952380952,4,2,0,100,0,0
34743,-100,4,2,0,100,0,0
50576,-95.2380952380952,4,2,0,100,0,0
55743,-93.4579439252336,4,2,0,100,0,1
66826,-93.4579439252336,4,2,0,100,0,0
67076,-93.4579439252336,4,2,0,100,0,1
77409,-100,4,2,0,100,0,0
91076,-95.2380952380952,4,2,0,100,0,0
104061,-100,4,2,0,100,0,0
109409,-100,4,2,0,100,0,0
115587,-95.2380952380952,4,2,0,100,0,0
120076,-92.5925925925926,4,2,0,100,0,1
130576,-92.5925925925926,4,2,0,100,0,0
130743,-92.5925925925926,4,2,0,100,0,1
141409,-92.5925925925926,4,2,0,100,0,0

[HitObjects]
174,110,1410,5,8,0:0:0:0:
387,157,1743,1,0,0:0:0:0:
141,227,1909,1,8,0:0:0:0:
192,115,2076,1,0,0:0:0:0:
374,155,2410,1,8,0:0:0:0:
192,115,2743,1,0,0:0:0:0:
364,152,3076,1,0,0:0:0:0:
190,115,3410,1,8,0:0:0:0:
179,112,3493,1,8,0:0:0:0:
367,152,3576,1,8,0:0:0:0:
304,55,3660,1,8,0:0:0:0:
304,55,3743,1,8,0:0:0:0:
290,266,4076,1,8,0:0:0:0:
290,266,4410,1,0,0:0:0:0:
186,237,4576,1,8,0:0:0:0:
290,266,4743,1,0,0:0:0:0:
290,266,5076,1,8,0:0:0:0:
290,266,5410,1,0,0:0:0:0:
290,266,5743,1,0,0:0:0:0:
290,266,6076,1,8,0:0:0:0:
290,266,6160,1,8,0:0:0:0:
290,266,6243,1,8,0:0:0:0:
290,266,6326,1,8,0:0:0:0:
290,266,6410,1,8,0:0:0:0:
366,251,6743,1,8,0:0:0:0:
110,255,7076,1,0,0:0:0:0:
273,158,7243,1,8,0:0:0:0:
158,268,7409,1,0,0:0:0:0:
273,158,7743,1,8,0:0:0:0:
273,158,8076,1,8,0:0:0:0:
273,158,8243,1,0,0:0:0:0:
273,158,8410,1,0,0:0:0:0:
273,158,8576,1,8,0:0:0:0:
273,158,8743,1,0,0:0:0:0:
273,158,8909,1,0,0:0:0:0:
149,187,8993,1,0,0:0:0:0:
273,158,9076,1,0,0:0:0:0:
19,181,9243,1,8,0:0:0:0:
168,48,9409,1,8,0:0:0:0:
196,254,9576,1,0,0:0:0:0:
273,158,9743,1,0,0:0:0:0:
273,158,9910,1,8,0:0:0:0:
188,194,10076,1,0,0:0:0:0:
273,158,10243,1,8,0:0:0:0:
273,158,10410,1,0,0:0:0:0:
273,158,10576,1,8,0:0:0:0:
273,158,10743,1,0,0:0:0:0:
169,219,10826,1,0,0:0:0:0:
273,158,10909,1,0,0:0:0:0:
264,156,11076,1,8,0:0:0:0:
273,158,11160,1,8,0:0:0:0:
273,158,11243,1,8,0:0:0:0:
273,158,11410,1,8,0:0:0:0:
273,158,11493,1,8,0:0:0:0:
273,158,11576,1,8,0:0:0:0:
273,158,12076,1,12,0:0:0:0:
273,158,12576,1,12,0:0:0:0:
279,161,13076,1,12,0:0:0:0:
279,162,13410,1,8,0:0:0:0:
279,162,13576,1,0,0:0:0:0:
272,163,13743,1,8,0:0:0:0:
272,163,13910,1,0,0:0:0:0:
272,163,14076,1,8,0:0:0:0:
272,163,14159,1,8,0:0:0:0:
272,163,14326,1,8,0:0:0:0:
272,165,14410,1,8,0:0:0:0:
272,165,14576,1,0,0:0:0:0:
272,163,14743,1,12,0:0:0:0:
272,163,15243,1,12,0:0:0:0:
272,163,15743,1,12,0:0:0:0:
267,168,16076,1,8,0:0:0:0:
266,164,16243,1,0,0:0:0:0:
272,165,16410,1,0,0:0:0:0:
272,165,16493,1,0,0:0:0:0:
272,165,16576,1,0,0:0:0:0:
275,166,16743,1,0,0:0:0:0:
275,166,16910,1,0,0:0:0:0:
275,166,17076,1,8,0:0:0:0:
278,168,17243,1,0,0:0:0:0:
278,168,17410,1,8,0:0:0:0:
275,166,17743,1,0,0:0:0:0:
261,170,17826,1,0,0:0:0:0:
261,170,17910,1,0,0:0:0:0:
260,171,18076,1,8,0:0:0:0:
265,171,18243,1,0,0:0:0:0:
265,171,18410,1,0,0:0:0:0:
260,179,18576,1,8,0:0:0:0:
227,99,19076,1,0,0:0:0:0:
227,99,19243,1,8,0:0:0:0:
227,99,19410,1,0,0:0:0:0:
227,99,19493,1,0,0:0:0:0:
225,104,19660,1,0,0:0:0:0:
225,104,19743,1,0,0:0:0:0:
227,99,19910,1,0,0:0:0:0:
233,101,20076,1,8,0:0:0:0:
345,265,20243,1,0,0:0:0:0:
307,245,20326,1,0,0:0:0:0:
345,265,20409,1,0,0:0:0:0:
227,99,20576,1,8,0:0:0:0:
223,104,20910,1,0,0:0:0:0:
230,103,20993,1,0,0:0:0:0:
228,104,21076,1,0,0:0:0:0:
231,103,21243,1,0,0:0:0:0:
230,103,21409,1,8,0:0:0:0:
267,290,21576,1,0,0:0:0:0:
244,189,21659,1,0,0:0:0:0:
267,290,21743,1,0,0:0:0:0:
236,103,21909,1,8,0:0:0:0:
231,103,22243,1,0,0:0:0:0:
230,103,22326,1,0,0:0:0:0:
230,103,22410,1,0,0:0:0:0:
230,103,22576,1,0,0:0:0:0:
230,103,22743,1,8,0:0:0:0:
228,104,23076,1,0,0:0:0:0:
230,103,23243,1,0,0:0:0:0:
230,103,23409,1,8,0:0:0:0:
230,103,23576,1,0,0:0:0:0:
230,103,23660,1,0,0:0:0:0:
230,103,23743,1,0,0:0:0:0:
228,104,23910,1,8,0:0:0:0:
230,103,24410,1,0,0:0:0:0:
230,103,24576,1,8,0:0:0:0:
230,109,24660,1,8,0:0:0:0:
253,109,24826,1,8,0:0:0:0:
234,102,24910,1,8,0:0:0:0:
234,102,25076,1,0,0:0:0:0:
230,103,25243,1,8,0:0:0:0:
230,103,25410,1,8,0:0:0:0:
230,103,25743,1,0,0:0:0:0:
234,102,25910,1,0,0:0:0:0:
234,102,26076,1,8,0:0:0:0:
230,103,26243,1,0,0:0:0:0:
230,103,26326,1,0,0:0:0:0:
230,103,26410,1,0,0:0:0:0:
230,103,26576,1,8,0:0:0:0:
230,103,27076,1,8,0:0:0:0:
230,103,27242,1,0,0:0:0:0:
230,109,27326,1,0,0:0:0:0:
253,109,27492,1,0,0:0:0:0:
234,102,27576,1,0,0:0:0:0:
234,102,27742,1,8,0:0:0:0:
230,103,27909,1,8,0:0:0:0:
230,103,28076,1,0,0:0:0:0:
239,93,28409,1,0,0:0:0:0:
239,102,28576,1,8,0:0:0:0:
241,105,28743,1,0,0:0:0:0:
241,105,28910,1,0,0:0:0:0:
209,231,28993,1,0,0:0:0:0:
241,105,29076,1,0,0:0:0:0:
243,107,29243,1,8,0:0:0:0:
230,103,29743,1,8,0:0:0:0:
230,103,29909,1,0,0:0:0:0:
230,109,29993,1,0,0:0:0:0:
253,109,30159,1,0,0:0:0:0:
234,102,30243,1,0,0:0:0:0:
234,102,30409,1,8,0:0:0:0:
230,103,30576,1,0,0:0:0:0:
230,103,30743,1,8,0:0:0:0:
234,111,30910,1,8,0:0:0:0:
234,111,30993,1,8,0:0:0:0:
234,111,31076,1,8,0:0:0:0:
234,111,31243,1,0,0:0:0:0:
333,263,31576,1,8,0:0:0:0:
234,118,31743,1,0,0:0:0:0:
234,118,31910,1,0,0:0:0:0:
234,118,32076,1,8,0:0:0:0:
234,118,32243,1,0,0:0:0:0:
234,118,32326,1,0,0:0:0:0:
234,118,32409,1,0,0:0:0:0:
234,118,32576,1,8,0:0:0:0:
206,239,32743,1,8,0:0:0:0:
234,118,32910,1,8,0:0:0:0:
234,118,33076,1,8,0:0:0:0:
377,187,33410,1,4,0:0:0:0:
377,187,33743,1,12,0:0:0:0:
377,187,33910,1,4,0:0:0:0:
377,187,34076,1,12,0:0:0:0:
373,183,34243,1,0,0:0:0:0:
377,187,34326,1,0,0:0:0:0:
377,187,34410,1,0,0:0:0:0:
161,197,34743,1,8,0:0:0:0:
161,197,34910,1,0,0:0:0:0:
161,197,35076,1,0,0:0:0:0:
161,197,35243,1,8,0:0:0:0:
364,206,35576,1,0,0:0:0:0:
161,197,35743,1,0,0:0:0:0:
161,197,35910,1,8,0:0:0:0:
161,197,36076,1,8,0:0:0:0:
161,197,36243,1,8,0:0:0:0:
161,197,36326,1,8,0:0:0:0:
161,197,36410,1,8,0:0:0:0:
161,197,36576,1,0,0:0:0:0:
167,208,36660,1,0,0:0:0:0:
161,197,36743,1,0,0:0:0:0:
161,197,36910,1,8,0:0:0:0:
161,197,37076,1,8,0:0:0:0:
167,208,37243,1,0,0:0:0:0:
166,208,37410,1,8,0:0:0:0:
166,208,37576,1,0,0:0:0:0:
166,208,37743,1,8,0:0:0:0:
166,208,37910,1,8,0:0:0:0:
175,193,38243,1,0,0:0:0:0:
172,201,38326,1,0,0:0:0:0:
172,201,38410,1,0,0:0:0:0:
172,201,38576,1,8,0:0:0:0:
172,201,38743,1,8,0:0:0:0:
170,201,38993,1,8,0:0:0:0:
170,201,39243,1,8,0:0:0:0:
172,201,39410,1,8,0:0:0:0:
172,201,39576,1,0,0:0:0:0:
172,201,39743,1,0,0:0:0:0:
170,201,39910,1,8,0:0:0:0:
260,191,40076,1,8,0:0:0:0:
254,206,40243,1,0,0:0:0:0:
384,171,40409,1,8,0:0:0:0:
254,206,40576,1,0,0:0:0:0:
33,183,40909,1,8,0:0:0:0:
254,206,41076,1,0,0:0:0:0:
254,206,41243,1,8,0:0:0:0:
502,226,41326,1,8,0:0:0:0:
254,206,41410,1,8,0:0:0:0:
254,206,41576,1,0,0:0:0:0:
254,206,41743,1,0,0:0:0:0:
254,206,41910,1,8,0:0:0:0:
254,206,42076,1,0,0:0:0:0:
254,206,42243,1,8,0:0:0:0:
254,206,42576,1,0,0:0:0:0:
254,206,42743,1,8,0:0:0:0:
132,155,43076,1,8,0:0:0:0:
254,206,43410,1,8,0:0:0:0:
254,206,43576,1,8,0:0:0:0:
254,206,43743,1,0,0:0:0:0:
254,206,43910,1,8,0:0:0:0:
240,202,43993,1,8,0:0:0:0:
254,206,44076,1,8,0:0:0:0:
254,206,44243,1,0,0:0:0:0:
243,200,44326,1,0,0:0:0:0:
254,206,44410,1,0,0:0:0:0:
254,206,44576,1,0,0:0:0:0:
254,206,44743,1,8,0:0:0:0:
254,206,44910,1,8,0:0:0:0:
254,206,45076,1,8,0:0:0:0:
260,191,45410,1,8,0:0:0:0:
254,206,45576,1,0,0:0:0:0:
254,206,45743,1,8,0:0:0:0:
254,206,45910,1,0,0:0:0:0:
254,206,46076,1,8,0:0:0:0:
254,206,46243,1,0,0:0:0:0:
254,206,46410,1,8,0:0:0:0:
254,206,46576,1,8,0:0:0:0:
254,206,46660,1,8,0:0:0:0:
254,206,46743,1,8,0:0:0:0:
254,206,46910,1,8,0:0:0:0:
244,209,46993,1,8,0:0:0:0:
254,206,47076,1,8,0:0:0:0:
254,206,47243,1,0,0:0:0:0:
254,206,47409,1,8,0:0:0:0:
254,206,47576,1,8,0:0:0:0:
246,209,47660,1,8,0:0:0:0:
254,206,47743,1,8,0:0:0:0:
254,206,47910,1,8,0:0:0:0:
254,206,48076,1,8,0:0:0:0:
254,206,48410,1,8,0:0:0:0:
254,206,48576,1,0,0:0:0:0:
254,206,48743,1,8,0:0:0:0:
254,206,48910,1,8,0:0:0:0:
254,206,49076,1,8,0:0:0:0:
254,206,49243,1,0,0:0:0:0:
240,202,49326,1,0,0:0:0:0:
254,206,49410,1,0,0:0:0:0:
254,206,49576,1,8,0:0:0:0:
254,206,49743,1,0,0:0:0:0:
254,206,49910,1,8,0:0:0:0:
254,206,50076,1,8,0:0:0:0:
254,206,50243,1,0,0:0:0:0:
240,202,50326,1,0,0:0:0:0:
254,206,50410,1,0,0:0:0:0:
254,206,50576,1,8,0:0:0:0:
274,105,50743,1,8,0:0:0:0:
283,111,50910,1,0,0:0:0:0:
285,120,51076,1,0,0:0:0:0:
278,114,51243,1,8,0:0:0:0:
278,114,51410,1,8,0:0:0:0:
281,118,51576,1,0,0:0:0:0:
281,118,51743,1,0,0:0:0:0:
281,121,51910,1,8,0:0:0:0:
285,120,52076,1,0,0:0:0:0:
283,119,52243,1,8,0:0:0:0:
283,118,52410,1,0,0:0:0:0:
281,118,52576,1,8,0:0:0:0:
281,118,52743,1,0,0:0:0:0:
281,121,52910,1,8,0:0:0:0:
285,120,52993,1,8,0:0:0:0:
285,120,53076,1,8,0:0:0:0:
283,119,53243,1,8,0:0:0:0:
283,118,53410,1,8,0:0:0:0:
237,215,53909,1,0,0:0:0:0:
136,98,54076,1,8,0:0:0:0:
111,197,54243,1,8,0:0:0:0:
335,254,54409,1,0,0:0:0:0:
51,192,54576,1,8,0:0:0:0:
196,273,54743,1,8,0:0:0:0:
117,83,54826,1,8,0:0:0:0:
118,83,54909,1,8,0:0:0:0:
67,127,55076,1,0,0:0:0:0:
67,127,55159,1,0,0:0:0:0:
67,127,55243,1,0,0:0:0:0:
179,171,55409,1,8,0:0:0:0:
257,148,55743,1,0,0:0:0:0:
255,146,55910,1,0,0:0:0:0:
256,148,56076,1,8,0:0:0:0:
372,195,56243,1,0,0:0:0:0:
372,195,56410,1,8,0:0:0:0:
375,141,56493,1,8,0:0:0:0:
361,124,56660,1,8,0:0:0:0:
374,132,56743,1,8,0:0:0:0:
125,257,56909,1,0,0:0:0:0:
265,299,57076,1,0,0:0:0:0:
221,153,57243,1,0,0:0:0:0:
235,153,57409,1,8,0:0:0:0:
234,153,57493,1,8,0:0:0:0:
234,153,57659,1,8,0:0:0:0:
234,153,57743,1,8,0:0:0:0:
327,242,57909,1,0,0:0:0:0:
228,146,58410,1,0,0:0:0:0:
256,148,58576,1,8,0:0:0:0:
372,195,58743,1,0,0:0:0:0:
375,141,58826,1,0,0:0:0:0:
361,124,58993,1,0,0:0:0:0:
374,132,59076,1,0,0:0:0:0:
270,268,59243,1,8,0:0:0:0:
69,193,59576,1,8,0:0:0:0:
221,153,59743,1,0,0:0:0:0:
237,153,59910,1,0,0:0:0:0:
235,153,60075,1,8,0:0:0:0:
234,153,60159,1,8,0:0:0:0:
234,153,60325,1,8,0:0:0:0:
234,153,60409,1,8,0:0:0:0:
437,257,60576,1,0,0:0:0:0:
173,246,60743,1,8,0:0:0:0:
228,146,60910,1,0,0:0:0:0:
228,146,61076,1,8,0:0:0:0:
256,148,61409,1,8,0:0:0:0:
372,195,61576,1,0,0:0:0:0:
372,195,61743,1,8,0:0:0:0:
375,141,61826,1,8,0:0:0:0:
361,124,61993,1,8,0:0:0:0:
374,132,62076,1,8,0:0:0:0:
97,177,62243,1,0,0:0:0:0:
14,263,62409,1,8,0:0:0:0:
221,153,62576,1,0,0:0:0:0:
235,153,62743,1,8,0:0:0:0:
234,153,62826,1,8,0:0:0:0:
234,153,62993,1,8,0:0:0:0:
234,153,63076,1,8,0:0:0:0:
264,233,63243,1,0,0:0:0:0:
232,153,63576,1,8,0:0:0:0:
228,146,63743,1,8,0:0:0:0:
228,146,63910,1,0,0:0:0:0:
315,160,64076,1,8,0:0:0:0:
315,160,64243,1,8,0:0:0:0:
315,160,64410,1,8,0:0:0:0:
319,172,64576,1,0,0:0:0:0:
319,172,64660,1,0,0:0:0:0:
319,172,64743,1,0,0:0:0:0:
319,172,64910,1,8,0:0:0:0:
319,172,65076,1,8,0:0:0:0:
320,173,65243,1,0,0:0:0:0:
319,172,65326,1,0,0:0:0:0:
320,173,65410,1,0,0:0:0:0:
319,172,65576,1,8,0:0:0:0:
319,172,65659,1,8,0:0:0:0:
319,172,65743,1,8,0:0:0:0:
319,172,65910,1,0,0:0:0:0:
319,172,66076,1,8,0:0:0:0:
320,173,66243,1,0,0:0:0:0:
319,178,66410,1,8,0:0:0:0:
319,178,66576,1,8,0:0:0:0:
245,157,66743,1,0,0:0:0:0:
226,228,66826,1,0,0:0:0:0:
226,141,66910,1,0,0:0:0:0:
317,182,66993,1,0,0:0:0:0:
317,182,67076,1,0,0:0:0:0:
72,209,67409,1,8,0:0:0:0:
255,247,67576,1,0,0:0:0:0:
252,88,67743,1,8,0:0:0:0:
302,202,67910,1,0,0:0:0:0:
305,170,68076,1,0,0:0:0:0:
294,165,68243,1,8,0:0:0:0:
294,165,68326,1,8,0:0:0:0:
294,165,68493,1,8,0:0:0:0:
294,165,68576,1,8,0:0:0:0:
225,259,68743,1,0,0:0:0:0:
59,268,68909,1,0,0:0:0:0:
116,229,69076,1,8,0:0:0:0:
294,165,69243,1,0,0:0:0:0:
294,165,69410,1,0,0:0:0:0:
234,184,69576,1,0,0:0:0:0:
268,166,69660,1,0,0:0:0:0:
232,193,69826,1,0,0:0:0:0:
310,171,69910,1,0,0:0:0:0:
280,175,70409,1,8,0:0:0:0:
290,177,70576,1,0,0:0:0:0:
234,198,70743,1,8,0:0:0:0:
320,187,70910,1,0,0:0:0:0:
365,203,70993,1,0,0:0:0:0:
246,195,71160,1,0,0:0:0:0:
365,203,71243,1,0,0:0:0:0:
266,162,71410,1,8,0:0:0:0:
139,208,71576,1,8,0:0:0:0:
276,165,71743,1,0,0:0:0:0:
277,166,71910,1,8,0:0:0:0:
277,167,72076,1,0,0:0:0:0:
145,333,72243,1,8,0:0:0:0:
163,218,72409,1,0,0:0:0:0:
302,165,72576,1,0,0:0:0:0:
176,101,72659,1,0,0:0:0:0:
291,168,73076,1,8,0:0:0:0:
291,168,73243,1,8,0:0:0:0:
343,171,73410,1,0,0:0:0:0:
125,226,73576,1,8,0:0:0:0:
63,209,73659,1,8,0:0:0:0:
125,226,73826,1,8,0:0:0:0:
127,124,73909,1,8,0:0:0:0:
218,275,74076,1,0,0:0:0:0:
342,276,74243,1,8,0:0:0:0:
412,174,74409,1,8,0:0:0:0:
421,180,74576,1,8,0:0:0:0:
391,162,74743,1,0,0:0:0:0:
340,132,74910,1,8,0:0:0:0:
340,132,75076,1,0,0:0:0:0:
340,132,75243,1,0,0:0:0:0:
235,206,75409,1,8,0:0:0:0:
235,206,75576,1,8,0:0:0:0:
235,206,75659,1,8,0:0:0:0:
235,206,75743,1,8,0:0:0:0:
235,215,75909,1,0,0:0:0:0:
235,215,76076,1,8,0:0:0:0:
236,220,76243,1,0,0:0:0:0:
236,220,76326,1,0,0:0:0:0:
236,220,76410,1,0,0:0:0:0:
234,227,76576,1,8,0:0:0:0:
241,222,76743,1,8,0:0:0:0:
241,222,76826,1,8,0:0:0:0:
241,222,76910,1,8,0:0:0:0:
241,222,76993,1,8,0:0:0:0:
241,222,77076,1,8,0:0:0:0:
360,129,77410,1,4,0:0:0:0:
360,129,77743,1,0,0:0:0:0:
260,121,78076,1,0,0:0:0:0:
260,121,78243,1,0,0:0:0:0:
260,121,78410,1,8,0:0:0:0:
260,121,78576,1,0,0:0:0:0:
250,130,78743,1,8,0:0:0:0:
250,130,79076,1,0,0:0:0:0:
250,130,79410,1,0,0:0:0:0:
246,135,79576,1,0,0:0:0:0:
250,130,79743,1,8,0:0:0:0:
246,135,79910,1,8,0:0:0:0:
250,130,80076,1,0,0:0:0:0:
246,136,80410,1,8,0:0:0:0:
213,149,80743,1,8,0:0:0:0:
213,149,81076,1,0,0:0:0:0:
219,156,81243,1,0,0:0:0:0:
219,156,81410,1,8,0:0:0:0:
219,156,81576,1,8,0:0:0:0:
231,95,81743,1,0,0:0:0:0:
234,123,82076,1,0,0:0:0:0:
212,59,82410,1,8,0:0:0:0:
360,129,82743,1,0,0:0:0:0:
360,129,83076,1,8,0:0:0:0:
260,121,83410,1,8,0:0:0:0:
260,121,83576,1,0,0:0:0:0:
260,121,83743,1,8,0:0:0:0:
260,121,83910,1,0,0:0:0:0:
250,130,84076,1,8,0:0:0:0:
250,130,84410,1,0,0:0:0:0:
250,130,84743,1,8,0:0:0:0:
246,135,84909,1,0,0:0:0:0:
250,130,85076,1,0,0:0:0:0:
246,135,85243,1,8,0:0:0:0:
250,130,85410,1,8,0:0:0:0:
246,136,85743,1,0,0:0:0:0:
350,189,85910,1,0,0:0:0:0:
282,260,86076,1,8,0:0:0:0:
157,226,86243,1,8,0:0:0:0:
294,263,86410,1,0,0:0:0:0:
184,27,86576,1,0,0:0:0:0:
219,156,86743,1,8,0:0:0:0:
219,156,86910,1,8,0:0:0:0:
231,95,87076,1,0,0:0:0:0:
395,213,87243,1,0,0:0:0:0:
395,213,87326,1,0,0:0:0:0:
234,123,87409,1,0,0:0:0:0:
379,210,87576,1,0,0:0:0:0:
378,210,87660,1,0,0:0:0:0:
212,59,87743,1,0,0:0:0:0:
376,212,87910,1,8,0:0:0:0:
375,218,87993,1,8,0:0:0:0:
360,129,88076,1,8,0:0:0:0:
360,129,88410,1,8,0:0:0:0:
260,121,88743,1,8,0:0:0:0:
260,121,88910,1,8,0:0:0:0:
260,121,89076,1,8,0:0:0:0:
260,121,89243,1,0,0:0:0:0:
250,130,89410,1,0,0:0:0:0:
201,206,89576,1,0,0:0:0:0:
250,130,89743,1,8,0:0:0:0:
250,130,90076,1,8,0:0:0:0:
246,135,90243,1,0,0:0:0:0:
250,130,90410,1,0,0:0:0:0:
246,135,90576,1,0,0:0:0:0:
250,130,90743,1,8,0:0:0:0:
246,136,91076,1,0,0:0:0:0:
201,206,91243,1,0,0:0:0:0:
213,149,91410,1,8,0:0:0:0:
213,149,91576,1,8,0:0:0:0:
158,317,91743,1,0,0:0:0:0:
219,156,91910,1,8,0:0:0:0:
219,156,92076,1,0,0:0:0:0:
219,156,92243,1,8,0:0:0:0:
231,95,92409,1,8,0:0:0:0:
396,206,92576,1,0,0:0:0:0:
234,123,92743,1,0,0:0:0:0:
396,206,92910,1,0,0:0:0:0:
196,211,92993,1,0,0:0:0:0:
212,59,93076,1,0,0:0:0:0:
284,201,93243,1,8,0:0:0:0:
284,201,93410,1,8,0:0:0:0:
66,262,93576,1,0,0:0:0:0:
76,265,93659,1,0,0:0:0:0:
370,187,93743,1,0,0:0:0:0:
140,125,93909,1,0,0:0:0:0:
140,125,93993,1,0,0:0:0:0:
286,173,94410,1,8,0:0:0:0:
286,173,94576,1,0,0:0:0:0:
286,173,94743,1,8,0:0:0:0:
294,180,94909,1,8,0:0:0:0:
294,180,94993,1,8,0:0:0:0:
294,182,95159,1,8,0:0:0:0:
294,182,95243,1,8,0:0:0:0:
297,186,95410,1,0,0:0:0:0:
297,186,95576,1,8,0:0:0:0:
297,186,95743,1,8,0:0:0:0:
297,186,95910,1,8,0:0:0:0:
296,186,96076,1,8,0:0:0:0:
293,193,96410,1,0,0:0:0:0:
293,193,96576,1,0,0:0:0:0:
215,160,96743,1,0,0:0:0:0:
293,193,96910,1,8,0:0:0:0:
206,60,97076,1,8,0:0:0:0:
299,102,97243,1,0,0:0:0:0:
389,125,97409,1,8,0:0:0:0:
369,198,97576,1,8,0:0:0:0:
214,182,97743,1,0,0:0:0:0:
214,182,97910,1,8,0:0:0:0:
214,182,98076,1,8,0:0:0:0:
214,182,98243,1,8,0:0:0:0:
214,182,98410,1,0,0:0:0:0:
214,182,98576,1,8,0:0:0:0:
214,182,98743,1,8,0:0:0:0:
188,133,104076,5,12,0:0:0:0:
346,160,104410,1,0,0:0:0:0:
238,197,104576,1,0,0:0:0:0:
346,160,104743,1,8,0:0:0:0:
316,184,104909,1,8,0:0:0:0:
317,175,105076,1,0,0:0:0:0:
317,175,105243,1,0,0:0:0:0:
317,177,105576,1,0,0:0:0:0:
205,157,105910,1,8,0:0:0:0:
138,166,106243,1,8,0:0:0:0:
138,166,106326,1,8,0:0:0:0:
138,166,106409,1,8,0:0:0:0:
138,166,106576,1,0,0:0:0:0:
138,166,106743,1,8,0:0:0:0:
168,28,107076,1,8,0:0:0:0:
138,166,107243,1,0,0:0:0:0:
292,158,107409,1,0,0:0:0:0:
297,173,107576,1,8,0:0:0:0:
297,173,107743,1,0,0:0:0:0:
298,173,107826,1,0,0:0:0:0:
298,173,107909,1,0,0:0:0:0:
226,178,108410,1,8,0:0:0:0:
226,84,108743,1,0,0:0:0:0:
226,178,108826,1,0,0:0:0:0:
226,178,108910,1,0,0:0:0:0:
388,215,109076,1,12,0:0:0:0:
135,244,109410,1,4,0:0:0:0:
154,247,109743,1,0,0:0:0:0:
325,245,109909,1,8,0:0:0:0:
335,246,110076,1,0,0:0:0:0:
290,169,110160,1,0,0:0:0:0:
290,169,110243,1,0,0:0:0:0:
290,169,110410,1,8,0:0:0:0:
290,169,110576,1,8,0:0:0:0:
172,80,110909,1,0,0:0:0:0:
380,171,111243,1,0,0:0:0:0:
480,247,111576,1,8,0:0:0:0:
310,254,111743,1,8,0:0:0:0:
175,192,111909,1,0,0:0:0:0:
154,247,112076,1,8,0:0:0:0:
325,245,112159,1,8,0:0:0:0:
335,246,112326,1,8,0:0:0:0:
347,152,112409,1,8,0:0:0:0:
290,169,112576,1,0,0:0:0:0:
290,169,112743,1,8,0:0:0:0:
224,60,112909,1,8,0:0:0:0:
121,163,113076,1,0,0:0:0:0:
257,207,113160,1,0,0:0:0:0:
200,160,113243,1,0,0:0:0:0:
172,80,113409,1,0,0:0:0:0:
172,80,113493,1,0,0:0:0:0:
170,44,113576,1,0,0:0:0:0:
234,192,113743,1,0,0:0:0:0:
243,230,113910,1,8,0:0:0:0:
243,230,114076,1,8,0:0:0:0:
310,254,114243,1,8,0:0:0:0:
278,141,114410,1,8,0:0:0:0:
201,213,114493,1,8,0:0:0:0:
206,198,114576,1,8,0:0:0:0:
201,213,114743,1,0,0:0:0:0:
168,115,114910,1,0,0:0:0:0:
228,118,115076,1,0,0:0:0:0:
228,118,115243,1,8,0:0:0:0:
352,198,115576,1,8,0:0:0:0:
352,205,115743,1,0,0:0:0:0:
352,205,115910,1,0,0:0:0:0:
353,209,116076,1,8,0:0:0:0:
175,76,116243,1,0,0:0:0:0:
353,215,116409,1,0,0:0:0:0:
353,215,116576,1,8,0:0:0:0:
260,133,116909,1,0,0:0:0:0:
336,225,117076,1,8,0:0:0:0:
336,225,117243,1,0,0:0:0:0:
336,225,117409,1,0,0:0:0:0:
187,163,117576,1,8,0:0:0:0:
187,163,117743,1,8,0:0:0:0:
105,181,118076,1,12,0:0:0:0:
105,181,118243,1,12,0:0:0:0:
261,157,118743,1,12,0:0:0:0:
262,168,118910,1,12,0:0:0:0:
141,135,119076,1,12,0:0:0:0:
188,207,119243,1,12,0:0:0:0:
402,171,119409,1,0,0:0:0:0:
402,171,119493,1,0,0:0:0:0:
402,171,119576,1,0,0:0:0:0:
402,171,119660,1,0,0:0:0:0:
402,171,119743,1,0,0:0:0:0:
70,191,120076,1,8,0:0:0:0:
89,332,120243,1,0,0:0:0:0:
227,268,120326,1,0,0:0:0:0:
227,268,120410,1,0,0:0:0:0:
243,277,120576,1,8,0:0:0:0:
299,280,120743,1,8,0:0:0:0:
246,238,120910,1,0,0:0:0:0:
246,238,121076,1,8,0:0:0:0:
246,238,121159,1,8,0:0:0:0:
246,238,121243,1,8,0:0:0:0:
246,238,121410,1,8,0:0:0:0:
237,237,121743,1,8,0:0:0:0:
235,237,121909,1,0,0:0:0:0:
235,237,121993,1,0,0:0:0:0:
235,237,122076,1,0,0:0:0:0:
234,237,122243,1,0,0:0:0:0:
237,237,122410,1,0,0:0:0:0:
237,237,122576,1,8,0:0:0:0:
237,237,122743,1,0,0:0:0:0:
235,237,122910,1,0,0:0:0:0:
230,238,123076,1,0,0:0:0:0:
234,237,123243,1,8,0:0:0:0:
229,238,123410,1,0,0:0:0:0:
92,227,123493,1,0,0:0:0:0:
229,238,123576,1,0,0:0:0:0:
229,238,123743,1,8,0:0:0:0:
230,239,123910,1,0,0:0:0:0:
230,238,124076,1,0,0:0:0:0:
229,238,124243,1,8,0:0:0:0:
366,202,124326,1,8,0:0:0:0:
229,238,124409,1,8,0:0:0:0:
229,238,124576,1,0,0:0:0:0:
232,244,124743,1,8,0:0:0:0:
366,202,124826,1,8,0:0:0:0:
234,246,124909,1,8,0:0:0:0:
234,246,125076,1,0,0:0:0:0:
168,165,125159,1,0,0:0:0:0:
131,81,125243,1,0,0:0:0:0:
316,258,125326,1,0,0:0:0:0:
237,247,125409,1,0,0:0:0:0:
8,211,125743,1,8,0:0:0:0:
113,248,125909,1,0,0:0:0:0:
113,248,126076,1,8,0:0:0:0:
113,248,126159,1,8,0:0:0:0:
217,132,126326,1,8,0:0:0:0:
368,248,126409,1,8,0:0:0:0:
336,162,126576,1,0,0:0:0:0:
155,162,126743,1,8,0:0:0:0:
155,167,127076,1,0,0:0:0:0:
155,167,127243,1,8,0:0:0:0:
359,61,127409,1,8,0:0:0:0:
206,120,127576,1,8,0:0:0:0:
360,210,127743,1,0,0:0:0:0:
360,210,127909,1,8,0:0:0:0:
360,210,128076,1,0,0:0:0:0:
147,271,128243,1,8,0:0:0:0:
147,271,128410,1,8,0:0:0:0:
268,109,128493,1,8,0:0:0:0:
257,282,128576,1,8,0:0:0:0:
257,282,128743,1,0,0:0:0:0:
257,282,128910,1,8,0:0:0:0:
304,226,129076,1,0,0:0:0:0:
304,226,129243,1,0,0:0:0:0:
352,162,129326,1,0,0:0:0:0:
241,130,129409,1,0,0:0:0:0:
143,215,129576,1,8,0:0:0:0:
234,204,129743,1,8,0:0:0:0:
352,162,129826,1,8,0:0:0:0:
222,229,129909,1,8,0:0:0:0:
257,86,130076,1,0,0:0:0:0:
380,158,130159,1,0,0:0:0:0:
257,86,130243,1,0,0:0:0:0:
351,213,130409,1,8,0:0:0:0:
351,213,130493,1,8,0:0:0:0:
351,213,130576,1,8,0:0:0:0:
85,320,130659,1,8,0:0:0:0:
70,191,130743,1,8,0:0:0:0:
131,147,131076,1,8,0:0:0:0:
243,277,131243,1,0,0:0:0:0:
299,280,131410,1,0,0:0:0:0:
185,144,131576,1,8,0:0:0:0:
184,133,131660,1,8,0:0:0:0:
246,238,131826,1,8,0:0:0:0:
246,238,131909,1,8,0:0:0:0:
246,238,132076,1,0,0:0:0:0:
258,116,132243,1,0,0:0:0:0:
258,116,132409,1,0,0:0:0:0:
258,116,132576,1,0,0:0:0:0:
97,205,132659,1,0,0:0:0:0:
258,116,132742,1,0,0:0:0:0:
258,116,132908,1,8,0:0:0:0:
97,205,132993,1,8,0:0:0:0:
258,116,133075,1,8,0:0:0:0:
258,116,133242,1,8,0:0:0:0:
97,205,133409,1,8,0:0:0:0:
220,270,133743,1,0,0:0:0:0:
220,218,133909,1,0,0:0:0:0:
220,218,134076,1,0,0:0:0:0:
220,218,134243,1,8,0:0:0:0:
101,232,134326,1,8,0:0:0:0:
220,218,134409,1,8,0:0:0:0:
412,213,134576,1,0,0:0:0:0:
293,196,134743,1,8,0:0:0:0:
412,213,134910,1,0,0:0:0:0:
101,232,134993,1,0,0:0:0:0:
267,294,135076,1,0,0:0:0:0:
203,29,135243,1,8,0:0:0:0:
220,218,135326,1,8,0:0:0:0:
130,136,135409,1,8,0:0:0:0:
220,218,135576,1,0,0:0:0:0:
194,112,135743,1,8,0:0:0:0:
412,213,135910,1,0,0:0:0:0:
412,213,136076,1,0,0:0:0:0:
210,278,136409,1,0,0:0:0:0:
225,200,136576,1,8,0:0:0:0:
225,200,136659,1,8,0:0:0:0:
225,200,136743,1,8,0:0:0:0:
225,200,136909,1,0,0:0:0:0:
225,200,137076,1,8,0:0:0:0:
146,196,137243,1,8,0:0:0:0:
146,196,137409,1,0,0:0:0:0:
149,204,137743,1,0,0:0:0:0:
149,204,137909,1,0,0:0:0:0:
149,204,137993,1,0,0:0:0:0:
149,204,138076,1,0,0:0:0:0:
150,206,138243,1,8,0:0:0:0:
299,192,138326,1,8,0:0:0:0:
150,206,138409,1,8,0:0:0:0:
149,204,138576,1,0,0:0:0:0:
149,204,138743,1,0,0:0:0:0:
155,215,138909,1,8,0:0:0:0:
155,215,139076,1,8,0:0:0:0:
155,215,139243,1,0,0:0:0:0:
155,215,139409,1,0,0:0:0:0:
155,215,139576,1,8,0:0:0:0:
155,215,139743,1,0,0:0:0:0:
393,204,139826,1,0,0:0:0:0:
155,215,139909,1,0,0:0:0:0:
155,215,140076,1,8,0:0:0:0:
238,231,140243,1,0,0:0:0:0:
238,231,140409,1,8,0:0:0:0:
238,231,140576,1,8,0:0:0:0:
393,204,140659,1,8,0:0:0:0:
238,231,140743,1,8,0:0:0:0:
238,231,140909,1,0,0:0:0:0:
238,231,141076,1,8,0:0:0:0:
393,204,141159,1,8,0:0:0:0:
238,231,141243,1,8,0:0:0:0:
256,192,141410,12,0,145410,0:0:0:0:
