osu file format v14

[General]
AudioFilename: audio.mp3
AudioLeadIn: 0
PreviewTime: 119909
Countdown: 1
SampleSet: Soft
StackLeniency: 0.7
Mode: 0
LetterboxInBreaks: 0
WidescreenStoryboard: 1

[Editor]
Bookmarks: 12076,22743,34743,45409,56076,66743,77409,88076,98743,109409,120076,130743
DistanceSpacing: 0.9
BeatDivisor: 4
GridSize: 32
TimelineZoom: 1

[Metadata]
Title:Apocalypse in Love
TitleUnicode:Apocalypse in Love
Artist:HyuN & Ritoru
ArtistUnicode:HyuN & Ritoru
Creator:-Sylvari
Version:Normal
Source:osu!
Tags:featured artist mappers' guild fa electronic mpg Hachi Mobile Game Instrumental
BeatmapID:2243142
BeatmapSetID:1071677

[Difficulty]
HPDrainRate:3
CircleSize:2.8
OverallDifficulty:5
ApproachRate:6
SliderMultiplier:1
SliderTickRate:1

[Events]
//Background and Video events
0,0,"bg.png",0,0
//Break Periods
2,34943,40359
2,98943,107693
//Storyboard Layer 0 (Background)
//Storyboard Layer 1 (Fail)
//Storyboard Layer 2 (Pass)
//Storyboard Layer 3 (Foreground)
//Storyboard Layer 4 (Overlay)
//Storyboard Sound Samples

[TimingPoints]
1410,333.333333333333,4,2,1,65,1,0
12076,-100,4,2,1,75,0,0
22743,-100,4,2,1,85,0,0
34659,-100,4,2,1,5,0,0
34743,-100,4,2,1,85,0,0
41409,-100,4,2,1,30,0,0
42076,-100,4,2,1,40,0,0
42743,-100,4,2,1,50,0,0
43409,-100,4,2,1,60,0,0
44076,-100,4,2,1,70,0,0
44743,-100,4,2,1,80,0,0
45409,-100,4,2,1,60,0,0
50743,-100,4,2,1,65,0,0
53409,-100,4,2,1,75,0,0
56076,-100,4,2,1,70,0,0
64076,-100,4,2,1,80,0,0
66743,-100,4,2,1,95,0,0
77409,-100,4,2,1,85,0,0
77451,-100,4,2,1,75,0,0
109409,-100,4,2,1,80,0,0
120076,-100,4,2,1,100,0,1
141409,-100,4,2,1,100,0,0
141493,-100,4,2,1,30,0,0
144076,-100,4,2,1,5,0,0

[Colours]
Combo1 : 232,204,162
Combo2 : 217,38,38
Combo3 : 231,154,154
Combo4 : 224,128,31

[HitObjects]
161,118,1410,5,4,1:2:0:0:
173,217,1743,1,8,0:0:0:0:
173,217,1909,2,0,P|223:226|265:257,1,100,2|2,0:0|0:0,0:0:0:0:
292,293,2409,2,0,P|325:314|344:319,1,50,8|2,0:0|0:0,0:0:0:0:
384,329,2743,2,0,L|406:380,2,50,2|2|8,1:2|0:0|0:0,0:0:0:0:
390,229,3409,2,0,P|398:198|399:167,1,50,0|2,1:0|3:2,0:0:0:0:
392,130,3743,2,0,P|385:105|373:84,1,50,8|2,3:2|3:2,0:0:0:0:
335,51,4076,6,0,P|328:23|330:0,2,50,2|2|8,1:2|0:0|0:0,0:0:0:0:
293,142,4743,1,0,1:0:0:0:
236,59,5076,2,0,P|198:58|139:85,1,100,8|2,0:0|1:2,0:0:0:0:
117,126,5576,2,0,P|167:158|194:199,1,100,2|2,0:0|3:2,0:0:0:0:
193,240,6076,1,0,1:0:0:0:
138,324,6409,1,8,3:2:0:0:
138,324,6576,1,2,3:2:0:0:
138,324,6743,6,0,P|169:357|222:373,1,100,2|8,1:2|0:0,0:0:0:0:
274,288,7409,1,0,1:0:0:0:
333,368,7743,2,0,P|359:344|370:320,1,50,8|2,0:0|0:0,0:0:0:0:
379,283,8076,2,0,P|370:241|328:197,1,100,2|8,1:2|0:0,0:0:0:0:
277,115,8743,2,0,P|247:106|223:106,1,50,0|2,1:0|0:0,0:0:0:0:
184,128,9076,2,0,P|149:125|118:114,1,50,8|2,0:0|0:0,0:0:0:0:
105,80,9409,5,2,1:2:0:0:
256,192,9576,12,0,11409,1:0:0:0:
266,163,12076,6,0,P|268:94|230:18,2,150,4|2|8,1:2|0:0|0:0,0:0:0:0:
215,249,13409,1,2,1:2:0:0:
120,216,13743,1,8,0:0:0:0:
120,315,14076,1,0,1:0:0:0:
215,348,14409,1,8,0:0:0:0:
304,302,14743,6,0,P|357:297|403:277,1,100,2|8,1:2|0:0,0:0:0:0:
405,229,15243,2,0,P|392:185|399:126,1,100,2|2,0:0|0:0,0:0:0:0:
406,82,15743,2,0,P|345:90|304:75,1,100,8|2,0:0|1:2,0:0:0:0:
224,25,16409,1,8,0:0:0:0:
134,70,16743,2,0,P|115:110|118:172,1,100,0|8,1:0|3:2,0:0:0:0:
105,264,17409,6,0,P|158:271|207:258,1,100,2|8,1:2|0:0,0:0:0:0:
220,213,17909,2,0,P|262:194|332:200,1,100,2|2,0:0|0:0,0:0:0:0:
362,210,18409,2,0,P|386:229|401:254,1,50,8|2,0:0|0:0,0:0:0:0:
409,293,18743,1,2,1:2:0:0:
355,377,19076,1,8,0:0:0:0:
286,304,19409,2,0,P|250:301|187:320,1,100,0|8,1:0|0:0,0:0:0:0:
107,376,20076,6,0,L|117:267,1,100,2|8,1:2|0:0,0:0:0:0:
134,177,20743,2,0,L|100:98,2,75,0|0|2,1:0|3:0|1:2,0:0:0:0:
182,187,21409,2,0,P|246:195|298:182,1,100,2|8,1:2|3:2,0:0:0:0:
350,116,22076,2,0,L|408:62,2,75,0|2|2,1:0|3:2|3:2,0:0:0:0:
307,89,22743,5,4,1:2:0:0:
221,36,23076,2,0,B|172:22|172:22|114:32,1,100,8|0,0:0|1:0,0:0:0:0:
105,128,23743,2,0,P|102:168|110:192,1,50,8|2,3:2|3:2,0:0:0:0:
137,214,24076,2,0,P|185:211|236:236,1,100,2|8,1:2|0:0,0:0:0:0:
312,173,24743,2,0,P|328:206|331:225,1,50,0|2,1:0|0:0,0:0:0:0:
330,268,25076,1,8,3:2:0:0:
394,343,25409,6,0,P|351:367|302:365,1,100,2|8,1:2|0:0,0:0:0:0:
252,277,26076,2,0,P|220:278|200:285,1,50,0|2,1:0|0:0,0:0:0:0:
201,333,26409,2,0,P|181:355|153:364,1,50,8|2,3:2|3:2,0:0:0:0:
112,361,26743,1,2,1:2:0:0:
112,361,26909,2,0,L|103:251,1,100,2|2,0:0|0:0,0:0:0:0:
114,212,27409,1,0,1:0:0:0:
102,112,27743,2,0,P|99:87|102:62,1,50,8|2,3:2|3:2,0:0:0:0:
138,28,28076,6,0,P|191:28|236:75,1,100,2|8,1:2|0:0,0:0:0:0:
322,26,28743,1,0,1:0:0:0:
302,123,29076,1,8,0:0:0:0:
302,123,29243,1,2,0:0:0:0:
302,123,29409,2,0,P|297:162|311:229,1,100,2|8,1:2|3:2,0:0:0:0:
350,311,30076,2,0,P|327:332|306:343,1,50,0|2,1:0|0:0,0:0:0:0:
260,346,30409,2,0,P|233:336|205:334,1,50,8|2,3:2|0:0,0:0:0:0:
162,342,30743,5,2,1:2:0:0:
256,192,30909,12,0,32743,1:0:0:0:
256,192,33409,5,2,1:2:0:0:
177,129,33743,1,8,0:0:0:0:
177,129,33909,2,0,L|165:74,2,50,2|0|2,0:0|1:0|0:0,0:0:0:0:
156,174,34409,1,8,0:0:0:0:
107,261,34743,5,4,1:2:0:0:
256,192,41409,12,0,44076,0:0:0:0:
404,268,44743,6,0,P|395:237|379:214,1,50,2|2,1:2|3:2,0:0:0:0:
356,195,45076,1,8,3:2:0:0:
256,192,45409,38,0,P|207:209|154:203,1,100,4|8,1:2|0:0,0:0:0:0:
192,110,46076,2,0,P|238:90|287:93,1,100,0|8,1:0|0:0,0:0:0:0:
352,169,46743,2,0,P|373:217|385:273,2,100,2|8|0,1:2|0:0|1:0,0:0:0:0:
390,76,47743,2,0,P|377:48|358:33,1,50,8|2,3:2|3:2,0:0:0:0:
317,14,48076,6,0,P|268:3|219:12,1,100,2|8,1:2|0:0,0:0:0:0:
119,2,48743,1,0,1:0:0:0:
102,100,49076,1,8,3:2:0:0:
199,121,49409,2,0,P|229:169|242:213,1,100,0|8,3:2|0:0,0:0:0:0:
221,256,49909,1,2,0:0:0:0:
221,256,50076,2,0,P|268:260|326:291,1,100,0|8,1:0|3:2,0:0:0:0:
382,356,50743,5,4,1:2:0:0:
407,259,51076,1,8,0:0:0:0:
407,259,51243,1,2,0:0:0:0:
407,259,51409,2,0,P|410:205|394:160,1,100,0|8,1:0|0:0,0:0:0:0:
341,77,52076,2,0,P|314:66|284:69,1,50,2|2,1:2|0:0,0:0:0:0:
244,78,52409,1,8,0:0:0:0:
189,162,52743,2,0,P|162:160|138:152,1,50,0|2,1:0|0:0,0:0:0:0:
109,113,53076,2,0,P|101:80|103:60,1,50,8|2,0:0|0:0,0:0:0:0:
124,19,53409,5,2,1:2:0:0:
256,192,53576,12,0,55409,1:0:0:0:
185,265,56076,5,4,1:2:0:0:
274,309,56409,2,0,L|288:383,2,75,8|2|2,0:0|3:2|0:0,0:0:0:0:
298,265,57076,1,8,0:0:0:0:
343,176,57409,2,0,P|373:147|387:114,1,75,2|2,1:2|3:2,0:0:0:0:
353,49,57909,1,2,0:0:0:0:
271,106,58243,2,0,B|226:81|226:81|178:90,1,100,2|2,0:0|0:0,0:0:0:0:
130,103,58743,6,0,L|101:26,2,75,2|2|2,1:2|3:2|0:0,0:0:0:0:
110,200,59576,1,2,0:0:0:0:
110,200,59743,2,0,P|147:215|168:215,1,50,8|2,0:0|0:0,0:0:0:0:
205,206,60076,2,0,B|283:196|283:196|338:255,1,150,2|2,1:2|3:2,0:0:0:0:
370,279,60743,2,0,L|394:335,2,50,0|2|8,1:0|0:0|0:0,0:0:0:0:
404,183,61409,5,2,1:2:0:0:
363,91,61743,2,0,L|407:17,2,75,8|2|2,0:0|3:2|0:0,0:0:0:0:
316,108,62409,2,0,P|282:115|260:113,1,50,10|2,0:0|0:0,0:0:0:0:
224,141,62743,2,0,P|223:97|205:63,1,75,2|2,1:2|3:2,0:0:0:0:
163,10,63243,1,2,0:0:0:0:
110,95,63576,2,0,B|107:144|107:144|131:189,1,100,2|2,0:0|0:0,0:0:0:0:
157,231,64076,6,0,P|216:227|257:249,1,100,2|8,1:2|0:0,0:0:0:0:
263,293,64576,1,2,3:2:0:0:
263,293,64743,2,0,P|280:314|304:327,1,50,8|2,1:2|3:2,0:0:0:0:
348,337,65076,2,0,P|376:337|410:318,1,50,8|2,0:0|0:0,0:0:0:0:
408,280,65409,1,2,1:2:0:0:
369,187,65743,1,8,3:2:0:0:
369,187,65909,2,0,P|383:166|389:137,1,50,2|0,3:2|1:0,0:0:0:0:
372,43,66409,1,8,3:2:0:0:
372,43,66576,1,2,3:2:0:0:
372,43,66743,6,0,L|265:29,1,100,2|12,1:2|3:2,0:0:0:0:
175,9,67409,2,0,P|146:16|122:33,1,50,0|2,1:0|0:0,0:0:0:0:
132,76,67743,1,8,0:0:0:0:
173,160,68076,2,0,L|257:164,2,75,2|2|2,1:2|0:0|0:0,0:0:0:0:
134,192,68743,2,0,P|116:215|108:239,1,50,0|2,1:0|3:2,0:0:0:0:
102,284,69076,1,8,0:0:0:0:
130,376,69409,6,0,P|178:357|242:369,1,100,2|8,1:2|0:0,0:0:0:0:
283,280,70076,1,0,1:0:0:0:
340,361,70409,1,8,3:2:0:0:
329,261,70743,2,0,L|343:186,2,75,2|2|2,1:2|0:0|0:0,0:0:0:0:
283,280,71409,1,0,1:0:0:0:
199,334,71743,1,8,3:2:0:0:
199,334,71909,1,0,3:0:0:0:
198,333,72076,6,0,P|150:317|112:282,1,100,2|8,1:2|3:2,0:0:0:0:
106,185,72743,1,0,0:0:0:0:
184,122,73076,1,8,0:0:0:0:
124,40,73409,2,0,P|170:24|219:29,1,100,2|8,1:2|0:0,0:0:0:0:
260,121,74076,2,0,P|290:129|318:129,1,50,0|2,1:0|0:0,0:0:0:0:
354,108,74409,2,0,P|383:115|405:132,1,50,8|2,0:0|0:0,0:0:0:0:
407,176,74743,6,0,P|379:216|373:273,1,100,2|8,1:2|0:0,0:0:0:0:
401,361,75409,2,0,P|378:368|353:369,1,50,0|2,1:0|0:0,0:0:0:0:
305,354,75743,1,8,0:0:0:0:
273,259,76076,2,0,P|236:262|179:298,1,100,2|8,1:2|3:2,0:0:0:0:
122,373,76743,2,0,P|106:331|107:271,1,100,0|8,1:0|3:2,0:0:0:0:
158,191,77409,5,4,1:2:0:0:
158,191,77576,2,0,L|112:97,1,100,2|2,0:0|0:0,0:0:0:0:
196,44,78243,2,0,L|205:-5,2,50,2|8|2,0:0|0:0|0:0,0:0:0:0:
256,123,78909,1,2,0:0:0:0:
340,68,79243,1,2,0:0:0:0:
401,146,79576,2,0,P|404:202|394:246,1,100,2|2,0:0|0:0,0:0:0:0:
371,288,80076,6,0,B|321:303|321:303|245:235,1,150,2|2,1:2|0:0,0:0:0:0:
158,192,80909,2,0,L|149:139,2,50,2|8|2,0:0|0:0|0:0,0:0:0:0:
124,229,81409,1,2,1:2:0:0:
105,327,81743,1,8,0:0:0:0:
203,344,82076,2,0,P|260:333|308:348,1,100,0|8,1:0|0:0,0:0:0:0:
396,368,82743,6,0,P|379:311|387:266,1,100,2|8,1:2|0:0,0:0:0:0:
404,225,83243,1,2,0:0:0:0:
371,130,83576,2,0,P|365:96|372:71,1,50,2|8,0:0|0:0,0:0:0:0:
382,33,83909,1,2,0:0:0:0:
382,33,84076,2,0,P|331:48|277:43,1,100,2|8,1:2|0:0,0:0:0:0:
236,31,84576,2,0,P|246:73|234:135,1,100,2|2,0:0|0:0,0:0:0:0:
192,218,85243,1,2,0:0:0:0:
192,218,85409,6,0,P|182:271|190:322,1,100,2|8,1:2|0:0,0:0:0:0:
206,362,85909,2,0,B|281:346|281:346|355:377,1,150,2|8,0:0|0:0,0:0:0:0:
409,293,86743,2,0,L|410:182,1,100,2|8,1:2|0:0,0:0:0:0:
408,142,87243,1,2,3:2:0:0:
408,142,87409,2,0,P|380:131|362:114,1,50,0|2,1:0|3:2,0:0:0:0:
338,75,87743,2,0,P|313:58|289:53,1,50,8|2,3:2|3:2,0:0:0:0:
243,51,88076,5,4,1:2:0:0:
267,147,88409,2,0,P|271:177|264:211,1,50,8|2,0:0|0:0,0:0:0:0:
211,278,88909,2,0,L|218:333,2,50,2|8|2,0:0|0:0|0:0,0:0:0:0:
119,236,89576,1,2,0:0:0:0:
119,236,89743,1,8,0:0:0:0:
136,137,90076,2,0,P|123:103|132:53,1,75,2|2,1:2|0:0,0:0:0:0:
201,27,90576,1,2,0:0:0:0:
201,27,90743,6,0,P|250:48|312:48,1,100,2|8,1:2|0:0,0:0:0:0:
394,33,91409,1,0,1:0:0:0:
376,132,91743,1,8,3:2:0:0:
407,226,92076,2,0,P|410:262|406:281,1,50,2|2,1:2|3:2,0:0:0:0:
386,320,92409,2,0,P|344:308|285:313,1,100,8|0,3:2|1:0,0:0:0:0:
197,355,93076,2,0,P|163:363|141:360,1,50,8|2,3:2|3:2,0:0:0:0:
107,332,93409,6,0,P|117:284|112:228,1,100,2|8,1:2|0:0,0:0:0:0:
104,184,93909,2,0,P|102:144|129:82,1,100,2|2,3:2|0:0,0:0:0:0:
163,58,94409,1,8,0:0:0:0:
163,58,94576,1,2,3:2:0:0:
163,58,94743,2,0,P|213:73|270:71,1,100,2|8,1:2|0:0,0:0:0:0:
355,104,95409,2,0,P|378:140|383:166,1,50,0|2,1:0|3:2,0:0:0:0:
401,192,95743,2,0,P|406:219|403:250,1,50,8|2,3:2|3:2,0:0:0:0:
390,289,96076,6,0,P|356:284|287:291,1,100,2|8,1:2|3:2,0:0:0:0:
212,352,96743,2,0,P|198:332|192:308,1,50,0|2,1:0|3:2,0:0:0:0:
200,259,97076,2,0,P|205:227|198:199,1,50,8|2,3:2|3:2,0:0:0:0:
184,163,97409,2,0,P|253:178|300:173,1,100,2|8,1:2|3:2,0:0:0:0:
368,126,98076,1,0,1:0:0:0:
295,57,98409,1,8,3:2:0:0:
378,0,98743,5,4,1:2:0:0:
288,233,108743,38,0,P|267:247|225:254,1,50,0|2,1:0|0:0,0:0:0:0:
194,257,109076,1,8,0:0:0:0:
111,200,109409,6,0,P|101:145|114:95,1,100,4|8,1:2|0:0,0:0:0:0:
201,60,110076,2,0,P|231:56|262:38,1,50,0|2,1:0|3:2,0:0:0:0:
280,8,110409,1,8,0:0:0:0:
370,51,110743,1,2,1:2:0:0:
370,51,110909,2,0,P|386:106|381:153,1,100,2|2,0:0|3:2,0:0:0:0:
360,192,111409,2,0,P|351:228|353:247,1,50,0|2,1:0|0:0,0:0:0:0:
361,290,111743,1,8,0:0:0:0:
404,379,112076,6,0,P|350:378|305:368,1,100,2|8,1:2|3:2,0:0:0:0:
239,299,112743,1,0,1:0:0:0:
171,372,113076,1,8,3:2:0:0:
143,275,113409,2,0,P|169:230|219:203,1,100,2|8,1:2|3:2,0:0:0:0:
308,219,114076,2,0,P|304:167|270:125,1,100,0|8,1:0|3:2,0:0:0:0:
240,95,114576,1,10,0:0:0:0:
240,95,114743,6,0,P|192:79|143:81,1,100,4|8,1:2|0:0,0:0:0:0:
103,111,115243,1,2,0:0:0:0:
164,189,115576,2,0,L|221:202,2,50,2|8|2,0:0|0:0|0:0,0:0:0:0:
128,223,116076,2,0,P|105:268|105:328,1,100,2|8,1:2|3:2,0:0:0:0:
181,378,116743,2,0,P|205:377|232:368,1,50,0|2,1:0|3:2,0:0:0:0:
267,336,117076,2,0,L|267:277,2,50,8|2|2,3:2|3:2|1:2,0:0:0:0:
363,361,117743,6,0,P|383:324|378:255,1,100,8|0,3:2|1:0,0:0:0:0:
364,220,118243,2,0,P|358:190|363:164,1,50,2|8,3:2|3:2,0:0:0:0:
379,124,118576,1,2,3:2:0:0:
338,32,118909,2,0,P|312:25|277:28,1,50,2|8,0:0|0:0,0:0:0:0:
240,38,119243,1,2,0:0:0:0:
240,38,119409,2,0,P|248:74|247:100,1,50,0|2,1:0|3:2,0:0:0:0:
236,136,119743,1,8,3:2:0:0:
147,182,120076,6,0,P|130:202|121:234,1,50,4|0,1:2|0:0,0:0:0:0:
112,273,120409,1,8,0:0:0:0:
112,273,120576,1,2,0:0:0:0:
112,273,120743,2,0,P|161:295|210:285,1,100,0|8,1:0|3:2,0:0:0:0:
250,265,121243,1,2,3:2:0:0:
250,265,121409,2,0,P|285:255|310:259,1,50,2|2,1:2|0:0,0:0:0:0:
336,289,121743,2,0,L|330:343,2,50,8|2|0,0:0|0:0|1:0,0:0:0:0:
400,212,122409,2,0,P|410:178|409:153,1,50,8|2,0:0|0:0,0:0:0:0:
387,118,122743,6,0,P|327:133|286:123,1,100,2|8,1:2|3:2,0:0:0:0:
223,50,123409,2,0,P|196:48|164:56,1,50,0|2,1:0|0:0,0:0:0:0:
130,78,123743,2,0,P|112:107|110:132,1,50,8|2,0:0|0:0,0:0:0:0:
140,161,124076,1,2,1:2:0:0:
140,161,124243,2,0,P|147:193|146:219,1,50,0|8,0:0|0:0,0:0:0:0:
108,305,124743,1,0,1:0:0:0:
173,380,125076,1,8,0:0:0:0:
213,288,125409,6,0,P|240:284|276:288,1,50,2|2,1:2|0:0,0:0:0:0:
303,315,125743,2,0,P|335:330|355:352,1,50,8|2,0:0|0:0,0:0:0:0:
392,356,126076,2,0,P|379:306|391:245,1,100,0|8,1:0|0:0,0:0:0:0:
334,172,126743,2,0,P|344:138|343:108,1,50,2|0,1:2|0:0,0:0:0:0:
358,75,127076,2,0,P|321:82|296:75,1,50,8|2,0:0|0:0,0:0:0:0:
267,52,127409,2,0,L|260:2,2,50,0|2|8,1:0|0:0|3:2,0:0:0:0:
226,81,127909,1,2,3:2:0:0:
226,81,128076,6,0,P|168:95|124:127,1,100,2|8,1:2|0:0,0:0:0:0:
110,213,128743,2,0,P|117:249|116:271,1,50,0|2,1:0|0:0,0:0:0:0:
106,311,129076,2,0,P|115:343|126:362,1,50,8|2,0:0|0:0,0:0:0:0:
168,378,129409,2,0,P|193:373|222:357,1,50,2|2,1:2|0:0,0:0:0:0:
256,333,129743,2,0,P|252:292|240:260,2,75,8|2|2,0:0|0:0|0:0,0:0:0:0:
298,359,130409,2,0,P|326:371|365:366,1,50,8|2,0:0|0:0,0:0:0:0:
391,352,130743,6,0,P|399:301|386:250,1,100,4|8,1:2|0:0,0:0:0:0:
358,222,131243,1,2,0:0:0:0:
358,222,131409,2,0,P|354:185|365:143,1,75,2|2,1:2|0:0,0:0:0:0:
406,77,131909,1,2,0:0:0:0:
406,77,132076,2,0,P|386:58|364:44,1,50,2|0,1:2|3:0,0:0:0:0:
311,49,132409,2,0,P|284:63|249:64,1,50,8|0,3:2|3:0,0:0:0:0:
218,45,132743,1,0,1:0:0:0:
218,45,132909,1,2,0:0:0:0:
218,45,133076,2,0,P|173:49|154:57,1,50,8|2,0:0|3:2,0:0:0:0:
129,81,133409,6,0,P|143:131|139:180,1,100,2|8,1:2|0:0,0:0:0:0:
160,275,134076,2,0,P|183:268|204:255,1,50,0|0,1:0|3:0,0:0:0:0:
232,213,134409,2,0,P|263:200|291:201,1,50,8|0,3:2|3:0,0:0:0:0:
326,217,134743,2,0,P|310:175|308:118,1,100,2|8,1:2|3:2,0:0:0:0:
379,51,135409,1,0,1:0:0:0:
379,51,135576,2,0,L|386:1,2,50,2|8|2,0:0|0:0|3:2,0:0:0:0:
331,34,136076,6,0,P|293:26|227:43,1,100,2|8,1:2|0:0,0:0:0:0:
188,59,136576,1,2,0:0:0:0:
188,59,136743,2,0,P|173:89|175:121,1,50,2|2,1:2|0:0,0:0:0:0:
206,141,137076,2,0,P|214:171|213:195,1,50,10|2,0:0|0:0,0:0:0:0:
187,232,137409,2,0,L|110:244,2,75,2|2|2,1:2|0:0|3:2,0:0:0:0:
217,272,138076,2,0,P|237:301|266:312,1,50,0|2,1:0|0:0,0:0:0:0:
298,315,138409,1,8,0:0:0:0:
383,367,138743,6,0,P|402:319|385:263,1,100,2|10,1:2|3:2,0:0:0:0:
360,233,139243,1,0,3:0:0:0:
360,233,139409,2,0,P|347:185|354:136,1,100,2|10,1:2|3:2,0:0:0:0:
381,93,139909,1,0,3:0:0:0:
381,93,140076,2,0,P|365:60|343:38,1,50,2|0,1:2|3:0,0:0:0:0:
306,46,140409,2,0,P|283:66|268:89,1,50,8|0,3:2|3:0,0:0:0:0:
221,77,140743,2,0,P|210:50|191:31,1,50,0|0,1:0|3:0,0:0:0:0:
146,27,141076,2,0,P|120:42|109:114,1,100,8|4,3:2|1:2,0:0:0:0:
256,192,141576,12,0,144076,0:0:0:0:
