osu file format v14

[General]
AudioFilename: audio.mp3
AudioLeadIn: 0
PreviewTime: 119909
Countdown: 1
SampleSet: Soft
StackLeniency: 0.6
Mode: 0
LetterboxInBreaks: 0
WidescreenStoryboard: 1

[Editor]
Bookmarks: 12076,22743,34743,45409,56076,66743,77409,88076,98743,109409,120076,130743
DistanceSpacing: 0.9
BeatDivisor: 4
GridSize: 32
TimelineZoom: 2.6

[Metadata]
Title:Apocalypse in Love
TitleUnicode:Apocalypse in Love
Artist:HyuN & Ritoru
ArtistUnicode:HyuN & Ritoru
Creator:-Sylvari
Version:Insane
Source:osu!
Tags:featured artist mappers' guild fa electronic mpg Hachi Mobile Game Instrumental
BeatmapID:2245581
BeatmapSetID:1071677

[Difficulty]
HPDrainRate:5
CircleSize:4.5
OverallDifficulty:7
ApproachRate:8.5
SliderMultiplier:1.5
SliderTickRate:1

[Events]
//Background and Video events
0,0,"bg.png",0,0
//Break Periods
2,34943,40734
2,98943,108068
//Storyboard Layer 0 (Background)
//Storyboard Layer 1 (Fail)
//Storyboard Layer 2 (Pass)
//Storyboard Layer 3 (Foreground)
//Storyboard Layer 4 (Overlay)
//Storyboard Sound Samples

[TimingPoints]
1410,333.333333333333,4,2,1,65,1,0
1410,-133.333333333333,4,2,1,65,0,0
12076,-100,4,2,1,75,0,0
22743,-90.9090909090909,4,2,1,85,0,0
34659,-90.9090909090909,4,2,1,5,0,0
34743,-90.9090909090909,4,2,1,85,0,0
41409,-100,4,2,1,30,0,0
42076,-100,4,2,1,40,0,0
42743,-100,4,2,1,50,0,0
43409,-100,4,2,1,60,0,0
44076,-100,4,2,1,70,0,0
44743,-100,4,2,1,80,0,0
45409,-100,4,2,1,60,0,0
50743,-100,4,2,1,65,0,0
53409,-100,4,2,1,75,0,0
56076,-100,4,2,1,70,0,0
64076,-90.9090909090909,4,2,1,80,0,0
66743,-90.9090909090909,4,2,1,95,0,0
77409,-100,4,2,1,85,0,0
77451,-100,4,2,1,75,0,0
109409,-90.9090909090909,4,2,1,80,0,0
120076,-83.3333333333333,4,2,1,100,0,1
141409,-100,4,2,1,100,0,0
141493,-100,4,2,1,30,0,0
144076,-100,4,2,1,5,0,0

[Colours]
Combo1 : 232,204,162
Combo2 : 217,38,38
Combo3 : 231,154,154
Combo4 : 224,128,31

[HitObjects]
77,159,1410,6,0,P|103:169|139:171,1,56.2500021457673,4|0,1:2|0:0,0:0:0:0:
237,133,1743,1,8,0:0:0:0:
221,221,1909,2,0,P|216:250|221:281,1,56.2500021457673,2|0,0:0|1:0,0:0:0:0:
338,182,2243,1,2,0:0:0:0:
358,258,2409,2,0,P|363:287|358:318,1,56.2500021457673,8|2,0:0|0:0,0:0:0:0:
440,158,2743,5,2,1:2:0:0:
406,78,2909,1,2,0:0:0:0:
385,63,2993,1,0,3:0:0:0:
359,54,3076,2,0,P|326:55|304:66,1,56.2500021457673,8|2,0:0|0:0,0:0:0:0:
225,108,3409,1,0,1:0:0:0:
198,113,3493,1,0,3:0:0:0:
165,110,3576,1,2,3:2:0:0:
141,88,3659,1,0,3:0:0:0:
130,59,3743,2,0,L|132:29,2,28.1250010728836,8|0|2,3:2|3:0|3:2,0:0:0:0:
67,156,4076,6,0,P|64:189|71:217,1,56.2500021457673,2|2,1:2|0:0,0:0:0:0:
82,235,4326,1,0,3:0:0:0:
93,260,4409,2,0,P|104:303|105:331,1,56.2500021457673,8|2,0:0|0:0,0:0:0:0:
219,197,4743,2,0,P|206:221|201:249,1,56.2500021457673,0|2,1:0|0:0,0:0:0:0:
264,349,5076,1,8,0:0:0:0:
304,257,5242,1,2,0:0:0:0:
362,384,5409,5,2,1:2:0:0:
399,296,5576,1,2,3:2:0:0:
406,269,5659,1,0,3:0:0:0:
408,241,5742,1,8,3:2:0:0:
392,217,5826,1,0,3:0:0:0:
372,196,5909,1,2,3:2:0:0:
372,95,6076,2,0,L|391:71,2,28.1250010728836,0|0|2,1:0|3:0|3:2,0:0:0:0:
295,144,6409,1,8,3:2:0:0:
257,62,6576,1,2,3:2:0:0:
181,167,6743,6,0,P|166:135|165:100,1,56.2500021457673,2|2,1:2|0:0,0:0:0:0:
66,236,7076,2,0,P|81:204|82:169,1,56.2500021457673,8|2,0:0|0:0,0:0:0:0:
177,337,7409,1,0,1:0:0:0:
144,267,7576,1,2,0:0:0:0:
252,322,7743,1,8,0:0:0:0:
203,217,7910,1,2,0:0:0:0:
325,305,8076,6,0,P|332:334|333:367,1,56.2500021457673,2|2,1:2|0:0,0:0:0:0:
421,222,8409,2,0,P|428:193|429:160,1,56.2500021457673,8|2,0:0|0:0,0:0:0:0:
367,75,8743,1,0,1:0:0:0:
346,68,8826,1,0,3:0:0:0:
318,66,8909,1,2,3:2:0:0:
258,135,9076,2,0,L|259:174,2,28.1250010728836,8|0|2,0:0|0:0|0:0,0:0:0:0:
207,40,9409,5,2,1:2:0:0:
179,32,9493,1,0,3:0:0:0:
152,24,9576,2,0,P|118:28|92:45,1,56.2500021457673,0|8,3:0|3:2,0:0:0:0:
72,122,9909,1,0,3:0:0:0:
69,150,9993,1,0,3:0:0:0:
74,177,10076,1,0,1:0:0:0:
86,201,10159,1,0,3:0:0:0:
95,227,10243,2,0,P|103:268|98:286,1,56.2500021457673,0|8,3:0|3:2,0:0:0:0:
75,368,10576,1,0,3:0:0:0:
157,315,10743,5,2,1:2:0:0:
229,379,10909,1,2,0:0:0:0:
226,231,11076,2,0,L|219:194,2,28.1250010728836,8|0|0,3:2|3:0|3:0,0:0:0:0:
298,295,11409,2,0,P|329:300|362:291,1,56.2500021457673,0|2,1:0|0:0,0:0:0:0:
446,243,11743,2,0,L|437:298,1,56.2500021457673,8|0,0:0|0:0,0:0:0:0:
370,172,12076,5,4,1:2:0:0:
440,108,12243,2,0,P|446:68|441:34,1,75,2|8,0:0|0:0,0:0:0:0:
286,128,12576,2,0,P|321:108|346:68,1,75,2|0,0:0|1:0,0:0:0:0:
235,21,12909,1,2,0:0:0:0:
171,134,13076,2,0,P|162:176|163:214,1,75,8|2,0:0|0:0,0:0:0:0:
101,285,13409,6,0,L|64:305,2,37.5,2|0|2,3:2|3:2|3:2,3:2:0:0:
182,349,13743,2,0,L|169:389,2,37.5,8|0|2,3:2|3:2|3:2,3:2:0:0:
276,350,14076,2,0,L|296:387,2,37.5,0|0|2,3:2|3:2|3:2,3:2:0:0:
344,281,14409,2,0,L|384:293,2,37.5,8|0|2,3:2|3:2|3:2,3:2:0:0:
227,227,14743,5,2,1:2:0:0:
312,98,14909,1,2,3:2:0:0:
312,98,14993,1,0,3:0:0:0:
312,98,15076,2,0,P|279:74|245:65,1,75,8|2,0:0|0:0,0:0:0:0:
98,169,15409,2,0,P|126:125|137:88,1,75,0|2,1:0|0:0,0:0:0:0:
227,227,15743,1,8,0:0:0:0:
114,291,15909,1,2,0:0:0:0:
245,326,16076,6,0,P|278:342|326:342,1,75,2|2,1:2|0:0,0:0:0:0:
341,335,16326,1,2,3:2:0:0:
370,325,16409,2,0,P|365:281|375:247,1,75,8|2,0:0|0:0,0:0:0:0:
438,183,16743,1,0,1:0:0:0:
374,101,16909,1,2,3:2:0:0:
326,98,16993,1,0,3:0:0:0:
285,116,17076,2,0,P|249:130|211:159,1,75,8|2,3:2|3:2,0:0:0:0:
184,271,17409,6,0,L|198:349,2,75,2|2|8,1:2|0:0|0:0,0:0:0:0:
95,217,17909,2,0,P|81:179|84:140,1,75,2|0,0:0|1:0,0:0:0:0:
136,58,18243,1,2,0:0:0:0:
223,13,18409,2,0,P|265:8|318:20,1,75,8|2,0:0|0:0,0:0:0:0:
434,136,18743,6,0,P|412:105|404:69,1,75,2|2,1:2|0:0,0:0:0:0:
355,200,19076,2,0,L|315:194,2,37.5,8|0|2,3:2|3:2|3:2,3:2:0:0:
449,233,19409,2,0,P|453:278|441:314,1,75,0|2,1:0|0:0,0:0:0:0:
400,383,19743,1,8,0:0:0:0:
329,269,19909,1,2,0:0:0:0:
252,382,20076,6,0,P|211:367|166:365,1,75,2|2,1:2|0:0,0:0:0:0:
149,368,20326,1,0,3:0:0:0:
123,376,20409,2,0,P|86:356|67:326,1,75,8|2,0:0|0:0,0:0:0:0:
165,255,20743,1,0,1:0:0:0:
91,81,20993,1,2,3:2:0:0:
91,81,21076,2,0,P|127:72|169:77,1,75,8|0,3:2|1:2,0:0:0:0:
238,119,21410,5,2,1:2:0:0:
238,119,21493,1,0,3:0:0:0:
238,119,21576,2,0,P|285:131|320:125,1,75,2|8,3:2|3:2,0:0:0:0:
414,39,21909,2,0,P|438:70|444:119,1,75,2|0,3:2|1:0,0:0:0:0:
376,214,22243,1,2,3:2:0:0:
369,235,22326,1,2,3:2:0:0:
365,260,22409,2,0,L|367:299,2,37.5,8|0|2,3:2|3:0|3:2,0:0:0:0:
257,241,22743,5,4,1:2:0:0:
184,342,22909,1,2,0:0:0:0:
184,342,22993,1,0,3:0:0:0:
184,342,23076,2,0,P|132:327|104:305,1,82.5000025177003,8|2,0:0|0:0,0:0:0:0:
74,224,23409,1,0,1:0:0:0:
185,163,23576,1,2,0:0:0:0:
102,96,23743,1,8,3:2:0:0:
102,96,23826,1,0,3:0:0:0:
102,96,23909,1,0,3:2:0:0:
102,96,23993,1,0,3:0:0:0:
102,96,24076,6,0,P|135:74|180:69,1,82.5000025177003,2|2,1:2|0:0,0:0:0:0:
223,84,24326,1,0,3:0:0:0:
270,108,24409,2,0,P|321:116|364:110,1,82.5000025177003,8|2,0:0|0:0,0:0:0:0:
336,240,24743,2,0,P|384:221|418:194,1,82.5000025177003,0|2,1:0|0:0,0:0:0:0:
396,340,25076,1,8,3:2:0:0:
368,357,25159,1,0,3:0:0:0:
336,366,25243,1,2,3:2:0:0:
303,365,25326,1,0,3:0:0:0:
271,355,25409,5,2,1:2:0:0:
143,349,25576,2,0,P|96:359|64:382,2,82.5000025177003,2|8|2,0:0|0:0|0:0,0:0:0:0:
241,279,26076,1,0,0:0:0:0:
254,252,26159,1,0,3:0:0:0:
250,221,26243,1,0,3:0:0:0:
230,200,26326,1,0,3:0:0:0:
205,188,26409,2,0,L|188:147,3,41.2500012588501,8|0|2|0,3:2|3:0|3:2|3:0,3:0:0:0:
156,152,26743,5,2,1:2:0:0:
69,229,26909,1,2,0:0:0:0:
65,116,27076,2,0,P|97:74|135:60,1,82.5000025177003,8|2,0:0|0:0,0:0:0:0:
211,22,27409,1,0,0:0:0:0:
229,31,27493,1,0,3:0:0:0:
246,40,27576,1,0,3:0:0:0:
261,49,27659,1,0,3:0:0:0:
281,62,27743,2,0,P|347:71|398:116,1,123.75000377655,8|0,3:2|0:0,0:0:0:0:
455,70,28076,5,2,1:2:0:0:
427,188,28243,1,2,0:0:0:0:
427,188,28326,1,0,3:0:0:0:
427,188,28409,2,0,P|388:216|373:252,1,82.5000025177003,8|2,0:0|0:0,0:0:0:0:
339,355,28743,1,0,1:0:0:0:
276,230,28909,1,2,0:0:0:0:
181,340,29076,1,8,0:0:0:0:
181,340,29159,1,0,3:0:0:0:
181,340,29242,1,0,3:0:0:0:
181,340,29326,1,0,3:0:0:0:
181,340,29409,6,0,P|156:299|152:258,1,82.5000025177003,2|2,1:2|0:0,0:0:0:0:
170,173,29743,2,0,P|179:131|169:84,1,82.5000025177003,8|2,3:2|3:2,0:0:0:0:
105,24,30076,1,0,1:0:0:0:
194,0,30243,1,2,0:0:0:0:
263,73,30409,2,0,P|300:92|350:93,1,82.5000025177003,8|2,3:2|0:0,0:0:0:0:
429,146,30743,5,2,1:2:0:0:
437,172,30826,1,0,3:0:0:0:
442,197,30909,1,0,3:0:0:0:
442,228,30993,1,0,3:0:0:0:
435,259,31076,2,0,P|417:283|364:300,1,82.5000025177003,8|0,1:2|3:0,0:0:0:0:
287,195,31409,1,0,1:0:0:0:
252,188,31493,1,0,3:0:0:0:
212,195,31576,1,0,3:0:0:0:
180,220,31659,1,0,3:0:0:0:
160,255,31743,2,0,P|152:299|157:337,1,82.5000025177003,8|0,1:2|3:0,0:0:0:0:
301,366,32076,6,0,P|361:384|427:384,2,123.75000377655,0|2|2,1:2|3:2|0:0,0:0:0:0:
253,285,32743,1,0,1:0:0:0:
287,195,32909,2,0,P|284:154|268:114,2,82.5000025177003,2|8|2,0:0|0:0|0:0,0:0:0:0:
368,258,33409,6,0,L|420:245,1,41.2500012588501,2|0,1:2|0:0,0:0:0:0:
440,134,33743,1,8,0:0:0:0:
349,86,33909,2,0,L|356:64,4,20.6250006294251,2|0|0|0|0,0:0|0:0|0:0|0:0|1:0,0:0:0:0:
315,183,34243,1,2,0:0:0:0:
258,46,34409,2,0,P|227:37|174:43,1,82.5000025177003,8|0,0:0|0:0,0:0:0:0:
123,105,34743,5,4,1:2:0:0:
256,192,41409,12,0,44076,0:0:0:0:
312,114,44243,22,0,L|322:74,2,37.5,8|8|8,3:2|3:2|3:2,3:2:0:0:
258,186,44576,6,0,L|275:229,1,37.5,2|0,3:2|0:0,0:0:0:0:
329,318,44743,1,2,1:2:0:0:
329,318,44826,1,0,3:0:0:0:
329,318,44909,2,0,L|348:275,1,37.5,2|2,3:2|3:2,0:0:0:0:
357,190,45076,5,8,3:2:0:0:
192,259,45409,5,4,1:2:0:0:
140,100,45743,2,0,P|170:77|206:70,1,75,8|2,0:0|0:0,0:0:0:0:
292,61,46076,2,0,L|301:20,2,37.5,0|0|2,1:0|0:0|0:0,0:0:0:0:
351,129,46409,1,8,0:0:0:0:
413,185,46576,1,2,0:0:0:0:
297,202,46743,6,0,P|292:239|300:275,1,75,2|2,1:2|0:0,0:0:0:0:
310,301,46993,1,0,3:0:0:0:
320,329,47076,2,0,P|246:317|174:336,1,150,8|0,0:0|1:0,0:0:0:0:
93,319,47576,1,2,3:2:0:0:
93,319,47659,1,0,3:0:0:0:
93,319,47743,2,0,L|83:276,3,37.5,8|0|2|0,3:2|3:0|3:2|3:0,3:0:0:0:
105,257,48076,6,0,P|123:205|119:149,1,112.5,2|2,1:2|0:0,0:0:0:0:
107,118,48409,2,0,P|80:85|69:44,1,75,8|2,0:0|0:0,0:0:0:0:
141,2,48743,1,0,1:0:0:0:
211,64,48909,2,0,L|211:103,2,37.5,2|0|8,3:2|3:0|3:2,3:0:0:0:
275,1,49243,1,2,0:0:0:0:
332,106,49409,6,0,P|395:80|452:12,1,150,2|8,1:2|0:0,0:0:0:0:
445,154,49909,1,2,0:0:0:0:
339,194,50076,1,0,1:0:0:0:
333,229,50159,1,0,3:0:0:0:
338,267,50243,1,2,3:2:0:0:
361,297,50326,1,2,3:2:0:0:
396,317,50409,2,0,L|437:324,2,37.5,8|0|2,3:2|3:0|3:2,3:0:0:0:
320,384,50743,6,0,P|283:377|251:358,1,75,4|2,1:2|0:0,0:0:0:0:
144,310,51076,2,0,P|182:302|210:277,1,75,8|2,0:0|0:0,0:0:0:0:
172,141,51409,1,0,1:0:0:0:
149,239,51576,1,2,0:0:0:0:
84,125,51743,1,8,0:0:0:0:
66,221,51909,1,2,0:0:0:0:
186,124,52076,6,0,P|226:115|267:117,1,75,2|2,1:2|0:0,0:0:0:0:
286,145,52326,1,0,3:0:0:0:
313,173,52409,2,0,P|358:182|388:180,1,75,8|2,0:0|0:0,0:0:0:0:
446,104,52743,1,0,1:0:0:0:
390,36,52909,2,0,L|401:-3,2,37.5,2|0|8,3:2|3:0|3:2,3:0:0:0:
328,133,53243,1,2,0:0:0:0:
270,3,53409,5,2,1:2:0:0:
234,0,53493,1,0,3:0:0:0:
204,4,53576,1,0,3:0:0:0:
177,19,53659,1,0,3:0:0:0:
155,44,53743,2,0,P|143:83|144:122,1,75,0|0,3:0|3:0,0:0:0:0:
211,183,54076,2,0,L|249:173,2,37.5,0|0|2,3:2|3:2|3:2,3:2:0:0:
140,275,54409,2,0,L|100:287,2,37.5,8|0|2,3:2|3:2|3:2,3:2:0:0:
219,345,54743,5,2,1:2:0:0:
250,360,54826,1,0,3:0:0:0:
283,368,54909,1,0,3:0:0:0:
315,365,54993,1,0,3:0:0:0:
344,348,55076,2,0,P|380:336|427:345,1,75,8|0,3:2|3:0,0:0:0:0:
420,239,55409,2,0,L|444:207,2,37.5,0|0|0,3:2|3:2|3:2,3:2:0:0:
300,217,55743,2,0,P|276:167|272:111,1,112.5,8|0,3:2|3:0,0:0:0:0:
281,78,56076,6,0,P|230:79|187:53,1,75,4|0,1:2|0:0,0:0:0:0:
119,11,56409,1,8,0:0:0:0:
68,156,56659,1,2,3:2:0:0:
123,299,56909,2,0,P|124:347|105:403,2,75,2|8|2,0:0|0:0|0:0,0:0:0:0:
179,175,57409,6,0,P|226:172|300:208,1,112.5,2|2,1:2|3:2,0:0:0:0:
318,337,57909,1,2,0:0:0:0:
415,203,58243,1,2,0:0:0:0:
441,137,58409,1,8,0:0:0:0:
406,76,58576,1,2,0:0:0:0:
310,58,58743,6,0,P|264:50|208:18,2,112.5,2|2|2,1:2|3:2|0:0,0:0:0:0:
278,189,59576,2,0,L|270:265,2,75,2|8|2,0:0|0:0|0:0,0:0:0:0:
210,108,60076,5,2,1:2:0:0:
164,268,60326,2,0,P|178:313|248:356,1,112.5,2|2,3:2|3:2,0:0:0:0:
336,315,60743,1,0,1:0:0:0:
414,376,60909,1,2,0:0:0:0:
421,275,61076,2,0,P|439:230|440:196,1,75,8|2,0:0|0:0,0:0:0:0:
312,99,61409,6,0,P|381:113|444:64,1,150,2|8,1:2|0:0,0:0:0:0:
296,15,61993,2,0,P|258:26|220:94,1,112.5,2|2,3:2|0:0,0:0:0:0:
167,156,62409,1,8,0:0:0:0:
127,74,62576,1,2,0:0:0:0:
93,230,62743,6,0,P|136:264|191:264,1,112.5,2|2,1:2|3:2,0:0:0:0:
283,185,63243,1,2,0:0:0:0:
370,342,63576,2,0,L|449:369,2,75,2|8|2,0:0|0:0|0:0,0:0:0:0:
364,235,64076,5,2,1:2:0:0:
443,167,64243,1,10,0:0:0:0:
318,137,64409,1,8,0:0:0:0:
422,74,64576,1,2,3:2:0:0:
422,74,64659,1,0,3:0:0:0:
422,74,64743,2,0,P|380:42|347:31,1,82.5000025177003,0|10,1:2|3:2,0:0:0:0:
245,145,65076,1,8,0:0:0:0:
222,16,65243,1,2,0:0:0:0:
137,126,65409,6,0,P|132:179|146:226,1,82.5000025177003,2|2,1:2|3:2,0:0:0:0:
175,302,65743,1,8,3:2:0:0:
200,308,65826,1,0,3:0:0:0:
229,307,65909,2,0,P|273:301|320:315,1,82.5000025177003,2|0,3:2|1:0,0:0:0:0:
382,373,66243,1,2,3:2:0:0:
444,277,66409,1,8,3:2:0:0:
312,217,66576,1,2,3:2:0:0:
443,155,66743,5,2,1:2:0:0:
443,155,66826,1,0,3:0:0:0:
443,155,66909,1,2,3:2:0:0:
443,155,66993,1,0,3:0:0:0:
443,155,67076,2,0,P|428:109|403:76,1,82.5000025177003,12|0,3:2|0:0,0:0:0:0:
388,58,67326,2,0,P|326:77|260:62,1,123.75000377655,2|2,3:2|0:0,0:0:0:0:
186,19,67743,1,8,0:0:0:0:
215,143,67909,1,2,0:0:0:0:
99,62,68076,6,0,P|80:109|87:167,1,82.5000025177003,2|0,1:2|0:0,0:0:0:0:
91,167,68326,2,0,P|145:190|183:249,1,123.75000377655,2|2,3:2|0:0,0:0:0:0:
251,328,68743,1,0,1:0:0:0:
251,328,68826,1,0,3:0:0:0:
251,328,68909,2,0,L|235:367,1,41.2500012588501,2|0,3:2|3:0,0:0:0:0:
328,246,69076,1,8,3:2:0:0:
328,246,69159,1,2,3:2:0:0:
328,246,69242,2,0,L|312:207,1,41.2500012588501,2|2,3:2|3:2,0:0:0:0:
427,331,69409,6,0,P|442:285|437:245,1,82.5000025177003,2|0,1:2|0:0,0:0:0:0:
425,224,69659,2,0,P|413:179|423:143,1,82.5000025177003,2|0,3:2|0:0,0:0:0:0:
431,118,69909,1,2,0:0:0:0:
364,36,70076,1,0,1:0:0:0:
336,28,70159,1,0,3:0:0:0:
307,26,70243,1,2,3:2:0:0:
277,34,70326,1,0,3:0:0:0:
251,48,70409,1,8,3:2:0:0:
220,59,70493,1,0,3:0:0:0:
190,59,70576,1,2,3:2:0:0:
79,15,70743,6,0,P|94:74|64:173,1,165.000005035401,2|8,1:2|0:0,0:0:0:0:
72,250,71243,1,2,3:2:0:0:
72,250,71326,1,0,3:0:0:0:
72,250,71409,1,0,1:2:0:0:
118,324,71576,1,0,3:0:0:0:
141,341,71659,1,0,3:0:0:0:
169,352,71743,2,0,P|211:352|238:342,1,41.2500012588501,8|0,3:2|3:0,0:0:0:0:
221,250,71909,2,0,P|241:254|260:261,1,41.2500012588501,0|0,3:0|3:0,0:0:0:0:
308,365,72076,5,2,1:2:0:0:
334,220,72243,2,0,L|345:180,2,41.2500012588501,2|0|8,3:2|3:2|3:2,3:2:0:0:
420,358,72576,1,2,3:2:0:0:
442,245,72743,1,0,1:0:0:0:
414,137,72909,2,0,P|422:98|448:56,2,82.5000025177003,2|8|2,0:0|0:0|0:0,0:0:0:0:
292,164,73409,6,0,P|249:160|186:128,1,82.5000025177003,2|0,1:2|0:0,0:0:0:0:
188,118,73659,2,0,P|214:174|207:240,1,123.75000377655,2|2,3:2|0:0,0:0:0:0:
123,357,74076,1,0,1:0:0:0:
69,281,74243,1,2,0:0:0:0:
201,297,74409,1,8,0:0:0:0:
146,216,74576,1,2,0:0:0:0:
219,326,74743,6,0,P|267:335|312:323,1,82.5000025177003,2|0,1:2|0:0,0:0:0:0:
324,320,74993,2,0,P|375:316|446:353,1,123.75000377655,2|2,3:2|0:0,0:0:0:0:
432,250,75409,1,0,1:0:0:0:
434,222,75493,1,0,3:0:0:0:
436,192,75576,1,2,3:2:0:0:
438,160,75659,1,0,3:0:0:0:
440,131,75743,2,0,L|444:87,2,41.2500012588501,8|0|2,3:2|3:2|3:2,3:2:0:0:
334,166,76076,5,2,1:2:0:0:
306,175,76159,1,0,3:0:0:0:
276,178,76243,1,0,3:0:0:0:
247,173,76326,1,0,3:0:0:0:
218,166,76409,2,0,P|174:159|125:168,1,82.5000025177003,8|0,3:2|3:0,0:0:0:0:
86,267,76743,2,0,L|70:306,3,41.2500012588501,0|0|0|0,3:2|3:2|3:2|3:2,3:2:0:0:
113,255,77076,2,0,L|251:298,1,123.75000377655,8|0,3:2|0:0,0:0:0:0:
248,316,77409,5,4,1:2:0:0:
322,258,77576,2,0,P|360:265|392:286,1,75,2|8,0:0|0:0,0:0:0:0:
260,183,77909,2,0,P|266:146|283:112,1,75,2|0,0:0|1:0,0:0:0:0:
325,47,78243,1,2,0:0:0:0:
392,90,78409,1,8,0:0:0:0:
348,156,78576,1,2,0:0:0:0:
253,8,78909,6,0,P|205:5|174:10,1,75,2|8,0:0|0:0,0:0:0:0:
116,125,79243,2,0,P|155:97|177:74,1,75,2|0,0:0|1:0,0:0:0:0:
278,109,79576,2,0,P|235:131|211:151,1,75,2|8,0:0|0:0,0:0:0:0:
185,227,79909,1,2,0:0:0:0:
297,283,80076,6,0,P|335:288|369:308,2,75,2|0|8,1:2|0:0|0:0,0:0:0:0:
225,336,80576,2,0,P|189:345|150:335,1,75,2|0,0:0|1:0,0:0:0:0:
110,271,80909,1,2,0:0:0:0:
185,227,81076,1,8,0:0:0:0:
109,181,81243,1,2,0:0:0:0:
231,157,81409,6,0,P|257:186|273:232,1,75,2|2,1:2|0:0,0:0:0:0:
155,95,81743,2,0,P|129:66|113:20,1,75,8|2,0:0|0:0,0:0:0:0:
262,143,82076,2,0,P|288:171|302:205,1,75,0|2,1:0|0:0,0:0:0:0:
246,51,82409,1,8,0:0:0:0:
342,73,82576,1,2,0:0:0:0:
396,184,82743,6,0,P|399:220|381:267,1,75,2|2,1:2|0:0,0:0:0:0:
321,328,83076,1,8,0:0:0:0:
238,284,83243,2,0,P|228:328|237:371,1,75,2|0,0:0|1:0,0:0:0:0:
146,331,83576,1,2,0:0:0:0:
89,273,83743,1,8,0:0:0:0:
136,208,83909,1,2,0:0:0:0:
73,120,84076,6,0,P|115:104|227:141,1,150,2|8,1:2|0:0,0:0:0:0:
265,48,84576,2,0,P|297:82|309:116,1,75,2|0,0:0|1:0,0:0:0:0:
413,119,84909,2,0,P|399:154|375:183,1,75,2|8,0:0|0:0,0:0:0:0:
436,271,85242,1,2,0:0:0:0:
318,247,85409,6,0,P|267:256|197:343,1,150,2|8,1:2|0:0,0:0:0:0:
112,285,85909,1,2,0:0:0:0:
155,200,86076,2,0,L|201:184,2,37.5,0|0|2,1:0|0:0|0:0,0:0:0:0:
73,157,86409,1,8,0:0:0:0:
103,80,86576,1,2,0:0:0:0:
220,101,86743,6,0,P|276:109|316:96,1,75,2|2,1:2|0:0,0:0:0:0:
363,42,87076,1,8,0:0:0:0:
397,133,87243,2,0,L|436:148,2,37.5,2|0|0,3:2|3:0|1:0,0:0:0:0:
334,204,87576,1,2,3:2:0:0:
326,233,87659,1,0,3:0:0:0:
323,263,87743,2,0,P|322:304|342:341,1,75,8|2,3:2|3:2,3:2:0:0:
214,310,88076,6,0,P|179:288|147:279,1,75,4|2,1:2|0:0,0:0:0:0:
89,355,88409,2,0,P|118:287|103:214,1,150,8|0,0:0|1:0,0:0:0:0:
67,127,88909,1,2,0:0:0:0:
149,99,89076,1,8,0:0:0:0:
179,178,89243,1,2,0:0:0:0:
118,15,89576,5,2,0:0:0:0:
149,99,89743,1,8,0:0:0:0:
313,43,90076,2,0,P|368:29|436:41,2,112.5,0|2|2,1:2|3:2|0:0,0:0:0:0:
291,141,90743,6,0,P|304:187|337:222,1,75,2|2,1:2|3:2,0:0:0:0:
408,171,91076,1,8,0:0:0:0:
443,260,91243,1,2,0:0:0:0:
351,301,91409,2,0,L|351:344,2,37.5,0|0|2,3:2|3:2|3:2,3:2:0:0:
240,321,91743,2,0,L|240:364,2,37.5,8|0|2,3:2|3:2|3:2,3:2:0:0:
185,231,92076,5,2,1:2:0:0:
155,228,92159,1,0,3:0:0:0:
125,232,92243,1,2,3:2:0:0:
97,243,92326,1,0,3:0:0:0:
72,260,92409,2,0,P|78:208|69:168,1,75,8|2,3:2|0:0,0:0:0:0:
67,48,92743,1,0,1:0:0:0:
148,151,92909,1,2,3:2:0:0:
145,33,93076,1,8,3:2:0:0:
173,25,93159,1,0,3:0:0:0:
203,22,93243,1,2,3:2:0:0:
232,24,93326,1,0,3:0:0:0:
260,33,93409,6,0,L|282:1,2,37.5,2|2|2,3:2|3:2|3:2,3:2:0:0:
281,138,93743,2,0,P|263:192|268:263,2,112.5,8|2|2,0:0|3:2|0:0,0:0:0:0:
374,103,94409,1,8,0:0:0:0:
426,195,94576,1,2,3:2:0:0:
365,287,94743,6,0,P|372:334|413:392,1,112.5,2|2,1:2|3:2,0:0:0:0:
285,329,95243,1,2,0:0:0:0:
205,362,95409,1,0,1:0:0:0:
174,361,95493,1,2,3:2:0:0:
144,354,95576,1,2,3:2:0:0:
117,341,95659,1,0,3:0:0:0:
93,321,95743,2,0,P|83:307|74:286,2,37.5,8|0|2,3:2|0:0|3:2,0:0:0:0:
182,250,96076,6,0,L|208:223,2,37.5,2|0|2,3:2|3:2|3:2,3:2:0:0:
98,199,96409,2,0,P|88:158|92:117,1,75,8|2,3:2|0:0,0:0:0:0:
150,51,96743,1,0,1:0:0:0:
179,44,96826,1,0,3:0:0:0:
208,44,96909,1,2,3:2:0:0:
236,53,96993,1,0,3:0:0:0:
257,74,97076,2,0,L|242:110,2,37.5,8|0|2,3:2|3:0|3:2,0:0:0:0:
346,34,97409,5,2,1:2:0:0:
374,44,97493,1,0,3:0:0:0:
395,64,97576,1,0,3:0:0:0:
409,89,97659,1,0,3:0:0:0:
416,118,97743,2,0,P|421:158|411:194,1,75,8|0,3:2|3:0,0:0:0:0:
334,248,98076,1,0,1:0:0:0:
334,248,98159,1,0,3:0:0:0:
334,248,98243,2,0,L|301:232,1,37.5,2|0,3:2|3:0,0:0:0:0:
412,353,98409,1,8,3:2:0:0:
412,353,98492,1,0,3:0:0:0:
412,353,98576,2,0,L|445:369,1,37.5,2|0,3:2|3:0,0:0:0:0:
261,384,98743,5,4,1:2:0:0:
256,192,108743,38,0,L|273:211,4,18.75,0|0|0|0|2,3:2|3:2|3:2|3:2|3:2,3:2:0:0:
126,217,109076,1,8,0:0:0:0:
255,64,109409,6,0,P|334:84|379:151,1,165.000005035401,4|8,1:2|0:0,0:0:0:0:
345,232,109909,1,2,0:0:0:0:
396,320,110076,2,0,L|446:343,2,41.2500012588501,0|0|2,3:2|3:2|3:2,3:2:0:0:
312,363,110409,1,8,0:0:0:0:
264,279,110576,2,0,P|218:264|178:270,1,82.5000025177003,2|2,0:0|1:2,0:0:0:0:
102,380,110909,6,0,P|100:338|87:299,1,82.5000025177003,2|8,0:0|3:2,0:0:0:0:
68,210,111243,2,0,P|69:168|82:129,1,82.5000025177003,2|0,3:2|1:0,0:0:0:0:
135,63,111576,2,0,L|127:20,2,41.2500012588501,2|0|8,3:2|3:2|3:2,3:2:0:0:
177,190,111909,1,2,0:0:0:0:
263,73,112076,5,2,1:2:0:0:
263,73,112159,1,0,3:0:0:0:
263,73,112243,2,0,L|273:26,4,41.2500012588501,2|0|8|0|2,3:2|3:2|3:2|3:2|1:2,3:2:0:0:
324,168,112743,1,0,1:0:0:0:
324,168,112826,1,0,3:0:0:0:
324,168,112909,2,0,L|334:215,4,41.2500012588501,2|0|8|0|2,1:2|3:2|3:2|3:2|3:2,3:2:0:0:
381,61,113409,5,2,1:2:0:0:
446,167,113576,1,2,1:2:0:0:
446,167,113659,1,2,1:2:0:0:
446,167,113743,2,0,P|455:217|444:255,1,82.5000025177003,8|2,3:2|1:2,0:0:0:0:
425,381,114076,1,0,1:0:0:0:
362,251,114243,1,2,1:2:0:0:
305,380,114409,1,8,3:2:0:0:
266,252,114576,1,10,0:0:0:0:
266,252,114659,1,8,3:2:0:0:
266,252,114743,6,0,P|198:248|161:260,1,82.5000025177003,4|0,1:2|0:0,0:0:0:0:
129,347,115076,1,8,0:0:0:0:
90,201,115243,2,0,P|95:157|121:122,1,82.5000025177003,2|0,0:0|1:0,0:0:0:0:
208,100,115576,1,2,0:0:0:0:
84,42,115743,1,8,0:0:0:0:
171,13,115909,1,2,0:0:0:0:
174,169,116076,6,0,P|217:176|268:146,1,82.5000025177003,2|2,1:2|3:2,0:0:0:0:
275,136,116326,1,0,3:0:0:0:
295,116,116409,2,0,P|335:104|388:117,1,82.5000025177003,8|0,3:2|0:0,0:0:0:0:
410,187,116743,2,0,L|443:212,2,41.2500012588501,0|0|2,3:2|3:2|3:2,3:2:0:0:
354,256,117076,2,0,L|323:291,2,41.2500012588501,8|0|2,3:2|3:2|3:2,3:2:0:0:
445,317,117409,5,2,1:2:0:0:
285,378,117743,1,8,3:2:0:0:
252,382,117826,1,0,3:0:0:0:
219,375,117909,1,2,3:2:0:0:
252,278,118076,2,0,P|241:237|212:209,1,82.5000025177003,0|2,1:0|3:2,0:0:0:0:
106,254,118409,2,0,L|67:274,2,41.2500012588501,8|0|2,3:2|3:2|3:2,3:2:0:0:
123,145,118743,5,2,1:2:0:0:
80,53,118909,2,0,L|70:31,4,20.6250006294251,2|0|0|0|8,3:2|3:2|3:2|3:2|3:2,3:2:0:0:
189,60,119243,2,0,P|232:67|269:92,1,82.5000025177003,2|0,0:0|1:0,0:0:0:0:
277,115,119493,1,0,3:0:0:0:
285,146,119576,1,2,3:2:0:0:
412,119,119743,2,0,P|412:159|398:197,1,82.5000025177003,8|0,3:2|0:0,0:0:0:0:
231,209,120076,6,0,P|185:208|142:223,1,89.9999972534181,4|0,1:2|0:0,0:0:0:0:
109,307,120326,1,0,3:0:0:0:
116,340,120409,2,0,P|170:346|210:330,1,89.9999972534181,8|2,0:0|0:0,0:0:0:0:
295,276,120743,6,0,P|341:275|384:290,1,89.9999972534181,0|2,1:0|0:0,0:0:0:0:
445,333,120993,1,0,0:0:0:0:
437,360,121076,2,0,P|416:323|414:264,1,89.9999972534181,8|2,3:2|3:2,0:0:0:0:
446,149,121409,6,0,P|458:111|443:62,1,89.9999972534181,2|2,1:2|0:0,0:0:0:0:
334,7,121743,1,8,0:0:0:0:
330,129,121909,1,2,0:0:0:0:
330,129,121993,1,0,3:0:0:0:
330,129,122076,5,0,1:0:0:0:
243,38,122243,1,2,0:0:0:0:
234,180,122409,1,8,0:0:0:0:
152,70,122576,1,2,0:0:0:0:
163,238,122743,5,2,1:2:0:0:
190,267,122826,1,0,3:0:0:0:
229,277,122909,1,0,3:0:0:0:
269,277,122992,1,0,3:0:0:0:
309,273,123076,1,8,3:2:0:0:
349,275,123159,1,0,3:0:0:0:
388,285,123243,1,0,3:0:0:0:
421,307,123326,1,0,3:0:0:0:
443,340,123409,5,0,1:0:0:0:
446,203,123576,1,2,0:0:0:0:
313,200,123743,1,8,0:0:0:0:
315,339,123909,1,2,0:0:0:0:
375,143,124076,6,0,P|325:120|288:121,1,89.9999972534181,2|0,1:2|0:0,0:0:0:0:
217,186,124326,1,0,3:0:0:0:
196,211,124409,2,0,P|143:224|100:211,1,89.9999972534181,8|2,0:0|0:0,0:0:0:0:
71,128,124743,5,0,1:0:0:0:
67,290,124909,1,2,0:0:0:0:
154,97,125076,1,8,0:0:0:0:
147,318,125243,1,2,3:2:0:0:
158,343,125326,1,0,3:0:0:0:
176,367,125409,6,0,P|219:383|270:376,1,89.9999972534181,2|2,1:2|0:0,0:0:0:0:
319,287,125660,1,0,3:0:0:0:
339,265,125743,2,0,P|393:260|438:274,1,89.9999972534181,8|2,0:0|0:0,0:0:0:0:
443,171,126076,6,0,P|457:131|442:81,1,89.9999972534181,0|2,1:0|0:0,0:0:0:0:
310,92,126326,1,0,3:0:0:0:
289,113,126409,2,0,P|331:130|379:127,1,89.9999972534181,8|2,0:0|0:0,0:0:0:0:
310,18,126743,6,0,P|258:11|215:31,1,89.9999972534181,2|0,1:2|0:0,0:0:0:0:
190,48,126993,2,0,P|198:114|173:176,1,134.999995880127,2|2,3:2|0:0,0:0:0:0:
78,230,127409,5,0,1:0:0:0:
106,100,127576,1,2,0:0:0:0:
157,269,127743,1,8,3:2:0:0:
187,295,127826,1,0,3:0:0:0:
224,309,127909,1,2,3:2:0:0:
264,314,127993,1,0,3:0:0:0:
304,309,128076,6,0,P|353:301|401:322,1,89.9999972534181,2|2,1:2|0:0,0:0:0:0:
415,221,128409,2,0,L|443:186,2,44.999998626709,8|0|2,3:2|3:2|3:2,3:2:0:0:
255,230,128743,5,0,1:0:0:0:
308,78,128909,1,2,0:0:0:0:
207,133,129076,1,8,0:0:0:0:
355,185,129243,1,2,0:0:0:0:
183,210,129409,6,0,P|132:210|84:190,1,89.9999972534181,2|2,1:2|0:0,0:0:0:0:
70,104,129659,1,0,3:0:0:0:
89,77,129742,2,0,P|124:60|177:63,1,89.9999972534181,8|2,0:0|0:0,0:0:0:0:
212,76,129993,6,0,P|250:31|326:20,1,134.999995880127,2|2,3:2|0:0,0:0:0:0:
414,40,130409,2,0,L|447:5,2,44.999998626709,8|0|2,3:2|3:2|3:2,3:2:0:0:
439,131,130743,6,0,P|446:185|435:241,1,89.9999972534181,4|0,1:2|0:0,0:0:0:0:
423,256,130993,1,0,3:0:0:0:
390,280,131076,1,8,0:0:0:0:
291,184,131243,1,2,0:0:0:0:
250,192,131326,1,0,3:0:0:0:
220,208,131409,6,0,P|174:227|147:263,1,89.9999972534181,2|2,1:2|0:0,0:0:0:0:
129,342,131659,2,0,P|119:288|67:227,1,134.999995880127,10|2,3:2|0:0,0:0:0:0:
74,100,132076,5,2,1:2:0:0:
100,69,132159,1,0,3:0:0:0:
135,48,132243,1,0,3:0:0:0:
174,41,132326,1,0,3:0:0:0:
214,43,132409,1,8,3:2:0:0:
251,58,132493,1,0,3:0:0:0:
285,78,132576,2,0,P|336:92|360:86,1,44.999998626709,0|0,3:0|3:0,0:0:0:0:
358,5,132743,5,0,1:0:0:0:
442,184,132909,1,2,0:0:0:0:
444,31,133076,1,8,0:0:0:0:
356,205,133243,1,2,3:2:0:0:
319,222,133326,1,0,3:0:0:0:
278,227,133409,6,0,P|232:224|186:197,1,89.9999972534181,2|2,1:2|0:0,0:0:0:0:
109,115,133743,2,0,L|87:70,2,44.999998626709,8|0|2,3:2|3:2|3:2,3:2:0:0:
86,217,134076,5,0,1:0:0:0:
76,256,134159,1,0,3:0:0:0:
81,296,134243,1,0,3:0:0:0:
98,332,134326,1,0,3:0:0:0:
125,361,134409,2,0,P|168:348|216:352,1,89.9999972534181,8|0,3:2|3:0,0:0:0:0:
329,382,134743,6,0,P|373:389|417:383,1,89.9999972534181,2|2,1:2|3:2,0:0:0:0:
439,300,135076,1,8,3:2:0:0:
447,260,135159,1,0,3:0:0:0:
436,220,135243,1,2,3:2:0:0:
420,182,135326,1,0,3:0:0:0:
435,144,135409,5,0,1:0:0:0:
361,290,135576,1,2,0:0:0:0:
348,151,135742,1,8,0:0:0:0:
291,236,135909,1,2,3:2:0:0:
256,257,135993,1,0,3:0:0:0:
216,266,136076,6,0,P|164:266|119:240,1,89.9999972534181,2|0,1:2|0:0,0:0:0:0:
79,273,136326,2,0,P|88:214|66:134,1,134.999995880127,2|2,3:2|0:0,0:0:0:0:
102,63,136659,1,0,0:0:0:0:
73,41,136743,6,0,P|129:53|179:42,1,89.9999972534181,2|2,1:2|0:0,0:0:0:0:
303,162,137076,1,10,0:0:0:0:
198,123,137243,1,2,0:0:0:0:
346,64,137409,6,0,P|405:95|437:132,1,89.9999972534181,2|0,1:2|0:0,0:0:0:0:
444,139,137659,2,0,P|412:197|416:276,1,134.999995880127,2|2,3:2|3:2,0:0:0:0:
423,298,137993,1,0,3:0:0:0:
438,330,138076,6,0,P|363:316|320:330,1,89.9999972534181,0|2,1:0|0:0,0:0:0:0:
271,364,138409,1,8,0:0:0:0:
275,240,138576,1,2,0:0:0:0:
183,327,138743,5,2,1:2:0:0:
151,324,138826,1,0,3:0:0:0:
121,314,138909,1,0,3:0:0:0:
97,293,138993,1,0,3:0:0:0:
79,266,139076,1,10,3:2:0:0:
72,235,139159,1,0,3:0:0:0:
72,203,139243,1,0,3:0:0:0:
80,172,139326,1,0,3:0:0:0:
94,144,139409,6,0,L|133:112,3,44.999998626709,2|0|0|0,1:2|3:2|3:2|3:2,3:2:0:0:
156,99,139743,2,0,L|205:108,3,44.999998626709,10|0|0|0,3:2|3:2|3:2|3:2,3:2:0:0:
224,128,140076,5,2,1:2:0:0:
251,150,140159,1,0,3:0:0:0:
285,162,140243,1,0,3:0:0:0:
320,158,140326,1,0,3:0:0:0:
355,156,140409,1,8,3:2:0:0:
390,162,140493,1,0,3:0:0:0:
422,176,140576,1,0,3:0:0:0:
444,203,140659,1,0,3:0:0:0:
445,239,140743,6,0,L|421:291,3,44.999998626709,0|0|0|0,1:2|3:2|3:2|3:2,3:2:0:0:
439,313,141076,2,0,L|444:369,3,44.999998626709,8|0|0|0,3:2|3:2|3:2|3:2,3:2:0:0:
423,380,141409,5,4,1:2:0:0:
256,192,141493,12,0,144076,0:0:0:0:
