osu file format v14

[General]
AudioFilename: audio.mp3
AudioLeadIn: 0
PreviewTime: 119909
Countdown: 1
SampleSet: Soft
StackLeniency: 0.6
Mode: 0
LetterboxInBreaks: 0
WidescreenStoryboard: 1

[Editor]
Bookmarks: 12076,22743,34743,45409,56076,66743,77409,88076,98743,109409,120076,130743
DistanceSpacing: 0.9
BeatDivisor: 4
GridSize: 32
TimelineZoom: 1.8

[Metadata]
Title:Apocalypse in Love
TitleUnicode:Apocalypse in Love
Artist:HyuN & Ritoru
ArtistUnicode:HyuN & Ritoru
Creator:-Sylvari
Version:Hard
Source:osu!
Tags:featured artist mappers' guild fa electronic mpg Hachi Mobile Game Instrumental
BeatmapID:2243930
BeatmapSetID:1071677

[Difficulty]
HPDrainRate:4
CircleSize:4
OverallDifficulty:6
ApproachRate:8
SliderMultiplier:1.25
SliderTickRate:1

[Events]
//Background and Video events
0,0,"bg.png",0,0
//Break Periods
2,34943,40659
2,98943,107993
//Storyboard Layer 0 (Background)
//Storyboard Layer 1 (Fail)
//Storyboard Layer 2 (Pass)
//Storyboard Layer 3 (Foreground)
//Storyboard Layer 4 (Overlay)
//Storyboard Sound Samples

[TimingPoints]
1410,333.333333333333,4,2,1,65,1,0
12076,-100,4,2,1,75,0,0
22743,-90.9090909090909,4,2,1,85,0,0
34659,-90.9090909090909,4,2,1,5,0,0
34743,-90.9090909090909,4,2,1,85,0,0
41409,-100,4,2,1,30,0,0
42076,-100,4,2,1,40,0,0
42743,-100,4,2,1,50,0,0
43409,-100,4,2,1,60,0,0
44076,-100,4,2,1,70,0,0
44743,-100,4,2,1,80,0,0
45409,-100,4,2,1,60,0,0
50743,-100,4,2,1,65,0,0
53409,-100,4,2,1,75,0,0
56076,-100,4,2,1,70,0,0
64076,-90.9090909090909,4,2,1,80,0,0
66743,-90.9090909090909,4,2,1,95,0,0
77409,-100,4,2,1,85,0,0
77451,-100,4,2,1,75,0,0
109409,-90.9090909090909,4,2,1,80,0,0
120076,-83.3333333333333,4,2,1,100,0,1
141409,-100,4,2,1,100,0,0
141493,-100,4,2,1,30,0,0
144076,-100,4,2,1,5,0,0

[Colours]
Combo1 : 232,204,162
Combo2 : 217,38,38
Combo3 : 231,154,154
Combo4 : 224,128,31

[HitObjects]
103,111,1410,6,0,P|140:117|172:130,1,62.5,4|0,1:2|0:0,0:0:0:0:
206,187,1743,1,8,0:0:0:0:
190,260,1909,2,0,L|149:317,2,62.5,2|0|2,0:0|1:0|0:0,0:0:0:0:
262,239,2409,2,0,P|293:248|322:271,1,62.5,8|2,0:0|0:0,0:0:0:0:
346,335,2743,1,2,1:2:0:0:
404,287,2909,1,2,0:0:0:0:
404,287,2993,1,0,3:0:0:0:
404,287,3076,2,0,P|410:258|405:222,1,62.5,8|2,0:0|0:0,0:0:0:0:
362,164,3409,2,0,L|330:157,2,31.25,0|0|2,3:2|3:2|3:2,3:2:0:0:
408,104,3743,2,0,L|440:97,2,31.25,8|0|2,3:2|3:2|3:2,3:2:0:0:
353,52,4076,6,0,P|324:46|291:50,1,62.5,2|2,1:2|0:0,0:0:0:0:
260,71,4326,1,0,3:0:0:0:
260,71,4409,2,0,P|228:80|195:80,1,62.5,8|2,0:0|0:0,0:0:0:0:
139,34,4743,2,0,P|167:88|152:165,1,125,0|8,1:0|0:0,0:0:0:0:
117,211,5243,1,2,0:0:0:0:
147,279,5409,1,2,1:2:0:0:
218,303,5576,2,0,L|217:371,2,62.5,2|8|2,0:0|3:2|3:2,0:0:0:0:
268,247,6076,2,0,L|282:216,2,31.25,0|0|2,3:2|3:2|3:2,3:2:0:0:
320,300,6409,1,8,3:2:0:0:
393,317,6576,1,2,3:2:0:0:
441,259,6743,6,0,P|441:220|427:190,1,62.5,2|2,1:2|0:0,0:0:0:0:
363,168,7076,2,0,P|363:129|377:99,1,62.5,8|2,0:0|0:0,0:0:0:0:
412,44,7409,2,0,P|375:31|340:38,1,62.5,0|2,1:0|0:0,0:0:0:0:
284,66,7743,2,0,P|247:77|217:72,1,62.5,8|2,0:0|0:0,0:0:0:0:
161,32,8076,1,2,1:2:0:0:
119,94,8243,1,2,0:0:0:0:
181,132,8409,2,0,P|192:162|194:193,1,62.5,8|2,0:0|0:0,0:0:0:0:
145,251,8743,2,0,L|101:262,2,31.25,0|0|2,3:2|3:2|3:2,3:2:0:0:
205,294,9076,2,0,L|240:307,2,31.25,8|0|2,3:2|3:2|3:2,3:2:0:0:
171,361,9409,5,2,1:2:0:0:
256,192,9493,12,8,11743,0:0:0:0:
262,142,12076,5,4,1:2:0:0:
203,188,12243,2,0,P|192:218|196:251,1,62.5,2|8,0:0|0:0,0:0:0:0:
245,304,12576,2,0,L|241:376,2,62.5,2|0|2,0:0|1:0|0:0,0:0:0:0:
309,264,13076,2,0,P|347:267|377:281,1,62.5,8|2,0:0|0:0,0:0:0:0:
427,323,13409,1,2,1:2:0:0:
442,173,13743,2,0,P|434:137|413:114,1,62.5,8|2,0:0|0:0,0:0:0:0:
354,178,14076,2,0,P|323:181|294:171,1,62.5,0|2,1:0|0:0,0:0:0:0:
334,101,14409,2,0,P|346:72|369:52,1,62.5,8|2,0:0|0:0,0:0:0:0:
264,21,14743,6,0,P|202:22|148:53,1,125,2|8,1:2|0:0,0:0:0:0:
114,120,15243,2,0,P|117:152|112:188,1,62.5,2|0,0:0|1:0,0:0:0:0:
104,256,15576,1,2,0:0:0:0:
101,330,15743,2,0,P|144:374|205:375,1,125,8|2,0:0|1:2,0:0:0:0:
252,317,16243,1,2,0:0:0:0:
231,245,16409,2,0,P|269:215|296:212,1,62.5,8|2,0:0|0:0,0:0:0:0:
346,251,16743,2,0,P|388:246|414:230,1,62.5,0|2,1:0|3:2,0:0:0:0:
424,163,17076,2,0,L|438:61,1,93.75,8|0,3:2|3:0,0:0:0:0:
442,33,17409,6,0,P|390:51|307:39,1,125,2|8,1:2|0:0,0:0:0:0:
250,20,17909,2,0,P|222:7|185:0,2,62.5,2|0|2,0:0|1:0|0:0,0:0:0:0:
263,93,18409,2,0,P|256:131|242:155,1,62.5,8|2,0:0|0:0,0:0:0:0:
170,164,18743,2,0,P|120:201|101:260,1,125,2|8,1:2|0:0,0:0:0:0:
134,328,19243,1,2,0:0:0:0:
190,278,19409,2,0,P|221:273|258:283,1,62.5,0|2,1:0|0:0,0:0:0:0:
259,354,19743,2,0,P|298:362|328:361,1,62.5,8|2,0:0|0:0,0:0:0:0:
395,355,20076,6,0,P|372:290|381:224,1,125,2|8,1:2|0:0,0:0:0:0:
404,165,20576,1,2,0:0:0:0:
364,100,20743,2,0,L|342:5,2,93.75,0|2|2,1:0|3:2|1:2,0:0:0:0:
308,149,21409,2,0,L|307:199,2,31.25,2|0|2,3:2|3:2|3:2,3:2:0:0:
247,103,21743,1,8,3:2:0:0:
188,149,21909,1,2,3:2:0:0:
139,91,22076,2,0,L|103:4,2,93.75,0|2|2,1:0|3:2|3:2,0:0:0:0:
110,168,22743,5,4,1:2:0:0:
110,250,22909,1,2,0:0:0:0:
110,250,22993,1,0,3:0:0:0:
110,250,23076,2,0,P|125:289|154:308,1,68.7500020980836,8|2,0:0|0:0,0:0:0:0:
188,231,23409,2,0,P|223:228|256:235,1,68.7500020980836,0|2,1:0|0:0,0:0:0:0:
281,319,23743,2,0,P|318:296|338:263,1,68.7500020980836,8|2,3:2|3:2,0:0:0:0:
329,193,24076,1,2,1:2:0:0:
317,111,24243,1,2,0:0:0:0:
305,29,24409,2,0,P|268:23|231:34,1,68.7500020980836,8|2,0:0|0:0,0:0:0:0:
156,44,24743,2,0,P|132:73|123:110,1,68.7500020980836,0|2,1:0|0:0,0:0:0:0:
103,182,25076,1,8,3:2:0:0:
172,244,25243,1,2,3:2:0:0:
172,244,25326,1,0,3:0:0:0:
172,244,25409,6,0,P|184:294|179:353,2,103.125003147125,2|2|2,1:2|3:2|0:0,0:0:0:0:
227,182,26076,2,0,P|267:181|295:194,1,68.7500020980836,0|2,1:0|0:0,0:0:0:0:
346,255,26409,1,8,3:2:0:0:
329,336,26576,1,2,3:2:0:0:
409,318,26743,2,0,P|431:283|432:239,1,68.7500020980836,2|2,1:2|0:0,0:0:0:0:
396,183,27076,2,0,P|387:141|421:47,1,137.500004196167,8|0,0:0|1:0,0:0:0:0:
346,7,27576,1,2,0:0:0:0:
297,73,27743,2,0,L|190:105,1,103.125003147125,8|0,3:2|3:0,0:0:0:0:
158,86,28076,6,0,P|167:121|162:156,1,68.7500020980836,2|2,1:2|0:0,0:0:0:0:
146,192,28326,1,0,3:0:0:0:
146,192,28409,2,0,P|139:232|144:266,1,68.7500020980836,8|2,0:0|0:0,0:0:0:0:
175,335,28743,1,0,1:0:0:0:
225,269,28909,1,2,0:0:0:0:
254,346,29076,2,0,P|285:364|319:374,1,68.7500020980836,8|2,0:0|0:0,0:0:0:0:
395,350,29409,1,2,1:2:0:0:
442,282,29576,1,2,0:0:0:0:
371,239,29743,2,0,P|344:214|305:195,1,68.7500020980836,8|2,3:2|3:2,0:0:0:0:
272,129,30076,2,0,L|287:95,2,34.3750010490418,0|0|2,3:2|3:2|3:2,3:2:0:0:
207,181,30409,1,8,3:2:0:0:
143,127,30576,1,2,0:0:0:0:
112,203,30743,6,0,L|104:240,3,34.3750010490418,2|0|0|0,1:2|3:2|3:2|3:2,3:2:0:0:
131,268,31076,2,0,L|142:304,3,34.3750010490418,8|0|0|0,1:2|3:2|3:2|3:2,3:2:0:0:
180,314,31409,2,0,L|208:339,3,34.3750010490418,0|0|0|0,1:2|3:2|3:2|3:2,3:2:0:0:
247,332,31743,2,0,L|283:339,3,34.3750010490418,8|0|0|0,1:2|3:2|3:2|3:2,3:2:0:0:
312,313,32076,2,0,L|410:278,2,103.125003147125,2|2|2,1:2|0:0|0:0,0:0:0:0:
259,248,32743,1,0,1:0:0:0:
324,197,32909,1,2,0:0:0:0:
270,134,33076,1,8,0:0:0:0:
105,148,33409,6,0,L|112:112,1,34.3750010490418,2|0,1:2|0:0,0:0:0:0:
190,16,33743,1,8,0:0:0:0:
272,10,33909,1,2,0:0:0:0:
354,6,34076,2,0,P|368:60|364:88,1,68.7500020980836,0|2,1:0|0:0,0:0:0:0:
345,151,34409,1,8,0:0:0:0:
444,283,34743,5,4,1:2:0:0:
256,192,41409,12,0,44076,0:0:0:0:
252,84,44409,38,0,L|295:58,2,31.25,8|0|0,3:2|3:2|3:2,3:2:0:0:
179,133,44743,6,0,L|146:91,4,31.25,2|0|2|2|8,1:2|3:2|3:2|3:2|3:2,3:2:0:0:
257,233,45409,6,0,P|247:263|250:299,1,62.5,4|2,1:2|0:0,0:0:0:0:
312,334,45743,2,0,P|342:327|372:307,1,62.5,8|2,0:0|0:0,0:0:0:0:
372,236,46076,2,0,P|351:212|318:196,1,62.5,0|2,1:0|0:0,0:0:0:0:
264,151,46409,1,8,0:0:0:0:
305,88,46576,1,2,0:0:0:0:
239,51,46743,2,0,P|207:51|178:61,1,62.5,2|2,1:2|0:0,0:0:0:0:
145,80,46993,1,0,3:0:0:0:
145,80,47076,2,0,P|150:119|140:161,1,62.5,8|2,0:0|0:0,0:0:0:0:
101,201,47409,1,0,1:0:0:0:
115,274,47576,2,0,L|96:317,2,31.25,2|0|8,3:2|3:2|3:2,3:2:0:0:
171,324,47909,1,2,3:2:0:0:
211,260,48076,6,0,P|242:257|281:268,1,62.5,2|0,1:2|0:0,0:0:0:0:
338,299,48409,2,0,P|373:309|407:309,1,62.5,8|2,0:0|0:0,0:0:0:0:
440,245,48743,1,0,1:0:0:0:
385,193,48909,2,0,L|350:184,2,31.25,2|0|8,3:2|3:2|3:2,3:2:0:0:
439,140,49243,1,2,0:0:0:0:
397,77,49409,2,0,P|408:33|441:-2,2,93.75,2|2|2,1:2|3:2|0:0,0:0:0:0:
325,100,50076,1,0,1:0:0:0:
256,130,50243,1,2,3:2:0:0:
193,88,50409,2,0,L|181:56,2,31.25,8|0|2,3:2|3:2|3:2,3:2:0:0:
183,163,50743,6,0,L|170:229,1,62.5,4|2,1:2|0:0,0:0:0:0:
124,283,51076,1,8,0:0:0:0:
183,329,51243,2,0,L|182:363,2,31.25,2|0|0,3:2|3:2|3:2,3:2:0:0:
235,275,51576,2,0,L|251:210,2,62.5,2|8|2,0:0|0:0|0:0,0:0:0:0:
275,339,52076,2,0,P|305:353|340:359,1,62.5,2|2,1:2|0:0,0:0:0:0:
408,364,52409,2,0,P|400:331|402:299,1,62.5,8|2,0:0|0:0,0:0:0:0:
442,239,52743,1,0,1:0:0:0:
386,188,52909,2,0,L|382:153,2,31.25,2|0|8,3:2|3:2|3:2,3:2:0:0:
339,247,53243,1,2,0:0:0:0:
279,202,53409,6,0,L|248:183,3,31.25,2|0|0|0,3:2|3:2|3:2|3:2,3:2:0:0:
221,208,53743,2,0,L|184:207,3,31.25,8|0|0|0,3:2|3:2|3:2|3:2,3:2:0:0:
172,240,54076,2,0,P|134:252|110:274,1,62.5,0|2,1:0|3:2,0:0:0:0:
114,341,54409,2,0,P|141:360|175:369,1,62.5,8|2,3:2|3:2,0:0:0:0:
236,334,54743,1,2,1:2:0:0:
380,372,55076,1,8,3:2:0:0:
421,309,55243,1,0,3:0:0:0:
440,236,55409,2,0,P|443:189|438:166,1,62.5,0|0,1:0|3:0,0:0:0:0:
398,111,55743,2,0,L|291:85,1,93.75,8|0,3:2|3:0,0:0:0:0:
277,65,56076,5,4,1:2:0:0:
159,157,56409,1,8,0:0:0:0:
102,59,56659,1,2,3:2:0:0:
159,157,56909,1,2,0:0:0:0:
159,232,57076,2,0,P|154:276|142:301,1,62.5,8|2,0:0|0:0,0:0:0:0:
102,353,57409,1,2,1:2:0:0:
210,381,57659,2,0,P|277:365|307:366,1,93.75,2|2,3:2|0:0,0:0:0:0:
440,307,58243,1,2,0:0:0:0:
404,241,58409,2,0,P|408:211|429:176,1,62.5,8|2,0:0|0:0,0:0:0:0:
395,112,58743,6,0,L|393:6,2,93.75,2|2|2,1:2|3:2|0:0,0:0:0:0:
278,205,59576,2,0,P|248:216|217:218,1,62.5,2|8,0:0|0:0,0:0:0:0:
145,196,59909,1,2,0:0:0:0:
104,133,60076,2,0,P|98:80|125:37,1,93.75,2|2,1:2|3:2,0:0:0:0:
219,1,60576,1,2,0:2:0:0:
275,50,60743,2,0,P|315:63|350:61,1,62.5,0|2,1:0|0:0,0:0:0:0:
409,73,61076,2,0,P|433:95|445:128,1,62.5,8|2,0:0|0:0,0:0:0:0:
419,193,61409,5,2,1:2:0:0:
333,316,61743,1,8,0:0:0:0:
438,354,61993,1,2,3:2:0:0:
333,316,62243,2,0,L|271:291,1,62.5,2|8,0:0|0:0,0:0:0:0:
221,240,62576,1,2,0:0:0:0:
179,302,62743,2,0,L|91:367,2,93.75,2|2|2,1:2|3:2|0:0,0:0:0:0:
153,154,63576,2,0,L|98:111,2,62.5,2|8|2,0:0|0:0|0:0,0:0:0:0:
217,205,64076,5,2,1:2:0:0:
229,123,64243,1,10,0:0:0:0:
242,42,64409,2,0,P|279:32|321:37,1,68.7500020980836,8|2,0:0|3:2,0:0:0:0:
386,63,64743,1,0,1:2:0:0:
443,136,64909,1,10,1:2:0:0:
443,136,64993,1,0,3:0:0:0:
443,136,65076,2,0,P|443:170|428:204,1,68.7500020980836,8|2,0:0|0:0,0:0:0:0:
369,258,65409,2,0,L|335:276,3,34.3750010490418,2|0|2|0,3:2|3:2|3:2|3:2,3:2:0:0:
306,248,65743,2,0,L|267:246,3,34.3750010490418,8|0|2|2,3:2|3:2|3:2|3:2,3:2:0:0:
258,207,66076,2,0,P|242:172|234:131,1,68.7500020980836,0|2,1:0|3:2,0:0:0:0:
140,158,66409,2,0,P|143:119|157:80,1,68.7500020980836,8|2,3:2|3:2,0:0:0:0:
237,41,66743,6,0,L|273:33,3,34.3750010490418,2|0|2|0,3:2|3:2|3:2|3:2,3:2:0:0:
307,53,67076,2,0,L|418:79,1,103.125003147125,12|0,3:2|3:0,0:0:0:0:
434,108,67409,2,0,P|425:146|435:193,1,68.7500020980836,0|2,1:0|0:0,0:0:0:0:
441,257,67743,1,8,0:0:0:0:
399,327,67909,1,2,0:0:0:0:
362,252,68076,2,0,P|311:246|263:266,1,103.125003147125,2|2,1:2|3:2,0:0:0:0:
183,361,68576,2,0,P|131:376|88:364,1,68.7500020980836,2|0,0:0|1:0,0:0:0:0:
101,293,68909,1,2,3:2:0:0:
166,242,69076,2,0,P|173:201|164:166,1,68.7500020980836,8|2,3:2|0:0,0:0:0:0:
170,92,69409,6,0,P|144:41|106:16,2,103.125003147125,2|2|2,1:2|3:2|0:0,0:0:0:0:
241,133,70076,2,0,L|252:170,2,34.3750010490418,0|0|2,3:2|3:2|3:2,3:2:0:0:
313,93,70409,2,0,L|324:56,2,34.3750010490418,8|0|2,3:2|3:2|3:2,3:2:0:0:
378,144,70743,2,0,P|419:180|438:230,1,103.125003147125,2|2,1:2|0:0,0:0:0:0:
443,348,71243,1,2,0:0:0:0:
367,379,71409,2,0,P|326:384|297:375,1,68.7500020980836,0|0,3:0|3:0,0:0:0:0:
280,295,71743,2,0,L|175:333,1,103.125003147125,8|0,3:2|3:0,0:0:0:0:
152,358,72076,6,0,P|158:320|151:283,1,68.7500020980836,2|2,1:2|3:2,0:0:0:0:
114,217,72409,1,8,3:2:0:0:
132,136,72576,2,0,L|106:106,2,34.3750010490418,0|0|0,3:2|3:2|3:2,3:2:0:0:
213,151,72909,2,0,P|253:158|294:152,2,68.7500020980836,2|8|2,0:0|0:0|0:0,0:0:0:0:
187,72,73409,2,0,P|159:29|116:1,2,103.125003147125,2|2|2,1:2|3:2|0:0,0:0:0:0:
269,66,74076,2,0,P|305:68|343:88,1,68.7500020980836,0|2,1:0|0:0,0:0:0:0:
401,128,74409,1,8,0:0:0:0:
372,205,74576,1,2,0:0:0:0:
440,248,74743,6,0,P|441:300|421:347,1,103.125003147125,2|2,1:2|3:2,0:0:0:0:
300,315,75243,1,2,0:0:0:0:
237,261,75409,2,0,P|204:270|176:290,1,68.7500020980836,0|2,1:0|0:0,0:0:0:0:
121,353,75743,1,8,0:0:0:0:
101,273,75909,1,2,0:0:0:0:
146,204,76076,2,0,P|212:176|286:177,1,137.500004196167,2|8,3:2|3:2,0:0:0:0:
355,200,76576,1,0,3:0:0:0:
426,158,76743,2,0,L|438:120,3,34.3750010490418,0|0|0|0,3:2|3:2|3:2|3:2,3:2:0:0:
433,83,77076,2,0,L|308:39,1,103.125003147125,8|0,3:2|0:0,0:0:0:0:
301,33,77409,6,0,P|270:31|234:44,1,62.5,4|2,1:2|0:0,0:0:0:0:
189,96,77743,1,8,0:0:0:0:
245,144,77909,2,0,P|262:183|262:216,1,62.5,2|0,0:0|1:0,0:0:0:0:
218,263,78243,2,0,L|132:262,2,62.5,2|8|2,0:0|0:0|0:0,0:0:0:0:
231,370,78909,1,2,0:0:0:0:
321,249,79243,1,2,0:0:0:0:
208,150,79576,2,0,P|201:124|205:90,1,62.5,2|8,0:0|0:0,0:0:0:0:
260,38,79909,1,2,0:0:0:0:
326,2,80076,6,0,P|377:14|436:65,1,125,2|8,1:2|0:0,0:0:0:0:
414,132,80576,2,0,P|409:174|418:206,1,62.5,2|0,0:0|1:0,0:0:0:0:
424,267,80909,2,0,L|445:334,2,62.5,2|8|2,0:0|0:0|0:0,0:0:0:0:
355,235,81409,2,0,P|338:178|346:109,2,125,2|8|0,1:2|0:0|1:0,0:0:0:0:
296,373,82409,2,0,P|256:381|224:377,1,62.5,8|2,0:0|0:0,0:0:0:0:
160,362,82743,6,0,P|176:331|180:299,1,62.5,2|2,1:2|0:0,0:0:0:0:
143,238,83076,1,8,0:0:0:0:
105,172,83243,2,0,P|125:145|163:118,1,62.5,2|0,0:0|1:0,0:0:0:0:
223,97,83576,2,0,L|223:29,2,62.5,2|8|2,0:0|0:0|0:0,0:0:0:0:
303,109,84076,2,0,P|341:163|353:230,1,125,2|8,1:2|0:0,0:0:0:0:
311,289,84576,1,2,0:0:0:0:
203,185,84909,1,2,0:0:0:0:
230,332,85243,1,2,0:0:0:0:
293,371,85409,6,0,P|324:372|355:362,1,62.5,2|2,1:2|0:0,0:0:0:0:
414,317,85743,1,8,0:0:0:0:
395,244,85909,2,0,P|395:206|408:180,1,62.5,2|0,0:0|1:0,0:0:0:0:
424,150,86159,2,0,P|440:107|433:61,1,93.75,0|8,3:2|0:0,0:0:0:0:
360,14,86576,1,2,0:0:0:0:
303,63,86743,2,0,P|256:75|225:71,1,62.5,2|2,1:2|0:0,0:0:0:0:
175,39,87076,1,8,0:0:0:0:
136,103,87243,2,0,L|103:115,2,31.25,2|0|0,3:2|3:2|3:2,3:2:0:0:
198,163,87576,1,2,3:2:0:0:
198,163,87659,1,0,3:0:0:0:
198,163,87743,2,0,P|211:209|211:258,1,93.75,8|0,3:2|3:0,0:0:0:0:
197,289,88076,6,0,P|260:282|330:312,1,125,4|8,1:2|0:0,0:0:0:0:
363,361,88576,1,2,0:0:0:0:
376,199,88909,2,0,L|447:220,2,62.5,2|8|2,0:0|1:2|0:0,0:0:0:0:
360,36,89576,1,2,0:0:0:0:
291,72,89743,2,0,P|256:90|224:92,1,62.5,8|0,0:0|0:0,0:0:0:0:
159,78,90076,2,0,P|123:50|104:7,2,93.75,0|2|2,1:2|3:2|0:0,0:0:0:0:
182,149,90743,6,0,P|188:189|184:218,1,62.5,2|2,1:2|3:2,0:0:0:0:
158,280,91076,2,0,P|162:316|178:347,1,62.5,8|2,0:0|0:0,0:0:0:0:
245,359,91409,2,0,L|248:392,2,31.25,0|0|2,3:2|3:2|3:2,3:2:0:0:
298,305,91743,2,4,L|301:272,2,31.25,8|0|2,3:2|3:2|3:2,3:2:0:0:
365,359,92076,1,2,1:2:0:0:
365,359,92159,1,0,3:0:0:0:
365,359,92243,2,0,B|397:359|424:341|424:341|413:315|412:276,1,125,2|2,3:2|0:0,0:0:0:0:
384,210,92743,2,0,P|385:175|396:139,1,62.5,0|2,1:0|3:2,0:0:0:0:
424,80,93076,2,0,L|310:41,1,93.75,8|0,3:2|3:0,0:0:0:0:
299,39,93409,6,0,P|290:107|236:159,1,125,2|8,1:2|0:0,0:0:0:0:
179,142,93909,1,2,3:2:0:0:
107,163,94076,2,0,P|101:208|108:230,1,62.5,0|2,1:0|0:0,0:0:0:0:
153,281,94409,1,8,0:0:0:0:
107,341,94576,1,2,3:2:0:0:
174,373,94743,2,0,P|237:384|267:377,1,93.75,2|2,1:2|3:2,0:0:0:0:
353,307,95243,1,2,0:0:0:0:
323,238,95409,2,0,P|323:202|334:173,1,62.5,0|2,1:0|3:2,0:0:0:0:
383,122,95743,2,0,L|422:111,2,31.25,8|0|2,3:2|3:2|3:2,3:2:0:0:
332,66,96076,5,2,1:2:0:0:
332,66,96159,1,0,3:0:0:0:
332,66,96243,2,0,P|294:53|263:52,1,62.5,2|8,3:2|3:2,0:0:0:0:
140,125,96743,2,0,L|106:113,2,31.25,0|0|2,3:2|3:2|3:2,3:2:0:0:
191,180,97076,2,0,P|195:210|190:241,1,62.5,8|2,3:2|3:2,0:0:0:0:
208,314,97409,2,0,L|232:336,3,31.25,2|0|0|0,3:2|3:2|3:2|3:2,3:2:0:0:
266,323,97743,2,0,L|297:330,3,31.25,8|0|0|0,3:2|3:2|3:2|3:2,3:2:0:0:
322,303,98076,2,0,L|353:293,3,31.25,0|0|0|0,3:2|3:2|3:2|3:2,3:2:0:0:
357,256,98409,2,0,P|381:224|386:182,1,62.5,8|2,3:2|3:2,0:0:0:0:
376,127,98743,5,4,1:2:0:0:
256,192,108743,38,0,L|269:228,2,31.25,0|0|2,3:2|3:2|3:2,3:2:0:0:
195,146,109076,1,8,0:0:0:0:
278,3,109409,6,0,P|320:1|404:58,1,137.500004196167,4|8,1:2|0:0,0:0:0:0:
441,120,109909,1,2,0:0:0:0:
402,193,110076,2,0,L|362:184,2,34.3750010490418,0|0|2,3:2|3:2|3:2,3:2:0:0:
434,268,110409,2,0,P|435:303|424:339,1,68.7500020980836,8|2,0:0|0:0,0:0:0:0:
354,378,110743,1,2,1:2:0:0:
310,308,110909,2,0,L|312:234,2,68.7500020980836,2|8|2,0:0|3:2|3:2,0:0:0:0:
236,346,111409,2,0,P|203:361|165:367,1,68.7500020980836,0|2,1:0|0:0,0:0:0:0:
105,316,111743,1,8,0:0:0:0:
144,244,111909,1,2,0:0:0:0:
110,168,112076,6,0,P|145:160|189:172,1,68.7500020980836,2|2,1:2|0:0,0:0:0:0:
230,103,112409,2,0,L|245:70,2,34.3750010490418,8|0|2,3:2|3:2|1:2,3:2:0:0:
269,176,112743,2,0,P|310:182|350:172,1,68.7500020980836,0|2,1:0|3:2,0:0:0:0:
408,217,113076,2,0,L|415:254,2,34.3750010490418,8|0|2,3:2|3:2|3:2,3:2:0:0:
440,141,113409,1,2,1:2:0:0:
429,58,113576,1,2,1:2:0:0:
429,58,113659,1,2,1:2:0:0:
429,58,113743,2,0,P|392:46|351:44,1,68.7500020980836,8|2,3:2|1:2,0:0:0:0:
286,76,114076,2,0,P|241:81|205:74,1,68.7500020980836,0|2,1:0|1:2,0:0:0:0:
145,38,114409,1,8,3:2:0:0:
106,111,114576,1,10,0:0:0:0:
179,150,114743,5,4,1:2:0:0:
107,298,115076,2,0,P|126:327|159:348,1,68.7500020980836,8|2,0:0|0:0,0:0:0:0:
299,267,115576,1,2,0:0:0:0:
330,343,115743,1,8,0:0:0:0:
387,283,115909,1,2,0:0:0:0:
441,220,116076,2,0,P|429:150|440:84,1,137.500004196167,2|8,1:2|3:2,0:0:0:0:
368,42,116576,2,0,L|367:7,2,34.3750010490418,0|0|0,3:2|3:2|3:2,3:2:0:0:
314,104,116909,1,2,3:2:0:0:
256,45,117076,2,0,L|146:30,1,103.125003147125,8|0,3:2|3:0,0:0:0:0:
113,21,117409,6,0,P|121:73|118:105,1,68.7500020980836,2|2,1:2|0:0,0:0:0:0:
108,171,117743,1,8,3:2:0:0:
108,171,117826,1,0,3:0:0:0:
108,171,117909,2,0,P|102:212|106:240,1,68.7500020980836,2|0,3:2|1:0,0:0:0:0:
120,320,118243,2,0,L|98:355,2,34.3750010490418,2|0|8,3:2|3:2|3:2,3:2:0:0:
197,292,118576,1,2,3:2:0:0:
246,358,118743,1,2,1:2:0:0:
313,311,118909,2,0,P|334:271|339:232,1,68.7500020980836,2|8,0:0|0:0,0:0:0:0:
301,173,119243,1,2,0:0:0:0:
364,120,119409,2,0,L|383:85,3,34.3750010490418,0|0|2|0,3:2|3:2|3:2|3:2,3:2:0:0:
364,50,119743,2,0,L|253:25,1,103.125003147125,8|0,3:2|0:0,0:0:0:0:
220,13,120076,6,0,P|179:27|153:45,1,74.9999977111817,4|0,1:2|0:0,0:0:0:0:
110,118,120409,1,8,3:2:0:0:
110,118,120493,1,0,3:0:0:0:
110,118,120576,2,0,P|134:149|148:188,1,74.9999977111817,2|0,0:0|1:0,0:0:0:0:
163,263,120909,1,2,0:0:0:0:
103,319,121076,2,0,P|134:350|172:361,1,74.9999977111817,8|2,3:2|3:2,0:0:0:0:
247,328,121409,6,0,P|301:309|391:338,1,149.999995422363,2|8,1:2|0:0,0:0:0:0:
443,274,121909,1,2,3:2:0:0:
443,274,121993,1,0,3:0:0:0:
443,274,122076,2,0,P|445:226|439:194,1,74.9999977111817,0|2,1:0|0:0,0:0:0:0:
397,127,122409,2,0,L|389:86,2,37.4999988555909,8|0|2,3:2|3:2|3:2,3:2:0:0:
334,192,122743,6,0,P|283:198|239:177,1,74.9999977111817,2|0,1:2|3:0,0:0:0:0:
204,131,123076,2,0,L|197:86,2,37.4999988555909,8|0|0,3:2|3:2|3:2,3:2:0:0:
132,172,123409,2,0,P|110:215|110:250,1,74.9999977111817,0|2,1:0|0:0,0:0:0:0:
106,325,123743,1,8,0:0:0:0:
179,362,123909,1,2,0:0:0:0:
247,303,124076,6,0,P|291:298|333:312,1,74.9999977111817,2|0,1:2|0:0,0:0:0:0:
357,335,124326,1,0,3:0:0:0:
357,335,124409,2,0,P|406:352|445:348,1,74.9999977111817,8|2,0:0|0:0,0:0:0:0:
443,261,124743,1,0,1:0:0:0:
385,190,124909,2,0,P|387:138|407:103,1,74.9999977111817,2|8,0:0|0:0,0:0:0:0:
443,39,125243,1,2,3:2:0:0:
443,39,125326,1,0,3:0:0:0:
443,39,125409,6,0,P|388:28|346:34,1,74.9999977111817,2|2,1:2|0:0,0:0:0:0:
304,83,125743,2,0,P|258:96|218:90,1,74.9999977111817,8|2,0:0|0:0,0:0:0:0:
182,155,126076,1,0,1:0:0:0:
128,90,126243,2,0,L|107:13,2,74.9999977111817,2|8|2,0:0|0:0|0:0,0:0:0:0:
102,167,126743,6,0,P|107:208|120:248,1,74.9999977111817,2|2,1:2|0:0,0:0:0:0:
128,281,126993,1,0,3:2:0:0:
128,281,127076,2,0,P|171:268|229:282,1,74.9999977111817,8|2,0:0|0:0,0:0:0:0:
259,338,127409,1,0,1:0:0:0:
304,261,127576,1,2,0:0:0:0:
378,313,127743,2,0,P|415:266|425:206,1,112.499996566773,8|0,3:2|3:0,0:0:0:0:
419,173,128076,6,0,P|410:126|417:92,1,74.9999977111817,2|2,1:2|0:0,0:0:0:0:
444,21,128409,1,8,0:0:0:0:
362,1,128576,1,2,0:0:0:0:
308,64,128743,2,0,P|264:77|217:70,1,74.9999977111817,0|2,1:0|0:0,0:0:0:0:
162,35,129076,2,0,P|120:51|95:87,1,74.9999977111817,8|2,0:0|0:0,0:0:0:0:
152,147,129409,6,0,P|159:198|156:237,1,74.9999977111817,2|2,1:2|0:0,0:0:0:0:
139,259,129659,1,0,3:0:0:0:
139,259,129743,2,0,P|131:320|98:369,2,112.499996566773,8|2|2,0:0|3:2|0:0,0:0:0:0:
214,291,130409,2,0,P|255:299|292:294,1,74.9999977111817,8|2,0:0|0:0,0:0:0:0:
346,241,130743,5,4,1:2:0:0:
289,180,130909,1,2,3:2:0:0:
289,180,130993,1,0,3:0:0:0:
289,180,131076,2,0,P|276:139|286:98,1,74.9999977111817,8|2,0:0|0:0,0:0:0:0:
327,38,131409,2,0,P|371:19|440:14,2,112.499996566773,2|2|2,1:2|3:2|0:0,0:0:0:0:
244,32,132076,6,0,L|201:21,3,37.4999988555909,2|0|0|0,3:2|3:2|3:2|3:2,3:2:0:0:
176,50,132409,2,0,L|133:62,3,37.4999988555909,8|0|0|0,3:2|3:2|3:2|3:2,3:2:0:0:
130,101,132743,2,0,P|112:144|115:180,1,74.9999977111817,0|2,1:0|0:0,0:0:0:0:
172,231,133076,1,8,0:0:0:0:
120,298,133243,1,2,3:2:0:0:
120,298,133326,1,0,3:0:0:0:
120,298,133409,6,0,P|143:349|175:377,1,74.9999977111817,2|2,1:2|0:0,0:0:0:0:
237,379,133743,1,8,0:0:0:0:
313,349,133909,1,2,0:0:0:0:
289,269,134076,2,0,P|302:227|332:200,1,74.9999977111817,0|0,1:0|3:0,0:0:0:0:
359,183,134326,1,0,3:0:0:0:
359,183,134409,2,0,P|385:153|397:114,1,74.9999977111817,8|0,3:2|3:0,0:0:0:0:
360,36,134743,6,0,L|357:-7,2,37.4999988555909,2|0|2,3:2|3:2|3:2,3:2:0:0:
298,91,135076,2,0,P|251:81|225:60,1,74.9999977111817,8|2,3:2|0:0,0:0:0:0:
150,91,135409,2,0,P|120:116|96:156,1,74.9999977111817,0|2,1:0|0:0,0:0:0:0:
150,215,135743,1,8,0:0:0:0:
105,286,135909,1,2,3:2:0:0:
105,286,135993,1,0,3:0:0:0:
105,286,136076,6,0,P|118:325|142:355,1,74.9999977111817,2|0,1:2|0:0,0:0:0:0:
220,334,136409,2,0,P|257:329|302:342,1,74.9999977111817,8|2,0:0|0:0,0:0:0:0:
326,363,136659,1,0,3:0:0:0:
326,363,136743,2,0,P|399:366|425:348,1,74.9999977111817,2|2,1:2|0:0,0:0:0:0:
436,291,137076,2,0,P|446:227|437:194,1,74.9999977111817,10|2,0:0|0:0,0:0:0:0:
384,150,137409,5,2,1:2:0:0:
441,27,137659,1,2,0:0:0:0:
314,47,137909,1,2,3:2:0:0:
314,47,137993,1,0,3:0:0:0:
314,47,138076,2,0,P|273:83|246:125,1,74.9999977111817,0|2,1:0|0:0,0:0:0:0:
245,181,138409,2,0,P|193:189|157:175,1,74.9999977111817,8|2,0:0|0:0,0:0:0:0:
115,112,138743,6,0,L|101:68,3,37.4999988555909,2|0|0|0,1:2|3:2|3:2|3:2,3:2:0:0:
144,71,139076,2,0,L|154:26,3,37.4999988555909,10|0|0|0,3:2|3:2|3:2|3:2,3:2:0:0:
193,34,139409,2,0,P|230:21|282:26,1,74.9999977111817,2|0,1:2|3:0,0:0:0:0:
294,107,139743,2,0,P|332:116|383:107,1,74.9999977111817,10|0,3:2|3:0,0:0:0:0:
423,184,140076,6,0,P|442:234|444:272,1,74.9999977111817,2|0,1:2|3:0,0:0:0:0:
387,324,140409,1,8,3:2:0:0:
320,263,140576,1,0,3:0:0:0:
264,333,140743,2,0,L|227:350,3,37.4999988555909,0|0|0|0,1:2|3:2|3:2|3:2,3:2:0:0:
199,314,141076,2,0,L|158:309,3,37.4999988555909,8|0|0|0,3:2|3:2|3:2|3:2,3:2:0:0:
150,273,141409,5,4,1:2:0:0:
256,192,141493,12,0,144076,0:0:0:0:
