osu file format v14

[General]
AudioFilename: audio.mp3
AudioLeadIn: 0
PreviewTime: 119909
Countdown: 1
SampleSet: Soft
StackLeniency: 0.5
Mode: 0
LetterboxInBreaks: 0
WidescreenStoryboard: 1

[Editor]
Bookmarks: 12076,22743,34743,45409,56076,66743,77409,88076,98743,109409,120076,130743
DistanceSpacing: 0.9
BeatDivisor: 4
GridSize: 32
TimelineZoom: 2.899999

[Metadata]
Title:Apocalypse in Love
TitleUnicode:Apocalypse in Love
Artist:HyuN & Ritoru
ArtistUnicode:HyuN & Ritoru
Creator:-Sylvari
Version:Expert
Source:osu!
Tags:featured artist mappers' guild fa electronic mpg Hachi Mobile Game Instrumental
BeatmapID:2248253
BeatmapSetID:1071677

[Difficulty]
HPDrainRate:6
CircleSize:5
OverallDifficulty:8
ApproachRate:9
SliderMultiplier:1.75
SliderTickRate:1

[Events]
//Background and Video events
0,0,"bg.png",0,0
//Break Periods
2,34943,40809
2,98943,108143
//Storyboard Layer 0 (Background)
//Storyboard Layer 1 (Fail)
//Storyboard Layer 2 (Pass)
//Storyboard Layer 3 (Foreground)
//Storyboard Layer 4 (Overlay)
//Storyboard Sound Samples

[TimingPoints]
1410,333.333333333333,4,2,1,65,1,0
1410,-133.333333333333,4,2,1,65,0,0
12076,-100,4,2,1,75,0,0
22743,-90.9090909090909,4,2,1,85,0,0
32076,-80,4,2,1,85,0,0
34409,-90.9090909090909,4,2,1,85,0,0
34659,-90.9090909090909,4,2,1,5,0,0
34743,-80,4,2,1,85,0,0
41409,-80,4,2,1,30,0,0
42076,-80,4,2,1,40,0,0
42743,-80,4,2,1,50,0,0
43409,-80,4,2,1,60,0,0
44076,-80,4,2,1,70,0,0
44743,-80,4,2,1,80,0,0
45409,-100,4,2,1,60,0,0
50743,-100,4,2,1,65,0,0
53409,-100,4,2,1,75,0,0
56076,-100,4,2,1,70,0,0
64076,-90.9090909090909,4,2,1,80,0,0
66743,-90.9090909090909,4,2,1,95,0,0
77409,-100,4,2,1,85,0,0
77451,-100,4,2,1,75,0,0
109409,-90.9090909090909,4,2,1,80,0,0
120076,-83.3333333333333,4,2,1,100,0,1
141409,-100,4,2,1,100,0,0
141493,-100,4,2,1,30,0,0
144076,-100,4,2,1,5,0,0

[Colours]
Combo1 : 232,204,162
Combo2 : 217,38,38
Combo3 : 231,154,154
Combo4 : 224,128,31

[HitObjects]
132,145,1410,5,4,1:2:0:0:
266,88,1743,1,8,0:0:0:0:
307,203,1909,1,2,0:0:0:0:
238,232,2076,1,0,1:0:0:0:
317,139,2243,1,2,0:0:0:0:
355,307,2409,1,8,0:0:0:0:
298,270,2576,1,2,0:0:0:0:
373,183,2743,6,0,P|386:152|383:120,1,65.6250025033952,2|2,1:2|0:0,0:0:0:0:
367,94,2993,1,0,3:0:0:0:
363,62,3076,2,0,L|373:29,2,32.8125012516976,8|0|2,0:0|0:0|0:0,0:0:0:0:
252,160,3409,1,0,1:0:0:0:
226,168,3493,1,0,3:0:0:0:
200,172,3576,1,2,3:2:0:0:
173,172,3659,1,0,3:0:0:0:
140,147,3743,1,8,3:2:0:0:
115,157,3826,1,0,3:0:0:0:
92,172,3909,1,2,3:2:0:0:
67,251,4076,6,0,P|73:286|106:319,1,65.6250025033952,2|2,1:2|0:0,0:0:0:0:
193,245,4326,1,0,3:0:0:0:
193,245,4409,2,0,P|152:247|128:262,1,65.6250025033952,8|2,0:0|0:0,0:0:0:0:
202,339,4743,2,0,P|233:330|260:312,1,65.6250025033952,0|2,1:0|0:0,0:0:0:0:
287,211,5076,2,0,P|299:247|321:271,1,65.6250025033952,8|2,0:0|0:0,0:0:0:0:
363,167,5409,5,2,1:2:0:0:
446,260,5576,2,0,L|464:285,2,16.4062506258488,2|0|0,0:0|0:0|0:0,0:0:0:0:
457,227,5743,1,8,3:2:0:0:
465,199,5826,1,0,3:0:0:0:
474,174,5909,1,2,3:2:0:0:
437,88,6076,1,0,1:0:0:0:
410,75,6159,1,0,3:0:0:0:
380,69,6243,1,2,3:2:0:0:
350,73,6326,1,0,3:0:0:0:
320,101,6409,1,8,3:2:0:0:
288,109,6493,1,0,3:0:0:0:
255,112,6576,1,2,3:2:0:0:
222,110,6659,1,0,3:0:0:0:
191,81,6743,5,2,1:2:0:0:
138,194,6909,1,2,0:0:0:0:
114,75,7076,1,8,0:0:0:0:
200,243,7243,1,2,0:0:0:0:
65,139,7409,1,0,1:0:0:0:
248,176,7576,1,2,0:0:0:0:
94,272,7743,1,8,0:0:0:0:
114,75,7909,1,2,0:0:0:0:
304,215,8076,6,0,P|336:210|369:213,1,65.6250025033952,2|2,1:2|0:0,0:0:0:0:
379,351,8409,2,0,P|358:325|344:295,1,65.6250025033952,8|2,0:0|0:0,0:0:0:0:
466,207,8743,2,0,L|487:176,2,32.8125012516976,0|0|2,3:0|3:0|3:0,3:0:0:0:
403,114,8993,1,0,3:0:0:0:
403,114,9076,2,0,L|404:76,2,32.8125012516976,8|0|2,0:0|3:0|0:0,3:0:0:0:
303,130,9409,5,2,1:2:0:0:
287,170,9493,1,0,3:0:0:0:
323,224,9576,5,2,3:2:0:0:
328,262,9659,1,0,3:0:0:0:
314,299,9743,1,8,3:2:0:0:
282,322,9826,1,0,3:0:0:0:
237,370,9909,5,2,3:2:0:0:
198,358,9993,1,0,3:0:0:0:
168,331,10076,1,0,3:0:0:0:
150,295,10159,1,0,3:0:0:0:
94,259,10243,5,2,3:2:0:0:
109,222,10326,1,0,3:0:0:0:
121,184,10409,1,8,3:2:0:0:
121,144,10493,1,0,3:0:0:0:
89,87,10576,5,2,3:2:0:0:
127,57,10659,1,0,3:0:0:0:
175,48,10743,1,2,1:2:0:0:
271,154,10909,1,2,0:0:0:0:
143,245,11076,1,8,3:2:0:0:
159,308,11159,1,0,3:0:0:0:
213,345,11243,1,0,3:0:0:0:
278,348,11326,1,0,3:0:0:0:
330,310,11409,2,0,L|344:292,4,16.4062506258488,0|0|0|0|2,3:0|3:0|3:0|3:0|3:0,3:0:0:0:
306,216,11743,2,0,P|344:209|401:233,1,98.4375037550928,8|0,0:0|0:0,0:0:0:0:
419,258,12076,5,4,1:2:0:0:
239,228,12243,2,0,P|241:187|278:152,1,87.5,2|8,0:0|0:0,0:0:0:0:
391,138,12576,2,0,P|369:93|324:66,1,87.5,2|0,0:0|1:0,0:0:0:0:
232,10,12909,2,0,P|273:-4|317:0,2,87.5,2|10|2,0:0|0:0|0:0,0:0:0:0:
241,139,13326,1,0,3:0:0:0:
264,155,13409,6,0,P|285:117|285:73,1,87.5,2|2,1:2|0:0,0:0:0:0:
135,83,13659,1,0,3:0:0:0:
135,83,13743,2,0,L|104:117,2,43.75,8|0|2,3:2|3:2|3:2,3:2:0:0:
169,174,13993,1,0,3:0:0:0:
169,174,14076,2,0,L|159:218,2,43.75,0|0|2,3:0|3:0|3:0,3:0:0:0:
239,257,14326,1,0,3:0:0:0:
239,257,14409,1,8,3:2:0:0:
239,257,14493,2,0,L|252:300,2,43.75,0|2|0,3:0|3:0|3:0,3:0:0:0:
347,235,14743,5,2,1:2:0:0:
414,297,14910,1,2,3:2:0:0:
440,283,14993,1,0,3:0:0:0:
460,263,15076,2,0,P|476:220|468:180,1,87.5,8|2,0:0|0:0,0:0:0:0:
380,111,15409,1,0,1:0:0:0:
380,111,15493,1,2,3:2:0:0:
380,111,15576,1,2,3:2:0:0:
347,235,15743,1,8,3:2:0:0:
347,235,15827,1,2,3:2:0:0:
347,235,15910,1,2,3:2:0:0:
245,144,16076,5,2,1:2:0:0:
245,144,16159,1,2,3:0:0:0:
245,144,16243,2,0,L|232:97,1,43.75,2|2,3:2|3:2,3:0:0:0:
111,134,16409,1,8,3:2:0:0:
111,134,16493,1,2,3:0:0:0:
111,134,16576,2,0,L|98:181,1,43.75,2|2,3:2|3:2,3:0:0:0:
83,267,16743,1,0,1:0:0:0:
80,288,16826,1,0,3:0:0:0:
82,309,16909,1,2,3:2:0:0:
87,330,16993,1,0,3:0:0:0:
95,349,17076,1,8,3:2:0:0:
136,335,17159,1,0,3:0:0:0:
179,328,17243,1,2,3:2:0:0:
221,338,17326,1,0,3:0:0:0:
261,353,17409,6,0,P|298:345|329:301,1,87.5,2|2,1:2|0:0,0:0:0:0:
305,267,17659,1,0,3:0:0:0:
279,226,17743,2,0,P|289:184|320:155,1,87.5,8|2,0:0|0:0,0:0:0:0:
470,250,18076,2,0,L|512:237,2,43.75,0|0|2,3:0|3:0|3:0,3:0:0:0:
437,129,18409,2,0,L|454:88,2,43.75,8|0|2,3:2|3:2|3:2,3:2:0:0:
300,85,18743,6,0,P|257:91|223:117,1,87.5,2|2,1:2|0:0,0:0:0:0:
198,159,18993,1,0,3:0:0:0:
176,203,19076,2,0,P|133:208|92:192,1,87.5,8|2,0:0|0:0,0:0:0:0:
63,161,19326,1,0,3:0:0:0:
63,117,19409,1,0,1:0:0:0:
87,80,19493,1,0,3:0:0:0:
128,66,19576,1,2,3:2:0:0:
304,203,19743,2,0,L|302:256,2,43.75,8|0|2,3:2|3:2|3:2,3:2:0:0:
389,77,20076,6,0,P|429:84|477:117,1,87.5,2|2,1:2|0:0,0:0:0:0:
487,139,20326,1,0,3:0:0:0:
498,177,20409,2,0,P|449:176|409:202,1,87.5,8|2,0:0|0:0,0:0:0:0:
406,223,20659,1,0,3:0:0:0:
404,251,20743,2,0,P|435:298|440:360,1,87.5,0|2,1:0|0:0,0:0:0:0:
437,355,20993,1,0,3:0:0:0:
421,383,21076,1,8,3:2:0:0:
321,316,21243,1,2,1:2:0:0:
219,383,21409,5,2,1:2:0:0:
179,384,21493,1,0,3:0:0:0:
144,365,21576,1,2,3:2:0:0:
125,330,21659,1,0,3:0:0:0:
126,290,21743,1,8,3:2:0:0:
145,256,21826,1,0,3:0:0:0:
163,221,21909,2,0,P|170:200|169:175,1,43.75,2|0,3:2|3:0,3:0:0:0:
100,152,22076,1,0,1:0:0:0:
79,113,22159,1,0,3:0:0:0:
69,69,22243,2,0,P|65:44|67:24,1,43.75,2|2,3:2|3:2,3:0:0:0:
159,35,22409,1,8,3:2:0:0:
211,32,22493,1,0,3:0:0:0:
261,43,22576,2,0,P|283:53|306:67,1,43.75,2|0,3:2|3:0,3:0:0:0:
323,136,22743,6,0,P|323:83|347:45,1,96.250002937317,4|2,1:2|0:0,0:0:0:0:
427,106,22993,1,0,3:0:0:0:
427,106,23076,2,0,L|474:121,2,48.1250014686585,8|0|2,3:2|3:2|3:2,3:2:0:0:
362,245,23409,1,0,1:0:0:0:
387,163,23576,1,2,0:0:0:0:
471,264,23743,1,8,3:2:0:0:
462,301,23826,1,0,3:0:0:0:
436,329,23909,1,2,3:2:0:0:
398,339,23993,1,0,3:0:0:0:
354,330,24076,6,0,P|306:340|257:328,1,96.250002937317,2|2,1:2|0:0,0:0:0:0:
173,273,24326,1,0,3:0:0:0:
173,273,24409,2,0,P|158:326|163:370,1,96.250002937317,8|2,0:0|0:0,0:0:0:0:
262,233,24659,1,0,3:0:0:0:
262,233,24742,2,0,P|223:193|182:175,1,96.250002937317,0|2,1:0|0:0,0:0:0:0:
86,213,25076,1,8,3:2:0:0:
69,172,25159,1,0,3:0:0:0:
88,132,25243,1,2,3:2:0:0:
65,95,25326,1,0,3:0:0:0:
80,54,25409,6,0,P|138:38|190:50,1,96.250002937317,2|2,1:2|0:0,0:0:0:0:
238,129,25659,1,0,3:0:0:0:
238,129,25743,2,0,P|293:139|335:127,1,96.250002937317,8|2,0:0|0:0,0:0:0:0:
431,4,26076,1,0,1:0:0:0:
321,14,26243,1,2,0:0:0:0:
441,113,26409,1,8,3:2:0:0:
465,143,26493,1,0,3:0:0:0:
476,179,26576,1,2,3:2:0:0:
473,217,26659,1,0,3:0:0:0:
454,250,26743,6,0,P|418:285|359:298,1,96.250002937317,2|2,1:2|0:0,0:0:0:0:
271,262,26993,1,0,3:0:0:0:
271,262,27076,2,0,P|267:320|286:372,1,96.250002937317,8|2,0:0|0:0,0:0:0:0:
167,237,27326,1,0,3:0:0:0:
167,237,27409,2,0,P|163:179|182:127,1,96.250002937317,0|2,1:0|0:0,0:0:0:0:
302,33,27743,1,8,3:2:0:0:
330,71,27826,1,0,3:0:0:0:
342,117,27909,1,2,3:2:0:0:
335,165,27993,1,0,3:0:0:0:
296,193,28076,6,0,P|335:155|401:133,1,96.250002937317,2|2,1:2|0:0,0:0:0:0:
461,205,28326,1,0,3:0:0:0:
461,205,28409,2,0,L|510:235,2,48.1250014686585,8|0|2,0:0|0:0|0:0,0:0:0:0:
435,346,28743,1,0,1:0:0:0:
379,241,28909,1,2,0:0:0:0:
311,338,29076,2,0,L|288:383,1,48.1250014686585,8|0,3:2|3:2,3:2:0:0:
246,242,29243,2,0,L|223:197,1,48.1250014686585,2|0,3:0|3:0,3:0:0:0:
134,299,29409,6,0,L|90:384,1,96.250002937317,2|2,1:2|0:0,0:0:0:0:
73,234,29743,1,8,3:2:0:0:
66,186,29826,1,0,3:0:0:0:
66,138,29909,1,2,3:2:0:0:
94,98,29993,1,0,3:0:0:0:
132,68,30076,2,0,L|149:22,1,48.1250014686585,0|0,3:0|3:0,3:0:0:0:
224,199,30243,2,0,L|207:153,1,48.1250014686585,2|0,3:0|3:0,3:0:0:0:
274,73,30409,1,8,3:2:0:0:
309,57,30493,1,0,3:0:0:0:
346,49,30576,2,0,P|369:46|400:56,1,48.1250014686585,2|0,3:0|3:0,3:0:0:0:
489,135,30743,5,2,1:2:0:0:
486,173,30826,1,0,3:0:0:0:
462,203,30909,1,0,3:0:0:0:
425,216,30993,1,0,3:0:0:0:
386,217,31076,1,8,1:2:0:0:
349,204,31159,1,0,3:0:0:0:
318,180,31243,1,0,3:0:0:0:
291,152,31326,1,0,3:0:0:0:
282,114,31409,1,0,1:0:0:0:
330,119,31493,1,0,3:0:0:0:
373,138,31576,1,0,3:0:0:0:
407,171,31659,1,0,3:0:0:0:
425,216,31743,1,8,1:2:0:0:
419,263,31826,1,0,3:0:0:0:
395,304,31909,1,0,3:0:0:0:
351,324,31993,1,0,3:0:0:0:
302,314,32076,6,0,P|266:285|259:223,1,109.375,2|0,1:2|0:0,0:0:0:0:
153,218,32326,2,0,P|160:171|219:135,1,109.375,2|0,3:2|0:0,0:0:0:0:
177,40,32576,2,0,P|204:30|236:29,1,54.6875,2|0,0:0|0:0,0:0:0:0:
313,152,32743,1,0,1:0:0:0:
351,21,32909,1,2,0:0:0:0:
431,157,33076,2,0,L|449:103,1,54.6875,8|0,3:0|3:0,3:0:0:0:
477,24,33243,1,2,3:0:0:0:
494,216,33409,6,0,L|507:256,2,27.34375,2|0|0,1:2|0:0|0:0,0:0:0:0:
313,152,33743,1,8,0:0:0:0:
379,236,33909,2,0,L|422:253,4,27.34375,2|0|0|0|0,0:0|0:0|0:0|0:0|1:0,0:0:0:0:
296,304,34243,1,2,0:0:0:0:
386,377,34409,2,0,P|451:350|492:291,1,144.375004405975,8|0,0:0|0:0,0:0:0:0:
431,157,34743,5,4,1:2:0:0:
256,192,41409,12,0,44076,0:0:0:0:
435,276,44243,21,8,3:2:0:0:
393,283,44326,1,8,3:2:0:0:
348,269,44409,1,8,3:2:0:0:
233,180,44576,5,2,3:2:0:0:
202,137,44659,1,0,3:0:0:0:
151,153,44742,1,2,1:2:0:0:
151,206,44826,1,0,3:0:0:0:
202,223,44909,1,2,3:2:0:0:
234,267,44993,5,2,3:2:0:0:
223,349,45076,5,8,3:2:0:0:
335,107,45409,6,0,P|303:78|260:72,1,87.5,4|2,1:2|0:0,0:0:0:0:
389,176,45743,1,8,0:0:0:0:
388,39,45909,2,0,P|422:12|471:10,1,87.5,2|0,0:0|1:0,0:0:0:0:
512,146,46243,1,2,0:0:0:0:
448,77,46409,1,8,0:0:0:0:
389,176,46576,1,2,0:0:0:0:
510,230,46743,6,0,P|517:258|490:312,1,87.5,2|2,1:2|0:0,0:0:0:0:
403,285,46993,1,0,3:0:0:0:
403,285,47076,2,0,P|379:281|354:282,1,43.75,8|0,0:0|0:0,0:0:0:0:
319,365,47243,2,0,P|283:340|269:299,1,87.5,2|0,0:0|1:0,0:0:0:0:
182,225,47576,1,2,3:2:0:0:
143,217,47659,1,0,3:0:0:0:
105,231,47743,1,8,3:2:0:0:
125,274,47826,1,0,3:0:0:0:
170,289,47909,1,2,3:2:0:0:
217,281,47993,1,0,3:0:0:0:
251,247,48076,6,0,P|251:200|222:163,1,87.5,2|0,1:2|0:0,0:0:0:0:
160,126,48326,2,0,P|191:96|233:87,1,87.5,2|0,3:2|0:0,0:0:0:0:
297,136,48576,1,2,0:0:0:0:
361,25,48743,1,0,1:0:0:0:
445,85,48909,1,2,3:2:0:0:
461,116,48993,1,0,3:0:0:0:
463,150,49076,1,8,3:2:0:0:
351,209,49243,1,2,0:0:0:0:
496,222,49409,6,0,P|507:268|496:313,1,87.5,2|0,1:2|0:0,0:0:0:0:
423,303,49659,2,0,P|372:306|338:328,1,87.5,2|0,3:2|0:0,0:0:0:0:
292,378,49909,1,2,0:0:0:0:
183,363,50076,1,0,1:0:0:0:
181,328,50159,1,0,3:0:0:0:
191,294,50243,2,0,P|201:272|220:254,1,43.75,2|2,3:2|3:2,0:0:0:0:
299,217,50409,1,8,3:2:0:0:
319,173,50493,1,0,3:0:0:0:
327,125,50576,1,2,3:2:0:0:
326,77,50659,1,0,3:0:0:0:
303,34,50743,6,0,P|245:26|187:52,1,87.5,4|2,1:2|0:0,0:0:0:0:
104,148,51076,1,8,0:0:0:0:
135,55,51243,1,2,0:0:0:0:
236,223,51409,1,0,1:0:0:0:
201,114,51576,1,2,0:0:0:0:
60,292,51743,1,8,0:0:0:0:
104,148,51910,1,2,0:0:0:0:
166,298,52076,6,0,P|202:328|243:333,1,87.5,2|2,1:2|0:0,0:0:0:0:
329,274,52326,1,0,3:0:0:0:
329,274,52409,2,0,P|376:272|424:293,1,87.5,8|2,0:0|0:0,0:0:0:0:
358,162,52743,1,0,1:0:0:0:
418,68,52909,1,2,0:0:0:0:
512,128,53076,1,8,0:0:0:0:
450,222,53243,1,2,0:0:0:0:
338,82,53409,5,2,1:2:0:0:
305,68,53493,1,0,3:0:0:0:
270,64,53576,1,0,3:0:0:0:
235,70,53659,1,0,3:0:0:0:
203,88,53743,1,8,3:2:0:0:
214,121,53826,1,0,3:0:0:0:
225,154,53909,1,0,3:0:0:0:
225,189,53993,1,0,3:0:0:0:
223,223,54076,2,0,L|213:284,1,43.75,0|0,1:0|3:0,3:0:0:0:
173,371,54243,2,0,L|162:328,1,43.75,0|0,1:0|3:0,3:0:0:0:
143,199,54409,2,0,L|132:241,1,43.75,8|0,1:2|3:0,3:0:0:0:
83,384,54576,2,0,L|72:341,1,43.75,0|0,1:0|3:0,3:0:0:0:
68,179,54743,6,0,L|65:136,3,43.75,2|0|0|0,1:2|3:0|3:0|3:0,3:0:0:0:
122,106,55076,2,0,L|134:52,3,43.75,8|0|0|0,3:2|3:0|3:0|3:0,3:0:0:0:
197,65,55409,2,0,L|217:50,6,21.875,0|0|0|0|0|0|0,1:0|3:0|3:0|3:0|3:0|3:0|3:0,3:0:0:0:
237,114,55743,1,8,3:2:0:0:
294,140,55826,1,0,3:0:0:0:
357,137,55909,1,2,3:2:0:0:
412,106,55993,1,0,3:0:0:0:
451,60,56076,6,0,L|470:205,1,131.25,4|0,1:2|0:0,0:0:0:0:
449,215,56409,1,8,0:0:0:0:
332,26,56659,1,2,3:2:0:0:
227,222,56909,1,2,0:0:0:0:
339,140,57076,1,8,0:0:0:0:
350,297,57243,1,2,0:0:0:0:
221,370,57409,6,0,P|174:363|143:339,1,87.5,2|0,1:2|0:0,0:0:0:0:
100,279,57659,2,0,P|123:234|125:191,1,87.5,2|0,3:2|0:0,0:0:0:0:
86,132,57909,2,0,P|79:85|97:44,1,87.5,2|0,0:0|1:0,0:0:0:0:
194,65,58243,1,2,0:0:0:0:
294,81,58409,1,8,0:0:0:0:
394,97,58576,1,2,0:0:0:0:
331,176,58743,6,0,L|319:267,1,87.5,2|0,1:2|0:0,0:0:0:0:
392,273,58993,2,0,L|403:186,1,87.5,2|0,3:2|0:0,0:0:0:0:
476,197,59243,2,0,L|464:283,1,87.5,2|0,0:0|0:0,0:0:0:0:
380,359,59576,1,2,0:0:0:0:
319,262,59743,1,8,0:0:0:0:
228,337,59909,1,2,0:0:0:0:
173,238,60076,6,0,P|140:260|116:307,1,87.5,2|2,1:2|0:0,0:0:0:0:
64,200,60326,1,2,3:2:0:0:
191,142,60493,1,2,0:0:0:0:
191,142,60576,1,2,0:0:0:0:
107,73,60742,1,0,1:0:0:0:
204,14,60909,1,2,0:0:0:0:
268,93,61076,1,8,0:0:0:0:
343,55,61243,1,2,0:0:0:0:
415,97,61409,6,0,P|428:139|427:183,1,87.5,2|2,1:2|0:0,0:0:0:0:
418,9,61743,1,8,0:0:0:0:
507,310,61993,1,2,3:2:0:0:
329,166,62243,1,2,0:0:0:0:
269,266,62409,1,8,0:0:0:0:
219,156,62576,1,2,0:0:0:0:
210,312,62743,6,0,P|242:339|285:340,1,87.5,2|0,1:2|0:0,0:0:0:0:
137,283,62993,2,0,P|129:325|150:362,1,87.5,2|0,3:2|0:0,0:0:0:0:
129,210,63243,2,0,P|88:224|67:261,1,87.5,2|0,0:0|1:0,0:0:0:0:
259,189,63576,1,2,0:0:0:0:
251,109,63743,1,8,0:0:0:0:
243,29,63909,1,2,0:0:0:0:
325,144,64076,5,2,1:2:0:0:
173,76,64243,1,10,0:0:0:0:
318,60,64409,1,8,0:0:0:0:
182,159,64576,1,2,3:2:0:0:
190,214,64659,1,0,3:0:0:0:
234,249,64743,1,0,1:2:0:0:
289,247,64826,1,0,3:0:0:0:
335,216,64909,2,0,L|371:259,2,48.1250014686585,10|0|8,3:2|0:0|0:0,0:0:0:0:
251,109,65243,1,2,0:0:0:0:
398,96,65409,5,2,1:2:0:0:
444,110,65493,1,0,3:0:0:0:
480,141,65576,2,0,L|499:165,2,24.0625007343292,2|0|0,3:2|0:0|0:0,0:0:0:0:
384,208,65743,1,8,3:2:0:0:
365,252,65827,1,0,3:0:0:0:
365,299,65909,2,0,P|374:321|390:338,1,48.1250014686585,2|2,3:2|3:2,0:0:0:0:
293,241,66076,1,0,1:0:0:0:
240,236,66159,1,0,3:0:0:0:
189,252,66243,2,0,P|160:264|144:282,1,48.1250014686585,2|0,3:2|3:0,0:0:0:0:
71,167,66409,2,0,P|77:197|92:216,1,48.1250014686585,8|0,3:2|3:0,0:0:0:0:
206,97,66576,2,0,P|202:120|189:141,1,48.1250014686585,2|0,3:2|3:0,0:0:0:0:
99,27,66743,5,2,1:2:0:0:
161,16,66826,1,0,3:0:0:0:
223,26,66909,1,2,3:2:0:0:
284,11,66993,1,0,3:0:0:0:
347,11,67076,2,0,P|385:46|402:101,1,96.250002937317,12|0,3:2|0:0,0:0:0:0:
305,172,67326,1,0,3:0:0:0:
305,172,67409,2,0,P|303:143|314:118,1,48.1250014686585,0|0,1:0|0:0,0:0:0:0:
412,175,67576,2,0,P|421:196|424:220,1,48.1250014686585,2|0,0:0|0:0,0:0:0:0:
266,280,67743,2,0,P|261:256|263:232,1,48.1250014686585,8|0,0:0|0:0,0:0:0:0:
419,294,67909,2,0,P|423:317|421:341,1,48.1250014686585,2|0,0:0|0:0,0:0:0:0:
235,356,68076,6,0,P|198:325|184:280,1,96.250002937317,2|0,1:2|0:0,0:0:0:0:
89,284,68326,2,0,P|97:237|129:202,1,96.250002937317,2|0,3:2|0:0,0:0:0:0:
85,123,68576,2,0,P|105:112|129:107,1,48.1250014686585,2|0,0:0|0:0,0:0:0:0:
158,38,68743,1,0,1:0:0:0:
207,18,68826,1,0,3:0:0:0:
259,22,68909,1,2,3:2:0:0:
304,49,68993,1,0,3:0:0:0:
327,101,69076,2,0,P|328:126|321:156,1,48.1250014686585,8|2,3:2|3:2,0:0:0:0:
425,47,69243,2,0,P|424:22|431:-8,1,48.1250014686585,2|2,0:0|3:2,0:0:0:0:
442,159,69409,6,0,P|463:201|468:249,1,96.250002937317,2|0,1:2|0:0,0:0:0:0:
372,264,69659,2,0,P|350:307|346:355,1,96.250002937317,2|0,3:2|0:0,0:0:0:0:
280,220,69909,1,2,0:0:0:0:
215,349,70076,1,0,1:0:0:0:
172,318,70159,1,0,3:0:0:0:
144,273,70243,1,2,3:2:0:0:
136,221,70325,1,0,3:0:0:0:
175,184,70409,1,8,3:2:0:0:
197,136,70492,1,0,3:0:0:0:
198,83,70575,1,2,3:2:0:0:
66,29,70743,6,0,P|75:78|128:117,1,96.250002937317,2|0,1:2|0:0,0:0:0:0:
198,83,70993,2,0,P|248:72|295:93,1,96.250002937317,2|0,3:2|0:0,0:0:0:0:
264,174,71243,2,0,P|283:188|306:194,1,48.1250014686585,2|0,0:0|0:0,0:0:0:0:
410,166,71409,1,0,3:0:0:0:
427,131,71493,1,0,3:0:0:0:
427,92,71576,1,0,3:0:0:0:
412,56,71659,1,0,3:0:0:0:
382,31,71743,1,8,3:2:0:0:
347,77,71826,1,0,3:0:0:0:
362,132,71909,1,0,3:0:0:0:
410,166,71993,1,0,3:0:0:0:
434,217,72076,6,0,P|442:239|446:263,1,48.1250014686585,2|0,1:2|0:0,0:0:0:0:
332,352,72243,1,2,3:2:0:0:
332,352,72326,1,0,3:0:0:0:
332,352,72409,2,0,P|345:309|327:259,1,96.250002937317,8|0,3:2|0:0,0:0:0:0:
215,293,72659,2,0,P|260:240|247:172,1,144.375004405975,0|2,1:0|0:0,0:0:0:0:
127,90,73076,1,8,0:0:0:0:
181,222,73243,1,2,0:0:0:0:
181,35,73409,6,0,P|223:14|271:11,1,96.250002937317,2|0,1:2|0:0,0:0:0:0:
342,113,73659,2,0,P|299:91|251:88,1,96.250002937317,2|0,3:2|0:0,0:0:0:0:
417,102,73909,2,0,P|409:79|393:61,1,48.1250014686585,2|0,0:0|0:0,0:0:0:0:
312,189,74076,1,0,1:0:0:0:
479,158,74243,1,2,0:0:0:0:
362,262,74409,1,8,0:0:0:0:
417,102,74576,1,2,0:0:0:0:
431,308,74743,6,0,P|395:339|348:345,1,96.250002937317,2|0,1:2|0:0,0:0:0:0:
287,261,74993,2,0,P|243:241|197:248,1,96.250002937317,2|0,3:2|0:0,0:0:0:0:
127,294,75243,1,2,0:0:0:0:
195,133,75409,2,0,L|187:189,1,48.1250014686585,0|0,1:0|0:0,0:0:0:0:
76,164,75576,2,0,L|88:221,1,48.1250014686585,2|0,0:0|0:0,0:0:0:0:
210,56,75743,1,8,0:0:0:0:
65,80,75909,1,2,0:0:0:0:
267,106,76076,5,2,1:2:0:0:
306,123,76159,1,0,3:0:0:0:
334,156,76243,1,0,3:0:0:0:
340,198,76326,1,0,3:0:0:0:
306,244,76409,1,8,3:2:0:0:
303,306,76493,1,0,3:0:0:0:
349,347,76576,1,0,3:0:0:0:
411,348,76659,1,0,3:0:0:0:
443,283,76743,5,0,1:0:0:0:
377,253,76826,1,0,3:0:0:0:
306,244,76909,1,0,3:0:0:0:
236,264,76993,1,0,3:0:0:0:
171,296,77076,6,0,P|119:259|82:187,1,144.375004405975,8|0,3:2|0:0,0:0:0:0:
87,105,77409,37,4,1:2:0:0:
196,226,77576,2,0,P|211:184|205:139,1,87.5,2|8,0:0|0:0,0:0:0:0:
115,26,77909,2,0,P|91:64|88:112,1,87.5,2|0,0:0|1:0,0:0:0:0:
276,225,78243,1,2,0:0:0:0:
314,142,78409,1,8,0:0:0:0:
238,64,78576,2,0,P|211:104|209:161,1,87.5,0|2,0:0|1:2,0:0:0:0:
391,1,78909,6,0,P|406:45|400:97,1,87.5,2|8,0:0|0:0,0:0:0:0:
484,153,79243,2,0,P|499:109|493:57,1,87.5,2|0,0:0|1:0,0:0:0:0:
320,175,79576,2,0,P|313:125|331:75,1,87.5,0|8,0:0|0:0,0:0:0:0:
419,259,79909,1,2,0:0:0:0:
259,233,80076,6,0,P|174:238|124:306,1,175,2|8,1:2|0:0,0:0:0:0:
159,215,80576,2,0,P|162:172|152:128,1,87.5,2|0,0:0|1:0,0:0:0:0:
67,58,80909,1,2,0:0:0:0:
93,157,81076,1,8,0:0:0:0:
141,42,81243,1,2,0:0:0:0:
219,109,81409,6,0,P|274:114|321:89,1,87.5,2|2,1:2|0:0,0:0:0:0:
418,201,81743,2,0,P|375:165|360:114,1,87.5,8|2,0:0|0:0,0:0:0:0:
264,269,82076,2,0,P|304:237|317:194,1,87.5,0|2,1:0|0:0,0:0:0:0:
387,290,82409,1,8,0:0:0:0:
299,384,82576,1,2,0:0:0:0:
188,308,82743,6,0,P|177:266|193:221,1,87.5,2|2,1:2|0:0,0:0:0:0:
89,356,83076,1,8,0:0:0:0:
95,224,83243,2,0,P|108:182|137:150,1,87.5,0|0,0:0|1:0,0:0:0:0:
205,47,83576,1,2,0:0:0:0:
86,42,83743,1,8,0:0:0:0:
137,150,83909,1,2,0:0:0:0:
277,94,84076,6,0,P|363:95|421:157,1,175,2|8,1:2|0:0,0:0:0:0:
328,273,84576,2,0,P|307:235|319:195,1,87.5,2|0,0:0|1:0,0:0:0:0:
497,202,84909,2,0,P|472:236|424:249,1,87.5,2|8,0:0|0:0,0:0:0:0:
457,76,85243,1,2,0:0:0:0:
497,202,85409,6,0,P|509:247|509:289,1,87.5,2|2,1:2|0:0,0:0:0:0:
411,349,85743,1,8,0:0:0:0:
328,273,85909,1,2,0:0:0:0:
243,342,86076,2,0,L|232:386,1,43.75,0|0,1:0|0:0,0:0:0:0:
207,245,86243,1,2,0:0:0:0:
146,366,86409,1,8,0:0:0:0:
114,274,86576,1,2,0:0:0:0:
70,153,86743,5,0,1:0:0:0:
159,111,86909,2,0,L|172:63,2,43.75,2|0|8,0:0|0:0|0:0,0:0:0:0:
254,194,87243,1,2,3:2:0:0:
254,194,87326,1,0,3:0:0:0:
254,194,87409,1,0,1:0:0:0:
280,78,87576,1,2,3:2:0:0:
331,73,87659,1,0,3:0:0:0:
380,92,87742,1,8,3:2:0:0:
416,129,87825,1,0,3:0:0:0:
433,178,87909,1,2,3:2:0:0:
428,230,87992,1,0,3:0:0:0:
404,277,88076,6,0,P|403:329|427:369,1,87.5,4|2,1:2|0:0,0:0:0:0:
338,194,88409,1,8,0:0:0:0:
320,372,88576,2,0,L|313:279,1,87.5,2|0,0:0|1:0,0:0:0:0:
158,236,88909,1,2,0:0:0:0:
250,214,89076,1,8,0:0:0:0:
338,194,89243,2,0,L|329:100,1,87.5,2|2,0:0|1:2,0:0:0:0:
232,344,89576,5,2,0:0:0:0:
325,327,89743,2,0,L|316:229,1,87.5,8|2,0:0|0:0,0:0:0:0:
138,359,90076,1,2,1:2:0:0:
250,214,90326,1,2,3:2:0:0:
250,214,90409,1,8,3:2:0:0:
406,308,90576,1,2,0:0:0:0:
338,194,90743,5,2,1:2:0:0:
409,110,90909,1,2,3:2:0:0:
409,110,90993,1,0,3:0:0:0:
409,110,91076,2,0,P|403:60|376:27,1,87.5,8|2,0:0|0:0,0:0:0:0:
286,106,91409,1,0,1:0:0:0:
286,106,91493,1,0,3:0:0:0:
286,106,91576,2,0,L|232:126,1,43.75,2|0,3:2|0:0,0:0:0:0:
171,46,91743,1,8,3:2:0:0:
171,46,91827,1,0,3:0:0:0:
171,46,91910,2,0,L|225:26,1,43.75,2|0,3:2|0:0,0:0:0:0:
143,148,92076,5,2,1:2:0:0:
121,186,92159,1,0,3:0:0:0:
149,220,92243,1,2,3:2:0:0:
131,260,92326,1,0,3:0:0:0:
158,294,92409,2,0,P|205:308|245:296,1,87.5,8|2,3:2|0:0,0:0:0:0:
280,201,92743,1,0,1:0:0:0:
313,332,92909,1,2,3:2:0:0:
350,354,92993,1,0,3:0:0:0:
392,361,93076,1,8,3:2:0:0:
435,354,93159,1,0,3:0:0:0:
469,327,93243,1,2,3:2:0:0:
487,287,93326,1,0,3:0:0:0:
491,243,93409,6,0,P|491:221|485:200,1,43.75,2|2,1:2|0:0,0:0:0:0:
365,170,93576,2,0,P|365:191|371:212,1,43.75,2|2,0:0|0:0,0:0:0:0:
492,120,93743,1,8,0:0:0:0:
342,91,93909,1,2,3:2:0:0:
342,91,93993,1,0,3:0:0:0:
342,90,94076,2,0,P|303:111|283:149,1,87.5,0|2,1:0|0:0,0:0:0:0:
237,23,94409,1,8,0:0:0:0:
198,148,94576,1,2,3:2:0:0:
198,148,94659,1,0,3:0:0:0:
198,148,94743,6,0,P|176:104|140:82,1,87.5,2|2,1:2|0:0,0:0:0:0:
93,183,94993,1,0,3:0:0:0:
93,183,95076,2,0,P|94:209|107:239,1,43.75,8|2,0:0|3:2,0:0:0:0:
225,277,95243,2,0,P|224:251|211:221,1,43.75,2|2,0:0|3:2,0:0:0:0:
133,317,95409,1,0,1:0:0:0:
260,360,95576,1,2,3:2:0:0:
260,360,95659,1,0,3:0:0:0:
260,360,95743,2,0,L|309:353,1,43.75,8|0,3:2|0:0,0:0:0:0:
305,235,95909,2,0,L|354:228,1,43.75,2|0,0:0|0:0,0:0:0:0:
424,308,96076,5,2,1:2:0:0:
449,272,96159,1,0,3:0:0:0:
459,229,96243,1,2,3:2:0:0:
448,186,96326,1,0,3:0:0:0:
416,155,96409,2,0,P|399:111|415:72,1,87.5,8|2,3:2|0:0,0:0:0:0:
292,60,96743,1,0,1:0:0:0:
292,60,96826,1,0,3:0:0:0:
292,60,96909,2,0,L|284:12,1,43.75,2|0,3:2|0:0,0:0:0:0:
217,139,97076,1,8,3:2:0:0:
217,139,97159,1,0,3:0:0:0:
217,139,97242,2,0,L|209:187,1,43.75,2|0,3:2|0:0,0:0:0:0:
186,40,97409,5,2,1:2:0:0:
137,46,97493,1,0,3:0:0:0:
97,73,97576,1,0,3:0:0:0:
73,115,97659,1,0,3:0:0:0:
66,163,97743,1,8,3:2:0:0:
80,199,97826,1,0,3:0:0:0:
87,237,97909,1,0,3:0:0:0:
84,276,97993,1,0,3:0:0:0:
69,312,98076,1,0,1:0:0:0:
97,301,98159,1,0,3:0:0:0:
127,299,98243,1,0,3:0:0:0:
157,303,98326,1,0,3:0:0:0:
184,315,98409,1,8,3:2:0:0:
203,325,98493,1,0,3:0:0:0:
223,331,98576,1,0,3:0:0:0:
244,334,98659,1,0,3:0:0:0:
266,332,98743,5,4,1:2:0:0:
256,193,108743,38,0,L|277:221,4,21.875,0|0|0|0|2,1:0|0:0|0:0|0:0|0:0,0:0:0:0:
141,152,109076,1,8,0:0:0:0:
377,138,109409,5,4,1:2:0:0:
261,286,109743,2,0,P|319:270|343:218,1,96.250002937317,8|2,0:0|0:0,0:0:0:0:
299,130,110076,1,0,1:0:0:0:
299,130,110159,1,0,3:0:0:0:
299,130,110243,1,2,3:2:0:0:
399,209,110409,1,8,0:0:0:0:
424,76,110576,2,0,P|399:29|365:0,1,96.250002937317,2|2,0:0|1:2,0:0:0:0:
299,130,110909,5,2,0:0:0:0:
176,75,111076,1,8,3:2:0:0:
153,84,111159,1,0,3:0:0:0:
137,102,111243,1,2,3:2:0:0:
206,251,111409,1,0,1:0:0:0:
192,143,111576,1,2,0:0:0:0:
138,311,111743,2,0,L|133:363,2,48.1250014686585,8|0|2,3:2|3:2|3:2,3:2:0:0:
113,208,112076,6,0,L|63:196,1,48.1250014686585,2|0,1:2|0:0,0:0:0:0:
192,143,112243,2,0,L|242:131,1,48.1250014686585,2|0,0:0|0:0,0:0:0:0:
214,263,112409,1,8,3:2:0:0:
244,273,112493,1,0,3:0:0:0:
274,281,112576,2,0,P|299:280|321:273,1,48.1250014686585,2|0,1:2|0:0,0:0:0:0:
413,167,112743,2,0,L|446:132,1,48.1250014686585,0|0,1:0|0:0,0:0:0:0:
329,132,112909,2,0,L|326:83,1,48.1250014686585,2|0,1:2|0:0,0:0:0:0:
391,245,113076,1,8,3:2:0:0:
395,283,113159,1,0,3:0:0:0:
382,319,113243,1,2,3:2:0:0:
352,343,113326,1,0,3:0:0:0:
314,351,113409,6,0,P|291:356|267:355,1,48.1250014686585,2|0,1:2|0:0,0:0:0:0:
177,285,113576,1,2,1:2:0:0:
132,286,113659,1,2,1:2:0:0:
90,305,113743,2,0,P|82:337|83:356,1,48.1250014686585,8|0,3:2|0:0,0:0:0:0:
253,285,113909,2,0,P|260:263|261:239,1,48.1250014686585,2|0,1:2|0:0,0:0:0:0:
91,226,114076,1,0,1:0:0:0:
73,181,114159,1,0,3:0:0:0:
65,133,114243,1,2,1:2:0:0:
71,85,114326,1,0,3:0:0:0:
97,45,114409,2,0,P|119:36|150:34,1,48.1250014686585,8|0,3:2|0:0,0:0:0:0:
199,131,114576,2,0,P|177:140|146:142,1,48.1250014686585,2|8,0:0|0:0,0:0:0:0:
257,13,114743,5,4,1:2:0:0:
294,244,115076,1,8,0:0:0:0:
313,148,115243,2,0,P|332:102|374:73,1,96.250002937317,2|0,0:0|1:0,0:0:0:0:
386,266,115576,1,2,0:0:0:0:
410,166,115743,1,8,0:0:0:0:
313,148,115909,1,2,0:0:0:0:
287,273,116076,5,2,1:2:0:0:
211,169,116243,1,2,3:2:0:0:
167,148,116326,1,0,3:0:0:0:
119,144,116409,2,0,P|79:191|75:236,1,96.250002937317,8|0,3:2|0:0,0:0:0:0:
69,344,116743,1,0,1:0:0:0:
155,254,116909,1,2,3:2:0:0:
194,273,116993,1,0,3:0:0:0:
213,311,117076,1,8,3:2:0:0:
257,281,117159,1,0,3:0:0:0:
307,264,117243,1,2,3:2:0:0:
359,264,117326,1,0,3:0:0:0:
409,279,117409,6,0,P|457:287|503:274,1,96.250002937317,2|2,1:2|0:0,0:0:0:0:
512,158,117743,1,8,3:2:0:0:
498,117,117826,1,0,3:0:0:0:
466,88,117909,1,2,3:2:0:0:
403,179,118076,1,0,1:0:0:0:
358,72,118243,1,2,3:2:0:0:
325,92,118326,1,0,3:0:0:0:
303,123,118409,1,8,3:2:0:0:
431,259,118576,1,2,3:2:0:0:
405,231,118659,1,0,3:0:0:0:
362,212,118742,5,2,1:2:0:0:
286,350,118909,2,0,L|282:378,2,24.0625007343292,2|0|0,0:0|0:0|0:0,0:0:0:0:
206,196,119076,1,8,0:0:0:0:
207,354,119243,2,0,L|203:382,2,24.0625007343292,2|0|0,0:0|0:0|0:0,0:0:0:0:
97,296,119410,1,0,1:0:0:0:
68,233,119493,1,0,3:0:0:0:
66,167,119576,1,2,3:2:0:0:
81,105,119659,1,0,3:0:0:0:
115,52,119743,2,0,P|176:77|266:65,1,144.375004405975,8|0,3:2|0:0,0:0:0:0:
286,54,120076,6,0,P|275:121|295:172,1,104.999996795654,4|0,1:2|0:0,0:0:0:0:
429,120,120326,1,0,3:0:0:0:
452,102,120409,2,0,P|398:88|347:109,1,104.999996795654,8|2,0:0|0:0,0:0:0:0:
330,279,120743,2,0,P|363:238|366:179,1,104.999996795654,0|2,1:0|0:0,0:0:0:0:
194,177,121076,1,8,3:2:0:0:
171,235,121159,1,0,3:0:0:0:
174,298,121243,1,2,3:2:0:0:
330,279,121409,6,0,P|273:260|219:267,1,104.999996795654,2|2,1:2|0:0,0:0:0:0:
83,331,121659,1,0,3:0:0:0:
100,358,121743,1,8,3:2:0:0:
68,173,121909,1,2,3:2:0:0:
68,173,121993,1,0,3:0:0:0:
68,173,122076,2,0,P|62:115|84:71,1,104.999996795654,0|2,1:0|0:0,0:0:0:0:
287,130,122409,1,8,0:0:0:0:
140,132,122576,1,2,0:0:0:0:
270,50,122743,5,2,1:2:0:0:
322,46,122826,1,0,3:0:0:0:
363,78,122909,1,0,3:0:0:0:
377,128,122992,1,0,3:0:0:0:
357,175,123076,1,8,3:2:0:0:
335,227,123160,1,0,3:0:0:0:
350,282,123243,1,0,3:0:0:0:
397,316,123326,1,0,3:0:0:0:
454,314,123409,2,0,P|470:291|474:262,1,52.4999983978272,0|0,1:0|0:0,0:0:0:0:
479,161,123576,2,0,P|456:145|427:141,1,52.4999983978272,2|0,0:0|0:0,0:0:0:0:
326,136,123743,2,0,P|310:159|306:188,1,52.4999983978272,8|0,0:0|0:0,0:0:0:0:
301,289,123909,2,0,P|324:305|353:309,1,52.4999983978272,2|0,0:0|0:0,0:0:0:0:
238,200,124076,6,0,P|186:190|122:210,1,104.999996795654,2|0,1:2|0:0,0:0:0:0:
80,336,124326,1,0,3:0:0:0:
90,360,124409,1,8,3:2:0:0:
66,145,124575,1,2,0:0:0:0:
169,300,124743,1,0,1:0:0:0:
164,79,124909,1,2,0:0:0:0:
69,310,125076,1,8,0:0:0:0:
266,249,125243,1,2,3:2:0:0:
325,267,125326,1,0,3:0:0:0:
387,265,125409,6,0,P|413:217|403:151,1,104.999996795654,2|2,1:2|0:0,0:0:0:0:
262,130,125659,1,0,3:0:0:0:
238,149,125743,1,8,3:2:0:0:
355,65,125909,1,2,0:0:0:0:
217,35,126076,2,0,P|163:11|104:36,1,104.999996795654,0|2,1:0|0:0,0:0:0:0:
106,183,126326,1,0,3:0:0:0:
133,205,126409,1,8,3:2:0:0:
68,100,126575,1,2,0:0:0:0:
68,310,126743,6,0,P|119:332|176:320,1,104.999996795654,2|0,1:2|0:0,0:0:0:0:
218,235,126993,2,0,P|271:229|322:253,1,104.999996795654,2|0,3:2|0:0,0:0:0:0:
328,357,127243,1,2,0:0:0:0:
363,171,127409,1,0,1:0:0:0:
425,335,127576,1,2,0:0:0:0:
454,159,127743,1,8,3:2:0:0:
462,96,127826,1,0,3:0:0:0:
441,36,127909,1,2,3:2:0:0:
383,8,127993,1,0,3:0:0:0:
320,15,128076,5,2,0:2:0:0:
257,222,128243,1,2,0:0:0:0:
202,13,128409,1,8,0:0:0:0:
105,218,128576,1,2,0:0:0:0:
334,115,128743,2,0,L|385:124,1,52.4999983978272
117,81,128909,2,0,L|65:73,1,52.4999983978272
172,283,129076,2,0,L|167:344,1,52.4999983978272,8|0,0:0|0:0,0:0:0:0:
197,65,129243,2,0,L|202:8,1,52.4999983978272
401,195,129409,6,0,P|454:220|487:264,1,104.999996795654,2|2,1:2|0:0,0:0:0:0:
331,309,129660,1,0,3:0:0:0:
310,287,129743,1,8,3:2:0:0:
441,346,129909,1,2,0:0:0:0:
246,375,130076,2,0,P|189:390|136:372,1,104.999996795654,0|2,1:0|0:0,0:0:0:0:
76,289,130409,2,0,L|66:235,1,52.4999983978272,8|0,0:0|0:0,0:0:0:0:
203,202,130576,2,0,L|213:148,1,52.4999983978272,2|0,0:0|0:0,0:0:0:0:
103,65,130743,6,0,P|161:29|215:30,1,104.999996795654,4|0,1:2|0:0,0:0:0:0:
327,128,130993,1,0,3:0:0:0:
306,153,131076,1,8,3:2:0:0:
390,1,131242,1,2,3:2:0:0:
426,2,131326,1,0,3:0:0:0:
452,18,131409,2,0,P|468:72|453:122,1,104.999996795654,2|2,1:2|0:0,0:0:0:0:
386,176,131659,2,0,P|382:238|403:295,1,104.999996795654,2|0,3:2|0:0,0:0:0:0:
458,345,131909,1,2,0:0:0:0:
336,383,132076,5,2,1:2:0:0:
284,389,132159,1,0,3:0:0:0:
238,366,132242,1,0,3:0:0:0:
214,320,132326,1,0,3:0:0:0:
223,267,132409,1,8,3:2:0:0:
229,211,132493,1,0,3:0:0:0:
202,161,132577,1,0,3:0:0:0:
152,135,132660,1,0,3:0:0:0:
96,142,132743,2,0,P|79:165|74:197,1,52.4999983978272,0|0,1:0|0:0,0:0:0:0:
107,292,132909,2,0,P|130:309|162:314,1,52.4999983978272,2|0,0:0|0:0,0:0:0:0:
257,281,133076,2,0,P|274:258|279:226,1,52.4999983978272,8|0,0:0|0:0,0:0:0:0:
246,131,133243,1,2,3:2:0:0:
236,70,133326,1,0,3:0:0:0:
270,19,133409,6,0,P|336:13|378:40,1,104.999996795654,2|2,1:2|0:0,0:0:0:0:
502,93,133743,2,0,L|451:103,1,52.4999983978272,8|0,0:0|0:0,0:0:0:0:
309,172,133909,2,0,L|361:182,1,52.4999983978272,2|0,0:0|0:0,0:0:0:0:
505,312,134076,1,0,1:0:0:0:
478,267,134159,1,0,3:0:0:0:
430,249,134242,1,0,3:0:0:0:
380,265,134326,1,0,3:0:0:0:
351,307,134409,2,0,L|306:273,1,52.4999983978272,8|0,3:2|3:0,0:0:0:0:
233,380,134576,2,0,L|233:323,1,52.4999983978272,2|0,3:2|3:0,0:0:0:0:
141,301,134743,6,0,P|137:277|142:244,1,52.4999983978272,2|0,1:2|0:0,0:0:0:0:
256,192,134909,1,2,3:2:0:0:
278,138,134993,1,0,3:0:0:0:
284,80,135076,2,0,P|281:52|269:24,1,52.4999983978272,8|0,3:2|0:0,0:0:0:0:
149,130,135243,2,0,P|152:158|164:186,1,52.4999983978272,2|0,0:0|0:0,0:0:0:0:
68,29,135409,1,0,1:0:0:0:
71,242,135576,1,2,0:0:0:0:
212,71,135743,1,8,0:0:0:0:
292,228,135909,1,2,3:2:0:0:
343,254,135993,1,0,3:0:0:0:
400,255,136076,6,0,P|437:209|433:134,1,104.999996795654,2|0,1:2|0:0,0:0:0:0:
510,100,136326,2,0,P|465:73|413:78,1,104.999996795654,2|0,3:2|0:0,0:0:0:0:
356,144,136576,1,2,0:0:0:0:
302,28,136743,2,0,L|347:0,1,52.4999983978272,2|0,1:2|0:0,0:0:0:0:
146,138,136909,2,0,L|85:137,1,52.4999983978272,2|0,0:0|0:0,0:0:0:0:
252,247,137076,2,0,L|252:302,1,52.4999983978272,10|0,0:0|0:0,0:0:0:0:
210,28,137243,2,0,L|165:0,1,52.4999983978272,2|2,0:0|0:0,0:0:0:0:
170,313,137409,6,0,P|204:360|264:379,1,104.999996795654,2|0,1:2|0:0,0:0:0:0:
252,247,137659,2,0,P|311:246|358:269,1,104.999996795654,2|0,3:2|0:0,0:0:0:0:
390,347,137909,1,2,3:2:0:0:
446,331,137993,1,0,3:0:0:0:
482,286,138076,2,0,P|501:234|489:178,1,104.999996795654,0|2,1:0|0:0,0:0:0:0:
424,76,138409,1,8,0:0:0:0:
421,226,138576,1,2,0:0:0:0:
296,94,138743,5,2,1:2:0:0:
245,81,138826,1,0,3:2:0:0:
193,86,138909,1,0,3:2:0:0:
145,109,138993,1,0,3:2:0:0:
118,154,139076,1,10,3:2:0:0:
107,205,139159,1,0,3:2:0:0:
113,257,139243,1,0,3:2:0:0:
137,303,139326,1,0,3:2:0:0:
177,336,139409,2,0,P|202:342|234:338,1,52.4999983978272,2|0,1:2|0:0,0:0:0:0:
370,234,139576,1,0,3:0:0:0:
317,209,139659,1,0,3:0:0:0:
258,207,139743,2,0,P|227:210|203:221,1,52.4999983978272,10|0,3:2|3:0,0:0:0:0:
347,322,139909,2,0,P|370:325|401:320,1,52.4999983978272,0|0,3:0|3:0,0:0:0:0:
476,216,140076,5,2,1:2:0:0:
493,155,140159,1,0,3:0:0:0:
481,92,140243,1,0,3:0:0:0:
434,49,140326,1,0,3:0:0:0:
374,30,140409,2,0,P|343:30|315:37,1,52.4999983978272,10|0,3:2|3:0,0:0:0:0:
258,207,140576,1,0,3:0:0:0:
312,230,140659,1,0,3:0:0:0:
370,234,140743,1,2,1:2:0:0:
424,215,140826,1,0,3:0:0:0:
437,159,140909,1,0,3:0:0:0:
434,100,140993,1,0,3:0:0:0:
383,72,141076,2,0,P|353:71|327:80,1,52.4999983978272,10|0,3:2|3:0,0:0:0:0:
161,198,141243,1,0,3:2:0:0:
153,268,141326,1,0,3:2:0:0:
146,339,141409,5,6,3:2:0:0:
256,192,141493,12,0,144076,0:0:0:0:
