osu file format v14

[General]
AudioFilename: audio.mp3
AudioLeadIn: 0
PreviewTime: 68
Countdown: 1
SampleSet: None
StackLeniency: 0.6
Mode: 0
LetterboxInBreaks: 0
WidescreenStoryboard: 1

[Editor]
Bookmarks: 5068,6068,7318
DistanceSpacing: 5
BeatDivisor: 4
GridSize: 4
TimelineZoom: 1.8

[Metadata]
Title:Hyouri Ittai HDDT LIVEPLAY !! !
TitleUnicode:Hyouri Ittai HDDT LIVEPLAY !! !
Artist:Hyppyri
ArtistUnicode:Hyppyri
Creator:isopaharuntikka
Version:Tsukinan Sorsat
Source:HUNTER×HUNTER
Tags:hxh ハンター×ハンター 2011 Madhouse Nippon Television Network Corporation Kitagawa YuHitoshi Two Sides of the Same Coin rage miss finnish finland suomi perkele kalja kova äiä mc koulukiusattu jne isopaharuntikka -Jukke- Su1fu7 Turquoise2
BeatmapID:1262804
BeatmapSetID:578618

[Difficulty]
HPDrainRate:1
CircleSize:4
OverallDifficulty:8
ApproachRate:10
SliderMultiplier:1.9
SliderTickRate:1

[Events]
//Background and Video events
Video,0,"Hyouri Ittai HDDT LIVEPLAY !! !.mp4"
0,0,"maxresdefault.jpg",0,0
//Break Periods
//Storyboard Layer 0 (Background)
//Storyboard Layer 1 (Fail)
//Storyboard Layer 2 (Pass)
//Storyboard Layer 3 (Foreground)
//Storyboard Sound Samples

[TimingPoints]
68,250,4,2,0,100,1,0
5068,1E-298,4,1,0,25,1,0
5320,250,4,1,0,100,1,0
5320,-100,4,1,0,100,0,0
8820,1E-298,4,1,0,25,1,0
9300,1E-298,4,1,0,25,1,0

[HitObjects]
264,272,68,6,0,P|328:280|376:244,1,95
164,144,318,1,0,0:0:0:0:
108,292,443,2,0,P|100:340|112:392,1,95
336,104,693,5,0,0:0:0:0:
176,280,818,1,0,0:0:0:0:
232,28,943,5,0,0:0:0:0:
280,356,1068,1,0,0:0:0:0:
116,68,1193,5,0,0:0:0:0:
396,316,1318,1,0,0:0:0:0:
112,276,1693,5,0,0:0:0:0:
360,164,1818,1,0,0:0:0:0:
220,44,1943,1,0,0:0:0:0:
220,44,2005,1,0,0:0:0:0:
220,44,2068,1,0,0:0:0:0:
284,328,2193,1,0,0:0:0:0:
189,127,2318,5,0,0:0:0:0:
321,250,2443,1,0,0:0:0:0:
136,283,2568,5,0,0:0:0:0:
373,93,2693,1,0,0:0:0:0:
268,336,2818,2,0,L|378:366,1,95
168,88,3068,5,0,0:0:0:0:
392,260,3193,1,0,0:0:0:0:
176,204,3318,5,0,0:0:0:0:
400,272,3443,1,0,0:0:0:0:
244,292,3568,5,0,0:0:0:0:
408,284,3693,1,0,0:0:0:0:
413,264,3755,1,0,0:0:0:0:
418,244,3818,1,0,0:0:0:0:
305,38,3943,5,0,0:0:0:0:
125,287,4068,1,0,0:0:0:0:
417,192,4193,1,0,0:0:0:0:
125,96,4318,1,0,0:0:0:0:
305,345,4443,1,0,0:0:0:0:
304,36,4568,5,0,0:0:0:0:
120,288,4693,1,0,0:0:0:0:
424,192,4818,2,0,L|528:232,1,95
124,40,5068,6,0,B|448:240|448:240|824:564|860:360|860:360|326:257|326:257|-292:256|-292:256|-28:324|-57436:-460440|-57436:-460440|868:104|868:104|595:83|652:568|652:568|648:264|648:264|490:214|490:214|135:40,1,931961.875
200,128,5191,6,0,L|252:100,1,47.5
388,80,5320,5,0,0:0:0:0:
440,260,5570,1,0,0:0:0:0:
304,320,5695,1,0,0:0:0:0:
168,280,5882,2,0,L|116:180,1,95
208,36,6195,1,0,0:0:0:0:
44,80,7380,5,0,0:0:0:0:
136,308,7505,1,0,0:0:0:0:
180,32,7630,1,0,0:0:0:0:
228,308,7755,1,0,0:0:0:0:
332,32,7880,5,0,0:0:0:0:
284,308,8005,1,0,0:0:0:0:
468,80,8130,5,0,0:0:0:0:
376,308,8255,1,0,0:0:0:0:
124,180,8382,1,0,0:0:0:0:
248,272,9300,2,0,B|616:192|616:192|872:216|872:216|872:252|872:252|856:176|856:176|872:232|872:232|284109:-152801|92124:-25019|872:376|872:376|-372:192,1,335397.5
