osu file format v14

[General]
AudioFilename: audio.mp3
AudioLeadIn: 0
PreviewTime: 68
Countdown: 1
SampleSet: Soft
StackLeniency: 0.6
Mode: 0
LetterboxInBreaks: 0
WidescreenStoryboard: 1

[Editor]
Bookmarks: 5068,6068,7318
DistanceSpacing: 1
BeatDivisor: 4
GridSize: 32
TimelineZoom: 1.8

[Metadata]
Title:Hyouri Ittai HDDT LIVEPLAY !! !
TitleUnicode:Hyouri Ittai HDDT LIVEPLAY !! !
Artist:Hyppyri
ArtistUnicode:Hyppyri
Creator:isopaharuntikka
Version:TRAGIC PLATE HUNTER EXTRA
Source:HUNTER×HUNTER
Tags:hxh ハンター×ハンター 2011 Madhouse Nippon Television Network Corporation Kitagawa YuHitoshi Two Sides of the Same Coin rage miss finnish finland suomi perkele kalja kova äiä mc koulukiusattu jne isopaharuntikka -Jukke- Su1fu7 Turquoise2
BeatmapID:1260047
BeatmapSetID:578618

[Difficulty]
HPDrainRate:0
CircleSize:4
OverallDifficulty:10
ApproachRate:10
SliderMultiplier:1.7
SliderTickRate:1

[Events]
//Background and Video events
Video,0,"Hyouri Ittai HDDT LIVEPLAY !! !.mp4"
0,0,"maxresdefault.jpg",0,0
//Break Periods
//Storyboard Layer 0 (Background)
//Storyboard Layer 1 (Fail)
//Storyboard Layer 2 (Pass)
//Storyboard Layer 3 (Foreground)
//Storyboard Sound Samples

[TimingPoints]
68,250,4,2,0,100,1,0
6068,-200,4,2,0,100,0,0
8568,-50,4,2,0,100,0,0

[HitObjects]
392,204,68,6,0,P|372:248|315:274,1,85,0|2,0:0|0:0,0:0:0:0:
424,96,318,2,0,P|465:89|504:105,1,85,0|8,0:0|0:0,0:0:0:0:
228,272,568,2,0,P|201:239|196:197,1,85,0|2,0:0|0:0,0:0:0:0:
360,60,818,1,2,0:0:0:0:
280,204,943,1,8,0:0:0:0:
124,120,1068,1,0,0:0:0:0:
277,64,1193,6,0,B|341:52|341:52|381:68,2,85,6|0|8,0:0|0:0|0:0,0:0:0:0:
124,120,1568,1,0,0:0:0:0:
280,204,1693,1,2,0:0:0:0:
134,250,1818,1,2,0:0:0:0:
368,176,1943,1,8,0:0:0:0:
244,340,2068,6,0,P|172:332|136:244,1,170,4|0,0:0|0:0,0:0:0:0:
240,112,2443,1,8,0:0:0:0:
340,264,2568,2,0,L|336:356,2,85,0|2|2,0:0|0:0|0:0,0:0:0:0:
264,92,2943,1,8,0:0:0:0:
242,242,3068,1,0,0:0:0:0:
432,120,3193,5,2,0:0:0:0:
266,291,3318,1,0,0:0:0:0:
299,55,3443,1,8,0:0:0:0:
411,265,3568,1,8,0:0:0:0:
411,265,3630,1,8,0:0:0:0:
411,265,3693,5,10,0:0:0:0:
197,160,3818,1,2,0:0:0:0:
432,120,3943,5,8,0:0:0:0:
200,68,4068,1,0,0:0:0:0:
428,108,4193,5,10,0:0:0:0:
143,162,4318,1,0,0:0:0:0:
432,120,4443,5,8,0:0:0:0:
248,344,4568,1,0,0:0:0:0:
428,108,4693,5,10,0:0:0:0:
153,270,4818,1,0,0:0:0:0:
432,120,4943,5,8,0:0:0:0:
168,184,5068,1,8,0:0:0:0:
168,184,5193,1,8,0:0:0:0:
168,184,5318,6,0,B|152:136|152:136|152:76|152:76|136:28,1,152.999995330811,6|0,0:0|0:0,0:0:0:0:
176,56,5630,2,0,P|236:64|280:24,1,101.999996887207,8|0,0:0|0:0,0:0:0:0:
268,42,5943,1,8,0:0:0:0:
441,103,6068,6,0,L|391:130,1,42.5
364,140,6318,2,0,P|328:161|308:162,1,42.5
285,161,6568,2,0,P|256:144|231:142,1,42.5
204,138,6818,1,0,0:0:0:0:
182,137,6880,1,0,0:0:0:0:
160,138,6943,1,0,0:0:0:0:
139,141,7005,1,0,0:0:0:0:
118,147,7068,2,0,L|79:164,1,42.5
88,244,7318,5,0,0:0:0:0:
374,61,7443,1,0,0:0:0:0:
128,334,7568,5,0,0:0:0:0:
294,13,7693,1,0,0:0:0:0:
214,369,7818,5,0,0:0:0:0:
206,0,7943,1,0,0:0:0:0:
321,369,8068,5,0,0:0:0:0:
95,35,8193,1,0,0:0:0:0:
419,322,8318,5,0,0:0:0:0:
13,111,8443,1,0,0:0:0:0:
234,221,8693,5,0,0:0:0:0:
224,177,8755,1,0,0:0:0:0:
256,158,8818,1,0,0:0:0:0:
285,175,8880,1,0,0:0:0:0:
275,222,8943,1,0,0:0:0:0:
256,253,9005,2,0,P|236:142|267:76,1,170
316,30,9193,5,0,0:0:0:0:
383,80,9255,5,0,0:0:0:0:
414,158,9318,5,0,0:0:0:0:
402,241,9380,5,0,0:0:0:0:
349,306,9443,5,0,0:0:0:0:
270,334,9505,5,0,0:0:0:0:
187,318,9568,5,0,0:0:0:0:
256,192,9630,12,0,10505,0:0:0:0:
186,128,10568,5,0,0:0:0:0:
325,257,10818,1,0,0:0:0:0:
254,67,11068,1,0,0:0:0:0:
221,294,11318,1,0,0:0:0:0:
159,36,11568,1,0,0:0:0:0:
304,360,11818,1,0,0:0:0:0:
