osu file format v14

[General]
AudioFilename: audio.mp3
AudioLeadIn: 0
PreviewTime: 68
Countdown: 1
SampleSet: Soft
StackLeniency: 0.6
Mode: 0
LetterboxInBreaks: 0
WidescreenStoryboard: 1

[Editor]
Bookmarks: 5068,6068,7318
DistanceSpacing: 5
BeatDivisor: 4
GridSize: 32
TimelineZoom: 1.8

[Metadata]
Title:Hyouri Ittai HDDT LIVEPLAY !! !
TitleUnicode:Hyouri Ittai HDDT LIVEPLAY !! !
Artist:Hyppyri
ArtistUnicode:Hyppyri
Creator:isopaharuntikka
Version:Juken hyppyri
Source:HUNTER×HUNTER
Tags:hxh ハンター×ハンター 2011 Madhouse Nippon Television Network Corporation Kitagawa YuHitoshi Two Sides of the Same Coin rage miss finnish finland suomi perkele kalja kova äiä mc koulukiusattu jne isopaharuntikka -Jukke- Su1fu7 Turquoise2
BeatmapID:1260058
BeatmapSetID:578618

[Difficulty]
HPDrainRate:0
CircleSize:4.3
OverallDifficulty:10
ApproachRate:10
SliderMultiplier:1.7
SliderTickRate:1

[Events]
//Background and Video events
Video,0,"Hyouri Ittai HDDT LIVEPLAY !! !.mp4"
0,0,"maxresdefault.jpg",0,0
//Break Periods
//Storyboard Layer 0 (Background)
//Storyboard Layer 1 (Fail)
//Storyboard Layer 2 (Pass)
//Storyboard Layer 3 (Foreground)
//Storyboard Sound Samples

[TimingPoints]
68,250,4,2,0,100,1,0
6068,-200,4,2,0,100,0,0
8568,-50,4,2,0,100,0,0

[HitObjects]
111,271,68,6,0,P|146:331|188:348,1,85
438,94,318,2,0,P|403:34|361:17,1,85
125,159,568,1,0,0:0:0:0:
429,199,693,2,0,P|369:164|352:122,1,85
486,7,943,5,0,0:0:0:0:
406,293,1068,1,0,0:0:0:0:
470,2,1193,5,0,0:0:0:0:
284,234,1318,1,0,0:0:0:0:
453,0,1443,6,0,P|407:42|397:62,1,85
491,270,1693,1,0,0:0:0:0:
98,159,1818,1,0,0:0:0:0:
348,7,1943,1,0,0:0:0:0:
239,375,2068,1,0,0:0:0:0:
388,76,2193,2,0,P|423:33|427:-19,1,85
25,209,2443,2,0,P|68:244|120:248,1,85
512,162,2693,2,0,P|469:127|417:123,1,85
98,159,2943,1,0,0:0:0:0:
404,325,3068,5,0,0:0:0:0:
187,63,3193,1,0,0:0:0:0:
410,318,3318,5,0,0:0:0:0:
203,53,3443,1,0,0:0:0:0:
141,327,3568,1,0,0:0:0:0:
452,115,3693,1,0,0:0:0:0:
452,115,3755,1,0,0:0:0:0:
452,115,3818,1,0,0:0:0:0:
363,302,3943,1,0,0:0:0:0:
188,85,4068,5,0,0:0:0:0:
477,209,4193,1,0,0:0:0:0:
200,257,4318,1,0,0:0:0:0:
366,5,4443,1,0,0:0:0:0:
468,217,4568,5,0,0:0:0:0:
157,175,4693,1,0,0:0:0:0:
448,302,4818,5,0,0:0:0:0:
508,11,4943,1,0,0:0:0:0:
508,11,5005,1,0,0:0:0:0:
425,115,5130,2,0,P|416:95|419:70,2,42.5
309,7,5318,1,0,0:0:0:0:
356,222,5443,1,0,0:0:0:0:
511,93,5568,1,0,0:0:0:0:
117,131,5693,1,0,0:0:0:0:
366,218,5880,5,0,0:0:0:0:
27,15,6130,5,0,0:0:0:0:
496,291,7318,5,0,0:0:0:0:
64,192,7505,5,0,0:0:0:0:
448,192,7630,1,0,0:0:0:0:
256,352,7755,1,0,0:0:0:0:
256,32,7880,1,0,0:0:0:0:
384,288,8005,1,0,0:0:0:0:
128,96,8130,1,0,0:0:0:0:
384,96,8255,1,0,0:0:0:0:
128,288,8380,1,0,0:0:0:0:
394,96,8755,5,0,0:0:0:0:
407,105,8818,2,0,B|394:173|444:205|444:205|372:324|230:260,1,340
250,140,9193,1,0,0:0:0:0:
248,129,9255,1,0,0:0:0:0:
244,119,9318,2,0,B|195:136|120:116|120:116|107:196|107:196|134:270,1,255
