osu file format v14

[General]
AudioFilename: audio.mp3
AudioLeadIn: 0
PreviewTime: 68
Countdown: 1
SampleSet: Soft
StackLeniency: 0.6
Mode: 0
LetterboxInBreaks: 0
WidescreenStoryboard: 1

[Editor]
Bookmarks: 5068,6068,7318
DistanceSpacing: 1
BeatDivisor: 4
GridSize: 32
TimelineZoom: 1.8

[Metadata]
Title:Hyouri Ittai HDDT LIVEPLAY !! !
TitleUnicode:Hyouri Ittai HDDT LIVEPLAY !! !
Artist:Hyppyri
ArtistUnicode:Hyppyri
Creator:isopaharuntikka
Version:Extra
Source:HUNTER×HUNTER
Tags:hxh ハンター×ハンター 2011 Madhouse Nippon Television Network Corporation Kitagawa YuHitoshi Two Sides of the Same Coin rage miss finnish finland suomi perkele kalja kova äiä mc koulukiusattu jne isopaharuntikka -Jukke- Su1fu7 Turquoise2
BeatmapID:1260030
BeatmapSetID:578618

[Difficulty]
HPDrainRate:3
CircleSize:4
OverallDifficulty:9.5
ApproachRate:9.5
SliderMultiplier:1.7
SliderTickRate:1

[Events]
//Background and Video events
Video,0,"Hyouri Ittai HDDT LIVEPLAY !! !.mp4"
0,0,"maxresdefault.jpg",0,0
//Break Periods
//Storyboard Layer 0 (Background)
//Storyboard Layer 1 (Fail)
//Storyboard Layer 2 (Pass)
//Storyboard Layer 3 (Foreground)
//Storyboard Sound Samples

[TimingPoints]
68,250,4,2,0,100,1,0
6068,-200,4,2,0,100,0,0
8568,-50,4,2,0,100,0,0

[HitObjects]
168,260,68,6,0,P|136:232|125:192,1,85
344,124,318,2,0,P|375:151|386:191,1,85
372,323,568,1,0,0:0:0:0:
448,95,693,1,0,0:0:0:0:
473,253,818,1,0,0:0:0:0:
397,25,943,1,0,0:0:0:0:
369,206,1068,6,0,P|326:190|268:197,1,85
47,236,1318,1,0,0:0:0:0:
271,162,1443,1,0,0:0:0:0:
56,265,1568,2,0,P|115:253|158:268,1,85
427,256,1818,1,0,0:0:0:0:
203,330,1943,1,0,0:0:0:0:
418,227,2068,6,0,P|359:239|316:224,1,85
277,89,2318,1,0,0:0:0:0:
84,194,2443,2,0,P|143:182|186:197,1,85
301,297,2693,1,0,0:0:0:0:
412,339,2818,1,0,0:0:0:0:
389,224,2943,1,0,0:0:0:0:
277,320,3068,2,0,P|272:264|249:219,1,85
199,41,3318,5,0,0:0:0:0:
366,221,3443,1,0,0:0:0:0:
159,126,3568,5,0,0:0:0:0:
405,135,3693,1,0,0:0:0:0:
192,214,3818,5,0,0:0:0:0:
372,47,3943,1,0,0:0:0:0:
277,253,4068,5,0,0:0:0:0:
287,8,4193,1,0,0:0:0:0:
386,243,4318,5,0,0:0:0:0:
178,18,4443,1,0,0:0:0:0:
466,137,4568,5,0,0:0:0:0:
98,124,4693,1,0,0:0:0:0:
402,20,4818,5,0,0:0:0:0:
162,241,4943,1,0,0:0:0:0:
335,135,5068,6,0,L|315:84,2,42.5
347,332,5318,2,0,P|280:347|237:315,1,85
150,217,5568,1,0,0:0:0:0:
472,107,5818,1,0,0:0:0:0:
397,381,6068,1,0,0:0:0:0:
363,373,7318,6,0,L|373:339,1,21.25
446,102,7443,2,0,L|436:133,1,21.25
285,360,7568,6,0,L|295:326,1,21.25
368,89,7693,2,0,L|358:120,1,21.25
214,334,7818,6,0,L|224:300,1,21.25
297,63,7943,2,0,L|287:94,1,21.25
141,313,8068,6,0,L|151:279,1,21.25
224,42,8193,2,0,L|214:73,1,21.25
66,294,8318,6,0,L|76:260,1,21.25
149,23,8443,2,0,L|139:54,1,21.25
257,162,8818,5,0,0:0:0:0:
257,162,8880,1,0,0:0:0:0:
257,162,8943,1,0,0:0:0:0:
271,320,9193,1,0,0:0:0:0:
220,322,9255,1,0,0:0:0:0:
173,304,9318,1,0,0:0:0:0:
138,267,9380,1,0,0:0:0:0:
122,219,9443,1,0,0:0:0:0:
