osu file format v14

[General]
AudioFilename: Hypernite Industries - Speedcore 300 (speedcore).mp3
AudioLeadIn: 0
PreviewTime: -1
Countdown: 1
SampleSet: Normal
StackLeniency: 0.7
Mode: 1
LetterboxInBreaks: 1
WidescreenStoryboard: 1

[Editor]
DistanceSpacing: 1.1
BeatDivisor: 1
GridSize: 32
TimelineZoom: 0.5

[Metadata]
Title:Speedcore 300
TitleUnicode:Speedcore 300
Artist:Hypernite Industries
ArtistUnicode:Hypernite Industries
Creator:Guillotine
Version:real pattern
Source:
Tags:status
BeatmapID:1475643
BeatmapSetID:340331

[Difficulty]
HPDrainRate:0
CircleSize:4.5
OverallDifficulty:5
ApproachRate:5
SliderMultiplier:0.400000005960464
SliderTickRate:4

[Events]
//Background and Video events
0,0,"kartandtinki1_vortex-wallpaper_15.jpg",0,0
//Break Periods
//Storyboard Layer 0 (Background)
//Storyboard Layer 1 (Fail)
//Storyboard Layer 2 (Pass)
//Storyboard Layer 3 (Foreground)
//Storyboard Sound Samples

[TimingPoints]
150,33.3333333333333,4,1,0,23,1,0
150,-200,4,1,0,23,0,0

[HitObjects]
192,192,150,5,2,0:0:0:0:
256,192,183,5,0,0:0:0:0:
320,192,216,5,0,0:0:0:0:
192,192,250,5,2,0:0:0:0:
256,192,283,5,0,0:0:0:0:
320,192,316,5,0,0:0:0:0:
192,192,350,5,2,0:0:0:0:
256,192,383,5,0,0:0:0:0:
320,192,416,5,0,0:0:0:0:
192,192,450,5,2,0:0:0:0:
256,192,483,5,0,0:0:0:0:
320,192,516,5,0,0:0:0:0:
192,192,550,5,2,0:0:0:0:
256,192,583,5,0,0:0:0:0:
320,192,616,5,0,0:0:0:0:
192,192,650,5,2,0:0:0:0:
256,192,683,5,0,0:0:0:0:
320,192,716,5,0,0:0:0:0:
192,192,750,5,2,0:0:0:0:
256,192,783,5,0,0:0:0:0:
320,192,816,5,0,0:0:0:0:
192,192,850,5,2,0:0:0:0:
256,192,883,5,0,0:0:0:0:
320,192,916,5,0,0:0:0:0:
192,192,950,5,2,0:0:0:0:
256,192,983,5,0,0:0:0:0:
320,192,1016,5,0,0:0:0:0:
192,192,1050,5,2,0:0:0:0:
256,192,1083,5,0,0:0:0:0:
320,192,1116,5,0,0:0:0:0:
192,192,1150,5,2,0:0:0:0:
256,192,1183,5,0,0:0:0:0:
320,192,1216,5,0,0:0:0:0:
192,192,1250,5,2,0:0:0:0:
256,192,1283,5,0,0:0:0:0:
320,192,1316,5,0,0:0:0:0:
192,192,1350,5,2,0:0:0:0:
256,192,1383,5,0,0:0:0:0:
320,192,1416,5,0,0:0:0:0:
192,192,1450,5,2,0:0:0:0:
256,192,1483,5,0,0:0:0:0:
320,192,1516,5,0,0:0:0:0:
192,192,1550,5,2,0:0:0:0:
256,192,1583,5,0,0:0:0:0:
320,192,1616,5,0,0:0:0:0:
192,192,1650,5,2,0:0:0:0:
256,192,1683,5,0,0:0:0:0:
320,192,1716,5,0,0:0:0:0:
192,192,1750,5,2,0:0:0:0:
256,192,1783,5,0,0:0:0:0:
320,192,1816,5,0,0:0:0:0:
192,192,1850,5,2,0:0:0:0:
256,192,1883,5,0,0:0:0:0:
320,192,1916,5,0,0:0:0:0:
192,192,1950,5,2,0:0:0:0:
256,192,1983,5,0,0:0:0:0:
320,192,2016,5,0,0:0:0:0:
192,192,2050,5,2,0:0:0:0:
256,192,2083,5,0,0:0:0:0:
320,192,2116,5,0,0:0:0:0:
192,192,2150,5,2,0:0:0:0:
256,192,2183,5,0,0:0:0:0:
320,192,2216,5,0,0:0:0:0:
192,192,2250,5,2,0:0:0:0:
256,192,2283,5,0,0:0:0:0:
320,192,2316,5,0,0:0:0:0:
192,192,2350,5,2,0:0:0:0:
256,192,2383,5,0,0:0:0:0:
320,192,2416,5,0,0:0:0:0:
192,192,2450,5,2,0:0:0:0:
256,192,2483,5,0,0:0:0:0:
320,192,2516,5,0,0:0:0:0:
192,192,2550,5,2,0:0:0:0:
256,192,2583,5,0,0:0:0:0:
320,192,2616,5,0,0:0:0:0:
192,192,2650,5,2,0:0:0:0:
256,192,2683,5,0,0:0:0:0:
320,192,2716,5,0,0:0:0:0:
192,192,2750,5,2,0:0:0:0:
256,192,2783,5,0,0:0:0:0:
320,192,2816,5,0,0:0:0:0:
192,192,2850,5,2,0:0:0:0:
256,192,2883,5,0,0:0:0:0:
320,192,2916,5,0,0:0:0:0:
192,192,2950,5,2,0:0:0:0:
256,192,2983,5,0,0:0:0:0:
320,192,3016,5,0,0:0:0:0:
192,192,3050,5,2,0:0:0:0:
256,192,3083,5,0,0:0:0:0:
320,192,3116,5,0,0:0:0:0:
192,192,3150,5,2,0:0:0:0:
256,192,3183,5,0,0:0:0:0:
320,192,3216,5,0,0:0:0:0:
192,192,3250,5,2,0:0:0:0:
256,192,3283,5,0,0:0:0:0:
320,192,3316,5,0,0:0:0:0:
192,192,3350,5,2,0:0:0:0:
256,192,3383,5,0,0:0:0:0:
320,192,3416,5,0,0:0:0:0:
192,192,3450,5,2,0:0:0:0:
256,192,3483,5,0,0:0:0:0:
320,192,3516,5,0,0:0:0:0:
192,192,3550,5,2,0:0:0:0:
256,192,3583,5,0,0:0:0:0:
320,192,3616,5,0,0:0:0:0:
192,192,3650,5,2,0:0:0:0:
256,192,3683,5,0,0:0:0:0:
320,192,3716,5,0,0:0:0:0:
192,192,3750,5,2,0:0:0:0:
256,192,3783,5,0,0:0:0:0:
320,192,3816,5,0,0:0:0:0:
192,192,3850,5,2,0:0:0:0:
256,192,3883,5,0,0:0:0:0:
320,192,3916,5,0,0:0:0:0:
192,192,3950,5,2,0:0:0:0:
256,192,3983,5,0,0:0:0:0:
320,192,4016,5,0,0:0:0:0:
192,192,4050,5,2,0:0:0:0:
256,192,4083,5,0,0:0:0:0:
320,192,4116,5,0,0:0:0:0:
192,192,4150,5,2,0:0:0:0:
256,192,4183,5,0,0:0:0:0:
320,192,4216,5,0,0:0:0:0:
192,192,4250,5,2,0:0:0:0:
256,192,4283,5,0,0:0:0:0:
320,192,4316,5,0,0:0:0:0:
192,192,4350,5,2,0:0:0:0:
256,192,4383,5,0,0:0:0:0:
320,192,4416,5,0,0:0:0:0:
192,192,4450,5,2,0:0:0:0:
256,192,4483,5,0,0:0:0:0:
320,192,4516,5,0,0:0:0:0:
192,192,4550,5,2,0:0:0:0:
256,192,4583,5,0,0:0:0:0:
320,192,4616,5,0,0:0:0:0:
192,192,4650,5,2,0:0:0:0:
256,192,4683,5,0,0:0:0:0:
320,192,4716,5,0,0:0:0:0:
192,192,4750,5,2,0:0:0:0:
256,192,4783,5,0,0:0:0:0:
320,192,4816,5,0,0:0:0:0:
192,192,4850,5,2,0:0:0:0:
256,192,4883,5,0,0:0:0:0:
320,192,4916,5,0,0:0:0:0:
192,192,4950,5,2,0:0:0:0:
256,192,4983,5,0,0:0:0:0:
320,192,5016,5,0,0:0:0:0:
192,192,5050,5,2,0:0:0:0:
256,192,5083,5,0,0:0:0:0:
320,192,5116,5,0,0:0:0:0:
192,192,5150,5,2,0:0:0:0:
256,192,5183,5,0,0:0:0:0:
320,192,5216,5,0,0:0:0:0:
192,192,5250,5,2,0:0:0:0:
256,192,5283,5,0,0:0:0:0:
320,192,5316,5,0,0:0:0:0:
192,192,5350,5,2,0:0:0:0:
256,192,5383,5,0,0:0:0:0:
320,192,5416,5,0,0:0:0:0:
192,192,5450,5,2,0:0:0:0:
256,192,5483,5,0,0:0:0:0:
320,192,5516,5,0,0:0:0:0:
192,192,5550,5,2,0:0:0:0:
256,192,5583,5,0,0:0:0:0:
320,192,5616,5,0,0:0:0:0:
192,192,5650,5,2,0:0:0:0:
256,192,5683,5,0,0:0:0:0:
320,192,5716,5,0,0:0:0:0:
192,192,5750,5,2,0:0:0:0:
256,192,5783,5,0,0:0:0:0:
320,192,5816,5,0,0:0:0:0:
192,192,5850,5,2,0:0:0:0:
256,192,5883,5,0,0:0:0:0:
320,192,5916,5,0,0:0:0:0:
192,192,5950,5,2,0:0:0:0:
256,192,5983,5,0,0:0:0:0:
320,192,6016,5,0,0:0:0:0:
192,192,6050,5,2,0:0:0:0:
256,192,6083,5,0,0:0:0:0:
320,192,6116,5,0,0:0:0:0:
192,192,6150,5,2,0:0:0:0:
256,192,6183,5,0,0:0:0:0:
320,192,6216,5,0,0:0:0:0:
192,192,6250,5,2,0:0:0:0:
256,192,6283,5,0,0:0:0:0:
320,192,6316,5,0,0:0:0:0:
192,192,6350,5,2,0:0:0:0:
256,192,6383,5,0,0:0:0:0:
320,192,6416,5,0,0:0:0:0:
192,192,6450,5,2,0:0:0:0:
256,192,6483,5,0,0:0:0:0:
320,192,6516,5,0,0:0:0:0:
192,192,6550,5,2,0:0:0:0:
256,192,6583,5,0,0:0:0:0:
320,192,6616,5,0,0:0:0:0:
192,192,6650,5,2,0:0:0:0:
256,192,6683,5,0,0:0:0:0:
320,192,6716,5,0,0:0:0:0:
192,192,6750,5,2,0:0:0:0:
256,192,6783,5,0,0:0:0:0:
320,192,6816,5,0,0:0:0:0:
192,192,6850,5,2,0:0:0:0:
256,192,6883,5,0,0:0:0:0:
320,192,6916,5,0,0:0:0:0:
192,192,6950,5,2,0:0:0:0:
256,192,6983,5,0,0:0:0:0:
320,192,7016,5,0,0:0:0:0:
192,192,7050,5,2,0:0:0:0:
256,192,7083,5,0,0:0:0:0:
320,192,7116,5,0,0:0:0:0:
192,192,7150,5,2,0:0:0:0:
256,192,7183,5,0,0:0:0:0:
320,192,7216,5,0,0:0:0:0:
192,192,7250,5,2,0:0:0:0:
256,192,7283,5,0,0:0:0:0:
320,192,7316,5,0,0:0:0:0:
192,192,7350,5,2,0:0:0:0:
256,192,7383,5,0,0:0:0:0:
320,192,7416,5,0,0:0:0:0:
192,192,7450,5,2,0:0:0:0:
256,192,7483,5,0,0:0:0:0:
320,192,7516,5,0,0:0:0:0:
192,192,7550,5,2,0:0:0:0:
256,192,7583,5,0,0:0:0:0:
320,192,7616,5,0,0:0:0:0:
192,192,7650,5,2,0:0:0:0:
256,192,7683,5,0,0:0:0:0:
320,192,7716,5,0,0:0:0:0:
192,192,7750,5,2,0:0:0:0:
256,192,7783,5,0,0:0:0:0:
320,192,7816,5,0,0:0:0:0:
192,192,7850,5,2,0:0:0:0:
256,192,7883,5,0,0:0:0:0:
320,192,7916,5,0,0:0:0:0:
192,192,7950,5,2,0:0:0:0:
256,192,7983,5,0,0:0:0:0:
320,192,8016,5,0,0:0:0:0:
192,192,8050,5,2,0:0:0:0:
256,192,8083,5,0,0:0:0:0:
320,192,8116,5,0,0:0:0:0:
192,192,8150,5,2,0:0:0:0:
256,192,8183,5,0,0:0:0:0:
320,192,8216,5,0,0:0:0:0:
192,192,8250,5,2,0:0:0:0:
256,192,8283,5,0,0:0:0:0:
320,192,8316,5,0,0:0:0:0:
192,192,8350,5,2,0:0:0:0:
256,192,8383,5,0,0:0:0:0:
320,192,8416,5,0,0:0:0:0:
192,192,8450,5,2,0:0:0:0:
256,192,8483,5,0,0:0:0:0:
320,192,8516,5,0,0:0:0:0:
192,192,8550,5,2,0:0:0:0:
256,192,8583,5,0,0:0:0:0:
320,192,8616,5,0,0:0:0:0:
192,192,8650,5,2,0:0:0:0:
256,192,8683,5,0,0:0:0:0:
320,192,8716,5,0,0:0:0:0:
192,192,8750,5,2,0:0:0:0:
256,192,8783,5,0,0:0:0:0:
320,192,8816,5,0,0:0:0:0:
192,192,8850,5,2,0:0:0:0:
256,192,8883,5,0,0:0:0:0:
320,192,8916,5,0,0:0:0:0:
192,192,8950,5,2,0:0:0:0:
256,192,8983,5,0,0:0:0:0:
320,192,9016,5,0,0:0:0:0:
192,192,9050,5,2,0:0:0:0:
256,192,9083,5,0,0:0:0:0:
320,192,9116,5,0,0:0:0:0:
192,192,9150,5,2,0:0:0:0:
256,192,9183,5,0,0:0:0:0:
320,192,9216,5,0,0:0:0:0:
192,192,9250,5,2,0:0:0:0:
256,192,9283,5,0,0:0:0:0:
320,192,9316,5,0,0:0:0:0:
192,192,9350,5,2,0:0:0:0:
256,192,9383,5,0,0:0:0:0:
320,192,9416,5,0,0:0:0:0:
192,192,9450,5,2,0:0:0:0:
256,192,9483,5,0,0:0:0:0:
320,192,9516,5,0,0:0:0:0:
192,192,9550,5,2,0:0:0:0:
256,192,9583,5,0,0:0:0:0:
320,192,9616,5,0,0:0:0:0:
192,192,9650,5,2,0:0:0:0:
256,192,9683,5,0,0:0:0:0:
320,192,9716,5,0,0:0:0:0:
192,192,9750,5,2,0:0:0:0:
256,192,9783,5,0,0:0:0:0:
320,192,9816,5,0,0:0:0:0:
192,192,9850,5,2,0:0:0:0:
256,192,9883,5,0,0:0:0:0:
320,192,9916,5,0,0:0:0:0:
192,192,9950,5,2,0:0:0:0:
256,192,9983,5,0,0:0:0:0:
320,192,10016,5,0,0:0:0:0:
192,192,10050,5,2,0:0:0:0:
256,192,10083,5,0,0:0:0:0:
320,192,10116,5,0,0:0:0:0:
192,192,10150,5,2,0:0:0:0:
256,192,10183,5,0,0:0:0:0:
320,192,10216,5,0,0:0:0:0:
192,192,10250,5,2,0:0:0:0:
256,192,10283,5,0,0:0:0:0:
320,192,10316,5,0,0:0:0:0:
192,192,10350,5,2,0:0:0:0:
256,192,10383,5,0,0:0:0:0:
320,192,10416,5,0,0:0:0:0:
192,192,10450,5,2,0:0:0:0:
256,192,10483,5,0,0:0:0:0:
320,192,10516,5,0,0:0:0:0:
192,192,10550,5,2,0:0:0:0:
256,192,10583,5,0,0:0:0:0:
320,192,10616,5,0,0:0:0:0:
192,192,10650,5,2,0:0:0:0:
256,192,10683,5,0,0:0:0:0:
320,192,10716,5,0,0:0:0:0:
192,192,10750,5,2,0:0:0:0:
256,192,10783,5,0,0:0:0:0:
320,192,10816,5,0,0:0:0:0:
192,192,10850,5,2,0:0:0:0:
256,192,10883,5,0,0:0:0:0:
320,192,10916,5,0,0:0:0:0:
192,192,10950,5,2,0:0:0:0:
256,192,10983,5,0,0:0:0:0:
320,192,11016,5,0,0:0:0:0:
192,192,11050,5,2,0:0:0:0:
256,192,11083,5,0,0:0:0:0:
320,192,11116,5,0,0:0:0:0:
192,192,11150,5,2,0:0:0:0:
256,192,11183,5,0,0:0:0:0:
320,192,11216,5,0,0:0:0:0:
192,192,11250,5,2,0:0:0:0:
256,192,11283,5,0,0:0:0:0:
320,192,11316,5,0,0:0:0:0:
192,192,11350,5,2,0:0:0:0:
256,192,11383,5,0,0:0:0:0:
320,192,11416,5,0,0:0:0:0:
192,192,11450,5,2,0:0:0:0:
256,192,11483,5,0,0:0:0:0:
320,192,11516,5,0,0:0:0:0:
192,192,11550,5,2,0:0:0:0:
256,192,11583,5,0,0:0:0:0:
320,192,11616,5,0,0:0:0:0:
192,192,11650,5,2,0:0:0:0:
256,192,11683,5,0,0:0:0:0:
320,192,11716,5,0,0:0:0:0:
192,192,11750,5,2,0:0:0:0:
256,192,11783,5,0,0:0:0:0:
320,192,11816,5,0,0:0:0:0:
192,192,11850,5,2,0:0:0:0:
256,192,11883,5,0,0:0:0:0:
320,192,11916,5,0,0:0:0:0:
192,192,11950,5,2,0:0:0:0:
256,192,11983,5,0,0:0:0:0:
320,192,12016,5,0,0:0:0:0:
192,192,12050,5,2,0:0:0:0:
256,192,12083,5,0,0:0:0:0:
320,192,12116,5,0,0:0:0:0:
192,192,12150,5,2,0:0:0:0:
256,192,12183,5,0,0:0:0:0:
320,192,12216,5,0,0:0:0:0:
192,192,12250,5,2,0:0:0:0:
256,192,12283,5,0,0:0:0:0:
320,192,12316,5,0,0:0:0:0:
192,192,12350,5,2,0:0:0:0:
256,192,12383,5,0,0:0:0:0:
320,192,12416,5,0,0:0:0:0:
192,192,12450,5,2,0:0:0:0:
256,192,12483,5,0,0:0:0:0:
320,192,12516,5,0,0:0:0:0:
192,192,12550,5,2,0:0:0:0:
256,192,12583,5,0,0:0:0:0:
320,192,12616,5,0,0:0:0:0:
192,192,12650,5,2,0:0:0:0:
256,192,12683,5,0,0:0:0:0:
320,192,12716,5,0,0:0:0:0:
192,192,12750,5,2,0:0:0:0:
256,192,12783,5,0,0:0:0:0:
320,192,12816,5,0,0:0:0:0:
192,192,12850,5,2,0:0:0:0:
256,192,12883,5,0,0:0:0:0:
320,192,12916,5,0,0:0:0:0:
192,192,12950,5,2,0:0:0:0:
256,192,12983,5,0,0:0:0:0:
320,192,13016,5,0,0:0:0:0:
192,192,13050,5,2,0:0:0:0:
256,192,13083,5,0,0:0:0:0:
320,192,13116,5,0,0:0:0:0:
192,192,13150,5,2,0:0:0:0:
256,192,13183,5,0,0:0:0:0:
320,192,13216,5,0,0:0:0:0:
192,192,13250,5,2,0:0:0:0:
256,192,13283,5,0,0:0:0:0:
320,192,13316,5,0,0:0:0:0:
192,192,13350,5,2,0:0:0:0:
256,192,13383,5,0,0:0:0:0:
320,192,13416,5,0,0:0:0:0:
192,192,13450,5,2,0:0:0:0:
256,192,13483,5,0,0:0:0:0:
320,192,13516,5,0,0:0:0:0:
192,192,13550,5,2,0:0:0:0:
256,192,13583,5,0,0:0:0:0:
320,192,13616,5,0,0:0:0:0:
192,192,13650,5,2,0:0:0:0:
256,192,13683,5,0,0:0:0:0:
320,192,13716,5,0,0:0:0:0:
192,192,13750,5,2,0:0:0:0:
256,192,13783,5,0,0:0:0:0:
320,192,13816,5,0,0:0:0:0:
192,192,13850,5,2,0:0:0:0:
256,192,13883,5,0,0:0:0:0:
320,192,13916,5,0,0:0:0:0:
192,192,13950,5,2,0:0:0:0:
256,192,13983,5,0,0:0:0:0:
320,192,14016,5,0,0:0:0:0:
192,192,14050,5,2,0:0:0:0:
256,192,14083,5,0,0:0:0:0:
320,192,14116,5,0,0:0:0:0:
192,192,14150,5,2,0:0:0:0:
256,192,14183,5,0,0:0:0:0:
320,192,14216,5,0,0:0:0:0:
192,192,14250,5,2,0:0:0:0:
256,192,14283,5,0,0:0:0:0:
320,192,14316,5,0,0:0:0:0:
192,192,14350,5,2,0:0:0:0:
256,192,14383,5,0,0:0:0:0:
320,192,14416,5,0,0:0:0:0:
192,192,14450,5,2,0:0:0:0:
256,192,14483,5,0,0:0:0:0:
320,192,14516,5,0,0:0:0:0:
192,192,14550,5,2,0:0:0:0:
256,192,14583,5,0,0:0:0:0:
320,192,14616,5,0,0:0:0:0:
192,192,14650,5,2,0:0:0:0:
256,192,14683,5,0,0:0:0:0:
320,192,14716,5,0,0:0:0:0:
192,192,14750,5,2,0:0:0:0:
256,192,14783,5,0,0:0:0:0:
320,192,14816,5,0,0:0:0:0:
192,192,14850,5,2,0:0:0:0:
256,192,14883,5,0,0:0:0:0:
320,192,14916,5,0,0:0:0:0:
192,192,14950,5,2,0:0:0:0:
256,192,14983,5,0,0:0:0:0:
320,192,15016,5,0,0:0:0:0:
192,192,15050,5,2,0:0:0:0:
256,192,15083,5,0,0:0:0:0:
320,192,15116,5,0,0:0:0:0:
192,192,15150,5,2,0:0:0:0:
256,192,15183,5,0,0:0:0:0:
320,192,15216,5,0,0:0:0:0:
192,192,15250,5,2,0:0:0:0:
256,192,15283,5,0,0:0:0:0:
320,192,15316,5,0,0:0:0:0:
192,192,15350,5,2,0:0:0:0:
256,192,15383,5,0,0:0:0:0:
320,192,15416,5,0,0:0:0:0:
192,192,15450,5,2,0:0:0:0:
256,192,15483,5,0,0:0:0:0:
320,192,15516,5,0,0:0:0:0:
192,192,15550,5,2,0:0:0:0:
256,192,15583,5,0,0:0:0:0:
320,192,15616,5,0,0:0:0:0:
192,192,15650,5,2,0:0:0:0:
256,192,15683,5,0,0:0:0:0:
320,192,15716,5,0,0:0:0:0:
192,192,15750,5,2,0:0:0:0:
256,192,15783,5,0,0:0:0:0:
320,192,15816,5,0,0:0:0:0:
192,192,15850,5,2,0:0:0:0:
256,192,15883,5,0,0:0:0:0:
320,192,15916,5,0,0:0:0:0:
192,192,15950,5,2,0:0:0:0:
256,192,15983,5,0,0:0:0:0:
320,192,16016,5,0,0:0:0:0:
192,192,16050,5,2,0:0:0:0:
256,192,16083,5,0,0:0:0:0:
320,192,16116,5,0,0:0:0:0:
192,192,16150,5,2,0:0:0:0:
256,192,16183,5,0,0:0:0:0:
320,192,16216,5,0,0:0:0:0:
192,192,16250,5,2,0:0:0:0:
256,192,16283,5,0,0:0:0:0:
320,192,16316,5,0,0:0:0:0:
192,192,16350,5,2,0:0:0:0:
256,192,16383,5,0,0:0:0:0:
320,192,16416,5,0,0:0:0:0:
192,192,16450,5,2,0:0:0:0:
256,192,16483,5,0,0:0:0:0:
320,192,16516,5,0,0:0:0:0:
192,192,16550,5,2,0:0:0:0:
256,192,16583,5,0,0:0:0:0:
320,192,16616,5,0,0:0:0:0:
192,192,16650,5,2,0:0:0:0:
256,192,16683,5,0,0:0:0:0:
320,192,16716,5,0,0:0:0:0:
192,192,16750,5,2,0:0:0:0:
256,192,16783,5,0,0:0:0:0:
320,192,16816,5,0,0:0:0:0:
192,192,16850,5,2,0:0:0:0:
256,192,16883,5,0,0:0:0:0:
320,192,16916,5,0,0:0:0:0:
192,192,16950,5,2,0:0:0:0:
256,192,16983,5,0,0:0:0:0:
320,192,17016,5,0,0:0:0:0:
192,192,17050,5,2,0:0:0:0:
256,192,17083,5,0,0:0:0:0:
320,192,17116,5,0,0:0:0:0:
192,192,17150,5,2,0:0:0:0:
256,192,17183,5,0,0:0:0:0:
320,192,17216,5,0,0:0:0:0:
192,192,17250,5,2,0:0:0:0:
256,192,17283,5,0,0:0:0:0:
320,192,17316,5,0,0:0:0:0:
192,192,17350,5,2,0:0:0:0:
256,192,17383,5,0,0:0:0:0:
320,192,17416,5,0,0:0:0:0:
192,192,17450,5,2,0:0:0:0:
256,192,17483,5,0,0:0:0:0:
320,192,17516,5,0,0:0:0:0:
192,192,17550,5,2,0:0:0:0:
256,192,17583,5,0,0:0:0:0:
320,192,17616,5,0,0:0:0:0:
192,192,17650,5,2,0:0:0:0:
256,192,17683,5,0,0:0:0:0:
320,192,17716,5,0,0:0:0:0:
192,192,17750,5,2,0:0:0:0:
256,192,17783,5,0,0:0:0:0:
320,192,17816,5,0,0:0:0:0:
192,192,17850,5,2,0:0:0:0:
256,192,17883,5,0,0:0:0:0:
320,192,17916,5,0,0:0:0:0:
192,192,17950,5,2,0:0:0:0:
256,192,17983,5,0,0:0:0:0:
320,192,18016,5,0,0:0:0:0:
192,192,18050,5,2,0:0:0:0:
256,192,18083,5,0,0:0:0:0:
320,192,18116,5,0,0:0:0:0:
192,192,18150,5,2,0:0:0:0:
256,192,18183,5,0,0:0:0:0:
320,192,18216,5,0,0:0:0:0:
192,192,18250,5,2,0:0:0:0:
256,192,18283,5,0,0:0:0:0:
320,192,18316,5,0,0:0:0:0:
192,192,18350,5,2,0:0:0:0:
256,192,18383,5,0,0:0:0:0:
320,192,18416,5,0,0:0:0:0:
192,192,18450,5,2,0:0:0:0:
256,192,18483,5,0,0:0:0:0:
320,192,18516,5,0,0:0:0:0:
192,192,18550,5,2,0:0:0:0:
256,192,18583,5,0,0:0:0:0:
320,192,18616,5,0,0:0:0:0:
192,192,18650,5,2,0:0:0:0:
256,192,18683,5,0,0:0:0:0:
320,192,18716,5,0,0:0:0:0:
192,192,18750,5,2,0:0:0:0:
256,192,18783,5,0,0:0:0:0:
320,192,18816,5,0,0:0:0:0:
192,192,18850,5,2,0:0:0:0:
256,192,18883,5,0,0:0:0:0:
320,192,18916,5,0,0:0:0:0:
192,192,18950,5,2,0:0:0:0:
256,192,18983,5,0,0:0:0:0:
320,192,19016,5,0,0:0:0:0:
192,192,19050,5,2,0:0:0:0:
256,192,19083,5,0,0:0:0:0:
320,192,19116,5,0,0:0:0:0:
192,192,19150,5,2,0:0:0:0:
256,192,19183,5,0,0:0:0:0:
320,192,19216,5,0,0:0:0:0:
192,192,19250,5,2,0:0:0:0:
256,192,19283,5,0,0:0:0:0:
320,192,19316,5,0,0:0:0:0:
192,192,19350,5,2,0:0:0:0:
256,192,19383,5,0,0:0:0:0:
320,192,19416,5,0,0:0:0:0:
192,192,19450,5,2,0:0:0:0:
256,192,19483,5,0,0:0:0:0:
320,192,19516,5,0,0:0:0:0:
192,192,19550,5,2,0:0:0:0:
256,192,19583,5,0,0:0:0:0:
320,192,19616,5,0,0:0:0:0:
192,192,19650,5,2,0:0:0:0:
256,192,19683,5,0,0:0:0:0:
320,192,19716,5,0,0:0:0:0:
192,192,19750,5,2,0:0:0:0:
256,192,19783,5,0,0:0:0:0:
320,192,19816,5,0,0:0:0:0:
192,192,19850,5,2,0:0:0:0:
256,192,19883,5,0,0:0:0:0:
320,192,19916,5,0,0:0:0:0:
192,192,19950,5,2,0:0:0:0:
256,192,19983,5,0,0:0:0:0:
320,192,20016,5,0,0:0:0:0:
192,192,20050,5,2,0:0:0:0:
256,192,20083,5,0,0:0:0:0:
320,192,20116,5,0,0:0:0:0:
192,192,20150,5,2,0:0:0:0:
256,192,20183,5,0,0:0:0:0:
320,192,20216,5,0,0:0:0:0:
192,192,20250,5,2,0:0:0:0:
256,192,20283,5,0,0:0:0:0:
320,192,20316,5,0,0:0:0:0:
192,192,20350,5,2,0:0:0:0:
256,192,20383,5,0,0:0:0:0:
320,192,20416,5,0,0:0:0:0:
192,192,20450,5,2,0:0:0:0:
256,192,20483,5,0,0:0:0:0:
320,192,20516,5,0,0:0:0:0:
192,192,20550,5,2,0:0:0:0:
256,192,20583,5,0,0:0:0:0:
320,192,20616,5,0,0:0:0:0:
192,192,20650,5,2,0:0:0:0:
256,192,20683,5,0,0:0:0:0:
320,192,20716,5,0,0:0:0:0:
192,192,20750,5,2,0:0:0:0:
256,192,20783,5,0,0:0:0:0:
320,192,20816,5,0,0:0:0:0:
192,192,20850,5,2,0:0:0:0:
256,192,20883,5,0,0:0:0:0:
320,192,20916,5,0,0:0:0:0:
192,192,20950,5,2,0:0:0:0:
256,192,20983,5,0,0:0:0:0:
320,192,21016,5,0,0:0:0:0:
192,192,21050,5,2,0:0:0:0:
256,192,21083,5,0,0:0:0:0:
320,192,21116,5,0,0:0:0:0:
192,192,21150,5,2,0:0:0:0:
256,192,21183,5,0,0:0:0:0:
320,192,21216,5,0,0:0:0:0:
192,192,21250,5,2,0:0:0:0:
256,192,21283,5,0,0:0:0:0:
320,192,21316,5,0,0:0:0:0:
192,192,21350,5,2,0:0:0:0:
256,192,21383,5,0,0:0:0:0:
320,192,21416,5,0,0:0:0:0:
192,192,21450,5,2,0:0:0:0:
256,192,21483,5,0,0:0:0:0:
320,192,21516,5,0,0:0:0:0:
192,192,21550,5,2,0:0:0:0:
256,192,21583,5,0,0:0:0:0:
320,192,21616,5,0,0:0:0:0:
192,192,21650,5,2,0:0:0:0:
256,192,21683,5,0,0:0:0:0:
320,192,21716,5,0,0:0:0:0:
192,192,21750,5,2,0:0:0:0:
256,192,21783,5,0,0:0:0:0:
320,192,21816,5,0,0:0:0:0:
192,192,21850,5,2,0:0:0:0:
256,192,21883,5,0,0:0:0:0:
320,192,21916,5,0,0:0:0:0:
192,192,21950,5,2,0:0:0:0:
256,192,21983,5,0,0:0:0:0:
320,192,22016,5,0,0:0:0:0:
192,192,22050,5,2,0:0:0:0:
256,192,22083,5,0,0:0:0:0:
320,192,22116,5,0,0:0:0:0:
192,192,22150,5,2,0:0:0:0:
256,192,22183,5,0,0:0:0:0:
320,192,22216,5,0,0:0:0:0:
192,192,22250,5,2,0:0:0:0:
256,192,22283,5,0,0:0:0:0:
320,192,22316,5,0,0:0:0:0:
192,192,22350,5,2,0:0:0:0:
256,192,22383,5,0,0:0:0:0:
320,192,22416,5,0,0:0:0:0:
192,192,22450,5,2,0:0:0:0:
256,192,22483,5,0,0:0:0:0:
320,192,22516,5,0,0:0:0:0:
192,192,22550,5,2,0:0:0:0:
256,192,22583,5,0,0:0:0:0:
320,192,22616,5,0,0:0:0:0:
192,192,22650,5,2,0:0:0:0:
256,192,22683,5,0,0:0:0:0:
320,192,22716,5,0,0:0:0:0:
192,192,22750,5,2,0:0:0:0:
256,192,22783,5,0,0:0:0:0:
320,192,22816,5,0,0:0:0:0:
192,192,22850,5,2,0:0:0:0:
256,192,22883,5,0,0:0:0:0:
320,192,22916,5,0,0:0:0:0:
192,192,22950,5,2,0:0:0:0:
256,192,22983,5,0,0:0:0:0:
320,192,23016,5,0,0:0:0:0:
192,192,23050,5,2,0:0:0:0:
256,192,23083,5,0,0:0:0:0:
320,192,23116,5,0,0:0:0:0:
192,192,23150,5,2,0:0:0:0:
256,192,23183,5,0,0:0:0:0:
320,192,23216,5,0,0:0:0:0:
192,192,23250,5,2,0:0:0:0:
256,192,23283,5,0,0:0:0:0:
320,192,23316,5,0,0:0:0:0:
192,192,23350,5,2,0:0:0:0:
256,192,23383,5,0,0:0:0:0:
320,192,23416,5,0,0:0:0:0:
192,192,23450,5,2,0:0:0:0:
256,192,23483,5,0,0:0:0:0:
320,192,23516,5,0,0:0:0:0:
192,192,23550,5,2,0:0:0:0:
256,192,23583,5,0,0:0:0:0:
320,192,23616,5,0,0:0:0:0:
192,192,23650,5,2,0:0:0:0:
256,192,23683,5,0,0:0:0:0:
320,192,23716,5,0,0:0:0:0:
192,192,23750,5,2,0:0:0:0:
256,192,23783,5,0,0:0:0:0:
320,192,23816,5,0,0:0:0:0:
192,192,23850,5,2,0:0:0:0:
256,192,23883,5,0,0:0:0:0:
320,192,23916,5,0,0:0:0:0:
192,192,23950,5,2,0:0:0:0:
256,192,23983,5,0,0:0:0:0:
320,192,24016,5,0,0:0:0:0:
192,192,24050,5,2,0:0:0:0:
256,192,24083,5,0,0:0:0:0:
320,192,24116,5,0,0:0:0:0:
192,192,24150,5,2,0:0:0:0:
256,192,24183,5,0,0:0:0:0:
320,192,24216,5,0,0:0:0:0:
192,192,24250,5,2,0:0:0:0:
256,192,24283,5,0,0:0:0:0:
320,192,24316,5,0,0:0:0:0:
192,192,24350,5,2,0:0:0:0:
256,192,24383,5,0,0:0:0:0:
320,192,24416,5,0,0:0:0:0:
192,192,24450,5,2,0:0:0:0:
256,192,24483,5,0,0:0:0:0:
320,192,24516,5,0,0:0:0:0:
192,192,24550,5,2,0:0:0:0:
256,192,24583,5,0,0:0:0:0:
320,192,24616,5,0,0:0:0:0:
192,192,24650,5,2,0:0:0:0:
256,192,24683,5,0,0:0:0:0:
320,192,24716,5,0,0:0:0:0:
192,192,24750,5,2,0:0:0:0:
256,192,24783,5,0,0:0:0:0:
320,192,24816,5,0,0:0:0:0:
192,192,24850,5,2,0:0:0:0:
256,192,24883,5,0,0:0:0:0:
320,192,24916,5,0,0:0:0:0:
192,192,24950,5,2,0:0:0:0:
256,192,24983,5,0,0:0:0:0:
320,192,25016,5,0,0:0:0:0:
192,192,25050,5,2,0:0:0:0:
256,192,25083,5,0,0:0:0:0:
320,192,25116,5,0,0:0:0:0:
192,192,25150,5,2,0:0:0:0:
256,192,25183,5,0,0:0:0:0:
320,192,25216,5,0,0:0:0:0:
192,192,25250,5,2,0:0:0:0:
256,192,25283,5,0,0:0:0:0:
320,192,25316,5,0,0:0:0:0:
192,192,25350,5,2,0:0:0:0:
256,192,25383,5,0,0:0:0:0:
320,192,25416,5,0,0:0:0:0:
192,192,25450,5,2,0:0:0:0:
256,192,25483,5,0,0:0:0:0:
320,192,25516,5,0,0:0:0:0:
192,192,25550,5,2,0:0:0:0:
256,192,25583,5,0,0:0:0:0:
320,192,25616,5,0,0:0:0:0:
192,192,25650,5,2,0:0:0:0:
256,192,25683,5,0,0:0:0:0:
320,192,25716,5,0,0:0:0:0:
192,192,25750,5,2,0:0:0:0:
256,192,25783,5,0,0:0:0:0:
320,192,25816,5,0,0:0:0:0:
192,192,25850,5,2,0:0:0:0:
256,192,25883,5,0,0:0:0:0:
320,192,25916,5,0,0:0:0:0:
192,192,25950,5,2,0:0:0:0:
256,192,25983,5,0,0:0:0:0:
320,192,26016,5,0,0:0:0:0:
192,192,26050,5,2,0:0:0:0:
256,192,26083,5,0,0:0:0:0:
320,192,26116,5,0,0:0:0:0:
192,192,26150,5,2,0:0:0:0:
256,192,26183,5,0,0:0:0:0:
320,192,26216,5,0,0:0:0:0:
192,192,26250,5,2,0:0:0:0:
256,192,26283,5,0,0:0:0:0:
320,192,26316,5,0,0:0:0:0:
192,192,26350,5,2,0:0:0:0:
256,192,26383,5,0,0:0:0:0:
320,192,26416,5,0,0:0:0:0:
192,192,26450,5,2,0:0:0:0:
256,192,26483,5,0,0:0:0:0:
320,192,26516,5,0,0:0:0:0:
192,192,26550,5,2,0:0:0:0:
256,192,26583,5,0,0:0:0:0:
320,192,26616,5,0,0:0:0:0:
192,192,26650,5,2,0:0:0:0:
256,192,26683,5,0,0:0:0:0:
320,192,26716,5,0,0:0:0:0:
192,192,26750,5,2,0:0:0:0:
256,192,26783,5,0,0:0:0:0:
320,192,26816,5,0,0:0:0:0:
192,192,26850,5,2,0:0:0:0:
256,192,26883,5,0,0:0:0:0:
320,192,26916,5,0,0:0:0:0:
192,192,26950,5,2,0:0:0:0:
256,192,26983,5,0,0:0:0:0:
320,192,27016,5,0,0:0:0:0:
192,192,27050,5,2,0:0:0:0:
256,192,27083,5,0,0:0:0:0:
320,192,27116,5,0,0:0:0:0:
192,192,27150,5,2,0:0:0:0:
256,192,27183,5,0,0:0:0:0:
320,192,27216,5,0,0:0:0:0:
192,192,27250,5,2,0:0:0:0:
256,192,27283,5,0,0:0:0:0:
320,192,27316,5,0,0:0:0:0:
192,192,27350,5,2,0:0:0:0:
256,192,27383,5,0,0:0:0:0:
320,192,27416,5,0,0:0:0:0:
192,192,27450,5,2,0:0:0:0:
256,192,27483,5,0,0:0:0:0:
320,192,27516,5,0,0:0:0:0:
192,192,27550,5,2,0:0:0:0:
256,192,27583,5,0,0:0:0:0:
320,192,27616,5,0,0:0:0:0:
192,192,27650,5,2,0:0:0:0:
256,192,27683,5,0,0:0:0:0:
320,192,27716,5,0,0:0:0:0:
192,192,27750,5,2,0:0:0:0:
256,192,27783,5,0,0:0:0:0:
320,192,27816,5,0,0:0:0:0:
192,192,27850,5,2,0:0:0:0:
256,192,27883,5,0,0:0:0:0:
320,192,27916,5,0,0:0:0:0:
192,192,27950,5,2,0:0:0:0:
256,192,27983,5,0,0:0:0:0:
320,192,28016,5,0,0:0:0:0:
192,192,28050,5,2,0:0:0:0:
256,192,28083,5,0,0:0:0:0:
320,192,28116,5,0,0:0:0:0:
192,192,28150,5,2,0:0:0:0:
256,192,28183,5,0,0:0:0:0:
320,192,28216,5,0,0:0:0:0:
192,192,28250,5,2,0:0:0:0:
256,192,28283,5,0,0:0:0:0:
320,192,28316,5,0,0:0:0:0:
192,192,28350,5,2,0:0:0:0:
256,192,28383,5,0,0:0:0:0:
320,192,28416,5,0,0:0:0:0:
192,192,28450,5,2,0:0:0:0:
256,192,28483,5,0,0:0:0:0:
320,192,28516,5,0,0:0:0:0:
192,192,28550,5,2,0:0:0:0:
256,192,28583,5,0,0:0:0:0:
320,192,28616,5,0,0:0:0:0:
192,192,28650,5,2,0:0:0:0:
256,192,28683,5,0,0:0:0:0:
320,192,28716,5,0,0:0:0:0:
192,192,28750,5,2,0:0:0:0:
256,192,28783,5,0,0:0:0:0:
320,192,28816,5,0,0:0:0:0:
192,192,28850,5,2,0:0:0:0:
256,192,28883,5,0,0:0:0:0:
320,192,28916,5,0,0:0:0:0:
192,192,28950,5,2,0:0:0:0:
256,192,28983,5,0,0:0:0:0:
320,192,29016,5,0,0:0:0:0:
192,192,29050,5,2,0:0:0:0:
256,192,29083,5,0,0:0:0:0:
320,192,29116,5,0,0:0:0:0:
192,192,29150,5,2,0:0:0:0:
256,192,29183,5,0,0:0:0:0:
320,192,29216,5,0,0:0:0:0:
192,192,29250,5,2,0:0:0:0:
256,192,29283,5,0,0:0:0:0:
320,192,29316,5,0,0:0:0:0:
192,192,29350,5,2,0:0:0:0:
256,192,29383,5,0,0:0:0:0:
320,192,29416,5,0,0:0:0:0:
192,192,29450,5,2,0:0:0:0:
256,192,29483,5,0,0:0:0:0:
320,192,29516,5,0,0:0:0:0:
192,192,29550,5,2,0:0:0:0:
256,192,29583,5,0,0:0:0:0:
320,192,29616,5,0,0:0:0:0:
192,192,29650,5,2,0:0:0:0:
256,192,29683,5,0,0:0:0:0:
320,192,29716,5,0,0:0:0:0:
192,192,29750,5,2,0:0:0:0:
256,192,29783,5,0,0:0:0:0:
320,192,29816,5,0,0:0:0:0:
192,192,29850,5,2,0:0:0:0:
256,192,29883,5,0,0:0:0:0:
320,192,29916,5,0,0:0:0:0:
192,192,29950,5,2,0:0:0:0:
256,192,29983,5,0,0:0:0:0:
320,192,30016,5,0,0:0:0:0:
192,192,30050,5,2,0:0:0:0:
256,192,30083,5,0,0:0:0:0:
320,192,30116,5,0,0:0:0:0:
192,192,30150,5,2,0:0:0:0:
256,192,30183,5,0,0:0:0:0:
320,192,30216,5,0,0:0:0:0:
192,192,30250,5,2,0:0:0:0:
256,192,30283,5,0,0:0:0:0:
320,192,30316,5,0,0:0:0:0:
192,192,30350,5,2,0:0:0:0:
256,192,30383,5,0,0:0:0:0:
320,192,30416,5,0,0:0:0:0:
192,192,30450,5,2,0:0:0:0:
256,192,30483,5,0,0:0:0:0:
320,192,30516,5,0,0:0:0:0:
192,192,30550,5,2,0:0:0:0:
256,192,30583,5,0,0:0:0:0:
320,192,30616,5,0,0:0:0:0:
192,192,30650,5,2,0:0:0:0:
256,192,30683,5,0,0:0:0:0:
320,192,30716,5,0,0:0:0:0:
192,192,30750,5,2,0:0:0:0:
256,192,30783,5,0,0:0:0:0:
320,192,30816,5,0,0:0:0:0:
192,192,30850,5,2,0:0:0:0:
256,192,30883,5,0,0:0:0:0:
320,192,30916,5,0,0:0:0:0:
192,192,30950,5,2,0:0:0:0:
256,192,30983,5,0,0:0:0:0:
320,192,31016,5,0,0:0:0:0:
192,192,31050,5,2,0:0:0:0:
256,192,31083,5,0,0:0:0:0:
320,192,31116,5,0,0:0:0:0:
192,192,31150,5,2,0:0:0:0:
256,192,31183,5,0,0:0:0:0:
320,192,31216,5,0,0:0:0:0:
192,192,31250,5,2,0:0:0:0:
256,192,31283,5,0,0:0:0:0:
320,192,31316,5,0,0:0:0:0:
192,192,31350,5,2,0:0:0:0:
256,192,31383,5,0,0:0:0:0:
320,192,31416,5,0,0:0:0:0:
192,192,31450,5,2,0:0:0:0:
256,192,31483,5,0,0:0:0:0:
320,192,31516,5,0,0:0:0:0:
192,192,31550,5,2,0:0:0:0:
256,192,31583,5,0,0:0:0:0:
320,192,31616,5,0,0:0:0:0:
192,192,31650,5,2,0:0:0:0:
256,192,31683,5,0,0:0:0:0:
320,192,31716,5,0,0:0:0:0:
192,192,31750,5,2,0:0:0:0:
256,192,31783,5,0,0:0:0:0:
320,192,31816,5,0,0:0:0:0:
192,192,31850,5,2,0:0:0:0:
256,192,31883,5,0,0:0:0:0:
320,192,31916,5,0,0:0:0:0:
192,192,31950,5,2,0:0:0:0:
256,192,31983,5,0,0:0:0:0:
320,192,32016,5,0,0:0:0:0:
192,192,32050,5,2,0:0:0:0:
256,192,32083,5,0,0:0:0:0:
320,192,32116,5,0,0:0:0:0:
192,192,32150,5,2,0:0:0:0:
256,192,32183,5,0,0:0:0:0:
320,192,32216,5,0,0:0:0:0:
192,192,32250,5,2,0:0:0:0:
256,192,32283,5,0,0:0:0:0:
320,192,32316,5,0,0:0:0:0:
192,192,32350,5,2,0:0:0:0:
256,192,32383,5,0,0:0:0:0:
320,192,32416,5,0,0:0:0:0:
192,192,32450,5,2,0:0:0:0:
256,192,32483,5,0,0:0:0:0:
320,192,32516,5,0,0:0:0:0:
192,192,32550,5,2,0:0:0:0:
256,192,32583,5,0,0:0:0:0:
320,192,32616,5,0,0:0:0:0:
192,192,32650,5,2,0:0:0:0:
256,192,32683,5,0,0:0:0:0:
320,192,32716,5,0,0:0:0:0:
192,192,32750,5,2,0:0:0:0:
256,192,32783,5,0,0:0:0:0:
320,192,32816,5,0,0:0:0:0:
192,192,32850,5,2,0:0:0:0:
256,192,32883,5,0,0:0:0:0:
320,192,32916,5,0,0:0:0:0:
192,192,32950,5,2,0:0:0:0:
256,192,32983,5,0,0:0:0:0:
320,192,33016,5,0,0:0:0:0:
192,192,33050,5,2,0:0:0:0:
256,192,33083,5,0,0:0:0:0:
320,192,33116,5,0,0:0:0:0:
192,192,33150,5,2,0:0:0:0:
256,192,33183,5,0,0:0:0:0:
320,192,33216,5,0,0:0:0:0:
192,192,33250,5,2,0:0:0:0:
256,192,33283,5,0,0:0:0:0:
320,192,33316,5,0,0:0:0:0:
192,192,33350,5,2,0:0:0:0:
256,192,33383,5,0,0:0:0:0:
320,192,33416,5,0,0:0:0:0:
192,192,33450,5,2,0:0:0:0:
256,192,33483,5,0,0:0:0:0:
320,192,33516,5,0,0:0:0:0:
192,192,33550,5,2,0:0:0:0:
256,192,33583,5,0,0:0:0:0:
320,192,33616,5,0,0:0:0:0:
192,192,33650,5,2,0:0:0:0:
256,192,33683,5,0,0:0:0:0:
320,192,33716,5,0,0:0:0:0:
192,192,33750,5,2,0:0:0:0:
256,192,33783,5,0,0:0:0:0:
320,192,33816,5,0,0:0:0:0:
192,192,33850,5,2,0:0:0:0:
256,192,33883,5,0,0:0:0:0:
320,192,33916,5,0,0:0:0:0:
192,192,33950,5,2,0:0:0:0:
256,192,33983,5,0,0:0:0:0:
320,192,34016,5,0,0:0:0:0:
192,192,34050,5,2,0:0:0:0:
256,192,34083,5,0,0:0:0:0:
320,192,34116,5,0,0:0:0:0:
192,192,34150,5,2,0:0:0:0:
256,192,34183,5,0,0:0:0:0:
320,192,34216,5,0,0:0:0:0:
192,192,34250,5,2,0:0:0:0:
256,192,34283,5,0,0:0:0:0:
320,192,34316,5,0,0:0:0:0:
192,192,34350,5,2,0:0:0:0:
256,192,34383,5,0,0:0:0:0:
320,192,34416,5,0,0:0:0:0:
192,192,34450,5,2,0:0:0:0:
256,192,34483,5,0,0:0:0:0:
320,192,34516,5,0,0:0:0:0:
192,192,34550,5,2,0:0:0:0:
256,192,34583,5,0,0:0:0:0:
320,192,34616,5,0,0:0:0:0:
192,192,34650,5,2,0:0:0:0:
256,192,34683,5,0,0:0:0:0:
320,192,34716,5,0,0:0:0:0:
192,192,34750,5,2,0:0:0:0:
256,192,34783,5,0,0:0:0:0:
320,192,34816,5,0,0:0:0:0:
192,192,34850,5,2,0:0:0:0:
256,192,34883,5,0,0:0:0:0:
320,192,34916,5,0,0:0:0:0:
192,192,34950,5,2,0:0:0:0:
256,192,34983,5,0,0:0:0:0:
320,192,35016,5,0,0:0:0:0:
192,192,35050,5,2,0:0:0:0:
256,192,35083,5,0,0:0:0:0:
320,192,35116,5,0,0:0:0:0:
192,192,35150,5,2,0:0:0:0:
256,192,35183,5,0,0:0:0:0:
320,192,35216,5,0,0:0:0:0:
192,192,35250,5,2,0:0:0:0:
256,192,35283,5,0,0:0:0:0:
320,192,35316,5,0,0:0:0:0:
192,192,35350,5,2,0:0:0:0:
256,192,35383,5,0,0:0:0:0:
320,192,35416,5,0,0:0:0:0:
192,192,35450,5,2,0:0:0:0:
256,192,35483,5,0,0:0:0:0:
320,192,35516,5,0,0:0:0:0:
192,192,35550,5,2,0:0:0:0:
256,192,35583,5,0,0:0:0:0:
320,192,35616,5,0,0:0:0:0:
192,192,35650,5,2,0:0:0:0:
256,192,35683,5,0,0:0:0:0:
320,192,35716,5,0,0:0:0:0:
192,192,35750,5,2,0:0:0:0:
256,192,35783,5,0,0:0:0:0:
320,192,35816,5,0,0:0:0:0:
192,192,35850,5,2,0:0:0:0:
256,192,35883,5,0,0:0:0:0:
320,192,35916,5,0,0:0:0:0:
192,192,35950,5,2,0:0:0:0:
256,192,35983,5,0,0:0:0:0:
320,192,36016,5,0,0:0:0:0:
192,192,36050,5,2,0:0:0:0:
256,192,36083,5,0,0:0:0:0:
320,192,36116,5,0,0:0:0:0:
192,192,36150,5,2,0:0:0:0:
256,192,36183,5,0,0:0:0:0:
320,192,36216,5,0,0:0:0:0:
192,192,36250,5,2,0:0:0:0:
256,192,36283,5,0,0:0:0:0:
320,192,36316,5,0,0:0:0:0:
192,192,36350,5,2,0:0:0:0:
256,192,36383,5,0,0:0:0:0:
320,192,36416,5,0,0:0:0:0:
192,192,36450,5,2,0:0:0:0:
256,192,36483,5,0,0:0:0:0:
320,192,36516,5,0,0:0:0:0:
192,192,36550,5,2,0:0:0:0:
256,192,36583,5,0,0:0:0:0:
320,192,36616,5,0,0:0:0:0:
192,192,36650,5,2,0:0:0:0:
256,192,36683,5,0,0:0:0:0:
320,192,36716,5,0,0:0:0:0:
192,192,36750,5,2,0:0:0:0:
256,192,36783,5,0,0:0:0:0:
320,192,36816,5,0,0:0:0:0:
192,192,36850,5,2,0:0:0:0:
256,192,36883,5,0,0:0:0:0:
320,192,36916,5,0,0:0:0:0:
192,192,36950,5,2,0:0:0:0:
256,192,36983,5,0,0:0:0:0:
320,192,37016,5,0,0:0:0:0:
192,192,37050,5,2,0:0:0:0:
256,192,37083,5,0,0:0:0:0:
320,192,37116,5,0,0:0:0:0:
192,192,37150,5,2,0:0:0:0:
256,192,37183,5,0,0:0:0:0:
320,192,37216,5,0,0:0:0:0:
192,192,37250,5,2,0:0:0:0:
256,192,37283,5,0,0:0:0:0:
320,192,37316,5,0,0:0:0:0:
192,192,37350,5,2,0:0:0:0:
256,192,37383,5,0,0:0:0:0:
320,192,37416,5,0,0:0:0:0:
192,192,37450,5,2,0:0:0:0:
256,192,37483,5,0,0:0:0:0:
320,192,37516,5,0,0:0:0:0:
192,192,37550,5,2,0:0:0:0:
256,192,37583,5,0,0:0:0:0:
320,192,37616,5,0,0:0:0:0:
192,192,37650,5,2,0:0:0:0:
256,192,37683,5,0,0:0:0:0:
320,192,37716,5,0,0:0:0:0:
192,192,37750,5,2,0:0:0:0:
256,192,37783,5,0,0:0:0:0:
320,192,37816,5,0,0:0:0:0:
192,192,37850,5,2,0:0:0:0:
256,192,37883,5,0,0:0:0:0:
320,192,37916,5,0,0:0:0:0:
192,192,37950,5,2,0:0:0:0:
256,192,37983,5,0,0:0:0:0:
320,192,38016,5,0,0:0:0:0:
192,192,38050,5,2,0:0:0:0:
256,192,38083,5,0,0:0:0:0:
320,192,38116,5,0,0:0:0:0:
192,192,38150,5,2,0:0:0:0:
256,192,38183,5,0,0:0:0:0:
320,192,38216,5,0,0:0:0:0:
192,192,38250,5,2,0:0:0:0:
256,192,38283,5,0,0:0:0:0:
320,192,38316,5,0,0:0:0:0:
192,192,38350,5,2,0:0:0:0:
256,192,38383,5,0,0:0:0:0:
320,192,38416,5,0,0:0:0:0:
192,192,38450,5,2,0:0:0:0:
256,192,38483,5,0,0:0:0:0:
320,192,38516,5,0,0:0:0:0:
192,192,38550,5,2,0:0:0:0:
256,192,38583,5,0,0:0:0:0:
320,192,38616,5,0,0:0:0:0:
192,192,38650,5,2,0:0:0:0:
256,192,38683,5,0,0:0:0:0:
320,192,38716,5,0,0:0:0:0:
192,192,38750,5,2,0:0:0:0:
256,192,38783,5,0,0:0:0:0:
320,192,38816,5,0,0:0:0:0:
192,192,38850,5,2,0:0:0:0:
256,192,38883,5,0,0:0:0:0:
320,192,38916,5,0,0:0:0:0:
192,192,38950,5,2,0:0:0:0:
256,192,38983,5,0,0:0:0:0:
320,192,39016,5,0,0:0:0:0:
192,192,39050,5,2,0:0:0:0:
256,192,39083,5,0,0:0:0:0:
320,192,39116,5,0,0:0:0:0:
192,192,39150,5,2,0:0:0:0:
256,192,39183,5,0,0:0:0:0:
320,192,39216,5,0,0:0:0:0:
192,192,39250,5,2,0:0:0:0:
256,192,39283,5,0,0:0:0:0:
320,192,39316,5,0,0:0:0:0:
192,192,39350,5,2,0:0:0:0:
256,192,39383,5,0,0:0:0:0:
320,192,39416,5,0,0:0:0:0:
192,192,39450,5,2,0:0:0:0:
256,192,39483,5,0,0:0:0:0:
320,192,39516,5,0,0:0:0:0:
192,192,39550,5,2,0:0:0:0:
256,192,39583,5,0,0:0:0:0:
320,192,39616,5,0,0:0:0:0:
192,192,39650,5,2,0:0:0:0:
256,192,39683,5,0,0:0:0:0:
320,192,39716,5,0,0:0:0:0:
192,192,39750,5,2,0:0:0:0:
256,192,39783,5,0,0:0:0:0:
320,192,39816,5,0,0:0:0:0:
192,192,39850,5,2,0:0:0:0:
256,192,39883,5,0,0:0:0:0:
320,192,39916,5,0,0:0:0:0:
192,192,39950,5,2,0:0:0:0:
256,192,39983,5,0,0:0:0:0:
320,192,40016,5,0,0:0:0:0:
192,192,40050,5,2,0:0:0:0:
256,192,40083,5,0,0:0:0:0:
320,192,40116,5,0,0:0:0:0:
192,192,40150,5,2,0:0:0:0:
256,192,40183,5,0,0:0:0:0:
320,192,40216,5,0,0:0:0:0:
192,192,40250,5,2,0:0:0:0:
256,192,40283,5,0,0:0:0:0:
320,192,40316,5,0,0:0:0:0:
192,192,40350,5,2,0:0:0:0:
256,192,40383,5,0,0:0:0:0:
320,192,40416,5,0,0:0:0:0:
192,192,40450,5,2,0:0:0:0:
256,192,40483,5,0,0:0:0:0:
320,192,40516,5,0,0:0:0:0:
192,192,40550,5,2,0:0:0:0:
256,192,40583,5,0,0:0:0:0:
320,192,40616,5,0,0:0:0:0:
192,192,40650,5,2,0:0:0:0:
256,192,40683,5,0,0:0:0:0:
320,192,40716,5,0,0:0:0:0:
192,192,40750,5,2,0:0:0:0:
256,192,40783,5,0,0:0:0:0:
320,192,40816,5,0,0:0:0:0:
192,192,40850,5,2,0:0:0:0:
256,192,40883,5,0,0:0:0:0:
320,192,40916,5,0,0:0:0:0:
192,192,40950,5,2,0:0:0:0:
256,192,40983,5,0,0:0:0:0:
320,192,41016,5,0,0:0:0:0:
192,192,41050,5,2,0:0:0:0:
256,192,41083,5,0,0:0:0:0:
320,192,41116,5,0,0:0:0:0:
192,192,41150,5,2,0:0:0:0:
256,192,41183,5,0,0:0:0:0:
320,192,41216,5,0,0:0:0:0:
192,192,41250,5,2,0:0:0:0:
256,192,41283,5,0,0:0:0:0:
320,192,41316,5,0,0:0:0:0:
192,192,41350,5,2,0:0:0:0:
256,192,41383,5,0,0:0:0:0:
320,192,41416,5,0,0:0:0:0:
192,192,41450,5,2,0:0:0:0:
256,192,41483,5,0,0:0:0:0:
320,192,41516,5,0,0:0:0:0:
192,192,41550,5,2,0:0:0:0:
256,192,41583,5,0,0:0:0:0:
320,192,41616,5,0,0:0:0:0:
192,192,41650,5,2,0:0:0:0:
256,192,41683,5,0,0:0:0:0:
320,192,41716,5,0,0:0:0:0:
192,192,41750,5,2,0:0:0:0:
256,192,41783,5,0,0:0:0:0:
320,192,41816,5,0,0:0:0:0:
192,192,41850,5,2,0:0:0:0:
256,192,41883,5,0,0:0:0:0:
320,192,41916,5,0,0:0:0:0:
192,192,41950,5,2,0:0:0:0:
256,192,41983,5,0,0:0:0:0:
320,192,42016,5,0,0:0:0:0:
192,192,42050,5,2,0:0:0:0:
256,192,42083,5,0,0:0:0:0:
320,192,42116,5,0,0:0:0:0:
192,192,42150,5,2,0:0:0:0:
256,192,42183,5,0,0:0:0:0:
320,192,42216,5,0,0:0:0:0:
192,192,42250,5,2,0:0:0:0:
256,192,42283,5,0,0:0:0:0:
320,192,42316,5,0,0:0:0:0:
192,192,42350,5,2,0:0:0:0:
256,192,42383,5,0,0:0:0:0:
320,192,42416,5,0,0:0:0:0:
192,192,42450,5,2,0:0:0:0:
256,192,42483,5,0,0:0:0:0:
320,192,42516,5,0,0:0:0:0:
192,192,42550,5,2,0:0:0:0:
256,192,42583,5,0,0:0:0:0:
320,192,42616,5,0,0:0:0:0:
192,192,42650,5,2,0:0:0:0:
256,192,42683,5,0,0:0:0:0:
320,192,42716,5,0,0:0:0:0:
192,192,42750,5,2,0:0:0:0:
256,192,42783,5,0,0:0:0:0:
320,192,42816,5,0,0:0:0:0:
192,192,42850,5,2,0:0:0:0:
256,192,42883,5,0,0:0:0:0:
320,192,42916,5,0,0:0:0:0:
192,192,42950,5,2,0:0:0:0:
256,192,42983,5,0,0:0:0:0:
320,192,43016,5,0,0:0:0:0:
192,192,43050,5,2,0:0:0:0:
256,192,43083,5,0,0:0:0:0:
320,192,43116,5,0,0:0:0:0:
192,192,43150,5,2,0:0:0:0:
256,192,43183,5,0,0:0:0:0:
320,192,43216,5,0,0:0:0:0:
192,192,43250,5,2,0:0:0:0:
256,192,43283,5,0,0:0:0:0:
320,192,43316,5,0,0:0:0:0:
192,192,43350,5,2,0:0:0:0:
256,192,43383,5,0,0:0:0:0:
320,192,43416,5,0,0:0:0:0:
192,192,43450,5,2,0:0:0:0:
256,192,43483,5,0,0:0:0:0:
320,192,43516,5,0,0:0:0:0:
192,192,43550,5,2,0:0:0:0:
256,192,43583,5,0,0:0:0:0:
320,192,43616,5,0,0:0:0:0:
192,192,43650,5,2,0:0:0:0:
256,192,43683,5,0,0:0:0:0:
320,192,43716,5,0,0:0:0:0:
192,192,43750,5,2,0:0:0:0:
256,192,43783,5,0,0:0:0:0:
320,192,43816,5,0,0:0:0:0:
192,192,43850,5,2,0:0:0:0:
256,192,43883,5,0,0:0:0:0:
320,192,43916,5,0,0:0:0:0:
192,192,43950,5,2,0:0:0:0:
256,192,43983,5,0,0:0:0:0:
320,192,44016,5,0,0:0:0:0:
192,192,44050,5,2,0:0:0:0:
256,192,44083,5,0,0:0:0:0:
320,192,44116,5,0,0:0:0:0:
192,192,44150,5,2,0:0:0:0:
256,192,44183,5,0,0:0:0:0:
320,192,44216,5,0,0:0:0:0:
192,192,44250,5,2,0:0:0:0:
256,192,44283,5,0,0:0:0:0:
320,192,44316,5,0,0:0:0:0:
192,192,44350,5,2,0:0:0:0:
256,192,44383,5,0,0:0:0:0:
320,192,44416,5,0,0:0:0:0:
192,192,44450,5,2,0:0:0:0:
256,192,44483,5,0,0:0:0:0:
320,192,44516,5,0,0:0:0:0:
192,192,44550,5,2,0:0:0:0:
256,192,44583,5,0,0:0:0:0:
320,192,44616,5,0,0:0:0:0:
192,192,44650,5,2,0:0:0:0:
256,192,44683,5,0,0:0:0:0:
320,192,44716,5,0,0:0:0:0:
192,192,44750,5,2,0:0:0:0:
256,192,44783,5,0,0:0:0:0:
320,192,44816,5,0,0:0:0:0:
192,192,44850,5,2,0:0:0:0:
256,192,44883,5,0,0:0:0:0:
320,192,44916,5,0,0:0:0:0:
192,192,44950,5,2,0:0:0:0:
256,192,44983,5,0,0:0:0:0:
320,192,45016,5,0,0:0:0:0:
192,192,45050,5,2,0:0:0:0:
256,192,45083,5,0,0:0:0:0:
320,192,45116,5,0,0:0:0:0:
192,192,45150,5,2,0:0:0:0:
256,192,45183,5,0,0:0:0:0:
320,192,45216,5,0,0:0:0:0:
192,192,45250,5,2,0:0:0:0:
256,192,45283,5,0,0:0:0:0:
320,192,45316,5,0,0:0:0:0:
192,192,45350,5,2,0:0:0:0:
256,192,45383,5,0,0:0:0:0:
320,192,45416,5,0,0:0:0:0:
192,192,45450,5,2,0:0:0:0:
256,192,45483,5,0,0:0:0:0:
320,192,45516,5,0,0:0:0:0:
192,192,45550,5,2,0:0:0:0:
256,192,45583,5,0,0:0:0:0:
320,192,45616,5,0,0:0:0:0:
192,192,45650,5,2,0:0:0:0:
256,192,45683,5,0,0:0:0:0:
320,192,45716,5,0,0:0:0:0:
192,192,45750,5,2,0:0:0:0:
256,192,45783,5,0,0:0:0:0:
320,192,45816,5,0,0:0:0:0:
192,192,45850,5,2,0:0:0:0:
256,192,45883,5,0,0:0:0:0:
320,192,45916,5,0,0:0:0:0:
192,192,45950,5,2,0:0:0:0:
256,192,45983,5,0,0:0:0:0:
320,192,46016,5,0,0:0:0:0:
192,192,46050,5,2,0:0:0:0:
256,192,46083,5,0,0:0:0:0:
320,192,46116,5,0,0:0:0:0:
192,192,46150,5,2,0:0:0:0:
256,192,46183,5,0,0:0:0:0:
320,192,46216,5,0,0:0:0:0:
192,192,46250,5,2,0:0:0:0:
256,192,46283,5,0,0:0:0:0:
320,192,46316,5,0,0:0:0:0:
192,192,46350,5,2,0:0:0:0:
256,192,46383,5,0,0:0:0:0:
320,192,46416,5,0,0:0:0:0:
192,192,46450,5,2,0:0:0:0:
256,192,46483,5,0,0:0:0:0:
320,192,46516,5,0,0:0:0:0:
192,192,46550,5,2,0:0:0:0:
256,192,46583,5,0,0:0:0:0:
320,192,46616,5,0,0:0:0:0:
192,192,46650,5,2,0:0:0:0:
256,192,46683,5,0,0:0:0:0:
320,192,46716,5,0,0:0:0:0:
192,192,46750,5,2,0:0:0:0:
256,192,46783,5,0,0:0:0:0:
320,192,46816,5,0,0:0:0:0:
192,192,46850,5,2,0:0:0:0:
256,192,46883,5,0,0:0:0:0:
320,192,46916,5,0,0:0:0:0:
192,192,46950,5,2,0:0:0:0:
256,192,46983,5,0,0:0:0:0:
320,192,47016,5,0,0:0:0:0:
192,192,47050,5,2,0:0:0:0:
256,192,47083,5,0,0:0:0:0:
320,192,47116,5,0,0:0:0:0:
192,192,47150,5,2,0:0:0:0:
256,192,47183,5,0,0:0:0:0:
320,192,47216,5,0,0:0:0:0:
192,192,47250,5,2,0:0:0:0:
256,192,47283,5,0,0:0:0:0:
320,192,47316,5,0,0:0:0:0:
192,192,47350,5,2,0:0:0:0:
256,192,47383,5,0,0:0:0:0:
320,192,47416,5,0,0:0:0:0:
192,192,47450,5,2,0:0:0:0:
256,192,47483,5,0,0:0:0:0:
320,192,47516,5,0,0:0:0:0:
192,192,47550,5,2,0:0:0:0:
256,192,47583,5,0,0:0:0:0:
320,192,47616,5,0,0:0:0:0:
192,192,47650,5,2,0:0:0:0:
256,192,47683,5,0,0:0:0:0:
320,192,47716,5,0,0:0:0:0:
192,192,47750,5,2,0:0:0:0:
256,192,47783,5,0,0:0:0:0:
320,192,47816,5,0,0:0:0:0:
192,192,47850,5,2,0:0:0:0:
256,192,47883,5,0,0:0:0:0:
320,192,47916,5,0,0:0:0:0:
192,192,47950,5,2,0:0:0:0:
256,192,47983,5,0,0:0:0:0:
320,192,48016,5,0,0:0:0:0:
192,192,48050,5,2,0:0:0:0:
256,192,48083,5,0,0:0:0:0:
320,192,48116,5,0,0:0:0:0:
192,192,48150,5,2,0:0:0:0:
256,192,48183,5,0,0:0:0:0:
320,192,48216,5,0,0:0:0:0:
192,192,48250,5,2,0:0:0:0:
256,192,48283,5,0,0:0:0:0:
320,192,48316,5,0,0:0:0:0:
192,192,48350,5,2,0:0:0:0:
256,192,48383,5,0,0:0:0:0:
320,192,48416,5,0,0:0:0:0:
192,192,48450,5,2,0:0:0:0:
256,192,48483,5,0,0:0:0:0:
320,192,48516,5,0,0:0:0:0:
192,192,48550,5,2,0:0:0:0:
256,192,48583,5,0,0:0:0:0:
320,192,48616,5,0,0:0:0:0:
192,192,48650,5,2,0:0:0:0:
256,192,48683,5,0,0:0:0:0:
320,192,48716,5,0,0:0:0:0:
192,192,48750,5,2,0:0:0:0:
256,192,48783,5,0,0:0:0:0:
320,192,48816,5,0,0:0:0:0:
192,192,48850,5,2,0:0:0:0:
256,192,48883,5,0,0:0:0:0:
320,192,48916,5,0,0:0:0:0:
192,192,48950,5,2,0:0:0:0:
256,192,48983,5,0,0:0:0:0:
320,192,49016,5,0,0:0:0:0:
192,192,49050,5,2,0:0:0:0:
256,192,49083,5,0,0:0:0:0:
320,192,49116,5,0,0:0:0:0:
192,192,49150,5,2,0:0:0:0:
256,192,49183,5,0,0:0:0:0:
320,192,49216,5,0,0:0:0:0:
192,192,49250,5,2,0:0:0:0:
256,192,49283,5,0,0:0:0:0:
320,192,49316,5,0,0:0:0:0:
192,192,49350,5,2,0:0:0:0:
256,192,49383,5,0,0:0:0:0:
320,192,49416,5,0,0:0:0:0:
192,192,49450,5,2,0:0:0:0:
256,192,49483,5,0,0:0:0:0:
320,192,49516,5,0,0:0:0:0:
192,192,49550,5,2,0:0:0:0:
256,192,49583,5,0,0:0:0:0:
320,192,49616,5,0,0:0:0:0:
192,192,49650,5,2,0:0:0:0:
256,192,49683,5,0,0:0:0:0:
320,192,49716,5,0,0:0:0:0:
192,192,49750,5,2,0:0:0:0:
256,192,49783,5,0,0:0:0:0:
320,192,49816,5,0,0:0:0:0:
192,192,49850,5,2,0:0:0:0:
256,192,49883,5,0,0:0:0:0:
320,192,49916,5,0,0:0:0:0:
192,192,49950,5,2,0:0:0:0:
256,192,49983,5,0,0:0:0:0:
320,192,50016,5,0,0:0:0:0:
192,192,50050,5,2,0:0:0:0:
256,192,50083,5,0,0:0:0:0:
320,192,50116,5,0,0:0:0:0:
192,192,50150,5,2,0:0:0:0:
256,192,50183,5,0,0:0:0:0:
320,192,50216,5,0,0:0:0:0:
192,192,50250,5,2,0:0:0:0:
256,192,50283,5,0,0:0:0:0:
320,192,50316,5,0,0:0:0:0:
192,192,50350,5,2,0:0:0:0:
256,192,50383,5,0,0:0:0:0:
320,192,50416,5,0,0:0:0:0:
192,192,50450,5,2,0:0:0:0:
256,192,50483,5,0,0:0:0:0:
320,192,50516,5,0,0:0:0:0:
192,192,50550,5,2,0:0:0:0:
256,192,50583,5,0,0:0:0:0:
320,192,50616,5,0,0:0:0:0:
192,192,50650,5,2,0:0:0:0:
256,192,50683,5,0,0:0:0:0:
320,192,50716,5,0,0:0:0:0:
192,192,50750,5,2,0:0:0:0:
256,192,50783,5,0,0:0:0:0:
320,192,50816,5,0,0:0:0:0:
192,192,50850,5,2,0:0:0:0:
256,192,50883,5,0,0:0:0:0:
320,192,50916,5,0,0:0:0:0:
192,192,50950,5,2,0:0:0:0:
256,192,50983,5,0,0:0:0:0:
320,192,51016,5,0,0:0:0:0:
192,192,51050,5,2,0:0:0:0:
256,192,51083,5,0,0:0:0:0:
320,192,51116,5,0,0:0:0:0:
192,192,51150,5,2,0:0:0:0:
256,192,51183,5,0,0:0:0:0:
320,192,51216,5,0,0:0:0:0:
192,192,51250,5,2,0:0:0:0:
256,192,51283,5,0,0:0:0:0:
320,192,51316,5,0,0:0:0:0:
192,192,51350,5,2,0:0:0:0:
256,192,51383,5,0,0:0:0:0:
320,192,51416,5,0,0:0:0:0:
192,192,51450,5,2,0:0:0:0:
256,192,51483,5,0,0:0:0:0:
320,192,51516,5,0,0:0:0:0:
192,192,51550,5,2,0:0:0:0:
256,192,51583,5,0,0:0:0:0:
320,192,51616,5,0,0:0:0:0:
192,192,51650,5,2,0:0:0:0:
256,192,51683,5,0,0:0:0:0:
320,192,51716,5,0,0:0:0:0:
192,192,51750,5,2,0:0:0:0:
256,192,51783,5,0,0:0:0:0:
320,192,51816,5,0,0:0:0:0:
192,192,51850,5,2,0:0:0:0:
256,192,51883,5,0,0:0:0:0:
320,192,51916,5,0,0:0:0:0:
192,192,51950,5,2,0:0:0:0:
256,192,51983,5,0,0:0:0:0:
320,192,52016,5,0,0:0:0:0:
192,192,52050,5,2,0:0:0:0:
256,192,52083,5,0,0:0:0:0:
320,192,52116,5,0,0:0:0:0:
192,192,52150,5,2,0:0:0:0:
256,192,52183,5,0,0:0:0:0:
320,192,52216,5,0,0:0:0:0:
192,192,52250,5,2,0:0:0:0:
256,192,52283,5,0,0:0:0:0:
320,192,52316,5,0,0:0:0:0:
192,192,52350,5,2,0:0:0:0:
256,192,52383,5,0,0:0:0:0:
320,192,52416,5,0,0:0:0:0:
192,192,52450,5,2,0:0:0:0:
256,192,52483,5,0,0:0:0:0:
320,192,52516,5,0,0:0:0:0:
192,192,52550,5,2,0:0:0:0:
256,192,52583,5,0,0:0:0:0:
320,192,52616,5,0,0:0:0:0:
192,192,52650,5,2,0:0:0:0:
256,192,52683,5,0,0:0:0:0:
320,192,52716,5,0,0:0:0:0:
192,192,52750,5,2,0:0:0:0:
256,192,52783,5,0,0:0:0:0:
320,192,52816,5,0,0:0:0:0:
192,192,52850,5,2,0:0:0:0:
256,192,52883,5,0,0:0:0:0:
320,192,52916,5,0,0:0:0:0:
192,192,52950,5,2,0:0:0:0:
256,192,52983,5,0,0:0:0:0:
320,192,53016,5,0,0:0:0:0:
192,192,53050,5,2,0:0:0:0:
256,192,53083,5,0,0:0:0:0:
320,192,53116,5,0,0:0:0:0:
192,192,53150,5,2,0:0:0:0:
256,192,53183,5,0,0:0:0:0:
320,192,53216,5,0,0:0:0:0:
192,192,53250,5,2,0:0:0:0:
256,192,53283,5,0,0:0:0:0:
320,192,53316,5,0,0:0:0:0:
192,192,53350,5,2,0:0:0:0:
256,192,53383,5,0,0:0:0:0:
320,192,53416,5,0,0:0:0:0:
192,192,53450,5,2,0:0:0:0:
256,192,53483,5,0,0:0:0:0:
320,192,53516,5,0,0:0:0:0:
192,192,53550,5,2,0:0:0:0:
256,192,53583,5,0,0:0:0:0:
320,192,53616,5,0,0:0:0:0:
192,192,53650,5,2,0:0:0:0:
256,192,53683,5,0,0:0:0:0:
320,192,53716,5,0,0:0:0:0:
192,192,53750,5,2,0:0:0:0:
256,192,53783,5,0,0:0:0:0:
320,192,53816,5,0,0:0:0:0:
192,192,53850,5,2,0:0:0:0:
256,192,53883,5,0,0:0:0:0:
320,192,53916,5,0,0:0:0:0:
192,192,53950,5,2,0:0:0:0:
256,192,53983,5,0,0:0:0:0:
320,192,54016,5,0,0:0:0:0:
192,192,54050,5,2,0:0:0:0:
256,192,54083,5,0,0:0:0:0:
320,192,54116,5,0,0:0:0:0:
192,192,54150,5,2,0:0:0:0:
256,192,54183,5,0,0:0:0:0:
320,192,54216,5,0,0:0:0:0:
192,192,54250,5,2,0:0:0:0:
256,192,54283,5,0,0:0:0:0:
320,192,54316,5,0,0:0:0:0:
192,192,54350,5,2,0:0:0:0:
256,192,54383,5,0,0:0:0:0:
320,192,54416,5,0,0:0:0:0:
192,192,54450,5,2,0:0:0:0:
256,192,54483,5,0,0:0:0:0:
320,192,54516,5,0,0:0:0:0:
192,192,54550,5,2,0:0:0:0:
256,192,54583,5,0,0:0:0:0:
320,192,54616,5,0,0:0:0:0:
192,192,54650,5,2,0:0:0:0:
256,192,54683,5,0,0:0:0:0:
320,192,54716,5,0,0:0:0:0:
192,192,54750,5,2,0:0:0:0:
256,192,54783,5,0,0:0:0:0:
320,192,54816,5,0,0:0:0:0:
192,192,54850,5,2,0:0:0:0:
256,192,54883,5,0,0:0:0:0:
320,192,54916,5,0,0:0:0:0:
192,192,54950,5,2,0:0:0:0:
256,192,54983,5,0,0:0:0:0:
320,192,55016,5,0,0:0:0:0:
192,192,55050,5,2,0:0:0:0:
256,192,55083,5,0,0:0:0:0:
320,192,55116,5,0,0:0:0:0:
192,192,55150,5,2,0:0:0:0:
256,192,55183,5,0,0:0:0:0:
320,192,55216,5,0,0:0:0:0:
192,192,55250,5,2,0:0:0:0:
256,192,55283,5,0,0:0:0:0:
320,192,55316,5,0,0:0:0:0:
192,192,55350,5,2,0:0:0:0:
256,192,55383,5,0,0:0:0:0:
320,192,55416,5,0,0:0:0:0:
192,192,55450,5,2,0:0:0:0:
256,192,55483,5,0,0:0:0:0:
320,192,55516,5,0,0:0:0:0:
192,192,55550,5,2,0:0:0:0:
256,192,55583,5,0,0:0:0:0:
320,192,55616,5,0,0:0:0:0:
192,192,55650,5,2,0:0:0:0:
256,192,55683,5,0,0:0:0:0:
320,192,55716,5,0,0:0:0:0:
192,192,55750,5,2,0:0:0:0:
256,192,55783,5,0,0:0:0:0:
320,192,55816,5,0,0:0:0:0:
192,192,55850,5,2,0:0:0:0:
256,192,55883,5,0,0:0:0:0:
320,192,55916,5,0,0:0:0:0:
192,192,55950,5,2,0:0:0:0:
256,192,55983,5,0,0:0:0:0:
320,192,56016,5,0,0:0:0:0:
192,192,56050,5,2,0:0:0:0:
256,192,56083,5,0,0:0:0:0:
320,192,56116,5,0,0:0:0:0:
192,192,56150,5,2,0:0:0:0:
256,192,56183,5,0,0:0:0:0:
320,192,56216,5,0,0:0:0:0:
192,192,56250,5,2,0:0:0:0:
256,192,56283,5,0,0:0:0:0:
320,192,56316,5,0,0:0:0:0:
192,192,56350,5,2,0:0:0:0:
256,192,56383,5,0,0:0:0:0:
320,192,56416,5,0,0:0:0:0:
192,192,56450,5,2,0:0:0:0:
256,192,56483,5,0,0:0:0:0:
320,192,56516,5,0,0:0:0:0:
192,192,56550,5,2,0:0:0:0:
256,192,56583,5,0,0:0:0:0:
320,192,56616,5,0,0:0:0:0:
192,192,56650,5,2,0:0:0:0:
256,192,56683,5,0,0:0:0:0:
320,192,56716,5,0,0:0:0:0:
192,192,56750,5,2,0:0:0:0:
256,192,56783,5,0,0:0:0:0:
320,192,56816,5,0,0:0:0:0:
192,192,56850,5,2,0:0:0:0:
256,192,56883,5,0,0:0:0:0:
320,192,56916,5,0,0:0:0:0:
192,192,56950,5,2,0:0:0:0:
256,192,56983,5,0,0:0:0:0:
320,192,57016,5,0,0:0:0:0:
192,192,57050,5,2,0:0:0:0:
256,192,57083,5,0,0:0:0:0:
320,192,57116,5,0,0:0:0:0:
192,192,57150,5,2,0:0:0:0:
256,192,57183,5,0,0:0:0:0:
320,192,57216,5,0,0:0:0:0:
192,192,57250,5,2,0:0:0:0:
256,192,57283,5,0,0:0:0:0:
320,192,57316,5,0,0:0:0:0:
192,192,57350,5,2,0:0:0:0:
256,192,57383,5,0,0:0:0:0:
320,192,57416,5,0,0:0:0:0:
192,192,57450,5,2,0:0:0:0:
256,192,57483,5,0,0:0:0:0:
320,192,57516,5,0,0:0:0:0:
192,192,57550,5,2,0:0:0:0:
256,192,57583,5,0,0:0:0:0:
320,192,57616,5,0,0:0:0:0:
192,192,57650,5,2,0:0:0:0:
256,192,57683,5,0,0:0:0:0:
320,192,57716,5,0,0:0:0:0:
192,192,57750,5,2,0:0:0:0:
256,192,57783,5,0,0:0:0:0:
320,192,57816,5,0,0:0:0:0:
192,192,57850,5,2,0:0:0:0:
256,192,57883,5,0,0:0:0:0:
320,192,57916,5,0,0:0:0:0:
192,192,57950,5,2,0:0:0:0:
256,192,57983,5,0,0:0:0:0:
320,192,58016,5,0,0:0:0:0:
192,192,58050,5,2,0:0:0:0:
256,192,58083,5,0,0:0:0:0:
320,192,58116,5,0,0:0:0:0:
192,192,58150,5,2,0:0:0:0:
256,192,58183,5,0,0:0:0:0:
320,192,58216,5,0,0:0:0:0:
192,192,58250,5,2,0:0:0:0:
256,192,58283,5,0,0:0:0:0:
320,192,58316,5,0,0:0:0:0:
192,192,58350,5,2,0:0:0:0:
256,192,58383,5,0,0:0:0:0:
320,192,58416,5,0,0:0:0:0:
192,192,58450,5,2,0:0:0:0:
256,192,58483,5,0,0:0:0:0:
320,192,58516,5,0,0:0:0:0:
192,192,58550,5,2,0:0:0:0:
256,192,58583,5,0,0:0:0:0:
320,192,58616,5,0,0:0:0:0:
192,192,58650,5,2,0:0:0:0:
256,192,58683,5,0,0:0:0:0:
320,192,58716,5,0,0:0:0:0:
192,192,58750,5,2,0:0:0:0:
256,192,58783,5,0,0:0:0:0:
320,192,58816,5,0,0:0:0:0:
192,192,58850,5,2,0:0:0:0:
256,192,58883,5,0,0:0:0:0:
320,192,58916,5,0,0:0:0:0:
192,192,58950,5,2,0:0:0:0:
256,192,58983,5,0,0:0:0:0:
320,192,59016,5,0,0:0:0:0:
192,192,59050,5,2,0:0:0:0:
256,192,59083,5,0,0:0:0:0:
320,192,59116,5,0,0:0:0:0:
192,192,59150,5,2,0:0:0:0:
256,192,59183,5,0,0:0:0:0:
320,192,59216,5,0,0:0:0:0:
192,192,59250,5,2,0:0:0:0:
256,192,59283,5,0,0:0:0:0:
320,192,59316,5,0,0:0:0:0:
192,192,59350,5,2,0:0:0:0:
256,192,59383,5,0,0:0:0:0:
320,192,59416,5,0,0:0:0:0:
192,192,59450,5,2,0:0:0:0:
256,192,59483,5,0,0:0:0:0:
320,192,59516,5,0,0:0:0:0:
192,192,59550,5,2,0:0:0:0:
256,192,59583,5,0,0:0:0:0:
320,192,59616,5,0,0:0:0:0:
192,192,59650,5,2,0:0:0:0:
256,192,59683,5,0,0:0:0:0:
320,192,59716,5,0,0:0:0:0:
192,192,59750,5,2,0:0:0:0:
256,192,59783,5,0,0:0:0:0:
320,192,59816,5,0,0:0:0:0:
192,192,59850,5,2,0:0:0:0:
256,192,59883,5,0,0:0:0:0:
320,192,59916,5,0,0:0:0:0:
192,192,59950,5,2,0:0:0:0:
256,192,59983,5,0,0:0:0:0:
320,192,60016,5,0,0:0:0:0:
192,192,60050,5,2,0:0:0:0:
256,192,60083,5,0,0:0:0:0:
320,192,60116,5,0,0:0:0:0:
192,192,60150,5,2,0:0:0:0:
256,192,60183,5,0,0:0:0:0:
320,192,60216,5,0,0:0:0:0:
192,192,60250,5,2,0:0:0:0:
256,192,60283,5,0,0:0:0:0:
320,192,60316,5,0,0:0:0:0:
192,192,60350,5,2,0:0:0:0:
256,192,60383,5,0,0:0:0:0:
320,192,60416,5,0,0:0:0:0:
192,192,60450,5,2,0:0:0:0:
256,192,60483,5,0,0:0:0:0:
320,192,60516,5,0,0:0:0:0:
192,192,60550,5,2,0:0:0:0:
256,192,60583,5,0,0:0:0:0:
320,192,60616,5,0,0:0:0:0:
192,192,60650,5,2,0:0:0:0:
256,192,60683,5,0,0:0:0:0:
320,192,60716,5,0,0:0:0:0:
192,192,60750,5,2,0:0:0:0:
256,192,60783,5,0,0:0:0:0:
320,192,60816,5,0,0:0:0:0:
192,192,60850,5,2,0:0:0:0:
256,192,60883,5,0,0:0:0:0:
320,192,60916,5,0,0:0:0:0:
192,192,60950,5,2,0:0:0:0:
256,192,60983,5,0,0:0:0:0:
320,192,61016,5,0,0:0:0:0:
192,192,61050,5,2,0:0:0:0:
256,192,61083,5,0,0:0:0:0:
320,192,61116,5,0,0:0:0:0:
192,192,61150,5,2,0:0:0:0:
256,192,61183,5,0,0:0:0:0:
320,192,61216,5,0,0:0:0:0:
192,192,61250,5,2,0:0:0:0:
256,192,61283,5,0,0:0:0:0:
320,192,61316,5,0,0:0:0:0:
192,192,61350,5,2,0:0:0:0:
256,192,61383,5,0,0:0:0:0:
320,192,61416,5,0,0:0:0:0:
192,192,61450,5,2,0:0:0:0:
256,192,61483,5,0,0:0:0:0:
320,192,61516,5,0,0:0:0:0:
192,192,61550,5,2,0:0:0:0:
256,192,61583,5,0,0:0:0:0:
320,192,61616,5,0,0:0:0:0:
192,192,61650,5,2,0:0:0:0:
256,192,61683,5,0,0:0:0:0:
320,192,61716,5,0,0:0:0:0:
192,192,61750,5,2,0:0:0:0:
256,192,61783,5,0,0:0:0:0:
320,192,61816,5,0,0:0:0:0:
192,192,61850,5,2,0:0:0:0:
256,192,61883,5,0,0:0:0:0:
320,192,61916,5,0,0:0:0:0:
192,192,61950,5,2,0:0:0:0:
256,192,61983,5,0,0:0:0:0:
320,192,62016,5,0,0:0:0:0:
192,192,62050,5,2,0:0:0:0:
256,192,62083,5,0,0:0:0:0:
320,192,62116,5,0,0:0:0:0:
192,192,62150,5,2,0:0:0:0:
256,192,62183,5,0,0:0:0:0:
320,192,62216,5,0,0:0:0:0:
192,192,62250,5,2,0:0:0:0:
256,192,62283,5,0,0:0:0:0:
320,192,62316,5,0,0:0:0:0:
192,192,62350,5,2,0:0:0:0:
256,192,62383,5,0,0:0:0:0:
320,192,62416,5,0,0:0:0:0:
192,192,62450,5,2,0:0:0:0:
256,192,62483,5,0,0:0:0:0:
320,192,62516,5,0,0:0:0:0:
192,192,62550,5,2,0:0:0:0:
256,192,62583,5,0,0:0:0:0:
320,192,62616,5,0,0:0:0:0:
192,192,62650,5,2,0:0:0:0:
256,192,62683,5,0,0:0:0:0:
320,192,62716,5,0,0:0:0:0:
192,192,62750,5,2,0:0:0:0:
256,192,62783,5,0,0:0:0:0:
320,192,62816,5,0,0:0:0:0:
192,192,62850,5,2,0:0:0:0:
256,192,62883,5,0,0:0:0:0:
320,192,62916,5,0,0:0:0:0:
192,192,62950,5,2,0:0:0:0:
256,192,62983,5,0,0:0:0:0:
320,192,63016,5,0,0:0:0:0:
192,192,63050,5,2,0:0:0:0:
256,192,63083,5,0,0:0:0:0:
320,192,63116,5,0,0:0:0:0:
192,192,63150,5,2,0:0:0:0:
256,192,63183,5,0,0:0:0:0:
320,192,63216,5,0,0:0:0:0:
192,192,63250,5,2,0:0:0:0:
256,192,63283,5,0,0:0:0:0:
320,192,63316,5,0,0:0:0:0:
192,192,63350,5,2,0:0:0:0:
256,192,63383,5,0,0:0:0:0:
320,192,63416,5,0,0:0:0:0:
192,192,63450,5,2,0:0:0:0:
256,192,63483,5,0,0:0:0:0:
320,192,63516,5,0,0:0:0:0:
192,192,63550,5,2,0:0:0:0:
256,192,63583,5,0,0:0:0:0:
320,192,63616,5,0,0:0:0:0:
192,192,63650,5,2,0:0:0:0:
256,192,63683,5,0,0:0:0:0:
320,192,63716,5,0,0:0:0:0:
192,192,63750,5,2,0:0:0:0:
256,192,63783,5,0,0:0:0:0:
320,192,63816,5,0,0:0:0:0:
192,192,63850,5,2,0:0:0:0:
256,192,63883,5,0,0:0:0:0:
320,192,63916,5,0,0:0:0:0:
192,192,63950,5,2,0:0:0:0:
256,192,63983,5,0,0:0:0:0:
320,192,64016,5,0,0:0:0:0:
192,192,64050,5,2,0:0:0:0:
256,192,64083,5,0,0:0:0:0:
320,192,64116,5,0,0:0:0:0:
192,192,64150,5,2,0:0:0:0:
256,192,64183,5,0,0:0:0:0:
320,192,64216,5,0,0:0:0:0:
192,192,64250,5,2,0:0:0:0:
256,192,64283,5,0,0:0:0:0:
320,192,64316,5,0,0:0:0:0:
192,192,64350,5,2,0:0:0:0:
256,192,64383,5,0,0:0:0:0:
320,192,64416,5,0,0:0:0:0:
192,192,64450,5,2,0:0:0:0:
256,192,64483,5,0,0:0:0:0:
320,192,64516,5,0,0:0:0:0:
192,192,64550,5,2,0:0:0:0:
256,192,64583,5,0,0:0:0:0:
320,192,64616,5,0,0:0:0:0:
192,192,64650,5,2,0:0:0:0:
256,192,64683,5,0,0:0:0:0:
320,192,64716,5,0,0:0:0:0:
192,192,64750,5,2,0:0:0:0:
256,192,64783,5,0,0:0:0:0:
320,192,64816,5,0,0:0:0:0:
192,192,64850,5,2,0:0:0:0:
256,192,64883,5,0,0:0:0:0:
320,192,64916,5,0,0:0:0:0:
192,192,64950,5,2,0:0:0:0:
256,192,64983,5,0,0:0:0:0:
320,192,65016,5,0,0:0:0:0:
192,192,65050,5,2,0:0:0:0:
256,192,65083,5,0,0:0:0:0:
320,192,65116,5,0,0:0:0:0:
192,192,65150,5,2,0:0:0:0:
256,192,65183,5,0,0:0:0:0:
320,192,65216,5,0,0:0:0:0:
192,192,65250,5,2,0:0:0:0:
256,192,65283,5,0,0:0:0:0:
320,192,65316,5,0,0:0:0:0:
192,192,65350,5,2,0:0:0:0:
256,192,65383,5,0,0:0:0:0:
320,192,65416,5,0,0:0:0:0:
192,192,65450,5,2,0:0:0:0:
256,192,65483,5,0,0:0:0:0:
320,192,65516,5,0,0:0:0:0:
192,192,65550,5,2,0:0:0:0:
256,192,65583,5,0,0:0:0:0:
320,192,65616,5,0,0:0:0:0:
192,192,65650,5,2,0:0:0:0:
256,192,65683,5,0,0:0:0:0:
320,192,65716,5,0,0:0:0:0:
192,192,65750,5,2,0:0:0:0:
256,192,65783,5,0,0:0:0:0:
320,192,65816,5,0,0:0:0:0:
192,192,65850,5,2,0:0:0:0:
256,192,65883,5,0,0:0:0:0:
320,192,65916,5,0,0:0:0:0:
192,192,65950,5,2,0:0:0:0:
256,192,65983,5,0,0:0:0:0:
320,192,66016,5,0,0:0:0:0:
192,192,66050,5,2,0:0:0:0:
256,192,66083,5,0,0:0:0:0:
320,192,66116,5,0,0:0:0:0:
192,192,66150,5,2,0:0:0:0:
256,192,66183,5,0,0:0:0:0:
320,192,66216,5,0,0:0:0:0:
192,192,66250,5,2,0:0:0:0:
256,192,66283,5,0,0:0:0:0:
320,192,66316,5,0,0:0:0:0:
192,192,66350,5,2,0:0:0:0:
256,192,66383,5,0,0:0:0:0:
320,192,66416,5,0,0:0:0:0:
192,192,66450,5,2,0:0:0:0:
256,192,66483,5,0,0:0:0:0:
320,192,66516,5,0,0:0:0:0:
192,192,66550,5,2,0:0:0:0:
256,192,66583,5,0,0:0:0:0:
320,192,66616,5,0,0:0:0:0:
192,192,66650,5,2,0:0:0:0:
256,192,66683,5,0,0:0:0:0:
320,192,66716,5,0,0:0:0:0:
192,192,66750,5,2,0:0:0:0:
256,192,66783,5,0,0:0:0:0:
320,192,66816,5,0,0:0:0:0:
192,192,66850,5,2,0:0:0:0:
256,192,66883,5,0,0:0:0:0:
320,192,66916,5,0,0:0:0:0:
192,192,66950,5,2,0:0:0:0:
256,192,66983,5,0,0:0:0:0:
320,192,67016,5,0,0:0:0:0:
192,192,67050,5,2,0:0:0:0:
256,192,67083,5,0,0:0:0:0:
320,192,67116,5,0,0:0:0:0:
192,192,67150,5,2,0:0:0:0:
256,192,67183,5,0,0:0:0:0:
320,192,67216,5,0,0:0:0:0:
192,192,67250,5,2,0:0:0:0:
256,192,67283,5,0,0:0:0:0:
320,192,67316,5,0,0:0:0:0:
192,192,67350,5,2,0:0:0:0:
256,192,67383,5,0,0:0:0:0:
320,192,67416,5,0,0:0:0:0:
192,192,67450,5,2,0:0:0:0:
256,192,67483,5,0,0:0:0:0:
320,192,67516,5,0,0:0:0:0:
192,192,67550,5,2,0:0:0:0:
256,192,67583,5,0,0:0:0:0:
320,192,67616,5,0,0:0:0:0:
192,192,67650,5,2,0:0:0:0:
256,192,67683,5,0,0:0:0:0:
320,192,67716,5,0,0:0:0:0:
192,192,67750,5,2,0:0:0:0:
256,192,67783,5,0,0:0:0:0:
320,192,67816,5,0,0:0:0:0:
192,192,67850,5,2,0:0:0:0:
256,192,67883,5,0,0:0:0:0:
320,192,67916,5,0,0:0:0:0:
192,192,67950,5,2,0:0:0:0:
256,192,67983,5,0,0:0:0:0:
320,192,68016,5,0,0:0:0:0:
192,192,68050,5,2,0:0:0:0:
256,192,68083,5,0,0:0:0:0:
320,192,68116,5,0,0:0:0:0:
192,192,68150,5,2,0:0:0:0:
256,192,68183,5,0,0:0:0:0:
320,192,68216,5,0,0:0:0:0:
192,192,68250,5,2,0:0:0:0:
256,192,68283,5,0,0:0:0:0:
320,192,68316,5,0,0:0:0:0:
192,192,68350,5,2,0:0:0:0:
256,192,68383,5,0,0:0:0:0:
320,192,68416,5,0,0:0:0:0:
192,192,68450,5,2,0:0:0:0:
256,192,68483,5,0,0:0:0:0:
320,192,68516,5,0,0:0:0:0:
192,192,68550,5,2,0:0:0:0:
256,192,68583,5,0,0:0:0:0:
320,192,68616,5,0,0:0:0:0:
192,192,68650,5,2,0:0:0:0:
256,192,68683,5,0,0:0:0:0:
320,192,68716,5,0,0:0:0:0:
192,192,68750,5,2,0:0:0:0:
256,192,68783,5,0,0:0:0:0:
320,192,68816,5,0,0:0:0:0:
192,192,68850,5,2,0:0:0:0:
256,192,68883,5,0,0:0:0:0:
320,192,68916,5,0,0:0:0:0:
192,192,68950,5,2,0:0:0:0:
256,192,68983,5,0,0:0:0:0:
320,192,69016,5,0,0:0:0:0:
192,192,69050,5,2,0:0:0:0:
256,192,69083,5,0,0:0:0:0:
320,192,69116,5,0,0:0:0:0:
192,192,69150,5,2,0:0:0:0:
256,192,69183,5,0,0:0:0:0:
320,192,69216,5,0,0:0:0:0:
192,192,69250,5,2,0:0:0:0:
256,192,69283,5,0,0:0:0:0:
320,192,69316,5,0,0:0:0:0:
192,192,69350,5,2,0:0:0:0:
256,192,69383,5,0,0:0:0:0:
320,192,69416,5,0,0:0:0:0:
192,192,69450,5,2,0:0:0:0:
256,192,69483,5,0,0:0:0:0:
320,192,69516,5,0,0:0:0:0:
192,192,69550,5,2,0:0:0:0:
256,192,69583,5,0,0:0:0:0:
320,192,69616,5,0,0:0:0:0:
192,192,69650,5,2,0:0:0:0:
256,192,69683,5,0,0:0:0:0:
320,192,69716,5,0,0:0:0:0:
192,192,69750,5,2,0:0:0:0:
256,192,69783,5,0,0:0:0:0:
320,192,69816,5,0,0:0:0:0:
192,192,69850,5,2,0:0:0:0:
256,192,69883,5,0,0:0:0:0:
320,192,69916,5,0,0:0:0:0:
192,192,69950,5,2,0:0:0:0:
256,192,69983,5,0,0:0:0:0:
320,192,70016,5,0,0:0:0:0:
192,192,70050,5,2,0:0:0:0:
256,192,70083,5,0,0:0:0:0:
320,192,70116,5,0,0:0:0:0:
192,192,70150,5,2,0:0:0:0:
256,192,70183,5,0,0:0:0:0:
320,192,70216,5,0,0:0:0:0:
192,192,70250,5,2,0:0:0:0:
256,192,70283,5,0,0:0:0:0:
320,192,70316,5,0,0:0:0:0:
192,192,70350,5,2,0:0:0:0:
256,192,70383,5,0,0:0:0:0:
320,192,70416,5,0,0:0:0:0:
192,192,70450,5,2,0:0:0:0:
256,192,70483,5,0,0:0:0:0:
320,192,70516,5,0,0:0:0:0:
192,192,70550,5,2,0:0:0:0:
256,192,70583,5,0,0:0:0:0:
320,192,70616,5,0,0:0:0:0:
192,192,70650,5,2,0:0:0:0:
256,192,70683,5,0,0:0:0:0:
320,192,70716,5,0,0:0:0:0:
192,192,70750,5,2,0:0:0:0:
256,192,70783,5,0,0:0:0:0:
320,192,70816,5,0,0:0:0:0:
192,192,70850,5,2,0:0:0:0:
256,192,70883,5,0,0:0:0:0:
320,192,70916,5,0,0:0:0:0:
192,192,70950,5,2,0:0:0:0:
256,192,70983,5,0,0:0:0:0:
320,192,71016,5,0,0:0:0:0:
192,192,71050,5,2,0:0:0:0:
256,192,71083,5,0,0:0:0:0:
320,192,71116,5,0,0:0:0:0:
192,192,71150,5,2,0:0:0:0:
256,192,71183,5,0,0:0:0:0:
320,192,71216,5,0,0:0:0:0:
192,192,71250,5,2,0:0:0:0:
256,192,71283,5,0,0:0:0:0:
320,192,71316,5,0,0:0:0:0:
192,192,71350,5,2,0:0:0:0:
256,192,71383,5,0,0:0:0:0:
320,192,71416,5,0,0:0:0:0:
192,192,71450,5,2,0:0:0:0:
256,192,71483,5,0,0:0:0:0:
320,192,71516,5,0,0:0:0:0:
192,192,71550,5,2,0:0:0:0:
256,192,71583,5,0,0:0:0:0:
320,192,71616,5,0,0:0:0:0:
192,192,71650,5,2,0:0:0:0:
256,192,71683,5,0,0:0:0:0:
320,192,71716,5,0,0:0:0:0:
192,192,71750,5,2,0:0:0:0:
256,192,71783,5,0,0:0:0:0:
320,192,71816,5,0,0:0:0:0:
192,192,71850,5,2,0:0:0:0:
256,192,71883,5,0,0:0:0:0:
320,192,71916,5,0,0:0:0:0:
192,192,71950,5,2,0:0:0:0:
256,192,71983,5,0,0:0:0:0:
320,192,72016,5,0,0:0:0:0:
192,192,72050,5,2,0:0:0:0:
256,192,72083,5,0,0:0:0:0:
320,192,72116,5,0,0:0:0:0:
192,192,72150,5,2,0:0:0:0:
256,192,72183,5,0,0:0:0:0:
320,192,72216,5,0,0:0:0:0:
192,192,72250,5,2,0:0:0:0:
256,192,72283,5,0,0:0:0:0:
320,192,72316,5,0,0:0:0:0:
192,192,72350,5,2,0:0:0:0:
256,192,72383,5,0,0:0:0:0:
320,192,72416,5,0,0:0:0:0:
192,192,72450,5,2,0:0:0:0:
256,192,72483,5,0,0:0:0:0:
320,192,72516,5,0,0:0:0:0:
192,192,72550,5,2,0:0:0:0:
256,192,72583,5,0,0:0:0:0:
320,192,72616,5,0,0:0:0:0:
192,192,72650,5,2,0:0:0:0:
256,192,72683,5,0,0:0:0:0:
320,192,72716,5,0,0:0:0:0:
192,192,72750,5,2,0:0:0:0:
256,192,72783,5,0,0:0:0:0:
320,192,72816,5,0,0:0:0:0:
192,192,72850,5,2,0:0:0:0:
256,192,72883,5,0,0:0:0:0:
320,192,72916,5,0,0:0:0:0:
192,192,72950,5,2,0:0:0:0:
256,192,72983,5,0,0:0:0:0:
320,192,73016,5,0,0:0:0:0:
192,192,73050,5,2,0:0:0:0:
256,192,73083,5,0,0:0:0:0:
320,192,73116,5,0,0:0:0:0:
192,192,73150,5,2,0:0:0:0:
256,192,73183,5,0,0:0:0:0:
320,192,73216,5,0,0:0:0:0:
192,192,73250,5,2,0:0:0:0:
256,192,73283,5,0,0:0:0:0:
320,192,73316,5,0,0:0:0:0:
192,192,73350,5,2,0:0:0:0:
256,192,73383,5,0,0:0:0:0:
320,192,73416,5,0,0:0:0:0:
192,192,73450,5,2,0:0:0:0:
256,192,73483,5,0,0:0:0:0:
320,192,73516,5,0,0:0:0:0:
192,192,73550,5,2,0:0:0:0:
256,192,73583,5,0,0:0:0:0:
320,192,73616,5,0,0:0:0:0:
192,192,73650,5,2,0:0:0:0:
256,192,73683,5,0,0:0:0:0:
320,192,73716,5,0,0:0:0:0:
192,192,73750,5,2,0:0:0:0:
256,192,73783,5,0,0:0:0:0:
320,192,73816,5,0,0:0:0:0:
192,192,73850,5,2,0:0:0:0:
256,192,73883,5,0,0:0:0:0:
320,192,73916,5,0,0:0:0:0:
192,192,73950,5,2,0:0:0:0:
256,192,73983,5,0,0:0:0:0:
320,192,74016,5,0,0:0:0:0:
192,192,74050,5,2,0:0:0:0:
256,192,74083,5,0,0:0:0:0:
320,192,74116,5,0,0:0:0:0:
192,192,74150,5,2,0:0:0:0:
256,192,74183,5,0,0:0:0:0:
320,192,74216,5,0,0:0:0:0:
192,192,74250,5,2,0:0:0:0:
256,192,74283,5,0,0:0:0:0:
320,192,74316,5,0,0:0:0:0:
192,192,74350,5,2,0:0:0:0:
256,192,74383,5,0,0:0:0:0:
320,192,74416,5,0,0:0:0:0:
192,192,74450,5,2,0:0:0:0:
256,192,74483,5,0,0:0:0:0:
320,192,74516,5,0,0:0:0:0:
192,192,74550,5,2,0:0:0:0:
256,192,74583,5,0,0:0:0:0:
320,192,74616,5,0,0:0:0:0:
192,192,74650,5,2,0:0:0:0:
256,192,74683,5,0,0:0:0:0:
320,192,74716,5,0,0:0:0:0:
192,192,74750,5,2,0:0:0:0:
256,192,74783,5,0,0:0:0:0:
320,192,74816,5,0,0:0:0:0:
192,192,74850,5,2,0:0:0:0:
256,192,74883,5,0,0:0:0:0:
320,192,74916,5,0,0:0:0:0:
192,192,74950,5,2,0:0:0:0:
256,192,74983,5,0,0:0:0:0:
320,192,75016,5,0,0:0:0:0:
192,192,75050,5,2,0:0:0:0:
256,192,75083,5,0,0:0:0:0:
320,192,75116,5,0,0:0:0:0:
192,192,75150,5,2,0:0:0:0:
256,192,75183,5,0,0:0:0:0:
320,192,75216,5,0,0:0:0:0:
192,192,75250,5,2,0:0:0:0:
256,192,75283,5,0,0:0:0:0:
320,192,75316,5,0,0:0:0:0:
192,192,75350,5,2,0:0:0:0:
256,192,75383,5,0,0:0:0:0:
320,192,75416,5,0,0:0:0:0:
192,192,75450,5,2,0:0:0:0:
256,192,75483,5,0,0:0:0:0:
320,192,75516,5,0,0:0:0:0:
192,192,75550,5,2,0:0:0:0:
256,192,75583,5,0,0:0:0:0:
320,192,75616,5,0,0:0:0:0:
192,192,75650,5,2,0:0:0:0:
256,192,75683,5,0,0:0:0:0:
320,192,75716,5,0,0:0:0:0:
192,192,75750,5,2,0:0:0:0:
256,192,75783,5,0,0:0:0:0:
320,192,75816,5,0,0:0:0:0:
192,192,75850,5,2,0:0:0:0:
256,192,75883,5,0,0:0:0:0:
320,192,75916,5,0,0:0:0:0:
192,192,75950,5,2,0:0:0:0:
256,192,75983,5,0,0:0:0:0:
320,192,76016,5,0,0:0:0:0:
192,192,76050,5,2,0:0:0:0:
256,192,76083,5,0,0:0:0:0:
320,192,76116,5,0,0:0:0:0:
192,192,76150,5,2,0:0:0:0:
256,192,76183,5,0,0:0:0:0:
320,192,76216,5,0,0:0:0:0:
192,192,76250,5,2,0:0:0:0:
256,192,76283,5,0,0:0:0:0:
320,192,76316,5,0,0:0:0:0:
192,192,76350,5,2,0:0:0:0:
256,192,76383,5,0,0:0:0:0:
320,192,76416,5,0,0:0:0:0:
192,192,76450,5,2,0:0:0:0:
256,192,76483,5,0,0:0:0:0:
320,192,76516,5,0,0:0:0:0:
192,192,76550,5,2,0:0:0:0:
256,192,76583,5,0,0:0:0:0:
320,192,76616,5,0,0:0:0:0:
192,192,76650,5,2,0:0:0:0:
256,192,76683,5,0,0:0:0:0:
320,192,76716,5,0,0:0:0:0:
192,192,76750,5,2,0:0:0:0:
256,192,76783,5,0,0:0:0:0:
320,192,76816,5,0,0:0:0:0:
192,192,76850,5,2,0:0:0:0:
256,192,76883,5,0,0:0:0:0:
320,192,76916,5,0,0:0:0:0:
192,192,76950,5,2,0:0:0:0:
256,192,76983,5,0,0:0:0:0:
320,192,77016,5,0,0:0:0:0:
192,192,77050,5,2,0:0:0:0:
256,192,77083,5,0,0:0:0:0:
320,192,77116,5,0,0:0:0:0:
192,192,77150,5,2,0:0:0:0:
256,192,77183,5,0,0:0:0:0:
320,192,77216,5,0,0:0:0:0:
192,192,77250,5,2,0:0:0:0:
256,192,77283,5,0,0:0:0:0:
320,192,77316,5,0,0:0:0:0:
192,192,77350,5,2,0:0:0:0:
256,192,77383,5,0,0:0:0:0:
320,192,77416,5,0,0:0:0:0:
192,192,77450,5,2,0:0:0:0:
256,192,77483,5,0,0:0:0:0:
320,192,77516,5,0,0:0:0:0:
192,192,77550,5,2,0:0:0:0:
256,192,77583,5,0,0:0:0:0:
320,192,77616,5,0,0:0:0:0:
192,192,77650,5,2,0:0:0:0:
256,192,77683,5,0,0:0:0:0:
320,192,77716,5,0,0:0:0:0:
192,192,77750,5,2,0:0:0:0:
256,192,77783,5,0,0:0:0:0:
320,192,77816,5,0,0:0:0:0:
192,192,77850,5,2,0:0:0:0:
256,192,77883,5,0,0:0:0:0:
320,192,77916,5,0,0:0:0:0:
192,192,77950,5,2,0:0:0:0:
256,192,77983,5,0,0:0:0:0:
320,192,78016,5,0,0:0:0:0:
192,192,78050,5,2,0:0:0:0:
256,192,78083,5,0,0:0:0:0:
320,192,78116,5,0,0:0:0:0:
192,192,78150,5,2,0:0:0:0:
256,192,78183,5,0,0:0:0:0:
320,192,78216,5,0,0:0:0:0:
192,192,78250,5,2,0:0:0:0:
256,192,78283,5,0,0:0:0:0:
320,192,78316,5,0,0:0:0:0:
192,192,78350,5,2,0:0:0:0:
256,192,78383,5,0,0:0:0:0:
320,192,78416,5,0,0:0:0:0:
192,192,78450,5,2,0:0:0:0:
256,192,78483,5,0,0:0:0:0:
320,192,78516,5,0,0:0:0:0:
192,192,78550,5,2,0:0:0:0:
256,192,78583,5,0,0:0:0:0:
320,192,78616,5,0,0:0:0:0:
192,192,78650,5,2,0:0:0:0:
256,192,78683,5,0,0:0:0:0:
320,192,78716,5,0,0:0:0:0:
192,192,78750,5,2,0:0:0:0:
256,192,78783,5,0,0:0:0:0:
320,192,78816,5,0,0:0:0:0:
192,192,78850,5,2,0:0:0:0:
256,192,78883,5,0,0:0:0:0:
320,192,78916,5,0,0:0:0:0:
192,192,78950,5,2,0:0:0:0:
256,192,78983,5,0,0:0:0:0:
320,192,79016,5,0,0:0:0:0:
192,192,79050,5,2,0:0:0:0:
256,192,79083,5,0,0:0:0:0:
320,192,79116,5,0,0:0:0:0:
192,192,79150,5,2,0:0:0:0:
256,192,79183,5,0,0:0:0:0:
320,192,79216,5,0,0:0:0:0:
192,192,79250,5,2,0:0:0:0:
256,192,79283,5,0,0:0:0:0:
320,192,79316,5,0,0:0:0:0:
192,192,79350,5,2,0:0:0:0:
256,192,79383,5,0,0:0:0:0:
320,192,79416,5,0,0:0:0:0:
192,192,79450,5,2,0:0:0:0:
256,192,79483,5,0,0:0:0:0:
320,192,79516,5,0,0:0:0:0:
192,192,79550,5,2,0:0:0:0:
256,192,79583,5,0,0:0:0:0:
320,192,79616,5,0,0:0:0:0:
192,192,79650,5,2,0:0:0:0:
256,192,79683,5,0,0:0:0:0:
320,192,79716,5,0,0:0:0:0:
192,192,79750,5,2,0:0:0:0:
256,192,79783,5,0,0:0:0:0:
320,192,79816,5,0,0:0:0:0:
192,192,79850,5,2,0:0:0:0:
256,192,79883,5,0,0:0:0:0:
320,192,79916,5,0,0:0:0:0:
192,192,79950,5,2,0:0:0:0:
256,192,79983,5,0,0:0:0:0:
320,192,80016,5,0,0:0:0:0:
192,192,80050,5,2,0:0:0:0:
256,192,80083,5,0,0:0:0:0:
320,192,80116,5,0,0:0:0:0:
192,192,80150,5,2,0:0:0:0:
256,192,80183,5,0,0:0:0:0:
320,192,80216,5,0,0:0:0:0:
192,192,80250,5,2,0:0:0:0:
256,192,80283,5,0,0:0:0:0:
320,192,80316,5,0,0:0:0:0:
192,192,80350,5,2,0:0:0:0:
256,192,80383,5,0,0:0:0:0:
320,192,80416,5,0,0:0:0:0:
192,192,80450,5,2,0:0:0:0:
256,192,80483,5,0,0:0:0:0:
320,192,80516,5,0,0:0:0:0:
192,192,80550,5,2,0:0:0:0:
256,192,80583,5,0,0:0:0:0:
320,192,80616,5,0,0:0:0:0:
192,192,80650,5,2,0:0:0:0:
256,192,80683,5,0,0:0:0:0:
320,192,80716,5,0,0:0:0:0:
192,192,80750,5,2,0:0:0:0:
256,192,80783,5,0,0:0:0:0:
320,192,80816,5,0,0:0:0:0:
192,192,80850,5,2,0:0:0:0:
256,192,80883,5,0,0:0:0:0:
320,192,80916,5,0,0:0:0:0:
192,192,80950,5,2,0:0:0:0:
256,192,80983,5,0,0:0:0:0:
320,192,81016,5,0,0:0:0:0:
192,192,81050,5,2,0:0:0:0:
256,192,81083,5,0,0:0:0:0:
320,192,81116,5,0,0:0:0:0:
192,192,81150,5,2,0:0:0:0:
256,192,81183,5,0,0:0:0:0:
320,192,81216,5,0,0:0:0:0:
192,192,81250,5,2,0:0:0:0:
256,192,81283,5,0,0:0:0:0:
320,192,81316,5,0,0:0:0:0:
192,192,81350,5,2,0:0:0:0:
256,192,81383,5,0,0:0:0:0:
320,192,81416,5,0,0:0:0:0:
192,192,81450,5,2,0:0:0:0:
256,192,81483,5,0,0:0:0:0:
320,192,81516,5,0,0:0:0:0:
192,192,81550,5,2,0:0:0:0:
256,192,81583,5,0,0:0:0:0:
320,192,81616,5,0,0:0:0:0:
192,192,81650,5,2,0:0:0:0:
256,192,81683,5,0,0:0:0:0:
320,192,81716,5,0,0:0:0:0:
192,192,81750,5,2,0:0:0:0:
256,192,81783,5,0,0:0:0:0:
320,192,81816,5,0,0:0:0:0:
192,192,81850,5,2,0:0:0:0:
256,192,81883,5,0,0:0:0:0:
320,192,81916,5,0,0:0:0:0:
192,192,81950,5,2,0:0:0:0:
256,192,81983,5,0,0:0:0:0:
320,192,82016,5,0,0:0:0:0:
192,192,82050,5,2,0:0:0:0:
256,192,82083,5,0,0:0:0:0:
320,192,82116,5,0,0:0:0:0:
192,192,82150,5,2,0:0:0:0:
256,192,82183,5,0,0:0:0:0:
320,192,82216,5,0,0:0:0:0:
192,192,82250,5,2,0:0:0:0:
256,192,82283,5,0,0:0:0:0:
320,192,82316,5,0,0:0:0:0:
192,192,82350,5,2,0:0:0:0:
256,192,82383,5,0,0:0:0:0:
320,192,82416,5,0,0:0:0:0:
192,192,82450,5,2,0:0:0:0:
256,192,82483,5,0,0:0:0:0:
320,192,82516,5,0,0:0:0:0:
192,192,82550,5,2,0:0:0:0:
256,192,82583,5,0,0:0:0:0:
320,192,82616,5,0,0:0:0:0:
192,192,82650,5,2,0:0:0:0:
256,192,82683,5,0,0:0:0:0:
320,192,82716,5,0,0:0:0:0:
192,192,82750,5,2,0:0:0:0:
256,192,82783,5,0,0:0:0:0:
320,192,82816,5,0,0:0:0:0:
192,192,82850,5,2,0:0:0:0:
256,192,82883,5,0,0:0:0:0:
320,192,82916,5,0,0:0:0:0:
192,192,82950,5,2,0:0:0:0:
256,192,82983,5,0,0:0:0:0:
320,192,83016,5,0,0:0:0:0:
192,192,83050,5,2,0:0:0:0:
256,192,83083,5,0,0:0:0:0:
320,192,83116,5,0,0:0:0:0:
192,192,83150,5,2,0:0:0:0:
256,192,83183,5,0,0:0:0:0:
320,192,83216,5,0,0:0:0:0:
192,192,83250,5,2,0:0:0:0:
256,192,83283,5,0,0:0:0:0:
320,192,83316,5,0,0:0:0:0:
192,192,83350,5,2,0:0:0:0:
256,192,83383,5,0,0:0:0:0:
320,192,83416,5,0,0:0:0:0:
192,192,83450,5,2,0:0:0:0:
256,192,83483,5,0,0:0:0:0:
320,192,83516,5,0,0:0:0:0:
192,192,83550,5,2,0:0:0:0:
256,192,83583,5,0,0:0:0:0:
320,192,83616,5,0,0:0:0:0:
192,192,83650,5,2,0:0:0:0:
256,192,83683,5,0,0:0:0:0:
320,192,83716,5,0,0:0:0:0:
192,192,83750,5,2,0:0:0:0:
256,192,83783,5,0,0:0:0:0:
320,192,83816,5,0,0:0:0:0:
192,192,83850,5,2,0:0:0:0:
256,192,83883,5,0,0:0:0:0:
320,192,83916,5,0,0:0:0:0:
192,192,83950,5,2,0:0:0:0:
256,192,83983,5,0,0:0:0:0:
320,192,84016,5,0,0:0:0:0:
192,192,84050,5,2,0:0:0:0:
256,192,84083,5,0,0:0:0:0:
320,192,84116,5,0,0:0:0:0:
192,192,84150,5,2,0:0:0:0:
256,192,84183,5,0,0:0:0:0:
320,192,84216,5,0,0:0:0:0:
192,192,84250,5,2,0:0:0:0:
256,192,84283,5,0,0:0:0:0:
320,192,84316,5,0,0:0:0:0:
192,192,84350,5,2,0:0:0:0:
256,192,84383,5,0,0:0:0:0:
320,192,84416,5,0,0:0:0:0:
192,192,84450,5,2,0:0:0:0:
256,192,84483,5,0,0:0:0:0:
320,192,84516,5,0,0:0:0:0:
192,192,84550,5,2,0:0:0:0:
256,192,84583,5,0,0:0:0:0:
320,192,84616,5,0,0:0:0:0:
192,192,84650,5,2,0:0:0:0:
256,192,84683,5,0,0:0:0:0:
320,192,84716,5,0,0:0:0:0:
192,192,84750,5,2,0:0:0:0:
256,192,84783,5,0,0:0:0:0:
320,192,84816,5,0,0:0:0:0:
192,192,84850,5,2,0:0:0:0:
256,192,84883,5,0,0:0:0:0:
320,192,84916,5,0,0:0:0:0:
192,192,84950,5,2,0:0:0:0:
256,192,84983,5,0,0:0:0:0:
320,192,85016,5,0,0:0:0:0:
192,192,85050,5,2,0:0:0:0:
256,192,85083,5,0,0:0:0:0:
320,192,85116,5,0,0:0:0:0:
192,192,85150,5,2,0:0:0:0:
256,192,85183,5,0,0:0:0:0:
320,192,85216,5,0,0:0:0:0:
192,192,85250,5,2,0:0:0:0:
256,192,85283,5,0,0:0:0:0:
320,192,85316,5,0,0:0:0:0:
192,192,85350,5,2,0:0:0:0:
256,192,85383,5,0,0:0:0:0:
320,192,85416,5,0,0:0:0:0:
192,192,85450,5,2,0:0:0:0:
256,192,85483,5,0,0:0:0:0:
320,192,85516,5,0,0:0:0:0:
192,192,85550,5,2,0:0:0:0:
256,192,85583,5,0,0:0:0:0:
320,192,85616,5,0,0:0:0:0:
192,192,85650,5,2,0:0:0:0:
256,192,85683,5,0,0:0:0:0:
320,192,85716,5,0,0:0:0:0:
192,192,85750,5,2,0:0:0:0:
256,192,85783,5,0,0:0:0:0:
320,192,85816,5,0,0:0:0:0:
192,192,85850,5,2,0:0:0:0:
256,192,85883,5,0,0:0:0:0:
320,192,85916,5,0,0:0:0:0:
192,192,85950,5,2,0:0:0:0:
256,192,85983,5,0,0:0:0:0:
320,192,86016,5,0,0:0:0:0:
192,192,86050,5,2,0:0:0:0:
256,192,86083,5,0,0:0:0:0:
320,192,86116,5,0,0:0:0:0:
192,192,86150,5,2,0:0:0:0:
256,192,86183,5,0,0:0:0:0:
320,192,86216,5,0,0:0:0:0:
192,192,86250,5,2,0:0:0:0:
256,192,86283,5,0,0:0:0:0:
320,192,86316,5,0,0:0:0:0:
192,192,86350,5,2,0:0:0:0:
256,192,86383,5,0,0:0:0:0:
320,192,86416,5,0,0:0:0:0:
192,192,86450,5,2,0:0:0:0:
256,192,86483,5,0,0:0:0:0:
320,192,86516,5,0,0:0:0:0:
192,192,86550,5,2,0:0:0:0:
256,192,86583,5,0,0:0:0:0:
320,192,86616,5,0,0:0:0:0:
192,192,86650,5,2,0:0:0:0:
256,192,86683,5,0,0:0:0:0:
320,192,86716,5,0,0:0:0:0:
192,192,86750,5,2,0:0:0:0:
256,192,86783,5,0,0:0:0:0:
320,192,86816,5,0,0:0:0:0:
192,192,86850,5,2,0:0:0:0:
256,192,86883,5,0,0:0:0:0:
320,192,86916,5,0,0:0:0:0:
192,192,86950,5,2,0:0:0:0:
256,192,86983,5,0,0:0:0:0:
320,192,87016,5,0,0:0:0:0:
192,192,87050,5,2,0:0:0:0:
256,192,87083,5,0,0:0:0:0:
320,192,87116,5,0,0:0:0:0:
192,192,87150,5,2,0:0:0:0:
256,192,87183,5,0,0:0:0:0:
320,192,87216,5,0,0:0:0:0:
192,192,87250,5,2,0:0:0:0:
256,192,87283,5,0,0:0:0:0:
320,192,87316,5,0,0:0:0:0:
192,192,87350,5,2,0:0:0:0:
256,192,87383,5,0,0:0:0:0:
320,192,87416,5,0,0:0:0:0:
192,192,87450,5,2,0:0:0:0:
256,192,87483,5,0,0:0:0:0:
320,192,87516,5,0,0:0:0:0:
192,192,87550,5,2,0:0:0:0:
256,192,87583,5,0,0:0:0:0:
320,192,87616,5,0,0:0:0:0:
192,192,87650,5,2,0:0:0:0:
256,192,87683,5,0,0:0:0:0:
320,192,87716,5,0,0:0:0:0:
192,192,87750,5,2,0:0:0:0:
256,192,87783,5,0,0:0:0:0:
320,192,87816,5,0,0:0:0:0:
192,192,87850,5,2,0:0:0:0:
256,192,87883,5,0,0:0:0:0:
320,192,87916,5,0,0:0:0:0:
192,192,87950,5,2,0:0:0:0:
256,192,87983,5,0,0:0:0:0:
320,192,88016,5,0,0:0:0:0:
192,192,88050,5,2,0:0:0:0:
256,192,88083,5,0,0:0:0:0:
320,192,88116,5,0,0:0:0:0:
192,192,88150,5,2,0:0:0:0:
256,192,88183,5,0,0:0:0:0:
320,192,88216,5,0,0:0:0:0:
192,192,88250,5,2,0:0:0:0:
256,192,88283,5,0,0:0:0:0:
320,192,88316,5,0,0:0:0:0:
192,192,88350,5,2,0:0:0:0:
256,192,88383,5,0,0:0:0:0:
320,192,88416,5,0,0:0:0:0:
192,192,88450,5,2,0:0:0:0:
256,192,88483,5,0,0:0:0:0:
320,192,88516,5,0,0:0:0:0:
192,192,88550,5,2,0:0:0:0:
256,192,88583,5,0,0:0:0:0:
320,192,88616,5,0,0:0:0:0:
192,192,88650,5,2,0:0:0:0:
256,192,88683,5,0,0:0:0:0:
320,192,88716,5,0,0:0:0:0:
192,192,88750,5,2,0:0:0:0:
256,192,88783,5,0,0:0:0:0:
320,192,88816,5,0,0:0:0:0:
192,192,88850,5,2,0:0:0:0:
256,192,88883,5,0,0:0:0:0:
320,192,88916,5,0,0:0:0:0:
192,192,88950,5,2,0:0:0:0:
256,192,88983,5,0,0:0:0:0:
320,192,89016,5,0,0:0:0:0:
192,192,89050,5,2,0:0:0:0:
256,192,89083,5,0,0:0:0:0:
320,192,89116,5,0,0:0:0:0:
192,192,89150,5,2,0:0:0:0:
256,192,89183,5,0,0:0:0:0:
320,192,89216,5,0,0:0:0:0:
192,192,89250,5,2,0:0:0:0:
256,192,89283,5,0,0:0:0:0:
320,192,89316,5,0,0:0:0:0:
192,192,89350,5,2,0:0:0:0:
256,192,89383,5,0,0:0:0:0:
320,192,89416,5,0,0:0:0:0:
192,192,89450,5,2,0:0:0:0:
256,192,89483,5,0,0:0:0:0:
320,192,89516,5,0,0:0:0:0:
192,192,89550,5,2,0:0:0:0:
256,192,89583,5,0,0:0:0:0:
320,192,89616,5,0,0:0:0:0:
192,192,89650,5,2,0:0:0:0:
256,192,89683,5,0,0:0:0:0:
320,192,89716,5,0,0:0:0:0:
192,192,89750,5,2,0:0:0:0:
256,192,89783,5,0,0:0:0:0:
320,192,89816,5,0,0:0:0:0:
192,192,89850,5,2,0:0:0:0:
256,192,89883,5,0,0:0:0:0:
320,192,89916,5,0,0:0:0:0:
192,192,89950,5,2,0:0:0:0:
256,192,89983,5,0,0:0:0:0:
320,192,90016,5,0,0:0:0:0:
192,192,90050,5,2,0:0:0:0:
256,192,90083,5,0,0:0:0:0:
320,192,90116,5,0,0:0:0:0:
192,192,90150,5,2,0:0:0:0:
256,192,90183,5,0,0:0:0:0:
320,192,90216,5,0,0:0:0:0:
192,192,90250,5,2,0:0:0:0:
256,192,90283,5,0,0:0:0:0:
320,192,90316,5,0,0:0:0:0:
192,192,90350,5,2,0:0:0:0:
256,192,90383,5,0,0:0:0:0:
320,192,90416,5,0,0:0:0:0:
192,192,90450,5,2,0:0:0:0:
256,192,90483,5,0,0:0:0:0:
320,192,90516,5,0,0:0:0:0:
192,192,90550,5,2,0:0:0:0:
256,192,90583,5,0,0:0:0:0:
320,192,90616,5,0,0:0:0:0:
192,192,90650,5,2,0:0:0:0:
256,192,90683,5,0,0:0:0:0:
320,192,90716,5,0,0:0:0:0:
192,192,90750,5,2,0:0:0:0:
256,192,90783,5,0,0:0:0:0:
320,192,90816,5,0,0:0:0:0:
192,192,90850,5,2,0:0:0:0:
256,192,90883,5,0,0:0:0:0:
320,192,90916,5,0,0:0:0:0:
192,192,90950,5,2,0:0:0:0:
256,192,90983,5,0,0:0:0:0:
320,192,91016,5,0,0:0:0:0:
192,192,91050,5,2,0:0:0:0:
256,192,91083,5,0,0:0:0:0:
320,192,91116,5,0,0:0:0:0:
192,192,91150,5,2,0:0:0:0:
256,192,91183,5,0,0:0:0:0:
320,192,91216,5,0,0:0:0:0:
192,192,91250,5,2,0:0:0:0:
256,192,91283,5,0,0:0:0:0:
320,192,91316,5,0,0:0:0:0:
192,192,91350,5,2,0:0:0:0:
256,192,91383,5,0,0:0:0:0:
320,192,91416,5,0,0:0:0:0:
192,192,91450,5,2,0:0:0:0:
256,192,91483,5,0,0:0:0:0:
320,192,91516,5,0,0:0:0:0:
192,192,91550,5,2,0:0:0:0:
256,192,91583,5,0,0:0:0:0:
320,192,91616,5,0,0:0:0:0:
192,192,91650,5,2,0:0:0:0:
256,192,91683,5,0,0:0:0:0:
320,192,91716,5,0,0:0:0:0:
192,192,91750,5,2,0:0:0:0:
256,192,91783,5,0,0:0:0:0:
320,192,91816,5,0,0:0:0:0:
192,192,91850,5,2,0:0:0:0:
256,192,91883,5,0,0:0:0:0:
320,192,91916,5,0,0:0:0:0:
192,192,91950,5,2,0:0:0:0:
256,192,91983,5,0,0:0:0:0:
320,192,92016,5,0,0:0:0:0:
192,192,92050,5,2,0:0:0:0:
256,192,92083,5,0,0:0:0:0:
320,192,92116,5,0,0:0:0:0:
192,192,92150,5,2,0:0:0:0:
256,192,92183,5,0,0:0:0:0:
320,192,92216,5,0,0:0:0:0:
192,192,92250,5,2,0:0:0:0:
256,192,92283,5,0,0:0:0:0:
320,192,92316,5,0,0:0:0:0:
192,192,92350,5,2,0:0:0:0:
256,192,92383,5,0,0:0:0:0:
320,192,92416,5,0,0:0:0:0:
192,192,92450,5,2,0:0:0:0:
256,192,92483,5,0,0:0:0:0:
320,192,92516,5,0,0:0:0:0:
192,192,92550,5,2,0:0:0:0:
256,192,92583,5,0,0:0:0:0:
320,192,92616,5,0,0:0:0:0:
192,192,92650,5,2,0:0:0:0:
256,192,92683,5,0,0:0:0:0:
320,192,92716,5,0,0:0:0:0:
192,192,92750,5,2,0:0:0:0:
256,192,92783,5,0,0:0:0:0:
320,192,92816,5,0,0:0:0:0:
192,192,92850,5,2,0:0:0:0:
256,192,92883,5,0,0:0:0:0:
320,192,92916,5,0,0:0:0:0:
192,192,92950,5,2,0:0:0:0:
256,192,92983,5,0,0:0:0:0:
320,192,93016,5,0,0:0:0:0:
192,192,93050,5,2,0:0:0:0:
256,192,93083,5,0,0:0:0:0:
320,192,93116,5,0,0:0:0:0:
192,192,93150,5,2,0:0:0:0:
256,192,93183,5,0,0:0:0:0:
320,192,93216,5,0,0:0:0:0:
192,192,93250,5,2,0:0:0:0:
256,192,93283,5,0,0:0:0:0:
320,192,93316,5,0,0:0:0:0:
192,192,93350,5,2,0:0:0:0:
256,192,93383,5,0,0:0:0:0:
320,192,93416,5,0,0:0:0:0:
192,192,93450,5,2,0:0:0:0:
256,192,93483,5,0,0:0:0:0:
320,192,93516,5,0,0:0:0:0:
192,192,93550,5,2,0:0:0:0:
256,192,93583,5,0,0:0:0:0:
320,192,93616,5,0,0:0:0:0:
192,192,93650,5,2,0:0:0:0:
256,192,93683,5,0,0:0:0:0:
320,192,93716,5,0,0:0:0:0:
192,192,93750,5,2,0:0:0:0:
256,192,93783,5,0,0:0:0:0:
320,192,93816,5,0,0:0:0:0:
192,192,93850,5,2,0:0:0:0:
256,192,93883,5,0,0:0:0:0:
320,192,93916,5,0,0:0:0:0:
192,192,93950,5,2,0:0:0:0:
256,192,93983,5,0,0:0:0:0:
320,192,94016,5,0,0:0:0:0:
192,192,94050,5,2,0:0:0:0:
256,192,94083,5,0,0:0:0:0:
320,192,94116,5,0,0:0:0:0:
192,192,94150,5,2,0:0:0:0:
256,192,94183,5,0,0:0:0:0:
320,192,94216,5,0,0:0:0:0:
192,192,94250,5,2,0:0:0:0:
256,192,94283,5,0,0:0:0:0:
320,192,94316,5,0,0:0:0:0:
192,192,94350,5,2,0:0:0:0:
256,192,94383,5,0,0:0:0:0:
320,192,94416,5,0,0:0:0:0:
192,192,94450,5,2,0:0:0:0:
256,192,94483,5,0,0:0:0:0:
320,192,94516,5,0,0:0:0:0:
192,192,94550,5,2,0:0:0:0:
256,192,94583,5,0,0:0:0:0:
320,192,94616,5,0,0:0:0:0:
192,192,94650,5,2,0:0:0:0:
256,192,94683,5,0,0:0:0:0:
320,192,94716,5,0,0:0:0:0:
192,192,94750,5,2,0:0:0:0:
256,192,94783,5,0,0:0:0:0:
320,192,94816,5,0,0:0:0:0:
192,192,94850,5,2,0:0:0:0:
256,192,94883,5,0,0:0:0:0:
320,192,94916,5,0,0:0:0:0:
192,192,94950,5,2,0:0:0:0:
256,192,94983,5,0,0:0:0:0:
320,192,95016,5,0,0:0:0:0:
192,192,95050,5,2,0:0:0:0:
256,192,95083,5,0,0:0:0:0:
320,192,95116,5,0,0:0:0:0:
192,192,95150,5,2,0:0:0:0:
256,192,95183,5,0,0:0:0:0:
320,192,95216,5,0,0:0:0:0:
192,192,95250,5,2,0:0:0:0:
256,192,95283,5,0,0:0:0:0:
320,192,95316,5,0,0:0:0:0:
192,192,95350,5,2,0:0:0:0:
256,192,95383,5,0,0:0:0:0:
320,192,95416,5,0,0:0:0:0:
192,192,95450,5,2,0:0:0:0:
256,192,95483,5,0,0:0:0:0:
320,192,95516,5,0,0:0:0:0:
192,192,95550,5,2,0:0:0:0:
256,192,95583,5,0,0:0:0:0:
320,192,95616,5,0,0:0:0:0:
192,192,95650,5,2,0:0:0:0:
256,192,95683,5,0,0:0:0:0:
320,192,95716,5,0,0:0:0:0:
192,192,95750,5,2,0:0:0:0:
256,192,95783,5,0,0:0:0:0:
320,192,95816,5,0,0:0:0:0:
192,192,95850,5,2,0:0:0:0:
256,192,95883,5,0,0:0:0:0:
320,192,95916,5,0,0:0:0:0:
192,192,95950,5,2,0:0:0:0:
256,192,95983,5,0,0:0:0:0:
320,192,96016,5,0,0:0:0:0:
192,192,96050,5,2,0:0:0:0:
256,192,96083,5,0,0:0:0:0:
320,192,96116,5,0,0:0:0:0:
192,192,96150,5,2,0:0:0:0:
256,192,96183,5,0,0:0:0:0:
320,192,96216,5,0,0:0:0:0:
192,192,96250,5,2,0:0:0:0:
256,192,96283,5,0,0:0:0:0:
320,192,96316,5,0,0:0:0:0:
192,192,96350,5,2,0:0:0:0:
256,192,96383,5,0,0:0:0:0:
320,192,96416,5,0,0:0:0:0:
192,192,96450,5,2,0:0:0:0:
256,192,96483,5,0,0:0:0:0:
320,192,96516,5,0,0:0:0:0:
192,192,96550,5,2,0:0:0:0:
256,192,96583,5,0,0:0:0:0:
320,192,96616,5,0,0:0:0:0:
192,192,96650,5,2,0:0:0:0:
256,192,96683,5,0,0:0:0:0:
320,192,96716,5,0,0:0:0:0:
192,192,96750,5,2,0:0:0:0:
256,192,96783,5,0,0:0:0:0:
320,192,96816,5,0,0:0:0:0:
192,192,96850,5,2,0:0:0:0:
256,192,96883,5,0,0:0:0:0:
320,192,96916,5,0,0:0:0:0:
192,192,96950,5,2,0:0:0:0:
256,192,96983,5,0,0:0:0:0:
320,192,97016,5,0,0:0:0:0:
192,192,97050,5,2,0:0:0:0:
256,192,97083,5,0,0:0:0:0:
320,192,97116,5,0,0:0:0:0:
192,192,97150,5,2,0:0:0:0:
256,192,97183,5,0,0:0:0:0:
320,192,97216,5,0,0:0:0:0:
192,192,97250,5,2,0:0:0:0:
256,192,97283,5,0,0:0:0:0:
320,192,97316,5,0,0:0:0:0:
192,192,97350,5,2,0:0:0:0:
256,192,97383,5,0,0:0:0:0:
320,192,97416,5,0,0:0:0:0:
192,192,97450,5,2,0:0:0:0:
256,192,97483,5,0,0:0:0:0:
320,192,97516,5,0,0:0:0:0:
192,192,97550,5,2,0:0:0:0:
256,192,97583,5,0,0:0:0:0:
320,192,97616,5,0,0:0:0:0:
192,192,97650,5,2,0:0:0:0:
256,192,97683,5,0,0:0:0:0:
320,192,97716,5,0,0:0:0:0:
192,192,97750,5,2,0:0:0:0:
256,192,97783,5,0,0:0:0:0:
320,192,97816,5,0,0:0:0:0:
192,192,97850,5,2,0:0:0:0:
256,192,97883,5,0,0:0:0:0:
320,192,97916,5,0,0:0:0:0:
192,192,97950,5,2,0:0:0:0:
256,192,97983,5,0,0:0:0:0:
320,192,98016,5,0,0:0:0:0:
192,192,98050,5,2,0:0:0:0:
256,192,98083,5,0,0:0:0:0:
320,192,98116,5,0,0:0:0:0:
192,192,98150,5,2,0:0:0:0:
256,192,98183,5,0,0:0:0:0:
320,192,98216,5,0,0:0:0:0:
192,192,98250,5,2,0:0:0:0:
256,192,98283,5,0,0:0:0:0:
320,192,98316,5,0,0:0:0:0:
192,192,98350,5,2,0:0:0:0:
256,192,98383,5,0,0:0:0:0:
320,192,98416,5,0,0:0:0:0:
192,192,98450,5,2,0:0:0:0:
256,192,98483,5,0,0:0:0:0:
320,192,98516,5,0,0:0:0:0:
192,192,98550,5,2,0:0:0:0:
256,192,98583,5,0,0:0:0:0:
320,192,98616,5,0,0:0:0:0:
192,192,98650,5,2,0:0:0:0:
256,192,98683,5,0,0:0:0:0:
320,192,98716,5,0,0:0:0:0:
192,192,98750,5,2,0:0:0:0:
256,192,98783,5,0,0:0:0:0:
320,192,98816,5,0,0:0:0:0:
192,192,98850,5,2,0:0:0:0:
256,192,98883,5,0,0:0:0:0:
320,192,98916,5,0,0:0:0:0:
192,192,98950,5,2,0:0:0:0:
256,192,98983,5,0,0:0:0:0:
320,192,99016,5,0,0:0:0:0:
192,192,99050,5,2,0:0:0:0:
256,192,99083,5,0,0:0:0:0:
320,192,99116,5,0,0:0:0:0:
192,192,99150,5,2,0:0:0:0:
256,192,99183,5,0,0:0:0:0:
320,192,99216,5,0,0:0:0:0:
192,192,99250,5,2,0:0:0:0:
256,192,99283,5,0,0:0:0:0:
320,192,99316,5,0,0:0:0:0:
192,192,99350,5,2,0:0:0:0:
256,192,99383,5,0,0:0:0:0:
320,192,99416,5,0,0:0:0:0:
192,192,99450,5,2,0:0:0:0:
256,192,99483,5,0,0:0:0:0:
320,192,99516,5,0,0:0:0:0:
192,192,99550,5,2,0:0:0:0:
256,192,99583,5,0,0:0:0:0:
320,192,99616,5,0,0:0:0:0:
192,192,99650,5,2,0:0:0:0:
256,192,99683,5,0,0:0:0:0:
320,192,99716,5,0,0:0:0:0:
192,192,99750,5,2,0:0:0:0:
256,192,99783,5,0,0:0:0:0:
320,192,99816,5,0,0:0:0:0:
192,192,99850,5,2,0:0:0:0:
256,192,99883,5,0,0:0:0:0:
320,192,99916,5,0,0:0:0:0:
192,192,99950,5,2,0:0:0:0:
256,192,99983,5,0,0:0:0:0:
320,192,100016,5,0,0:0:0:0:
192,192,100050,5,2,0:0:0:0:
256,192,100083,5,0,0:0:0:0:
320,192,100116,5,0,0:0:0:0:
192,192,100150,5,2,0:0:0:0:
256,192,100183,5,0,0:0:0:0:
320,192,100216,5,0,0:0:0:0:
192,192,100250,5,2,0:0:0:0:
256,192,100283,5,0,0:0:0:0:
320,192,100316,5,0,0:0:0:0:
192,192,100350,5,2,0:0:0:0:
256,192,100383,5,0,0:0:0:0:
320,192,100416,5,0,0:0:0:0:
192,192,100450,5,2,0:0:0:0:
256,192,100483,5,0,0:0:0:0:
320,192,100516,5,0,0:0:0:0:
192,192,100550,5,2,0:0:0:0:
256,192,100583,5,0,0:0:0:0:
320,192,100616,5,0,0:0:0:0:
192,192,100650,5,2,0:0:0:0:
256,192,100683,5,0,0:0:0:0:
320,192,100716,5,0,0:0:0:0:
192,192,100750,5,2,0:0:0:0:
256,192,100783,5,0,0:0:0:0:
320,192,100816,5,0,0:0:0:0:
192,192,100850,5,2,0:0:0:0:
256,192,100883,5,0,0:0:0:0:
320,192,100916,5,0,0:0:0:0:
192,192,100950,5,2,0:0:0:0:
256,192,100983,5,0,0:0:0:0:
320,192,101016,5,0,0:0:0:0:
192,192,101050,5,2,0:0:0:0:
256,192,101083,5,0,0:0:0:0:
320,192,101116,5,0,0:0:0:0:
192,192,101150,5,2,0:0:0:0:
256,192,101183,5,0,0:0:0:0:
320,192,101216,5,0,0:0:0:0:
192,192,101250,5,2,0:0:0:0:
256,192,101283,5,0,0:0:0:0:
320,192,101316,5,0,0:0:0:0:
192,192,101350,5,2,0:0:0:0:
256,192,101383,5,0,0:0:0:0:
320,192,101416,5,0,0:0:0:0:
192,192,101450,5,2,0:0:0:0:
256,192,101483,5,0,0:0:0:0:
320,192,101516,5,0,0:0:0:0:
192,192,101550,5,2,0:0:0:0:
256,192,101583,5,0,0:0:0:0:
320,192,101616,5,0,0:0:0:0:
192,192,101650,5,2,0:0:0:0:
256,192,101683,5,0,0:0:0:0:
320,192,101716,5,0,0:0:0:0:
192,192,101750,5,2,0:0:0:0:
256,192,101783,5,0,0:0:0:0:
320,192,101816,5,0,0:0:0:0:
192,192,101850,5,2,0:0:0:0:
256,192,101883,5,0,0:0:0:0:
320,192,101916,5,0,0:0:0:0:
192,192,101950,5,2,0:0:0:0:
256,192,101983,5,0,0:0:0:0:
320,192,102016,5,0,0:0:0:0:
192,192,102050,5,2,0:0:0:0:
256,192,102083,5,0,0:0:0:0:
320,192,102116,5,0,0:0:0:0:
192,192,102150,5,2,0:0:0:0:
256,192,102183,5,0,0:0:0:0:
320,192,102216,5,0,0:0:0:0:
192,192,102250,5,2,0:0:0:0:
256,192,102283,5,0,0:0:0:0:
320,192,102316,5,0,0:0:0:0:
192,192,102350,5,2,0:0:0:0:
256,192,102383,5,0,0:0:0:0:
320,192,102416,5,0,0:0:0:0:
192,192,102450,5,2,0:0:0:0:
256,192,102483,5,0,0:0:0:0:
320,192,102516,5,0,0:0:0:0:
192,192,102550,5,2,0:0:0:0:
256,192,102583,5,0,0:0:0:0:
320,192,102616,5,0,0:0:0:0:
192,192,102650,5,2,0:0:0:0:
256,192,102683,5,0,0:0:0:0:
320,192,102716,5,0,0:0:0:0:
192,192,102750,5,2,0:0:0:0:
256,192,102783,5,0,0:0:0:0:
320,192,102816,5,0,0:0:0:0:
192,192,102850,5,2,0:0:0:0:
256,192,102883,5,0,0:0:0:0:
320,192,102916,5,0,0:0:0:0:
192,192,102950,5,2,0:0:0:0:
256,192,102983,5,0,0:0:0:0:
320,192,103016,5,0,0:0:0:0:
192,192,103050,5,2,0:0:0:0:
256,192,103083,5,0,0:0:0:0:
320,192,103116,5,0,0:0:0:0:
192,192,103150,5,2,0:0:0:0:
256,192,103183,5,0,0:0:0:0:
320,192,103216,5,0,0:0:0:0:
192,192,103250,5,2,0:0:0:0:
256,192,103283,5,0,0:0:0:0:
320,192,103316,5,0,0:0:0:0:
192,192,103350,5,2,0:0:0:0:
256,192,103383,5,0,0:0:0:0:
320,192,103416,5,0,0:0:0:0:
192,192,103450,5,2,0:0:0:0:
256,192,103483,5,0,0:0:0:0:
320,192,103516,5,0,0:0:0:0:
192,192,103550,5,2,0:0:0:0:
256,192,103583,5,0,0:0:0:0:
320,192,103616,5,0,0:0:0:0:
192,192,103650,5,2,0:0:0:0:
256,192,103683,5,0,0:0:0:0:
320,192,103716,5,0,0:0:0:0:
192,192,103750,5,2,0:0:0:0:
256,192,103783,5,0,0:0:0:0:
320,192,103816,5,0,0:0:0:0:
192,192,103850,5,2,0:0:0:0:
256,192,103883,5,0,0:0:0:0:
320,192,103916,5,0,0:0:0:0:
192,192,103950,5,2,0:0:0:0:
256,192,103983,5,0,0:0:0:0:
320,192,104016,5,0,0:0:0:0:
192,192,104050,5,2,0:0:0:0:
256,192,104083,5,0,0:0:0:0:
320,192,104116,5,0,0:0:0:0:
192,192,104150,5,2,0:0:0:0:
256,192,104183,5,0,0:0:0:0:
320,192,104216,5,0,0:0:0:0:
192,192,104250,5,2,0:0:0:0:
256,192,104283,5,0,0:0:0:0:
320,192,104316,5,0,0:0:0:0:
192,192,104350,5,2,0:0:0:0:
256,192,104383,5,0,0:0:0:0:
320,192,104416,5,0,0:0:0:0:
192,192,104450,5,2,0:0:0:0:
256,192,104483,5,0,0:0:0:0:
320,192,104516,5,0,0:0:0:0:
192,192,104550,5,2,0:0:0:0:
256,192,104583,5,0,0:0:0:0:
320,192,104616,5,0,0:0:0:0:
192,192,104650,5,2,0:0:0:0:
256,192,104683,5,0,0:0:0:0:
320,192,104716,5,0,0:0:0:0:
192,192,104750,5,2,0:0:0:0:
256,192,104783,5,0,0:0:0:0:
320,192,104816,5,0,0:0:0:0:
192,192,104850,5,2,0:0:0:0:
256,192,104883,5,0,0:0:0:0:
320,192,104916,5,0,0:0:0:0:
192,192,104950,5,2,0:0:0:0:
256,192,104983,5,0,0:0:0:0:
320,192,105016,5,0,0:0:0:0:
192,192,105050,5,2,0:0:0:0:
256,192,105083,5,0,0:0:0:0:
320,192,105116,5,0,0:0:0:0:
192,192,105150,5,2,0:0:0:0:
256,192,105183,5,0,0:0:0:0:
320,192,105216,5,0,0:0:0:0:
192,192,105250,5,2,0:0:0:0:
256,192,105283,5,0,0:0:0:0:
320,192,105316,5,0,0:0:0:0:
192,192,105350,5,2,0:0:0:0:
256,192,105383,5,0,0:0:0:0:
320,192,105416,5,0,0:0:0:0:
192,192,105450,5,2,0:0:0:0:
256,192,105483,5,0,0:0:0:0:
320,192,105516,5,0,0:0:0:0:
192,192,105550,5,2,0:0:0:0:
256,192,105583,5,0,0:0:0:0:
320,192,105616,5,0,0:0:0:0:
192,192,105650,5,2,0:0:0:0:
256,192,105683,5,0,0:0:0:0:
320,192,105716,5,0,0:0:0:0:
192,192,105750,5,2,0:0:0:0:
256,192,105783,5,0,0:0:0:0:
320,192,105816,5,0,0:0:0:0:
192,192,105850,5,2,0:0:0:0:
256,192,105883,5,0,0:0:0:0:
320,192,105916,5,0,0:0:0:0:
192,192,105950,5,2,0:0:0:0:
256,192,105983,5,0,0:0:0:0:
320,192,106016,5,0,0:0:0:0:
192,192,106050,5,2,0:0:0:0:
256,192,106083,5,0,0:0:0:0:
320,192,106116,5,0,0:0:0:0:
192,192,106150,5,2,0:0:0:0:
256,192,106183,5,0,0:0:0:0:
320,192,106216,5,0,0:0:0:0:
192,192,106250,5,2,0:0:0:0:
256,192,106283,5,0,0:0:0:0:
320,192,106316,5,0,0:0:0:0:
192,192,106350,5,2,0:0:0:0:
256,192,106383,5,0,0:0:0:0:
320,192,106416,5,0,0:0:0:0:
192,192,106450,5,2,0:0:0:0:
256,192,106483,5,0,0:0:0:0:
320,192,106516,5,0,0:0:0:0:
192,192,106550,5,2,0:0:0:0:
256,192,106583,5,0,0:0:0:0:
320,192,106616,5,0,0:0:0:0:
192,192,106650,5,2,0:0:0:0:
256,192,106683,5,0,0:0:0:0:
320,192,106716,5,0,0:0:0:0:
192,192,106750,5,2,0:0:0:0:
256,192,106783,5,0,0:0:0:0:
320,192,106816,5,0,0:0:0:0:
192,192,106850,5,2,0:0:0:0:
256,192,106883,5,0,0:0:0:0:
320,192,106916,5,0,0:0:0:0:
192,192,106950,5,2,0:0:0:0:
256,192,106983,5,0,0:0:0:0:
320,192,107016,5,0,0:0:0:0:
192,192,107050,5,2,0:0:0:0:
256,192,107083,5,0,0:0:0:0:
320,192,107116,5,0,0:0:0:0:
192,192,107150,5,2,0:0:0:0:
256,192,107183,5,0,0:0:0:0:
320,192,107216,5,0,0:0:0:0:
192,192,107250,5,2,0:0:0:0:
256,192,107283,5,0,0:0:0:0:
320,192,107316,5,0,0:0:0:0:
192,192,107350,5,2,0:0:0:0:
256,192,107383,5,0,0:0:0:0:
320,192,107416,5,0,0:0:0:0:
192,192,107450,5,2,0:0:0:0:
256,192,107483,5,0,0:0:0:0:
320,192,107516,5,0,0:0:0:0:
192,192,107550,5,2,0:0:0:0:
256,192,107583,5,0,0:0:0:0:
320,192,107616,5,0,0:0:0:0:
192,192,107650,5,2,0:0:0:0:
256,192,107683,5,0,0:0:0:0:
320,192,107716,5,0,0:0:0:0:
192,192,107750,5,2,0:0:0:0:
256,192,107783,5,0,0:0:0:0:
320,192,107816,5,0,0:0:0:0:
192,192,107850,5,2,0:0:0:0:
256,192,107883,5,0,0:0:0:0:
320,192,107916,5,0,0:0:0:0:
192,192,107950,5,2,0:0:0:0:
256,192,107983,5,0,0:0:0:0:
320,192,108016,5,0,0:0:0:0:
192,192,108050,5,2,0:0:0:0:
256,192,108083,5,0,0:0:0:0:
320,192,108116,5,0,0:0:0:0:
192,192,108150,5,2,0:0:0:0:
256,192,108183,5,0,0:0:0:0:
320,192,108216,5,0,0:0:0:0:
192,192,108250,5,2,0:0:0:0:
256,192,108283,5,0,0:0:0:0:
320,192,108316,5,0,0:0:0:0:
192,192,108350,5,2,0:0:0:0:
256,192,108383,5,0,0:0:0:0:
320,192,108416,5,0,0:0:0:0:
192,192,108450,5,2,0:0:0:0:
256,192,108483,5,0,0:0:0:0:
320,192,108516,5,0,0:0:0:0:
192,192,108550,5,2,0:0:0:0:
256,192,108583,5,0,0:0:0:0:
320,192,108616,5,0,0:0:0:0:
192,192,108650,5,2,0:0:0:0:
256,192,108683,5,0,0:0:0:0:
320,192,108716,5,0,0:0:0:0:
192,192,108750,5,2,0:0:0:0:
256,192,108783,5,0,0:0:0:0:
320,192,108816,5,0,0:0:0:0:
192,192,108850,5,2,0:0:0:0:
256,192,108883,5,0,0:0:0:0:
320,192,108916,5,0,0:0:0:0:
192,192,108950,5,2,0:0:0:0:
256,192,108983,5,0,0:0:0:0:
320,192,109016,5,0,0:0:0:0:
192,192,109050,5,2,0:0:0:0:
256,192,109083,5,0,0:0:0:0:
320,192,109116,5,0,0:0:0:0:
192,192,109150,5,2,0:0:0:0:
256,192,109183,5,0,0:0:0:0:
320,192,109216,5,0,0:0:0:0:
192,192,109250,5,2,0:0:0:0:
256,192,109283,5,0,0:0:0:0:
320,192,109316,5,0,0:0:0:0:
192,192,109350,5,2,0:0:0:0:
256,192,109383,5,0,0:0:0:0:
320,192,109416,5,0,0:0:0:0:
192,192,109450,5,2,0:0:0:0:
256,192,109483,5,0,0:0:0:0:
320,192,109516,5,0,0:0:0:0:
192,192,109550,5,2,0:0:0:0:
256,192,109583,5,0,0:0:0:0:
320,192,109616,5,0,0:0:0:0:
192,192,109650,5,2,0:0:0:0:
256,192,109683,5,0,0:0:0:0:
320,192,109716,5,0,0:0:0:0:
192,192,109750,5,2,0:0:0:0:
256,192,109783,5,0,0:0:0:0:
320,192,109816,5,0,0:0:0:0:
192,192,109850,5,2,0:0:0:0:
256,192,109883,5,0,0:0:0:0:
320,192,109916,5,0,0:0:0:0:
192,192,109950,5,2,0:0:0:0:
256,192,109983,5,0,0:0:0:0:
320,192,110016,5,0,0:0:0:0:
192,192,110050,5,2,0:0:0:0:
256,192,110083,5,0,0:0:0:0:
320,192,110116,5,0,0:0:0:0:
192,192,110150,5,2,0:0:0:0:
256,192,110183,5,0,0:0:0:0:
320,192,110216,5,0,0:0:0:0:
192,192,110250,5,2,0:0:0:0:
256,192,110283,5,0,0:0:0:0:
320,192,110316,5,0,0:0:0:0:
192,192,110350,5,2,0:0:0:0:
256,192,110383,5,0,0:0:0:0:
320,192,110416,5,0,0:0:0:0:
192,192,110450,5,2,0:0:0:0:
256,192,110483,5,0,0:0:0:0:
320,192,110516,5,0,0:0:0:0:
192,192,110550,5,2,0:0:0:0:
256,192,110583,5,0,0:0:0:0:
320,192,110616,5,0,0:0:0:0:
192,192,110650,5,2,0:0:0:0:
256,192,110683,5,0,0:0:0:0:
320,192,110716,5,0,0:0:0:0:
192,192,110750,5,2,0:0:0:0:
256,192,110783,5,0,0:0:0:0:
320,192,110816,5,0,0:0:0:0:
192,192,110850,5,2,0:0:0:0:
256,192,110883,5,0,0:0:0:0:
320,192,110916,5,0,0:0:0:0:
192,192,110950,5,2,0:0:0:0:
256,192,110983,5,0,0:0:0:0:
320,192,111016,5,0,0:0:0:0:
192,192,111050,5,2,0:0:0:0:
256,192,111083,5,0,0:0:0:0:
320,192,111116,5,0,0:0:0:0:
192,192,111150,5,2,0:0:0:0:
256,192,111183,5,0,0:0:0:0:
320,192,111216,5,0,0:0:0:0:
192,192,111250,5,2,0:0:0:0:
256,192,111283,5,0,0:0:0:0:
320,192,111316,5,0,0:0:0:0:
192,192,111350,5,2,0:0:0:0:
256,192,111383,5,0,0:0:0:0:
320,192,111416,5,0,0:0:0:0:
192,192,111450,5,2,0:0:0:0:
256,192,111483,5,0,0:0:0:0:
320,192,111516,5,0,0:0:0:0:
192,192,111550,5,2,0:0:0:0:
256,192,111583,5,0,0:0:0:0:
320,192,111616,5,0,0:0:0:0:
192,192,111650,5,2,0:0:0:0:
256,192,111683,5,0,0:0:0:0:
320,192,111716,5,0,0:0:0:0:
192,192,111750,5,2,0:0:0:0:
256,192,111783,5,0,0:0:0:0:
320,192,111816,5,0,0:0:0:0:
192,192,111850,5,2,0:0:0:0:
256,192,111883,5,0,0:0:0:0:
320,192,111916,5,0,0:0:0:0:
192,192,111950,5,2,0:0:0:0:
256,192,111983,5,0,0:0:0:0:
320,192,112016,5,0,0:0:0:0:
192,192,112050,5,2,0:0:0:0:
256,192,112083,5,0,0:0:0:0:
320,192,112116,5,0,0:0:0:0:
192,192,112150,5,2,0:0:0:0:
256,192,112183,5,0,0:0:0:0:
320,192,112216,5,0,0:0:0:0:
192,192,112250,5,2,0:0:0:0:
256,192,112283,5,0,0:0:0:0:
320,192,112316,5,0,0:0:0:0:
192,192,112350,5,2,0:0:0:0:
256,192,112383,5,0,0:0:0:0:
320,192,112416,5,0,0:0:0:0:
192,192,112450,5,2,0:0:0:0:
256,192,112483,5,0,0:0:0:0:
320,192,112516,5,0,0:0:0:0:
192,192,112550,5,2,0:0:0:0:
256,192,112583,5,0,0:0:0:0:
320,192,112616,5,0,0:0:0:0:
192,192,112650,5,2,0:0:0:0:
256,192,112683,5,0,0:0:0:0:
320,192,112716,5,0,0:0:0:0:
192,192,112750,5,2,0:0:0:0:
256,192,112783,5,0,0:0:0:0:
320,192,112816,5,0,0:0:0:0:
192,192,112850,5,2,0:0:0:0:
256,192,112883,5,0,0:0:0:0:
320,192,112916,5,0,0:0:0:0:
192,192,112950,5,2,0:0:0:0:
256,192,112983,5,0,0:0:0:0:
320,192,113016,5,0,0:0:0:0:
192,192,113050,5,2,0:0:0:0:
256,192,113083,5,0,0:0:0:0:
320,192,113116,5,0,0:0:0:0:
192,192,113150,5,2,0:0:0:0:
256,192,113183,5,0,0:0:0:0:
320,192,113216,5,0,0:0:0:0:
192,192,113250,5,2,0:0:0:0:
256,192,113283,5,0,0:0:0:0:
320,192,113316,5,0,0:0:0:0:
192,192,113350,5,2,0:0:0:0:
256,192,113383,5,0,0:0:0:0:
320,192,113416,5,0,0:0:0:0:
192,192,113450,5,2,0:0:0:0:
256,192,113483,5,0,0:0:0:0:
320,192,113516,5,0,0:0:0:0:
192,192,113550,5,2,0:0:0:0:
256,192,113583,5,0,0:0:0:0:
320,192,113616,5,0,0:0:0:0:
192,192,113650,5,2,0:0:0:0:
256,192,113683,5,0,0:0:0:0:
320,192,113716,5,0,0:0:0:0:
192,192,113750,5,2,0:0:0:0:
256,192,113783,5,0,0:0:0:0:
320,192,113816,5,0,0:0:0:0:
192,192,113850,5,2,0:0:0:0:
256,192,113883,5,0,0:0:0:0:
320,192,113916,5,0,0:0:0:0:
192,192,113950,5,2,0:0:0:0:
256,192,113983,5,0,0:0:0:0:
320,192,114016,5,0,0:0:0:0:
192,192,114050,5,2,0:0:0:0:
256,192,114083,5,0,0:0:0:0:
320,192,114116,5,0,0:0:0:0:
192,192,114150,5,2,0:0:0:0:
256,192,114183,5,0,0:0:0:0:
320,192,114216,5,0,0:0:0:0:
192,192,114250,5,2,0:0:0:0:
256,192,114283,5,0,0:0:0:0:
320,192,114316,5,0,0:0:0:0:
192,192,114350,5,2,0:0:0:0:
256,192,114383,5,0,0:0:0:0:
320,192,114416,5,0,0:0:0:0:
192,192,114450,5,2,0:0:0:0:
256,192,114483,5,0,0:0:0:0:
320,192,114516,5,0,0:0:0:0:
192,192,114550,5,2,0:0:0:0:
256,192,114583,5,0,0:0:0:0:
320,192,114616,5,0,0:0:0:0:
192,192,114650,5,2,0:0:0:0:
256,192,114683,5,0,0:0:0:0:
320,192,114716,5,0,0:0:0:0:
192,192,114750,5,2,0:0:0:0:
256,192,114783,5,0,0:0:0:0:
320,192,114816,5,0,0:0:0:0:
192,192,114850,5,2,0:0:0:0:
256,192,114883,5,0,0:0:0:0:
320,192,114916,5,0,0:0:0:0:
192,192,114950,5,2,0:0:0:0:
256,192,114983,5,0,0:0:0:0:
320,192,115016,5,0,0:0:0:0:
192,192,115050,5,2,0:0:0:0:
256,192,115083,5,0,0:0:0:0:
320,192,115116,5,0,0:0:0:0:
192,192,115150,5,2,0:0:0:0:
256,192,115183,5,0,0:0:0:0:
320,192,115216,5,0,0:0:0:0:
192,192,115250,5,2,0:0:0:0:
256,192,115283,5,0,0:0:0:0:
320,192,115316,5,0,0:0:0:0:
192,192,115350,5,2,0:0:0:0:
256,192,115383,5,0,0:0:0:0:
320,192,115416,5,0,0:0:0:0:
192,192,115450,5,2,0:0:0:0:
256,192,115483,5,0,0:0:0:0:
320,192,115516,5,0,0:0:0:0:
192,192,115550,5,2,0:0:0:0:
256,192,115583,5,0,0:0:0:0:
320,192,115616,5,0,0:0:0:0:
192,192,115650,5,2,0:0:0:0:
256,192,115683,5,0,0:0:0:0:
320,192,115716,5,0,0:0:0:0:
192,192,115750,5,2,0:0:0:0:
256,192,115783,5,0,0:0:0:0:
320,192,115816,5,0,0:0:0:0:
192,192,115850,5,2,0:0:0:0:
256,192,115883,5,0,0:0:0:0:
320,192,115916,5,0,0:0:0:0:
192,192,115950,5,2,0:0:0:0:
256,192,115983,5,0,0:0:0:0:
320,192,116016,5,0,0:0:0:0:
192,192,116050,5,2,0:0:0:0:
256,192,116083,5,0,0:0:0:0:
320,192,116116,5,0,0:0:0:0:
192,192,116150,5,2,0:0:0:0:
256,192,116183,5,0,0:0:0:0:
320,192,116216,5,0,0:0:0:0:
192,192,116250,5,2,0:0:0:0:
256,192,116283,5,0,0:0:0:0:
320,192,116316,5,0,0:0:0:0:
192,192,116350,5,2,0:0:0:0:
256,192,116383,5,0,0:0:0:0:
320,192,116416,5,0,0:0:0:0:
192,192,116450,5,2,0:0:0:0:
256,192,116483,5,0,0:0:0:0:
320,192,116516,5,0,0:0:0:0:
192,192,116550,5,2,0:0:0:0:
256,192,116583,5,0,0:0:0:0:
320,192,116616,5,0,0:0:0:0:
192,192,116650,5,2,0:0:0:0:
256,192,116683,5,0,0:0:0:0:
320,192,116716,5,0,0:0:0:0:
192,192,116750,5,2,0:0:0:0:
256,192,116783,5,0,0:0:0:0:
320,192,116816,5,0,0:0:0:0:
192,192,116850,5,2,0:0:0:0:
256,192,116883,5,0,0:0:0:0:
320,192,116916,5,0,0:0:0:0:
192,192,116950,5,2,0:0:0:0:
256,192,116983,5,0,0:0:0:0:
320,192,117016,5,0,0:0:0:0:
192,192,117050,5,2,0:0:0:0:
256,192,117083,5,0,0:0:0:0:
320,192,117116,5,0,0:0:0:0:
192,192,117150,5,2,0:0:0:0:
256,192,117183,5,0,0:0:0:0:
320,192,117216,5,0,0:0:0:0:
192,192,117250,5,2,0:0:0:0:
256,192,117283,5,0,0:0:0:0:
320,192,117316,5,0,0:0:0:0:
192,192,117350,5,2,0:0:0:0:
256,192,117383,5,0,0:0:0:0:
320,192,117416,5,0,0:0:0:0:
192,192,117450,5,2,0:0:0:0:
256,192,117483,5,0,0:0:0:0:
320,192,117516,5,0,0:0:0:0:
192,192,117550,5,2,0:0:0:0:
256,192,117583,5,0,0:0:0:0:
320,192,117616,5,0,0:0:0:0:
192,192,117650,5,2,0:0:0:0:
256,192,117683,5,0,0:0:0:0:
320,192,117716,5,0,0:0:0:0:
192,192,117750,5,2,0:0:0:0:
256,192,117783,5,0,0:0:0:0:
320,192,117816,5,0,0:0:0:0:
192,192,117850,5,2,0:0:0:0:
256,192,117883,5,0,0:0:0:0:
320,192,117916,5,0,0:0:0:0:
192,192,117950,5,2,0:0:0:0:
256,192,117983,5,0,0:0:0:0:
320,192,118016,5,0,0:0:0:0:
192,192,118050,5,2,0:0:0:0:
256,192,118083,5,0,0:0:0:0:
320,192,118116,5,0,0:0:0:0:
192,192,118150,5,2,0:0:0:0:
256,192,118183,5,0,0:0:0:0:
320,192,118216,5,0,0:0:0:0:
192,192,118250,5,2,0:0:0:0:
256,192,118283,5,0,0:0:0:0:
320,192,118316,5,0,0:0:0:0:
192,192,118350,5,2,0:0:0:0:
256,192,118383,5,0,0:0:0:0:
320,192,118416,5,0,0:0:0:0:
192,192,118450,5,2,0:0:0:0:
256,192,118483,5,0,0:0:0:0:
320,192,118516,5,0,0:0:0:0:
192,192,118550,5,2,0:0:0:0:
256,192,118583,5,0,0:0:0:0:
320,192,118616,5,0,0:0:0:0:
192,192,118650,5,2,0:0:0:0:
256,192,118683,5,0,0:0:0:0:
320,192,118716,5,0,0:0:0:0:
192,192,118750,5,2,0:0:0:0:
256,192,118783,5,0,0:0:0:0:
320,192,118816,5,0,0:0:0:0:
192,192,118850,5,2,0:0:0:0:
256,192,118883,5,0,0:0:0:0:
320,192,118916,5,0,0:0:0:0:
192,192,118950,5,2,0:0:0:0:
256,192,118983,5,0,0:0:0:0:
320,192,119016,5,0,0:0:0:0:
192,192,119050,5,2,0:0:0:0:
256,192,119083,5,0,0:0:0:0:
320,192,119116,5,0,0:0:0:0:
192,192,119150,5,2,0:0:0:0:
256,192,119183,5,0,0:0:0:0:
320,192,119216,5,0,0:0:0:0:
192,192,119250,5,2,0:0:0:0:
256,192,119283,5,0,0:0:0:0:
320,192,119316,5,0,0:0:0:0:
192,192,119350,5,2,0:0:0:0:
256,192,119383,5,0,0:0:0:0:
320,192,119416,5,0,0:0:0:0:
192,192,119450,5,2,0:0:0:0:
256,192,119483,5,0,0:0:0:0:
320,192,119516,5,0,0:0:0:0:
192,192,119550,5,2,0:0:0:0:
256,192,119583,5,0,0:0:0:0:
320,192,119616,5,0,0:0:0:0:
192,192,119650,5,2,0:0:0:0:
256,192,119683,5,0,0:0:0:0:
320,192,119716,5,0,0:0:0:0:
192,192,119750,5,2,0:0:0:0:
256,192,119783,5,0,0:0:0:0:
320,192,119816,5,0,0:0:0:0:
192,192,119850,5,2,0:0:0:0:
256,192,119883,5,0,0:0:0:0:
320,192,119916,5,0,0:0:0:0:
192,192,119950,5,2,0:0:0:0:
256,192,119983,5,0,0:0:0:0:
320,192,120016,5,0,0:0:0:0:
192,192,120050,5,2,0:0:0:0:
256,192,120083,5,0,0:0:0:0:
320,192,120116,5,0,0:0:0:0:
192,192,120150,5,2,0:0:0:0:
256,192,120183,5,0,0:0:0:0:
320,192,120216,5,0,0:0:0:0:
192,192,120250,5,2,0:0:0:0:
256,192,120283,5,0,0:0:0:0:
320,192,120316,5,0,0:0:0:0:
192,192,120350,5,2,0:0:0:0:
256,192,120383,5,0,0:0:0:0:
320,192,120416,5,0,0:0:0:0:
192,192,120450,5,2,0:0:0:0:
256,192,120483,5,0,0:0:0:0:
320,192,120516,5,0,0:0:0:0:
192,192,120550,5,2,0:0:0:0:
256,192,120583,5,0,0:0:0:0:
320,192,120616,5,0,0:0:0:0:
192,192,120650,5,2,0:0:0:0:
256,192,120683,5,0,0:0:0:0:
320,192,120716,5,0,0:0:0:0:
192,192,120750,5,2,0:0:0:0:
256,192,120783,5,0,0:0:0:0:
320,192,120816,5,0,0:0:0:0:
192,192,120850,5,2,0:0:0:0:
256,192,120883,5,0,0:0:0:0:
320,192,120916,5,0,0:0:0:0:
192,192,120950,5,2,0:0:0:0:
256,192,120983,5,0,0:0:0:0:
320,192,121016,5,0,0:0:0:0:
192,192,121050,5,2,0:0:0:0:
256,192,121083,5,0,0:0:0:0:
320,192,121116,5,0,0:0:0:0:
192,192,121150,5,2,0:0:0:0:
256,192,121183,5,0,0:0:0:0:
320,192,121216,5,0,0:0:0:0:
192,192,121250,5,2,0:0:0:0:
256,192,121283,5,0,0:0:0:0:
320,192,121316,5,0,0:0:0:0:
192,192,121350,5,2,0:0:0:0:
256,192,121383,5,0,0:0:0:0:
320,192,121416,5,0,0:0:0:0:
192,192,121450,5,2,0:0:0:0:
256,192,121483,5,0,0:0:0:0:
320,192,121516,5,0,0:0:0:0:
192,192,121550,5,2,0:0:0:0:
256,192,121583,5,0,0:0:0:0:
320,192,121616,5,0,0:0:0:0:
192,192,121650,5,2,0:0:0:0:
256,192,121683,5,0,0:0:0:0:
320,192,121716,5,0,0:0:0:0:
192,192,121750,5,2,0:0:0:0:
256,192,121783,5,0,0:0:0:0:
320,192,121816,5,0,0:0:0:0:
192,192,121850,5,2,0:0:0:0:
256,192,121883,5,0,0:0:0:0:
320,192,121916,5,0,0:0:0:0:
192,192,121950,5,2,0:0:0:0:
256,192,121983,5,0,0:0:0:0:
320,192,122016,5,0,0:0:0:0:
192,192,122050,5,2,0:0:0:0:
256,192,122083,5,0,0:0:0:0:
320,192,122116,5,0,0:0:0:0:
192,192,122150,5,2,0:0:0:0:
256,192,122183,5,0,0:0:0:0:
320,192,122216,5,0,0:0:0:0:
192,192,122250,5,2,0:0:0:0:
256,192,122283,5,0,0:0:0:0:
320,192,122316,5,0,0:0:0:0:
192,192,122350,5,2,0:0:0:0:
256,192,122383,5,0,0:0:0:0:
320,192,122416,5,0,0:0:0:0:
192,192,122450,5,2,0:0:0:0:
256,192,122483,5,0,0:0:0:0:
320,192,122516,5,0,0:0:0:0:
192,192,122550,5,2,0:0:0:0:
256,192,122583,5,0,0:0:0:0:
320,192,122616,5,0,0:0:0:0:
192,192,122650,5,2,0:0:0:0:
256,192,122683,5,0,0:0:0:0:
320,192,122716,5,0,0:0:0:0:
192,192,122750,5,2,0:0:0:0:
256,192,122783,5,0,0:0:0:0:
320,192,122816,5,0,0:0:0:0:
192,192,122850,5,2,0:0:0:0:
256,192,122883,5,0,0:0:0:0:
320,192,122916,5,0,0:0:0:0:
192,192,122950,5,2,0:0:0:0:
256,192,122983,5,0,0:0:0:0:
320,192,123016,5,0,0:0:0:0:
192,192,123050,5,2,0:0:0:0:
256,192,123083,5,0,0:0:0:0:
320,192,123116,5,0,0:0:0:0:
192,192,123150,5,2,0:0:0:0:
256,192,123183,5,0,0:0:0:0:
320,192,123216,5,0,0:0:0:0:
192,192,123250,5,2,0:0:0:0:
256,192,123283,5,0,0:0:0:0:
320,192,123316,5,0,0:0:0:0:
192,192,123350,5,2,0:0:0:0:
256,192,123383,5,0,0:0:0:0:
320,192,123416,5,0,0:0:0:0:
192,192,123450,5,2,0:0:0:0:
256,192,123483,5,0,0:0:0:0:
320,192,123516,5,0,0:0:0:0:
192,192,123550,5,2,0:0:0:0:
256,192,123583,5,0,0:0:0:0:
320,192,123616,5,0,0:0:0:0:
192,192,123650,5,2,0:0:0:0:
256,192,123683,5,0,0:0:0:0:
320,192,123716,5,0,0:0:0:0:
192,192,123750,5,2,0:0:0:0:
256,192,123783,5,0,0:0:0:0:
320,192,123816,5,0,0:0:0:0:
192,192,123850,5,2,0:0:0:0:
256,192,123883,5,0,0:0:0:0:
320,192,123916,5,0,0:0:0:0:
192,192,123950,5,2,0:0:0:0:
256,192,123983,5,0,0:0:0:0:
320,192,124016,5,0,0:0:0:0:
192,192,124050,5,2,0:0:0:0:
256,192,124083,5,0,0:0:0:0:
320,192,124116,5,0,0:0:0:0:
192,192,124150,5,2,0:0:0:0:
256,192,124183,5,0,0:0:0:0:
320,192,124216,5,0,0:0:0:0:
192,192,124250,5,2,0:0:0:0:
256,192,124283,5,0,0:0:0:0:
320,192,124316,5,0,0:0:0:0:
192,192,124350,5,2,0:0:0:0:
256,192,124383,5,0,0:0:0:0:
320,192,124416,5,0,0:0:0:0:
192,192,124450,5,2,0:0:0:0:
256,192,124483,5,0,0:0:0:0:
320,192,124516,5,0,0:0:0:0:
192,192,124550,5,2,0:0:0:0:
256,192,124583,5,0,0:0:0:0:
320,192,124616,5,0,0:0:0:0:
192,192,124650,5,2,0:0:0:0:
256,192,124683,5,0,0:0:0:0:
320,192,124716,5,0,0:0:0:0:
192,192,124750,5,2,0:0:0:0:
256,192,124783,5,0,0:0:0:0:
320,192,124816,5,0,0:0:0:0:
192,192,124850,5,2,0:0:0:0:
256,192,124883,5,0,0:0:0:0:
320,192,124916,5,0,0:0:0:0:
192,192,124950,5,2,0:0:0:0:
256,192,124983,5,0,0:0:0:0:
320,192,125016,5,0,0:0:0:0:
192,192,125050,5,2,0:0:0:0:
256,192,125083,5,0,0:0:0:0:
320,192,125116,5,0,0:0:0:0:
192,192,125150,5,2,0:0:0:0:
256,192,125183,5,0,0:0:0:0:
320,192,125216,5,0,0:0:0:0:
192,192,125250,5,2,0:0:0:0:
256,192,125283,5,0,0:0:0:0:
320,192,125316,5,0,0:0:0:0:
192,192,125350,5,2,0:0:0:0:
256,192,125383,5,0,0:0:0:0:
320,192,125416,5,0,0:0:0:0:
192,192,125450,5,2,0:0:0:0:
256,192,125483,5,0,0:0:0:0:
320,192,125516,5,0,0:0:0:0:
192,192,125550,5,2,0:0:0:0:
256,192,125583,5,0,0:0:0:0:
320,192,125616,5,0,0:0:0:0:
192,192,125650,5,2,0:0:0:0:
256,192,125683,5,0,0:0:0:0:
320,192,125716,5,0,0:0:0:0:
192,192,125750,5,2,0:0:0:0:
256,192,125783,5,0,0:0:0:0:
320,192,125816,5,0,0:0:0:0:
192,192,125850,5,2,0:0:0:0:
256,192,125883,5,0,0:0:0:0:
320,192,125916,5,0,0:0:0:0:
192,192,125950,5,2,0:0:0:0:
256,192,125983,5,0,0:0:0:0:
320,192,126016,5,0,0:0:0:0:
192,192,126050,5,2,0:0:0:0:
256,192,126083,5,0,0:0:0:0:
320,192,126116,5,0,0:0:0:0:
192,192,126150,5,2,0:0:0:0:
256,192,126183,5,0,0:0:0:0:
320,192,126216,5,0,0:0:0:0:
192,192,126250,5,2,0:0:0:0:
256,192,126283,5,0,0:0:0:0:
320,192,126316,5,0,0:0:0:0:
192,192,126350,5,2,0:0:0:0:
256,192,126383,5,0,0:0:0:0:
320,192,126416,5,0,0:0:0:0:
192,192,126450,5,2,0:0:0:0:
256,192,126483,5,0,0:0:0:0:
320,192,126516,5,0,0:0:0:0:
192,192,126550,5,2,0:0:0:0:
256,192,126583,5,0,0:0:0:0:
320,192,126616,5,0,0:0:0:0:
192,192,126650,5,2,0:0:0:0:
256,192,126683,5,0,0:0:0:0:
320,192,126716,5,0,0:0:0:0:
192,192,126750,5,2,0:0:0:0:
256,192,126783,5,0,0:0:0:0:
320,192,126816,5,0,0:0:0:0:
192,192,126850,5,2,0:0:0:0:
256,192,126883,5,0,0:0:0:0:
320,192,126916,5,0,0:0:0:0:
192,192,126950,5,2,0:0:0:0:
256,192,126983,5,0,0:0:0:0:
320,192,127016,5,0,0:0:0:0:
192,192,127050,5,2,0:0:0:0:
256,192,127083,5,0,0:0:0:0:
320,192,127116,5,0,0:0:0:0:
192,192,127150,5,2,0:0:0:0:
256,192,127183,5,0,0:0:0:0:
320,192,127216,5,0,0:0:0:0:
192,192,127250,5,2,0:0:0:0:
256,192,127283,5,0,0:0:0:0:
320,192,127316,5,0,0:0:0:0:
192,192,127350,5,2,0:0:0:0:
256,192,127383,5,0,0:0:0:0:
320,192,127416,5,0,0:0:0:0:
192,192,127450,5,2,0:0:0:0:
256,192,127483,5,0,0:0:0:0:
320,192,127516,5,0,0:0:0:0:
192,192,127550,5,2,0:0:0:0:
256,192,127583,5,0,0:0:0:0:
320,192,127616,5,0,0:0:0:0:
192,192,127650,5,2,0:0:0:0:
256,192,127683,5,0,0:0:0:0:
320,192,127716,5,0,0:0:0:0:
192,192,127750,5,2,0:0:0:0:
256,192,127783,5,0,0:0:0:0:
320,192,127816,5,0,0:0:0:0:
192,192,127850,5,2,0:0:0:0:
256,192,127883,5,0,0:0:0:0:
320,192,127916,5,0,0:0:0:0:
192,192,127950,5,2,0:0:0:0:
256,192,127983,5,0,0:0:0:0:
320,192,128016,5,0,0:0:0:0:
192,192,128050,5,2,0:0:0:0:
256,192,128083,5,0,0:0:0:0:
320,192,128116,5,0,0:0:0:0:
192,192,128150,5,2,0:0:0:0:
256,192,128183,5,0,0:0:0:0:
320,192,128216,5,0,0:0:0:0:
192,192,128250,5,2,0:0:0:0:
256,192,128283,5,0,0:0:0:0:
320,192,128316,5,0,0:0:0:0:
192,192,128350,5,2,0:0:0:0:
256,192,128383,5,0,0:0:0:0:
320,192,128416,5,0,0:0:0:0:
192,192,128450,5,2,0:0:0:0:
256,192,128483,5,0,0:0:0:0:
320,192,128516,5,0,0:0:0:0:
192,192,128550,5,2,0:0:0:0:
256,192,128583,5,0,0:0:0:0:
320,192,128616,5,0,0:0:0:0:
192,192,128650,5,2,0:0:0:0:
256,192,128683,5,0,0:0:0:0:
320,192,128716,5,0,0:0:0:0:
192,192,128750,5,2,0:0:0:0:
256,192,128783,5,0,0:0:0:0:
320,192,128816,5,0,0:0:0:0:
192,192,128850,5,2,0:0:0:0:
256,192,128883,5,0,0:0:0:0:
320,192,128916,5,0,0:0:0:0:
192,192,128950,5,2,0:0:0:0:
256,192,128983,5,0,0:0:0:0:
320,192,129016,5,0,0:0:0:0:
192,192,129050,5,2,0:0:0:0:
256,192,129083,5,0,0:0:0:0:
320,192,129116,5,0,0:0:0:0:
192,192,129150,5,2,0:0:0:0:
256,192,129183,5,0,0:0:0:0:
320,192,129216,5,0,0:0:0:0:
192,192,129250,5,2,0:0:0:0:
256,192,129283,5,0,0:0:0:0:
320,192,129316,5,0,0:0:0:0:
192,192,129350,5,2,0:0:0:0:
256,192,129383,5,0,0:0:0:0:
320,192,129416,5,0,0:0:0:0:
192,192,129450,5,2,0:0:0:0:
256,192,129483,5,0,0:0:0:0:
320,192,129516,5,0,0:0:0:0:
192,192,129550,5,2,0:0:0:0:
256,192,129583,5,0,0:0:0:0:
320,192,129616,5,0,0:0:0:0:
192,192,129650,5,2,0:0:0:0:
256,192,129683,5,0,0:0:0:0:
320,192,129716,5,0,0:0:0:0:
192,192,129750,5,2,0:0:0:0:
256,192,129783,5,0,0:0:0:0:
320,192,129816,5,0,0:0:0:0:
192,192,129850,5,2,0:0:0:0:
256,192,129883,5,0,0:0:0:0:
320,192,129916,5,0,0:0:0:0:
192,192,129950,5,2,0:0:0:0:
256,192,129983,5,0,0:0:0:0:
320,192,130016,5,0,0:0:0:0:
192,192,130050,5,2,0:0:0:0:
256,192,130083,5,0,0:0:0:0:
320,192,130116,5,0,0:0:0:0:
