osu file format v14

[General]
AudioFilename: audio.mp3
AudioLeadIn: 0
PreviewTime: 179248
Countdown: 0
SampleSet: None
StackLeniency: 0.2
Mode: 0
LetterboxInBreaks: 0
WidescreenStoryboard: 0

[Editor]
Bookmarks: 37174,64146,76913,87992,115313,140694,140794,140894,140994,142488,155699,176087,192088,283288,286496,289715,292902,296104,299297,302611
DistanceSpacing: 0.5
BeatDivisor: 4
GridSize: 32
TimelineZoom: 3.099999

[Metadata]
Title:Embracing Erasion
TitleUnicode:Embracing Erasion
Artist:Hypermass
ArtistUnicode:Hypermass
Creator:EijiKuinbii
Version:Clouded Visions
Source:
Tags:Melodic Death Metal Caspar Nattu
BeatmapID:1946731
BeatmapSetID:932401

[Difficulty]
HPDrainRate:6
CircleSize:4
OverallDifficulty:9
ApproachRate:9.4
SliderMultiplier:1.8
SliderTickRate:1

[Events]
//Background and Video events
0,0,"anime =).png",0,0
//Break Periods
//Storyboard Layer 0 (Background)
//Storyboard Layer 1 (Fail)
//Storyboard Layer 2 (Pass)
//Storyboard Layer 3 (Foreground)
//Storyboard Sound Samples

[TimingPoints]
86,400,4,3,2,80,1,0
86,-66.6666666666667,4,3,2,80,0,0
413,400,4,3,2,80,1,0
413,-133.333333333333,4,3,2,80,0,0
913,-66.6666666666667,4,3,2,80,0,0
2013,-133.333333333333,4,3,2,80,0,0
2513,-66.6666666666667,4,3,2,80,0,0
3613,-100,4,3,2,80,0,0
4113,-66.6666666666667,4,3,2,80,0,0
4513,-133.333333333333,4,3,2,80,0,0
4913,-100,4,3,2,80,0,0
6513,-66.6666666666667,4,3,2,80,0,0
6813,-133.333333333333,4,3,2,80,0,0
7313,-66.6666666666667,4,3,2,80,0,0
8113,-100,4,3,2,80,0,0
8696,400,4,3,2,80,1,0
8896,-66.6666666666667,4,3,2,80,0,0
9296,-66.6666666666667,4,3,2,80,0,0
9996,-133.333333333333,4,3,2,80,0,0
10496,-66.6666666666667,4,3,2,80,0,0
10816,387.096774193548,4,3,2,80,1,0
11904,387.096774193548,4,3,2,80,1,0
12513,400,4,3,2,80,1,0
12513,-66.6666666666667,4,3,2,80,0,0
13213,-100,4,3,2,80,0,0
13713,-66.6666666666667,4,3,2,80,0,0
14813,-100,4,3,2,80,0,0
15313,-66.6666666666667,4,3,2,80,0,0
16413,-100,4,3,2,80,0,0
16913,-66.6666666666667,4,3,2,80,0,0
19613,-133.333333333333,4,3,2,80,0,0
20113,-66.6666666666667,4,3,2,80,0,0
21213,-133.333333333333,4,3,2,80,0,0
21713,-66.6666666666667,4,3,2,80,0,0
21991,400,4,3,2,80,1,0
21991,-66.6666666666667,4,3,2,80,0,0
24091,-100,4,3,2,80,0,0
24413,400,4,3,2,80,1,0
24904,400,4,3,2,80,1,0
25713,342.857142857143,4,3,2,80,1,0
25713,-50,4,3,2,80,0,0
26113,352.941176470588,4,3,2,80,1,0
26113,-50,4,3,2,80,0,0
26313,352.941176470588,4,3,2,80,1,0
26313,-50,4,3,2,80,0,0
26529,352.941176470588,4,3,2,80,1,0
26529,-50,4,3,2,80,0,0
26813,400,4,3,2,80,1,0
26813,-50,4,3,2,80,0,0
28136,400,4,3,2,80,1,0
28136,-50,4,3,2,80,0,0
28409,400,4,3,2,80,1,0
28409,-50,4,3,2,80,0,0
28537,333.333333333333,4,3,2,80,1,0
28537,-50,4,3,2,80,0,0
28726,324.324324324324,4,3,2,80,1,0
28726,-50,4,3,2,80,0,0
28923,400,4,3,2,80,1,0
28923,-50,4,3,2,80,0,0
29523,333.333333333333,4,3,2,80,1,0
29523,-50,4,3,2,80,0,0
29723,333.333333333333,4,3,2,80,1,0
29723,-50,4,3,2,80,0,0
29913,400,4,3,2,80,1,0
29913,-50,4,3,2,80,0,0
30513,375,4,3,2,80,1,0
30513,-50,4,3,2,80,0,0
30713,375,4,3,2,80,1,0
30713,-50,4,3,2,80,0,0
30913,375,4,3,2,80,1,0
30913,-50,4,3,2,80,0,0
31113,375,4,3,2,80,1,0
31113,-50,4,3,2,80,0,0
31313,375,4,3,2,80,1,0
31313,-50,4,3,2,80,0,0
31513,375,4,3,2,80,1,0
31513,-50,4,3,2,80,0,0
31713,400,4,3,2,80,1,0
31713,-50,4,3,2,80,0,0
31989,400,4,3,2,80,1,0
31989,-50,4,3,2,80,0,0
32112,400,4,3,2,80,1,0
32112,-50,4,3,2,80,0,0
32400,400,4,3,2,80,1,0
32400,-50,4,3,2,80,0,0
32513,333.333333333333,4,3,2,80,1,0
32513,-50,4,3,2,80,0,0
32713,324.324324324324,4,3,2,80,1,0
32713,-50,4,3,2,80,0,0
32913,324.324324324324,4,3,2,80,1,0
32913,-50,4,3,2,80,0,0
33318,400,4,3,2,80,1,0
33318,-50,4,3,2,80,0,0
34009,400,4,3,2,80,1,0
34009,-50,4,3,2,80,0,0
34130,333.333333333333,4,3,2,80,1,0
34130,-50,4,3,2,80,0,0
34323,333.333333333333,4,3,2,80,1,0
34323,-50,4,3,2,80,0,0
34527,333.333333333333,4,3,2,80,1,0
34527,-50,4,3,2,80,0,0
34798,400,4,3,2,80,1,0
34798,-50,4,3,2,80,0,0
34929,300,4,3,2,80,1,0
34929,-50,4,3,2,80,0,0
35110,285.714285714286,4,3,2,80,1,0
35110,-50,4,3,2,80,0,0
35306,400,4,3,2,80,1,0
35306,-50,4,3,2,80,0,0
35706,352.941176470588,4,3,2,80,1,0
35706,-50,4,3,2,80,0,0
35906,315.789473684211,4,3,2,80,1,0
35906,-50,4,3,2,80,0,0
36106,315.789473684211,4,3,2,80,1,0
36106,-50,4,3,2,80,0,0
36282,400,4,3,2,80,1,0
36374,400,4,3,2,80,1,0
36494,400,4,3,2,80,1,0
36494,-50,4,3,2,80,0,0
36774,400,4,3,2,80,1,0
36894,400,4,3,2,80,1,0
36894,-50,4,3,2,80,0,0
37313,400,4,3,2,80,1,0
38513,-50,4,3,2,70,0,0
45713,-50,4,3,2,70,0,0
45894,400,4,3,2,70,1,0
45894,-50,4,3,2,70,0,0
48903,400,4,3,2,80,1,0
49726,400,4,3,2,80,1,0
49726,-50,4,3,2,80,0,0
50292,400,4,3,2,80,1,0
50292,-50,4,3,2,80,0,0
50504,400,4,3,2,80,1,0
50913,400,4,3,2,80,1,0
50913,-76.9230769230769,4,3,2,80,0,0
51313,352.941176470588,4,3,2,80,1,0
51313,-50,4,3,2,80,0,0
51513,324.324324324324,4,3,2,80,1,0
51513,-50,4,3,2,80,0,0
51713,324.324324324324,4,3,2,80,1,0
51804,400,4,3,2,80,1,0
51804,-50,4,3,2,80,0,0
51913,300,4,3,2,80,1,0
51913,-50,4,3,2,80,0,0
52113,315.789473684211,4,3,2,80,1,0
52113,-50,4,3,2,80,0,0
52293,400,4,3,2,80,1,0
52293,-50,4,3,2,80,0,0
52493,352.941176470588,4,3,2,80,1,0
52493,-50,4,3,2,80,0,0
52693,333.333333333333,4,3,2,80,1,0
52693,-50,4,3,2,80,0,0
52884,400,4,3,2,80,1,0
52884,-50,4,3,2,80,0,0
54497,400,4,3,2,80,1,0
54497,-50,4,3,2,80,0,0
55097,413.793103448276,4,3,2,80,1,0
55097,-50,4,3,2,80,0,0
55497,387.096774193548,4,3,2,80,1,0
55497,-50,4,3,2,80,0,0
55697,363.636363636364,4,3,2,80,1,0
55697,-50,4,3,2,80,0,0
55897,352.941176470588,4,3,2,80,1,0
55897,-50,4,3,2,80,0,0
56097,352.941176470588,4,3,2,80,1,0
56097,-50,4,3,2,80,0,0
56389,400,4,3,2,80,1,0
56389,-50,4,3,2,80,0,0
56889,352.941176470588,4,3,2,80,1,0
56889,-50,4,3,2,80,0,0
57097,352.941176470588,4,3,2,80,1,0
57097,-50,4,3,2,80,0,0
57297,352.941176470588,4,3,2,80,1,0
57497,-100,4,3,2,80,0,0
57697,400,4,3,2,80,1,0
57697,-50,4,3,2,80,0,0
58313,400,4,3,2,80,1,0
58313,-50,4,3,2,80,0,0
58713,352.941176470588,4,3,2,80,1,0
58713,-50,4,3,2,80,0,0
58913,333.333333333333,4,3,2,80,1,0
58913,-50,4,3,2,80,0,0
59113,315.789473684211,4,3,2,80,1,0
59113,-50,4,3,2,80,0,0
59313,400,4,3,2,80,1,0
59313,-50,4,3,2,80,0,0
59593,400,4,3,2,80,1,0
59593,-50,4,3,2,80,0,0
59874,400,4,3,2,80,1,0
59874,-50,4,3,2,80,0,0
60764,400,4,3,2,80,1,0
60764,-50,4,3,2,80,0,0
60887,333.333333333333,4,3,2,80,1,0
60887,-50,4,3,2,80,0,0
61068,400,4,3,2,80,1,0
61068,-50,4,3,2,80,0,0
61289,285.714285714286,4,3,2,80,1,0
61289,-50,4,3,2,80,0,0
61493,279.06976744186,4,3,2,80,1,0
61493,-50,4,3,2,80,0,0
61702,272.727272727273,4,3,2,80,1,0
61702,-50,4,3,2,80,0,0
62068,400,4,3,2,80,1,0
62068,-50,4,3,2,80,0,0
63306,387.096774193548,4,3,2,80,1,0
63693,-100,4,3,2,80,0,0
64096,400,4,3,2,70,1,0
64096,-117.647058823529,4,3,2,70,0,0
64417,400,4,3,2,70,1,0
64417,-117.647058823529,4,3,2,70,0,0
64692,400,4,3,2,70,1,0
64692,-58.8235294117647,4,3,2,70,0,0
64897,400,4,3,2,70,1,0
64897,-142.857142857143,4,3,2,70,0,0
65495,400,4,3,2,70,1,0
65695,-117.647058823529,4,3,2,70,0,0
66316,400,4,3,2,70,1,0
66316,-58.8235294117647,4,3,2,70,0,0
66516,-142.857142857143,4,3,2,70,0,0
67316,-117.647058823529,4,3,2,70,0,0
67642,400,4,3,2,70,1,0
67642,-117.647058823529,4,3,2,70,0,0
67913,400,4,3,2,70,1,0
67913,-58.8235294117647,4,3,2,70,0,0
68113,-142.857142857143,4,3,2,70,0,0
68301,400,4,3,2,70,1,0
68501,-142.857142857143,4,3,2,70,0,0
68735,387.096774193548,4,3,2,70,1,0
68928,-58.8235294117647,4,3,2,70,0,0
69218,-58.8235294117647,4,3,2,70,0,0
69513,400,4,3,2,70,1,0
70513,-117.647058823529,4,3,2,70,0,0
71113,-58.8235294117647,4,3,2,70,0,0
71313,-142.857142857143,4,3,2,70,0,0
71886,400,4,3,2,70,1,0
72086,-117.647058823529,4,3,2,70,0,0
72440,400,4,3,2,70,1,0
72440,-117.647058823529,4,3,2,70,0,0
72740,-58.8235294117647,4,3,2,70,0,0
72940,-142.857142857143,4,3,2,70,0,0
73706,-117.647058823529,4,3,2,70,0,0
74015,400,4,3,2,70,1,0
74015,-117.647058823529,4,3,2,70,0,0
74313,-58.8235294117647,4,3,2,70,0,0
74513,-142.857142857143,4,3,2,70,0,0
74683,400,4,3,2,70,1,0
75283,-142.857142857143,4,3,2,70,0,0
75616,400,4,3,2,70,1,0
75616,-142.857142857143,4,3,2,70,0,0
76913,400,4,3,2,80,1,0
76913,-62.5,4,3,2,80,0,0
77313,-166.666666666667,4,3,2,80,0,0
77484,400,4,3,2,80,1,0
77484,-100,4,3,2,80,0,0
77867,400,4,3,2,80,1,0
78282,400,4,3,2,80,1,0
79282,-66.6666666666667,4,3,2,80,0,0
79466,400,4,3,2,80,1,0
79466,-66.6666666666667,4,3,2,80,0,0
79692,400,4,3,2,80,1,0
79692,-66.6666666666667,4,3,2,80,0,0
81680,400,4,3,2,80,1,0
82480,-66.6666666666667,4,3,2,80,0,0
83280,-50,4,3,2,80,0,0
83880,-83.3333333333333,4,3,2,80,0,0
84313,400,4,3,2,80,1,0
84313,-66.6666666666667,4,3,2,80,0,0
84680,400,4,3,2,80,1,0
84880,-66.6666666666667,4,3,2,80,0,0
85101,400,4,3,2,80,1,0
85475,400,4,3,2,80,1,0
85701,400,4,3,2,80,1,0
85889,400,4,3,2,80,1,0
86301,400,4,3,2,80,1,0
87092,400,4,3,2,80,1,0
87878,400,4,3,2,80,1,0
88494,400,4,3,2,80,1,0
89493,-133.333333333333,4,3,2,80,0,0
89693,-50,4,3,2,80,0,0
89975,400,4,3,2,80,1,0
90103,352.941176470588,4,3,2,80,1,0
90103,-50,4,3,2,80,0,0
90314,375,4,3,2,80,1,0
90314,-50,4,3,2,80,0,0
90513,375,4,3,2,80,1,0
90513,-50,4,3,2,80,0,0
90713,400,4,3,2,80,1,0
90713,-50,4,3,2,80,0,0
91204,400,4,3,2,80,1,0
91204,-50,4,3,2,80,0,0
91313,400,4,3,2,80,1,0
91313,-50,4,3,2,80,0,0
91600,400,4,3,2,80,1,0
91600,-50,4,3,2,80,0,0
91713,352.941176470588,4,3,2,80,1,0
91713,-50,4,3,2,80,0,0
91913,315.789473684211,4,3,2,80,1,0
91913,-50,4,3,2,80,0,0
92113,315.789473684211,4,3,2,80,1,0
92113,-50,4,3,2,80,0,0
92307,400,4,3,2,80,1,0
92307,-50,4,3,2,80,0,0
92405,400,4,3,2,80,1,0
92405,-50,4,3,2,80,0,0
92513,400,4,3,2,80,1,0
92513,-50,4,3,2,80,0,0
92806,400,4,3,2,80,1,0
92806,-50,4,3,2,80,0,0
92922,240,4,3,2,80,1,0
92922,-50,4,3,2,80,0,0
93113,285.714285714286,4,3,2,80,1,0
93113,-50,4,3,2,80,0,0
93313,300,4,3,2,80,1,0
93313,-50,4,3,2,80,0,0
93513,375,4,3,2,80,1,0
93513,-50,4,3,2,80,0,0
93713,400,4,3,2,80,1,0
93713,-50,4,3,2,80,0,0
93913,352.941176470588,4,3,2,80,1,0
93913,-50,4,3,2,80,0,0
94102,400,4,3,2,80,1,0
94102,-50,4,3,2,80,0,0
94195,400,4,3,2,80,1,0
94195,-50,4,3,2,80,0,0
94388,400,4,3,2,80,1,0
94388,-50,4,3,2,80,0,0
94513,-50,4,3,2,80,0,0
94786,400,4,3,2,80,1,0
94913,400,4,3,2,80,1,0
94913,-50,4,3,2,80,0,0
95201,400,4,3,2,80,1,0
95201,-50,4,3,2,80,0,0
95397,400,4,3,2,80,1,0
95397,-50,4,3,2,80,0,0
95520,300,4,3,2,80,1,0
95520,-50,4,3,2,80,0,0
95708,272.727272727273,4,3,2,80,1,0
95708,-50,4,3,2,80,0,0
95899,400,4,3,2,80,1,0
95992,400,4,3,2,80,1,0
95992,-100,4,3,2,80,0,0
96092,-50,4,3,2,80,0,0
96399,400,4,3,2,80,1,0
96513,352.941176470588,4,3,2,80,1,0
96513,-50,4,3,2,80,0,0
96719,333.333333333333,4,3,2,80,1,0
96719,-50,4,3,2,80,0,0
96913,315.789473684211,4,3,2,80,1,0
96913,-50,4,3,2,80,0,0
97113,315.789473684211,4,3,2,80,1,0
97198,315.789473684211,4,3,2,80,1,0
97198,-50,4,3,2,80,0,0
97329,400,4,3,2,80,1,0
97329,-50,4,3,2,80,0,0
97580,400,4,3,2,80,1,0
97580,-50,4,3,2,80,0,0
97985,400,4,3,2,80,1,0
98124,400,4,3,2,80,1,0
98324,-50,4,3,2,80,0,0
98607,400,4,3,2,80,1,0
98707,-50,4,3,2,80,0,0
98913,400,4,3,2,80,1,0
99006,400,4,3,2,80,1,0
99006,-100,4,3,2,80,0,0
99113,400,4,3,2,80,1,0
99113,-100,4,3,2,80,0,0
99313,333.333333333333,4,3,2,80,1,0
99313,-50,4,3,2,80,0,0
99518,352.941176470588,4,3,2,80,1,0
99518,-50,4,3,2,80,0,0
99713,315.789473684211,4,3,2,80,1,0
99713,-50,4,3,2,80,0,0
99913,315.789473684211,4,3,2,80,1,0
99913,-50,4,3,2,80,0,0
100108,400,4,3,2,80,1,0
100108,-50,4,3,2,80,0,0
100604,400,4,3,2,80,1,0
100604,-50,4,3,2,80,0,0
100801,400,4,3,2,80,1,0
100801,-50,4,3,2,80,0,0
100905,400,4,3,2,80,1,0
100905,-90.9090909090909,4,3,2,80,0,0
101495,400,4,3,2,80,1,0
101688,400,4,3,2,80,1,0
102534,315.789473684211,4,3,2,80,1,0
102534,-50,4,3,2,80,0,0
102727,315.789473684211,4,3,2,80,1,0
102727,-50,4,3,2,80,0,0
102905,400,4,3,2,80,1,0
103298,333.333333333333,4,3,2,80,1,0
103298,-50,4,3,2,80,0,0
103495,300,4,3,2,80,1,0
103495,-50,4,3,2,80,0,0
103678,375,4,3,2,80,1,0
103678,-50,4,3,2,80,0,0
103897,375,4,3,2,80,1,0
103897,-50,4,3,2,80,0,0
104081,400,4,3,2,80,1,0
104874,400,4,3,2,80,1,0
105885,315.789473684211,4,3,2,80,1,0
105885,-50,4,3,2,80,0,0
106082,400,4,3,2,80,1,0
106175,400,4,3,2,80,1,0
106298,352.941176470588,4,3,2,80,1,0
106298,-50,4,3,2,80,0,0
106498,300,4,3,2,80,1,0
106498,-50,4,3,2,80,0,0
106696,300,4,3,2,80,1,0
106696,-50,4,3,2,80,0,0
106898,300,4,3,2,80,1,0
106898,-50,4,3,2,80,0,0
107098,300,4,3,2,80,1,0
107098,-50,4,3,2,80,0,0
107265,400,4,3,2,80,1,0
107665,400,4,3,2,80,1,0
108483,400,4,3,2,80,1,0
108902,400,4,3,2,80,1,0
108904,285.714285714286,4,3,2,80,1,0
108904,-50,4,3,2,80,0,0
109090,352.941176470588,4,3,2,80,1,0
109090,-50,4,3,2,80,0,0
109280,400,4,3,2,80,1,0
109699,352.941176470588,4,3,2,80,1,0
109699,-50,4,3,2,80,0,0
109899,352.941176470588,4,3,2,80,1,0
109899,-50,4,3,2,80,0,0
110108,315.789473684211,4,3,2,80,1,0
110108,-50,4,3,2,80,0,0
110313,315.789473684211,4,3,2,80,1,0
110313,-50,4,3,2,80,0,0
110496,400,4,3,2,80,1,0
110887,400,4,3,2,80,1,0
111680,400,4,3,2,80,1,0
111964,400,4,3,2,80,1,0
112092,300,4,3,2,80,1,0
112092,-50,4,3,2,80,0,0
112298,300,4,3,2,80,1,0
112298,-50,4,3,2,80,0,0
112492,375,4,3,2,80,1,0
112492,-50,4,3,2,80,0,0
112713,333.333333333333,4,3,2,80,1,0
112713,-50,4,3,2,80,0,0
112888,400,4,3,2,80,1,0
113670,400,4,3,2,80,1,0
114488,400,4,3,2,80,1,0
114903,400,4,3,2,80,1,0
114903,-133.333333333333,4,3,2,80,0,0
115104,400,4,3,2,80,1,0
115104,-133.333333333333,4,3,2,80,0,0
115313,400,4,3,2,70,1,0
115313,-62.5,4,3,2,70,0,0
116404,400,4,3,2,70,1,0
117703,400,4,3,2,70,1,0
117703,-62.5,4,3,2,70,0,0
120309,400,4,3,2,70,1,0
120309,-62.5,4,3,2,70,0,0
121901,400,4,3,2,70,1,0
121901,-62.5,4,3,2,70,0,0
122102,400,4,3,2,70,1,0
122302,-62.5,4,3,2,70,0,0
122913,400,4,3,2,70,1,0
124113,-62.5,4,3,2,70,0,0
125706,400,4,3,2,70,1,0
126397,400,4,3,2,70,1,0
127323,400,4,3,2,70,1,0
127503,400,4,3,2,70,1,0
127503,-62.5,4,3,2,70,0,0
128113,400,4,3,2,70,1,0
128113,-45.4545454545455,4,3,2,70,0,0
128313,-55.5555555555556,4,3,2,70,0,0
128513,-71.4285714285714,4,3,2,70,0,0
128713,-142.857142857143,4,3,2,70,0,0
129113,-66.6666666666667,4,3,2,70,0,0
129493,400,4,3,2,70,1,0
129693,-66.6666666666667,4,3,2,70,0,0
130113,400,4,3,2,70,1,0
130113,-66.6666666666667,4,3,2,70,0,0
131513,400,4,3,2,70,1,0
132904,400,4,3,2,70,1,0
132904,-66.6666666666667,4,3,2,70,0,0
134294,400,4,3,2,70,1,0
134485,400,4,3,2,70,1,0
134485,-50,4,3,2,70,0,0
135085,-100,4,3,2,70,0,0
135498,400,4,3,2,70,1,0
135689,400,4,3,2,70,1,0
135689,-66.6666666666667,4,3,2,70,0,0
135872,400,4,3,2,70,1,0
136088,400,4,3,2,70,1,0
136088,-66.6666666666667,4,3,2,70,0,0
136476,400,4,3,2,70,1,0
136669,400,4,3,2,70,1,0
136669,-66.6666666666667,4,3,2,70,0,0
137062,400,4,3,2,70,1,0
137708,400,4,3,2,70,1,0
138308,-66.6666666666667,4,3,2,70,0,0
138780,400,4,3,2,70,1,0
139301,400,4,3,2,70,1,0
139694,400,4,3,2,70,1,0
142488,400,4,3,2,60,1,0
142488,-66.6666666666667,4,3,2,60,0,0
143101,400,4,3,2,60,1,0
143294,400,4,3,2,60,1,0
143482,400,4,3,2,60,1,0
143482,-66.6666666666667,4,3,2,60,0,0
143882,-133.333333333333,4,3,2,60,0,0
144082,-66.6666666666667,4,3,2,60,0,0
144290,400,4,3,2,60,1,0
144290,-66.6666666666667,4,3,2,60,0,0
144713,400,4,3,2,60,1,0
144713,-66.6666666666667,4,3,2,60,0,0
145109,400,4,3,2,60,1,0
145397,400,4,3,2,60,1,0
145477,400,4,3,2,60,1,0
145700,400,4,3,2,60,1,0
145700,-66.6666666666667,4,3,2,60,0,0
146097,400,4,3,2,60,1,0
146721,400,4,3,2,60,1,0
146721,-66.6666666666667,4,3,2,60,0,0
147521,-50,4,3,2,80,0,0
147704,400,4,3,2,80,1,0
147704,-50,4,3,2,80,0,0
147935,400,4,3,2,80,1,0
147935,-66.6666666666667,4,3,2,80,0,0
148304,400,4,3,2,80,1,0
150103,400,4,3,2,80,1,0
150103,-133.333333333333,4,3,2,80,0,0
150491,434.782608695652,4,3,2,80,1,0
150491,-83.3333333333333,4,3,2,80,0,0
150910,422.535211267606,4,3,2,80,1,0
150910,-83.3333333333333,4,3,2,80,0,0
151228,400,4,3,2,80,1,0
151311,400,4,3,2,80,1,0
151311,-83.3333333333333,4,3,2,80,0,0
152004,400,4,3,2,80,1,0
152127,400,4,3,2,80,1,0
152127,-83.3333333333333,4,3,2,80,0,0
152313,400,4,3,2,80,1,0
152423,400,4,3,2,80,1,0
152523,-83.3333333333333,4,3,2,80,0,0
152914,400,4,3,2,80,1,0
153005,400,4,3,2,80,1,0
153915,400,4,3,2,80,1,0
153915,-50,4,3,2,80,0,0
154103,400,4,3,2,80,1,0
154103,-50,4,3,2,80,0,0
154291,400,4,3,2,80,1,0
154291,-133.333333333333,4,3,2,80,0,0
154701,400,4,3,2,80,1,0
154792,400,4,3,2,80,1,0
155501,400,4,3,2,80,1,0
155699,400,4,3,2,60,1,0
155699,-66.6666666666667,4,3,2,60,0,0
156092,400,4,3,2,60,1,0
156302,400,4,3,2,60,1,0
156302,-66.6666666666667,4,3,2,60,0,0
157695,400,4,3,2,60,1,0
157695,-66.6666666666667,4,3,2,60,0,0
158108,400,4,3,2,60,1,0
158108,-66.6666666666667,4,3,2,60,0,0
158501,400,4,3,2,60,1,0
158917,400,4,3,2,60,1,0
159283,400,4,3,2,60,1,0
159500,400,4,3,2,60,1,0
159500,-66.6666666666667,4,3,2,60,0,0
160291,400,4,3,2,80,1,0
160291,-50,4,3,2,80,0,0
160477,400,4,3,2,80,1,0
160477,-50,4,3,2,80,0,0
160713,400,4,3,2,80,1,0
160713,-100,4,3,2,80,0,0
161099,400,4,3,2,80,1,0
161277,400,4,3,2,80,1,0
161463,400,4,3,2,80,1,0
162075,352.941176470588,4,3,2,80,1,0
162275,352.941176470588,4,3,2,80,1,0
162475,352.941176470588,4,3,2,80,1,0
162673,400,4,3,2,80,1,0
163294,400,4,3,2,80,1,0
163294,-66.6666666666667,4,3,2,80,0,0
164113,400,4,3,2,80,1,0
164113,-66.6666666666667,4,3,2,80,0,0
165691,400,4,3,2,80,1,0
165691,-66.6666666666667,4,3,2,80,0,0
168122,400,4,3,2,80,1,0
168122,-66.6666666666667,4,3,2,80,0,0
168693,400,4,3,2,80,1,0
168693,-66.6666666666667,4,3,2,80,0,0
169265,400,4,3,2,80,1,0
169465,-50,4,3,2,80,0,0
170282,333.333333333333,4,3,2,80,1,0
170282,-50,4,3,2,80,0,0
170483,333.333333333333,4,3,2,80,1,0
170575,400,4,3,2,80,1,0
170684,315.789473684211,4,3,2,80,1,0
170684,-50,4,3,2,80,0,0
170883,315.789473684211,4,3,2,80,1,0
170883,-50,4,3,2,80,0,0
171077,352.941176470588,4,3,2,80,1,0
171077,-50,4,3,2,80,0,0
171290,400,4,3,2,80,1,0
171290,-50,4,3,2,80,0,0
171903,352.941176470588,4,3,2,80,1,0
171903,-50,4,3,2,80,0,0
172114,333.333333333333,4,3,2,80,1,0
172114,-50,4,3,2,80,0,0
172290,400,4,3,2,80,1,0
172703,352.941176470588,4,3,2,80,1,0
172703,-133.333333333333,4,3,2,80,0,0
172899,400,4,3,2,80,1,0
172899,-50,4,3,2,80,0,0
173327,400,4,3,2,80,1,0
173327,-50,4,3,2,80,0,0
173518,400,4,3,2,80,1,0
173518,-50,4,3,2,80,0,0
174001,400,4,3,2,80,1,0
174113,300,4,3,2,80,1,0
174113,-50,4,3,2,80,0,0
174301,272.727272727273,4,3,2,80,1,0
174301,-50,4,3,2,80,0,0
174499,400,4,3,2,80,1,0
174499,-50,4,3,2,80,0,0
174780,400,4,3,2,80,1,0
174895,400,4,3,2,80,1,0
174895,-50,4,3,2,80,0,0
175088,400,4,3,2,80,1,0
175088,-50,4,3,2,80,0,0
176087,400,4,3,2,80,1,0
176087,-43.4782608695652,4,3,2,85,0,0
176390,400,4,3,2,85,1,0
176481,400,4,3,2,85,1,0
176698,315.789473684211,4,3,2,85,1,0
176698,-43.4782608695652,4,3,2,85,0,0
176899,400,4,3,2,85,1,0
176990,400,4,3,2,85,1,0
177316,352.941176470588,4,3,2,85,1,0
177316,-43.4782608695652,4,3,2,85,0,0
177505,400,4,3,2,85,1,0
177505,-43.4782608695652,4,3,2,85,0,0
177705,-43.4782608695652,4,3,2,80,0,0
178110,400,4,3,2,80,1,0
178110,-43.4782608695652,4,3,2,80,0,0
178948,400,4,3,2,80,1,0
178948,-133.333333333333,4,3,2,80,0,0
179339,285.714285714286,4,3,2,80,1,0
179339,-50,4,3,2,80,0,0
179539,240,4,3,2,80,1,0
179539,-50,4,3,2,80,0,0
179707,400,4,3,2,80,1,0
179707,-50,4,3,2,80,0,0
179928,272.727272727273,4,3,2,80,1,0
179928,-50,4,3,2,80,0,0
180124,260.869565217391,4,3,2,80,1,0
180124,-50,4,3,2,80,0,0
180300,352.941176470588,4,3,2,80,1,0
180300,-50,4,3,2,80,0,0
180493,400,4,3,2,80,1,0
180493,-50,4,3,2,80,0,0
180784,400,4,3,2,80,1,0
180784,-50,4,3,2,80,0,0
181301,352.941176470588,4,3,2,80,1,0
181301,-50,4,3,2,80,0,0
181501,333.333333333333,4,3,2,80,1,0
181501,-50,4,3,2,80,0,0
181685,400,4,3,2,80,1,0
181901,333.333333333333,4,3,2,80,1,0
181901,-50,4,3,2,80,0,0
182113,333.333333333333,4,3,2,80,1,0
182113,-50,4,3,2,80,0,0
182275,400,4,3,2,80,1,0
182487,400,4,3,2,80,1,0
182487,-50,4,3,2,80,0,0
182763,400,4,3,2,80,1,0
182878,375,4,3,2,80,1,0
182878,-50,4,3,2,80,0,0
183084,375,4,3,2,80,1,0
183084,-50,4,3,2,80,0,0
183273,400,4,3,2,80,1,0
183673,-50,4,3,2,80,0,0
183910,333.333333333333,4,3,2,80,1,0
183910,-50,4,3,2,80,0,0
184104,400,4,3,2,80,1,0
184104,-50,4,3,2,80,0,0
184377,400,4,3,2,80,1,0
184511,400,4,3,2,80,1,0
184511,-50,4,3,2,80,0,0
184790,400,4,3,2,80,1,0
184913,272.727272727273,4,3,2,80,1,0
184913,-50,4,3,2,80,0,0
185113,250,4,3,2,80,1,0
185113,-50,4,3,2,80,0,0
185301,333.333333333333,4,3,2,80,1,0
185301,-50,4,3,2,80,0,0
185487,333.333333333333,4,3,2,80,1,0
185487,-50,4,3,2,80,0,0
185698,400,4,3,2,80,1,0
185698,-50,4,3,2,80,0,0
185975,400,4,3,2,80,1,0
186100,342.857142857143,4,3,2,80,1,0
186100,-50,4,3,2,80,0,0
186291,375,4,3,2,80,1,0
186291,-50,4,3,2,80,0,0
186491,352.941176470588,4,3,2,80,1,0
186491,-50,4,3,2,80,0,0
186691,413.793103448276,4,3,2,80,1,0
186691,-50,4,3,2,80,0,0
186891,400,4,3,2,80,1,0
186891,-50,4,3,2,80,0,0
187314,300,4,3,2,80,1,0
187314,-50,4,3,2,80,0,0
187514,285.714285714286,4,3,2,80,1,0
187514,-50,4,3,2,80,0,0
187690,400,4,3,2,80,1,0
188113,315.789473684211,4,3,2,80,1,0
188113,-50,4,3,2,80,0,0
188313,260.869565217391,4,3,2,80,1,0
188313,-50,4,3,2,80,0,0
188475,400,4,3,2,80,1,0
188701,272.727272727273,4,3,2,80,1,0
188701,-50,4,3,2,80,0,0
188901,400,4,3,2,80,1,0
188901,-50,4,3,2,80,0,0
189174,400,4,3,2,80,1,0
189303,315.789473684211,4,3,2,80,1,0
189303,-50,4,3,2,80,0,0
189513,300,4,3,2,80,1,0
189513,-50,4,3,2,80,0,0
189697,400,4,3,2,80,1,0
189903,324.324324324324,4,3,2,80,1,0
189903,-50,4,3,2,80,0,0
190103,324.324324324324,4,3,2,80,1,0
190103,-50,4,3,2,80,0,0
190303,300,4,3,2,80,1,0
190303,-50,4,3,2,80,0,0
190495,400,4,3,2,80,1,0
191103,461.538461538462,4,3,2,80,1,0
191103,-50,4,3,2,80,0,0
191316,387.096774193548,4,3,2,80,1,0
191736,300,4,3,2,80,1,0
191736,-50,4,3,2,80,0,0
191912,400,4,3,2,80,1,0
191912,-50,4,3,2,80,0,0
192088,400,4,3,2,70,1,0
192874,400,4,3,2,70,1,0
192874,-66.6666666666667,4,3,2,70,0,0
193197,400,4,3,2,70,1,0
193318,400,4,3,2,70,1,0
193318,-66.6666666666667,4,3,2,70,0,0
193493,400,4,3,2,70,1,0
193493,-66.6666666666667,4,3,2,70,0,0
193704,400,4,3,2,70,1,0
194512,400,4,3,2,70,1,0
194512,-66.6666666666667,4,3,2,70,0,0
195100,400,4,3,2,70,1,0
195212,400,4,3,2,70,1,0
195712,-66.6666666666667,4,3,2,70,0,0
196095,400,4,3,2,70,1,0
196095,-66.6666666666667,4,3,2,70,0,0
196488,400,4,3,2,70,1,0
198491,400,4,3,2,70,1,0
198491,-66.6666666666667,4,3,2,70,0,0
198707,400,4,3,2,70,1,0
198707,-66.6666666666667,4,3,2,70,0,0
198898,400,4,3,2,70,1,0
199298,-66.6666666666667,4,3,2,70,0,0
199721,400,4,3,2,70,1,0
199721,-66.6666666666667,4,3,2,70,0,0
199907,400,4,3,2,70,1,0
199907,-66.6666666666667,4,3,2,70,0,0
200100,400,4,3,2,70,1,0
200896,400,4,3,2,70,1,0
200896,-66.6666666666667,4,3,2,70,0,0
201307,400,4,3,2,70,1,0
201307,-66.6666666666667,4,3,2,70,0,0
201498,400,4,3,2,70,1,0
201498,-66.6666666666667,4,3,2,70,0,0
201713,400,4,3,2,70,1,0
202513,-66.6666666666667,4,3,2,70,0,0
202891,400,4,3,2,70,1,0
202891,-66.6666666666667,4,3,2,70,0,0
203277,400,4,3,2,70,1,0
203277,-50,4,3,2,70,0,0
203610,400,4,3,2,70,1,0
203610,-50,4,3,2,70,0,0
204106,400,4,3,2,80,1,0
204899,400,4,3,2,80,1,0
204899,-62.5,4,3,2,80,0,0
205277,400,4,3,2,80,1,0
205277,-166.666666666667,4,3,2,80,0,0
205477,-66.6666666666667,4,3,2,80,0,0
205888,400,4,3,2,80,1,0
205888,-100,4,3,2,80,0,0
206278,400,4,3,2,80,1,0
206693,400,4,3,2,80,1,0
206913,400,4,3,2,80,1,0
207106,400,4,3,2,80,1,0
207306,-66.6666666666667,4,3,2,80,0,0
207483,400,4,3,2,80,1,0
207683,-66.6666666666667,4,3,2,80,0,0
208105,400,4,3,2,80,1,0
208105,-66.6666666666667,4,3,2,80,0,0
208293,400,4,3,2,80,1,0
208499,400,4,3,2,80,1,0
208499,-66.6666666666667,4,3,2,80,0,0
209687,400,4,3,2,80,1,0
210505,400,4,3,2,80,1,0
210505,-66.6666666666667,4,3,2,80,0,0
210915,400,4,3,2,80,1,0
211323,400,4,3,2,80,1,0
211323,-50,4,3,2,80,0,0
211543,400,4,3,2,80,1,0
211543,-50,4,3,2,80,0,0
211724,400,4,3,2,80,1,0
211724,-50,4,3,2,80,0,0
211924,-100,4,3,2,80,0,0
212310,400,4,3,2,80,1,0
212698,400,4,3,2,80,1,0
212921,400,4,3,2,80,1,0
212921,-66.6666666666667,4,3,2,80,0,0
213504,400,4,3,2,80,1,0
213504,-66.6666666666667,4,3,2,80,0,0
213873,400,4,3,2,80,1,0
214073,-66.6666666666667,4,3,2,80,0,0
214289,400,4,3,2,80,1,0
214489,-66.6666666666667,4,3,2,80,0,0
214875,400,4,3,2,80,1,0
215501,400,4,3,2,80,1,0
215894,400,4,3,2,80,1,0
215894,-66.6666666666667,4,3,2,80,0,0
216086,387.096774193548,4,3,2,80,1,0
216495,400,4,3,2,80,1,0
217695,-66.6666666666667,4,3,2,80,0,0
218022,400,4,3,2,80,1,0
218122,-66.6666666666667,4,3,2,80,0,0
218313,400,4,3,2,80,1,0
218313,-66.6666666666667,4,3,2,80,0,0
218523,400,4,3,2,80,1,0
218723,-66.6666666666667,4,3,2,80,0,0
220504,400,4,3,2,80,1,0
220504,-66.6666666666667,4,3,2,80,0,0
220717,400,4,3,2,80,1,0
220717,-66.6666666666667,4,3,2,80,0,0
222108,400,4,3,2,80,1,0
222108,-66.6666666666667,4,3,2,80,0,0
222931,400,4,3,2,80,1,0
222931,-66.6666666666667,4,3,2,80,0,0
223123,400,4,3,2,80,1,0
223123,-66.6666666666667,4,3,2,80,0,0
223309,382.165605095541,4,3,2,80,1,0
224089,400,4,3,2,80,1,0
224089,-66.6666666666667,4,3,2,80,0,0
224517,400,4,3,2,80,1,0
224517,-66.6666666666667,4,3,2,80,0,0
224708,400,4,3,2,80,1,0
224908,-66.6666666666667,4,3,2,80,0,0
225311,400,4,3,2,80,1,0
225311,-66.6666666666667,4,3,2,80,0,0
226123,400,4,3,2,80,1,0
226327,400,4,3,2,80,1,0
226327,-66.6666666666667,4,3,2,80,0,0
226538,400,4,3,2,80,1,0
226538,-66.6666666666667,4,3,2,80,0,0
226698,400,4,3,2,80,1,0
226898,-66.6666666666667,4,3,2,80,0,0
227283,400,4,3,2,80,1,0
228907,400,4,3,2,80,1,0
228907,-50,4,3,2,80,0,0
229490,400,4,3,2,80,1,0
229490,-50,4,3,2,80,0,0
231505,400,4,3,2,80,1,0
232091,400,4,3,2,80,1,0
232091,-66.6666666666667,4,3,2,80,0,0
232449,400,4,3,2,80,1,0
232449,-133.333333333333,4,3,2,80,0,0
232717,400,4,3,2,80,1,0
232917,-66.6666666666667,4,3,2,80,0,0
234017,-133.333333333333,4,3,2,80,0,0
234303,400,4,3,2,80,1,0
234511,400,4,3,2,80,1,0
234511,-66.6666666666667,4,3,2,80,0,0
234704,400,4,3,2,80,1,0
234890,400,4,3,2,80,1,0
234890,-66.6666666666667,4,3,2,80,0,0
235113,400,4,3,2,80,1,0
235298,400,4,3,2,80,1,0
235298,-66.6666666666667,4,3,2,80,0,0
235609,400,4,3,2,80,1,0
235609,-100,4,3,2,80,0,0
235892,400,4,3,2,80,1,0
236100,400,4,3,2,80,1,0
236100,-66.6666666666667,4,3,2,80,0,0
236488,400,4,3,2,80,1,0
236488,-133.333333333333,4,3,2,80,0,0
236711,400,4,3,2,80,1,0
236892,400,4,3,2,80,1,0
236892,-100,4,3,2,80,0,0
237208,400,4,3,2,80,1,0
237504,400,4,3,2,80,1,0
238311,400,4,3,2,80,1,0
238511,-66.6666666666667,4,3,2,80,0,0
238833,400,4,3,2,80,1,0
238833,-133.333333333333,4,3,2,80,0,0
239106,400,4,3,2,80,1,0
239309,400,4,3,2,80,1,0
239309,-66.6666666666667,4,3,2,80,0,0
239697,400,4,3,2,80,1,0
239697,-66.6666666666667,4,3,2,80,0,0
239913,400,4,3,2,80,1,0
240104,400,4,3,2,80,1,0
240104,-100,4,3,2,80,0,0
240422,400,4,3,2,80,1,0
240708,400,4,3,2,80,1,0
240919,400,4,3,2,80,1,0
240919,-66.6666666666667,4,3,2,80,0,0
241300,400,4,3,2,80,1,0
241300,-66.6666666666667,4,3,2,80,0,0
241530,400,4,3,2,80,1,0
241712,400,4,3,2,80,1,0
241712,-66.6666666666667,4,3,2,80,0,0
242012,-133.333333333333,4,3,2,80,0,0
242293,400,4,3,2,80,1,0
242499,400,4,3,2,80,1,0
242499,-66.6666666666667,4,3,2,80,0,0
242790,400,4,3,2,80,1,0
243283,400,4,3,2,80,1,0
243364,400,4,3,2,80,1,0
243480,400,4,3,2,80,1,0
243898,400,4,3,2,80,1,0
243976,400,4,3,2,80,1,0
244562,400,4,3,2,80,1,0
244676,400,4,3,2,80,1,0
245056,400,4,3,2,80,1,0
245213,400,4,3,2,80,1,0
245495,400,4,3,2,80,1,0
245698,400,4,3,2,80,1,0
245904,375,4,3,2,80,1,0
246085,400,4,3,2,80,1,0
246313,400,4,3,2,80,1,0
246506,400,4,3,2,80,1,0
246506,-66.6666666666667,4,3,2,80,0,0
246797,400,4,3,2,80,1,0
246797,-66.6666666666667,4,3,2,80,0,0
247090,400,4,3,2,80,1,0
247090,-66.6666666666667,4,3,2,80,0,0
247311,400,4,3,2,80,1,0
247531,400,4,3,2,80,1,0
247927,400,4,3,2,80,1,0
248703,400,4,3,2,80,1,0
248923,400,4,3,2,80,1,0
249104,400,4,3,2,80,1,0
249509,400,4,3,2,80,1,0
249709,-66.6666666666667,4,3,2,80,0,0
250037,400,4,3,2,80,1,0
250323,387.096774193548,4,3,2,80,1,0
251301,400,4,3,2,80,1,0
251301,-66.6666666666667,4,3,2,80,0,0
251619,400,4,3,2,80,1,0
251919,-66.6666666666667,4,3,2,80,0,0
252312,400,4,3,2,80,1,0
252912,-66.6666666666667,4,3,2,80,0,0
253193,400,4,3,2,80,1,0
253193,-66.6666666666667,4,3,2,80,0,0
253504,400,4,3,2,80,1,0
253720,400,4,3,2,80,1,0
253720,-66.6666666666667,4,3,2,80,0,0
253906,400,4,3,2,80,1,0
254323,400,4,3,2,80,1,0
255914,400,4,3,2,80,1,0
255914,-66.6666666666667,4,3,2,80,0,0
256092,400,4,3,2,80,1,0
256492,-66.6666666666667,4,3,2,80,0,0
256880,400,4,3,2,80,1,0
257680,-66.6666666666667,4,3,2,80,0,0
258033,400,4,3,2,80,1,0
258115,400,4,3,2,80,1,0
258115,-66.6666666666667,4,3,2,80,0,0
258501,400,4,3,2,80,1,0
258501,-66.6666666666667,4,3,2,80,0,0
258699,400,4,3,2,80,1,0
259098,400,4,3,2,80,1,0
259298,-66.6666666666667,4,3,2,80,0,0
259881,400,4,3,2,80,1,0
259881,-133.333333333333,4,3,2,80,0,0
260097,400,4,3,2,80,1,0
260097,-66.6666666666667,4,3,2,80,0,0
260288,400,4,3,2,80,1,0
260704,400,4,3,2,80,1,0
261104,-66.6666666666667,4,3,2,80,0,0
261295,400,4,3,2,80,1,0
261695,400,4,3,2,80,1,0
261695,-66.6666666666667,4,3,2,80,0,0
261896,400,4,3,2,80,1,0
262332,400,4,3,2,80,1,0
262513,400,4,3,2,80,1,0
262513,-66.6666666666667,4,3,2,80,0,0
263694,400,4,3,2,80,1,0
264100,400,4,3,2,80,1,0
264100,-66.6666666666667,4,3,2,80,0,0
264433,400,4,3,2,80,1,0
264433,-66.6666666666667,4,3,2,80,0,0
264713,400,4,3,2,80,1,0
264713,-50,4,3,2,80,0,0
264913,-100,4,3,2,80,0,0
265136,400,4,3,2,80,1,0
265317,400,4,3,2,80,1,0
265526,375,4,3,2,80,1,0
265704,400,4,3,2,80,1,0
265704,-66.6666666666667,4,3,2,80,0,0
266304,-50,4,3,2,80,0,0
266504,-100,4,3,2,80,0,0
266723,400,4,3,2,80,1,0
267323,-66.6666666666667,4,3,2,80,0,0
267609,400,4,3,2,80,1,0
267609,-66.6666666666667,4,3,2,80,0,0
267909,400,4,3,2,80,1,0
267909,-50,4,3,2,80,0,0
268109,-100,4,3,2,80,0,0
269600,400,4,3,2,80,1,0
270102,400,4,3,2,80,1,0
270102,-66.6666666666667,4,3,2,80,0,0
270495,400,4,3,2,80,1,0
270884,400,4,3,2,80,1,0
270884,-66.6666666666667,4,3,2,80,0,0
271077,400,4,3,2,80,1,0
271277,-66.6666666666667,4,3,2,80,0,0
271490,400,4,3,2,80,1,0
271490,-66.6666666666667,4,3,2,80,0,0
271687,400,4,3,2,80,1,0
271887,400,4,3,2,80,1,0
271887,-66.6666666666667,4,3,2,80,0,0
272398,400,4,3,2,80,1,0
272514,400,4,3,2,80,1,0
272514,-66.6666666666667,4,3,2,80,0,0
272714,-50,4,3,2,80,0,0
273714,-66.6666666666667,4,3,2,80,0,0
273937,400,4,3,2,80,1,0
273937,-66.6666666666667,4,3,2,80,0,0
274113,400,4,3,2,80,1,0
274513,-66.6666666666667,4,3,2,80,0,0
276113,-50,4,3,2,80,0,0
276513,-66.6666666666667,4,3,2,80,0,0
279501,400,4,3,2,80,1,0
279501,-66.6666666666667,4,3,2,80,0,0
280113,400,4,3,2,80,1,0
280113,-66.6666666666667,4,3,2,80,0,0
281708,392.156862745098,4,3,2,80,1,0
282884,375,4,3,2,80,1,0
282884,-66.6666666666667,4,3,2,80,0,0
283080,375,4,3,2,80,1,0
283080,-66.6666666666667,4,3,2,75,0,0
283276,400,4,3,2,75,1,0
283676,-66.6666666666667,4,3,2,75,0,0
284271,400,4,3,2,75,1,0
284271,-66.6666666666667,4,3,2,75,0,0
284487,400,4,3,2,75,1,0
284687,-66.6666666666667,4,3,2,75,0,0
284913,400,4,3,2,75,1,0
284913,-66.6666666666667,4,3,2,75,0,0
285501,400,4,3,2,75,1,0
285501,-66.6666666666667,4,3,2,75,0,0
286092,400,4,3,2,75,1,0
286092,-66.6666666666667,4,3,2,75,0,0
286308,400,4,3,2,75,1,0
286308,-66.6666666666667,4,3,2,75,0,0
286496,400,4,3,2,70,1,0
286496,-66.6666666666667,4,3,2,70,0,0
287884,400,4,3,2,70,1,0
287884,-66.6666666666667,4,3,2,70,0,0
288097,400,4,3,2,70,1,0
289715,400,4,3,2,65,1,0
289715,-66.6666666666667,4,3,2,65,0,0
290506,400,4,3,2,65,1,0
290506,-66.6666666666667,4,3,2,65,0,0
292094,400,4,3,2,65,1,0
292494,-66.6666666666667,4,3,2,65,0,0
292702,400,4,3,2,65,1,0
292702,-66.6666666666667,4,3,2,65,0,0
292902,-66.6666666666667,4,3,2,60,0,0
293315,400,4,3,2,60,1,0
293315,-66.6666666666667,4,3,2,60,0,0
293521,400,4,3,2,60,1,0
293521,-66.6666666666667,4,3,2,60,0,0
293699,400,4,3,2,60,1,0
293699,-66.6666666666667,4,3,2,60,0,0
296104,-66.6666666666667,4,3,2,55,0,0
296714,400,4,3,2,55,1,0
296714,-66.6666666666667,4,3,2,55,0,0
297005,400,4,3,2,55,1,0
297098,400,4,3,2,55,1,0
297098,-66.6666666666667,4,3,2,55,0,0
297716,400,4,3,2,55,1,0
297716,-66.6666666666667,4,3,2,55,0,0
298007,400,4,3,2,55,1,0
298118,400,4,3,2,55,1,0
298118,-66.6666666666667,4,3,2,55,0,0
298311,400,4,3,2,55,1,0
298311,-66.6666666666667,4,3,2,55,0,0
298505,400,4,3,2,55,1,0
298898,400,4,3,2,55,1,0
298898,-66.6666666666667,4,3,2,55,0,0
299104,400,4,3,2,55,1,0
299104,-66.6666666666667,4,3,2,55,0,0
299297,400,4,3,2,55,1,0
299297,-66.6666666666667,4,3,2,50,0,0
299500,400,4,3,2,50,1,0
299500,-66.6666666666667,4,3,2,50,0,0
299713,400,4,3,2,50,1,0
299713,-66.6666666666667,4,3,2,50,0,0
299901,400,4,3,2,50,1,0
300701,-66.6666666666667,4,3,2,50,0,0
300903,400,4,3,2,50,1,0
300903,-66.6666666666667,4,3,2,50,0,0
301294,400,4,3,2,50,1,0
301294,-66.6666666666667,4,3,2,50,0,0
301720,400,4,3,2,50,1,0
301720,-66.6666666666667,4,3,2,50,0,0
301911,400,4,3,2,50,1,0
301911,-66.6666666666667,4,3,2,50,0,0
302611,-66.6666666666667,4,3,2,45,0,0
305711,-100,4,3,2,40,0,0
306311,-100,4,3,2,35,0,0
307311,-100,4,3,2,30,0,0
307911,-100,4,3,2,25,0,0
308311,-100,4,3,2,20,0,0
308511,-100,4,3,2,15,0,0
308711,-100,4,3,2,10,0,0
308911,-100,4,3,2,5,0,0

[Colours]
Combo1 : 123,123,183
Combo2 : 242,164,164
Combo3 : 206,181,221
Combo4 : 201,107,123

[HitObjects]
430,294,86,6,0,P|467:235|469:152,1,135.000005149842,4|0,1:2|0:0,0:0:0:0:
479,80,413,6,0,L|389:106,1,67.5000025749208,4|0,1:0|0:0,0:0:0:0:
339,118,713,1,4,1:0:0:0:
190,43,913,6,0,P|251:52|288:93,1,67.5000025749208,8|0,0:0|0:0,0:0:0:0:
159,139,1113,1,0,1:0:0:0:
171,134,1213,1,0,1:0:0:0:
182,134,1313,2,0,P|219:182|217:238,1,67.5000025749208,8|0,0:0|0:0,0:0:0:0:
66,174,1513,1,0,1:0:0:0:
94,191,1613,1,0,1:0:0:0:
115,217,1713,2,0,P|108:278|56:334,1,135.000005149842,8|0,0:0|0:0,0:0:0:0:
50,335,2013,6,0,P|11:312|22:266,1,67.5000025749208,4|0,1:1|0:0,0:0:0:0:
66,174,2313,1,4,1:0:0:0:
222,284,2513,6,0,L|320:264,1,67.5000025749208,8|0,0:0|0:0,0:0:0:0:
462,320,2713,1,0,1:0:0:0:
445,325,2813,1,0,1:0:0:0:
432,326,2913,2,0,L|334:306,1,67.5000025749208,8|0,0:0|0:0,0:0:0:0:
340,168,3113,1,0,1:0:0:0:
350,121,3213,1,0,1:0:0:0:
366,77,3313,2,0,P|346:173|345:260,1,135.000005149842,8|0,0:0|0:0,0:0:0:0:
314,353,3613,6,0,P|339:292|395:296,1,90,4|0,1:0|0:0,0:0:0:0:
462,320,3913,1,4,1:0:0:0:
504,152,4113,6,0,B|518:183|518:183|394:163,1,135.000005149842,8|0,0:0|1:0,0:0:0:0:
166,95,4413,1,0,1:0:0:0:
175,83,4513,2,0,L|185:137,1,33.7500012874604,8|0,0:0|0:0,0:0:0:0:
158,292,4713,1,0,1:0:0:0:
197,302,4813,1,0,1:0:0:0:
230,279,4913,2,0,L|213:190,1,90,8|0,0:0|0:0,0:0:0:0:
94,131,5213,1,0,1:0:0:0:
94,131,5313,1,0,1:0:0:0:
328,27,5513,5,0,1:0:0:0:
318,98,5613,1,0,1:0:0:0:
308,169,5713,1,8,0:0:0:0:
406,65,5913,1,0,1:0:0:0:
408,82,6013,1,0,1:0:0:0:
411,100,6113,1,8,0:0:0:0:
328,27,6313,5,8,0:0:0:0:
318,98,6413,1,8,0:0:0:0:
307,168,6513,2,0,P|363:169|420:233,1,135.000005149842,4|0,1:2|0:0,0:0:0:0:
421,302,6813,6,0,L|328:289,1,67.5000025749208,4|0,1:0|0:0,0:0:0:0:
277,278,7113,1,4,1:0:0:0:
16,309,7313,6,0,L|-5:218,1,67.5000025749208,8|0,0:0|0:0,0:0:0:0:
102,309,7513,1,0,1:0:0:0:
97,289,7613,1,0,1:0:0:0:
91,269,7713,2,0,L|70:178,1,67.5000025749208,8|0,0:0|0:0,0:0:0:0:
194,319,7913,5,0,1:0:0:0:
181,273,8013,1,0,1:0:0:0:
170,226,8113,2,0,L|149:135,1,90,8|0,0:0|0:0,0:0:0:0:
128,66,8413,1,4,1:0:0:0:
4,86,8696,2,0,L|48:79,1,45,4|0,1:0|0:0,0:0:0:0:
211,29,8896,6,0,P|257:89|326:94,1,135.000005149842,8|0,0:0|1:0,0:0:0:0:
453,58,9196,1,0,1:0:0:0:
437,55,9296,2,0,P|399:90|408:133,1,67.5000025749208,8|0,0:0|0:0,0:0:0:0:
313,227,9496,1,0,1:0:0:0:
330,271,9596,1,0,1:0:0:0:
357,309,9696,2,0,P|319:218|327:150,1,135.000005149842,8|0,0:0|0:0,0:0:0:0:
370,5,9996,6,0,P|318:9|294:29,1,67.5000025749208,4|0,1:0|0:0,0:0:0:0:
312,97,10296,1,4,1:0:0:0:
98,236,10496,6,0,L|232:222,1,135.000005149842,8|0,0:0|1:0,0:0:0:0:
472,225,10816,1,0,1:0:0:0:
487,238,10913,5,8,0:0:0:0:
507,204,11009,1,0,1:0:0:0:
496,166,11106,1,0,1:0:0:0:
460,148,11203,1,0,1:0:0:0:
368,139,11300,5,8,0:0:0:0:
380,191,11396,1,8,0:0:0:0:
392,244,11493,5,2,1:3:0:0:
360,268,11590,1,2,1:3:0:0:
321,276,11687,1,2,1:3:0:0:
282,266,11783,1,2,1:3:0:0:
205,255,11904,5,8,0:0:0:0:
217,203,12000,1,8,0:0:0:0:
229,150,12097,5,2,1:3:0:0:
197,125,12194,1,2,1:3:0:0:
158,117,12291,1,2,1:3:0:0:
119,127,12387,1,2,1:3:0:0:
62,204,12513,5,8,0:0:0:0:
35,165,12613,1,8,0:0:0:0:
28,138,12713,1,8,0:0:0:0:
29,120,12813,1,8,0:0:0:0:
41,103,12913,6,0,L|20:265,1,135.000005149842,4|0,1:2|0:0,0:0:0:0:
2,337,13213,2,0,P|48:310|97:315,1,90,4|0,1:0|0:0,0:0:0:0:
143,360,13513,1,4,1:0:0:0:
372,226,13713,6,0,P|336:306|288:324,1,135.000005149842,8|0,0:0|1:0,0:0:0:0:
180,235,14013,1,0,1:0:0:0:
196,244,14113,2,0,P|266:247|282:235,1,67.5000025749208,8|0,0:0|0:0,0:0:0:0:
264,124,14313,1,0,1:0:0:0:
263,76,14413,1,0,1:0:0:0:
236,36,14513,2,0,P|225:116|255:206,1,135.000005149842,8|0,0:0|0:0,0:0:0:0:
296,322,14813,6,0,P|290:271|228:251,1,90,4|0,1:0|0:0,0:0:0:0:
98,240,15113,1,4,1:0:0:0:
236,168,15313,6,0,P|332:191|343:204,1,67.5000025749208,8|0,0:0|0:0,0:0:0:0:
425,309,15513,1,0,1:0:0:0:
406,306,15613,1,0,1:0:0:0:
392,298,15713,2,0,P|363:203|369:187,1,67.5000025749208,8|0,0:0|0:0,0:0:0:0:
380,76,15913,1,0,1:0:0:0:
396,38,16013,1,0,1:0:0:0:
380,0,16113,2,0,P|388:72|370:136,1,135.000005149842,8|0,0:0|0:0,0:0:0:0:
282,248,16413,6,0,P|260:302|267:337,1,90,4|0,1:0|0:0,0:0:0:0:
331,384,16713,1,4,1:0:0:0:
331,384,16913,6,0,P|251:337|204:350,1,135.000005149842,8|0,0:0|1:0,0:0:0:0:
67,366,17213,1,0,1:0:0:0:
73,377,17313,2,0,L|62:310,1,67.5000025749208,8|0,0:0|0:0,0:0:0:0:
100,136,17513,5,0,1:0:0:0:
57,115,17613,1,0,1:0:0:0:
14,135,17713,2,0,P|107:150|188:78,1,202.500007724762,8|4,0:0|1:0,0:0:0:0:
112,49,18113,1,0,0:0:0:0:
321,14,18313,5,0,1:0:0:0:
307,87,18413,1,0,1:0:0:0:
293,160,18513,1,8,0:0:0:0:
510,240,18713,5,0,1:0:0:0:
506,221,18813,1,0,1:0:0:0:
508,188,18913,5,8,0:0:0:0:
471,235,19013,1,8,0:0:0:0:
419,267,19113,1,8,0:0:0:0:
358,269,19213,1,8,0:0:0:0:
300,215,19313,6,0,P|308:280|210:320,1,135.000005149842,4|0,1:2|0:0,0:0:0:0:
168,349,19613,2,0,L|177:260,1,67.5000025749208,4|0,1:0|0:0,0:0:0:0:
189,198,19913,1,4,1:0:0:0:
8,96,20113,6,0,B|79:107|79:107|85:114|85:114|191:132,1,135.000005149842,8|0,0:0|1:0,0:0:0:0:
283,195,20413,1,0,1:0:0:0:
288,186,20513,2,0,L|275:114,1,67.5000025749208,8|0,0:0|0:0,0:0:0:0:
348,324,20713,1,0,1:0:0:0:
356,277,20813,1,0,1:0:0:0:
366,230,20913,2,0,L|392:86,1,135.000005149842,8|0,0:0|0:0,0:0:0:0:
392,8,21213,6,0,P|444:37|455:70,1,67.5000025749208,4|0,1:0|0:0,0:0:0:0:
481,124,21513,1,4,1:0:0:0:
512,350,21713,6,0,P|419:325|406:267,1,135.000005149842,8|0,0:0|1:0,0:0:0:0:
393,151,21991,1,0,1:0:0:0:
405,147,22091,2,0,L|386:235,1,67.5000025749208,8|0,0:0|0:0,0:0:0:0:
330,356,22291,2,0,L|311:268,1,67.5000025749208,8|0,0:0|0:0,0:0:0:0:
185,131,22491,5,4,1:2:0:0:
146,123,22591,1,0,0:0:0:0:
109,139,22691,1,0,0:0:0:0:
87,172,22791,1,0,0:0:0:0:
67,168,22891,5,8,0:0:0:0:
72,194,22991,1,0,0:0:0:0:
78,220,23091,1,0,0:0:0:0:
83,247,23191,1,0,0:0:0:0:
43,275,23291,5,8,0:0:0:0:
95,266,23391,1,0,0:0:0:0:
147,280,23491,1,0,0:0:0:0:
188,314,23591,1,0,0:0:0:0:
257,358,23691,5,8,0:0:0:0:
271,292,23791,1,0,0:0:0:0:
316,231,23891,1,0,0:0:0:0:
330,165,23991,1,0,0:0:0:0:
285,107,24091,6,0,L|303:232,1,90,4|0,1:0|0:0,0:0:0:0:
213,64,24413,1,4,1:0:0:0:
207,69,24513,2,0,L|198:131,1,45
180,190,24713,1,4,1:0:0:0:
145,7,24904,2,0,L|109:59,1,45,0|0,1:0|0:0,0:0:0:0:
8,173,25104,5,0,1:0:0:0:
13,158,25170,1,0,1:0:0:0:
18,143,25237,1,0,1:0:0:0:
46,137,25304,6,0,L|26:21,1,90,8|0,0:0|0:0,0:0:0:0:
144,7,25713,6,0,L|125:115,1,90,4|8,1:2|0:0,0:0:0:0:
79,244,25913,1,0,1:0:0:0:
79,244,26013,1,8,0:0:0:0:
125,309,26113,2,0,P|185:287|201:249,1,90,0|8,1:0|0:0,0:0:0:0:
294,305,26313,2,0,P|298:241|270:211,1,90,0|8,1:0|0:0,0:0:0:0:
334,14,26529,6,0,P|317:111|214:122,1,180,0|0,1:0|1:0,0:0:0:0:
130,88,26813,1,8,0:0:0:0:
146,167,26913,2,0,L|160:272,1,90,0|8,1:0|0:0,0:0:0:0:
429,254,27113,1,0,1:0:0:0:
375,314,27213,1,8,0:0:0:0:
294,305,27313,6,0,L|305:215,1,90,0|8,1:0|0:0,0:0:0:0:
402,36,27513,1,0,1:0:0:0:
326,54,27613,1,8,0:0:0:0:
413,37,27713,2,0,P|471:126|457:170,1,90,0|8,1:0|0:0,0:0:0:0:
512,320,27913,2,0,L|423:336,1,90,0|8,1:0|0:0,0:0:0:0:
328,378,28136,6,0,P|319:277|203:232,1,180,0|0,1:0|1:0,0:0:0:0:
63,288,28409,1,8,0:0:0:0:
75,297,28537,2,0,L|89:189,1,90,0|8,1:0|0:0,0:0:0:0:
154,333,28726,2,0,L|168:225,1,90,0|8,1:0|0:0,0:0:0:0:
88,38,28923,6,0,P|116:135|238:157,1,180,0|0,1:0|1:0,0:0:0:0:
377,83,29223,1,8,0:0:0:0:
303,62,29323,2,0,P|297:118|359:151,1,90,0|8,1:0|0:0,0:0:0:0:
440,40,29523,2,0,P|463:77|452:121,1,90,0|8,1:0|0:0,0:0:0:0:
312,228,29723,6,0,L|185:203,1,90,0|8,1:0|0:0,0:0:0:0:
16,303,29913,1,0,1:0:0:0:
9,325,30013,1,8,0:0:0:0:
83,334,30113,2,0,P|139:286|125:187,1,180,0|0,1:0|1:0,0:0:0:0:
43,22,30413,1,8,0:0:0:0:
4,88,30513,6,0,L|140:75,1,90,0|8,1:0|0:0,0:0:0:0:
9,166,30713,2,0,L|145:153,1,90,0|8,1:0|0:0,0:0:0:0:
321,35,30913,2,0,L|264:159,1,90,0|8,1:0|0:0,0:0:0:0:
250,0,31113,2,0,L|193:124,1,90,0|8,1:0|0:0,0:0:0:0:
208,337,31313,2,0,L|128:225,1,90,0|8,1:0|0:0,0:0:0:0:
273,293,31513,2,0,L|193:181,1,90,0|8,1:0|0:0,0:0:0:0:
354,348,31713,6,0,P|372:244|449:193,1,180,0|0,1:0|1:0,0:0:0:0:
506,356,31989,1,8,0:0:0:0:
468,280,32112,6,0,L|486:86,1,180,4|0,1:2|1:0,0:0:0:0:
235,69,32400,1,8,0:0:0:0:
226,80,32513,2,0,P|261:124|305:127,1,90,0|8,1:0|0:0,0:0:0:0:
153,125,32713,2,0,P|168:178|208:198,1,90,0|8,1:0|0:0,0:0:0:0:
363,31,32913,2,0,L|373:120,1,90,0|8,1:0|0:0,0:0:0:0:
242,348,33115,2,0,L|252:258,1,90,0|8,1:0|0:0,0:0:0:0:
476,201,33318,2,0,P|358:215|329:274,1,180,0|0,1:0|1:0,0:0:0:0:
128,286,33618,1,8,0:0:0:0:
108,200,33718,6,0,P|165:265|252:258,1,180,0|0,1:0|1:0,0:0:0:0:
446,369,34009,1,8,0:0:0:0:
432,368,34130,2,0,L|442:263,1,90,0|8,1:0|0:0,0:0:0:0:
406,14,34323,2,0,P|347:11|323:52,1,90,0|8,1:0|0:0,0:0:0:0:
252,258,34527,2,0,P|286:284|329:274,1,90,0|8,1:0|0:0,0:0:0:0:
512,135,34713,1,0,1:0:0:0:
440,96,34798,1,8,0:0:0:0:
435,176,34929,2,0,L|426:265,1,90,0|8,1:0|0:0,0:0:0:0:
175,326,35110,2,0,P|129:277|148:228,1,90,0|8,1:0|0:0,0:0:0:0:
135,50,35306,6,0,P|138:169|210:177,1,180,0|0,1:0|1:0,0:0:0:0:
349,108,35606,1,8,0:0:0:0:
328,30,35706,2,0,L|311:136,1,90,0|8,1:0|0:0,0:0:0:0:
354,296,35906,2,0,L|339:207,1,90,0|8,1:0|0:0,0:0:0:0:
509,60,36106,2,0,P|465:60|439:95,1,90,0|8,1:0|0:0,0:0:0:0:
280,334,36282,1,0,1:0:0:0:
209,294,36374,1,8,0:0:0:0:
171,365,36494,6,0,L|189:162,1,180,0|0,1:0|1:0,0:0:0:0:
74,26,36774,1,8,0:0:0:0:
0,85,36894,2,0,B|54:113|54:113|201:96,1,180,0|0,1:0|1:0,0:0:0:0:
421,24,37313,5,8,0:0:0:0:
397,50,37413,1,8,0:0:0:0:
387,85,37513,1,0,1:0:0:0:
393,120,37613,1,0,1:0:0:0:
450,203,37713,5,8,0:0:0:0:
367,189,37813,1,8,0:0:0:0:
284,172,37913,1,8,0:0:0:0:
202,158,38013,1,8,0:0:0:0:
61,109,38113,5,0,1:0:0:0:
76,114,38213,1,8,0:0:0:0:
112,150,38313,1,8,0:0:0:0:
125,237,38413,1,8,0:0:0:0:
80,305,38513,6,0,B|102:201|102:201|105:202|105:202|128:94,1,180,4|8,1:0|0:0,0:0:0:0:
230,41,38813,1,0,0:0:0:0:
239,29,38913,2,0,L|255:134,1,90,0|0,1:0|0:0,0:0:0:0:
316,28,39113,2,0,L|332:133,1,90,8|0,0:0|0:0,0:0:0:0:
455,296,39313,1,0,1:0:0:0:
428,299,39413,1,0,0:0:0:0:
402,292,39513,1,8,0:0:0:0:
381,276,39613,1,0,0:0:0:0:
346,204,39713,2,0,P|312:280|185:310,1,180,0|8,1:0|0:0,0:0:0:0:
80,286,40013,1,0,0:0:0:0:
93,298,40113,6,0,P|115:277|103:206,1,90,0|0,1:0|0:0,0:0:0:0:
7,132,40313,2,0,P|1:175|29:209,1,90,8|0,0:0|0:0,0:0:0:0:
184,80,40513,1,0,1:0:0:0:
199,71,40613,1,0,0:0:0:0:
212,58,40713,2,0,P|203:134|201:245,1,180,8|0,0:0|1:0,0:0:0:0:
163,350,41013,5,0,0:0:0:0:
181,330,41113,1,8,0:0:0:0:
206,324,41213,1,0,0:0:0:0:
287,332,41313,5,0,1:0:0:0:
303,339,41413,1,0,0:0:0:0:
298,356,41513,1,8,0:0:0:0:
280,349,41613,1,0,0:0:0:0:
328,258,41713,6,0,B|449:287|372:318|508:349,1,180,0|8,1:0|0:0,0:0:0:0:
408,198,42013,1,0,0:0:0:0:
421,198,42113,2,0,L|401:97,1,90,0|0,1:0|0:0,0:0:0:0:
499,203,42313,2,0,L|479:102,1,90,8|0,0:0|0:0,0:0:0:0:
326,22,42513,1,0,1:0:0:0:
320,48,42613,1,0,0:0:0:0:
315,74,42713,1,8,0:0:0:0:
310,101,42813,1,0,0:0:0:0:
308,195,42913,6,0,P|237:120|121:145,1,180,0|8,1:0|0:0,0:0:0:0:
121,297,43213,1,0,0:0:0:0:
147,227,43313,2,0,L|132:32,1,180,0|8,1:0|0:0,0:0:0:0:
21,231,43613,5,0,0:0:0:0:
18,218,43713,2,0,P|89:143|205:168,1,180,0|8,1:0|0:0,0:0:0:0:
235,288,44013,1,0,0:0:0:0:
231,278,44113,2,0,L|246:83,1,180,0|8,1:0|0:0,0:0:0:0:
354,26,44413,5,0,0:0:0:0:
397,36,44513,1,0,1:0:0:0:
421,56,44613,1,0,1:0:0:0:
434,77,44713,1,8,0:0:0:0:
437,93,44813,1,0,0:0:0:0:
508,93,44913,6,0,P|448:187|435:292,1,180,4|8,1:0|0:0,0:0:0:0:
422,383,45213,1,0,0:0:0:0:
406,350,45313,1,0,1:0:0:0:
381,325,45413,1,0,0:0:0:0:
348,312,45513,1,8,0:0:0:0:
312,311,45613,1,0,0:0:0:0:
237,266,45713,2,0,P|186:353|162:357,1,90,0|0,1:0|0:0,0:0:0:0:
55,182,45894,1,8,0:0:0:0:
68,172,45994,1,0,0:0:0:0:
85,166,46094,6,0,P|128:256|107:341,1,180,0|8,1:0|0:0,0:0:0:0:
0,119,46394,1,0,0:0:0:0:
16,111,46494,2,0,L|244:134,1,180,0|8,1:0|0:0,0:0:0:0:
457,127,46794,1,0,0:0:0:0:
461,115,46894,2,0,P|391:141|388:186,1,90,0|0,1:0|0:0,0:0:0:0:
428,233,47094,2,0,P|498:207|501:162,1,90,8|0,0:0|0:0,0:0:0:0:
321,67,47294,1,0,1:0:0:0:
301,96,47394,1,0,0:0:0:0:
293,131,47494,1,8,0:0:0:0:
299,167,47594,1,0,0:0:0:0:
340,216,47694,2,0,L|250:224,1,90,0|0,1:0|0:0,0:0:0:0:
37,301,47894,5,8,0:0:0:0:
109,337,47994,1,0,0:0:0:0:
176,292,48094,2,0,P|197:238|121:147,1,180,0|8,1:0|0:0,0:0:0:0:
11,162,48394,1,0,0:0:0:0:
2,184,48494,2,0,P|62:215|102:186,1,90,0|0,1:0|0:0,0:0:0:0:
39,80,48694,2,0,P|103:59|111:10,1,90,8|0,0:0|0:0,0:0:0:0:
281,26,48903,5,8,0:0:0:0:
273,109,49003,1,8,0:0:0:0:
265,192,49103,1,8,0:0:0:0:
257,276,49203,1,8,0:0:0:0:
235,358,49303,5,4,1:0:0:0:
251,336,49403,1,4,1:0:0:0:
273,322,49503,1,4,1:0:0:0:
300,317,49603,1,4,1:0:0:0:
365,361,49726,6,0,P|458:317|449:231,1,180,4|0,1:3|0:0,0:0:0:0:
333,120,50026,2,0,P|324:222|403:257,1,180,4|0,1:3|0:0,0:0:0:0:
512,154,50292,2,0,P|471:138|440:167,1,90,4|0,1:3|0:0,0:0:0:0:
300,317,50504,5,0,1:0:0:0:
265,308,50604,1,0,1:0:0:0:
224,280,50704,1,0,1:0:0:0:
175,210,50804,1,0,1:0:0:0:
148,126,50913,6,0,B|193:107|203:58|203:58|192:109|230:148,1,175.499991966248,4|0,0:2|0:0,0:0:0:0:
415,168,51313,6,0,P|458:163|482:127,1,90,4|8,1:0|0:0,0:0:0:0:
317,34,51513,2,0,P|299:73|318:113,1,90,0|8,1:0|0:0,0:0:0:0:
395,336,51713,1,0,1:0:0:0:
314,337,51804,1,8,0:0:0:0:
393,352,51913,2,0,L|402:255,1,90,0|8,1:0|0:0,0:0:0:0:
236,134,52113,2,0,L|244:223,1,90,0|8,1:0|0:0,0:0:0:0:
483,283,52293,1,0,1:0:0:0:
507,205,52393,1,8,0:0:0:0:
469,133,52493,6,0,L|488:245,1,90,0|8,1:0|0:0,0:0:0:0:
250,242,52693,2,0,L|231:354,1,90,0|8,1:0|0:0,0:0:0:0:
348,80,52884,2,0,L|372:301,1,180,0|0,1:0|1:0,0:0:0:0:
154,360,53184,1,8,0:0:0:0:
73,350,53284,2,0,P|60:319|71:258,1,90,0|8,1:0|0:0,0:0:0:0:
13,29,53484,2,0,L|110:46,1,90,0|8,1:0|0:0,0:0:0:0:
262,94,53684,1,0,1:0:0:0:
253,103,53784,1,8,0:0:0:0:
186,67,53884,2,0,L|207:175,1,90,0|8,1:0|0:0,0:0:0:0:
350,170,54084,2,0,L|371:278,1,90,0|8,1:0|0:0,0:0:0:0:
302,23,54284,2,0,L|281:131,1,90,0|8,1:0|0:0,0:0:0:0:
316,355,54497,6,0,B|205:309|284:271|150:213,1,180,0|0,1:0|1:0,0:0:0:0:
0,170,54797,1,8,0:0:0:0:
70,129,54897,2,0,P|96:191|86:249,1,90,0|8,1:0|0:0,0:0:0:0:
13,361,55097,2,0,P|17:316|38:277,1,90,0|8,1:0|0:0,0:0:0:0:
161,85,55303,1,0,1:0:0:0:
234,119,55407,1,8,0:0:0:0:
306,83,55497,2,0,L|396:62,1,90,0|8,1:0|0:0,0:0:0:0:
509,31,55697,2,0,P|465:111|461:166,1,90,0|8,1:0|0:0,0:0:0:0:
277,207,55897,2,0,P|302:294|338:336,1,90,0|8,1:0|0:0,0:0:0:0:
512,355,56097,6,0,P|464:283|354:343,1,180,0|0,1:0|1:0,0:0:0:0:
86,347,56389,1,8,0:0:0:0:
30,288,56489,2,0,B|79:269|79:269|230:289,1,180,0|0,1:0|1:0,0:0:0:0:
385,180,56789,1,8,0:0:0:0:
397,198,56889,2,0,P|405:137|354:122,1,90,0|8,1:0|0:0,0:0:0:0:
186,22,57097,2,0,P|178:83|229:98,1,90,0|8,1:0|0:0,0:0:0:0:
300,229,57297,5,0,1:0:0:0:
272,298,57385,1,8,0:0:0:0:
302,340,57473,2,0,L|294:271,1,45,0|8,1:0|0:0,0:0:0:0:
222,219,57697,6,0,P|307:189|311:67,1,180,4|0,1:2|1:0,0:0:0:0:
61,49,57997,1,8,0:0:0:0:
71,39,58097,2,0,L|79:138,1,90,0|8,1:0|0:0,0:0:0:0:
36,346,58313,2,0,L|28:256,1,90,0|8,1:0|0:0,0:0:0:0:
286,171,58513,1,0,1:0:0:0:
212,134,58613,1,8,0:0:0:0:
148,184,58713,2,0,P|137:230|167:280,1,90,0|8,1:0|0:0,0:0:0:0:
317,335,58913,6,0,P|369:303|348:248,1,90,0|8,1:0|0:0,0:0:0:0:
307,26,59113,2,0,P|307:87|365:96,1,90,0|8,1:0|0:0,0:0:0:0:
512,160,59313,2,0,P|426:137|372:207,1,180,0|0,1:0|1:0,0:0:0:0:
114,313,59593,1,8,0:0:0:0:
174,366,59693,2,0,L|205:196,1,90,0|8,1:0|0:0,0:0:0:0:
72,45,59874,5,0,1:0:0:0:
140,88,59974,1,8,0:0:0:0:
83,30,60074,2,0,P|89:86|148:124,1,90,0|8,1:0|0:0,0:0:0:0:
397,206,60274,1,0,1:0:0:0:
320,179,60374,1,8,0:0:0:0:
274,245,60474,2,0,P|293:129|379:92,1,180,0|0,1:0|1:0,0:0:0:0:
448,289,60764,5,8,0:0:0:0:
436,300,60887,2,0,P|378:320|345:296,1,90,0|8,1:0|0:0,0:0:0:0:
141,159,61068,1,0,1:0:0:0:
166,235,61168,1,8,0:0:0:0:
124,165,61289,2,0,L|144:37,1,90,0|8,1:0|0:0,0:0:0:0:
334,224,61493,2,0,L|354:96,1,90,0|8,1:0|0:0,0:0:0:0:
258,370,61702,2,0,L|238:242,1,90,0|8,1:0|0:0,0:0:0:0:
468,311,61906,2,0,L|448:183,1,90,0|8,1:0|0:0,0:0:0:0:
349,21,62068,5,8,0:0:0:0:
431,35,62168,1,8,0:0:0:0:
340,27,62268,5,4,1:0:0:0:
469,119,62368,1,4,1:0:0:0:
280,90,62468,5,4,1:3:0:0:
285,103,62768,5,4,1:3:0:0:
290,116,63068,5,4,1:3:0:0:
295,129,63306,5,4,1:3:0:0:
266,120,63402,1,4,1:3:0:0:
216,106,63499,1,4,1:3:0:0:
154,100,63596,1,4,1:3:0:0:
65,76,63693,6,0,B|89:217|72:74|97:221,1,135,8|0,0:0|0:0,0:0:0:0:
147,295,64096,6,0,B|102:321|100:297|76:317,1,76.5000014591217,4|0,1:2|0:0,0:0:0:0:
176,207,64417,2,0,B|176:141|203:154|198:116,1,76.5000014591217,0|0,1:0|0:0,0:0:0:0:
237,276,64692,2,0,B|282:302|263:316|292:328,1,76.5000014591217,0|0,1:0|0:0,0:0:0:0:
486,187,64897,6,0,L|454:192,1,31.4999990386963,8|0,0:0|0:0,0:0:0:0:
311,203,65097,1,0,1:0:0:0:
307,182,65163,1,0,1:0:0:0:
304,160,65230,1,0,1:0:0:0:
301,138,65297,2,0,L|269:133,1,31.4999990386963,8|0,0:0|0:0,0:0:0:0:
120,122,65495,1,0,1:0:0:0:
114,149,65561,1,0,1:0:0:0:
110,177,65628,1,0,1:0:0:0:
107,206,65695,6,0,P|72:173|32:161,1,76.5000014591217,4|0,1:2|0:0,0:0:0:0:
200,158,66028,2,0,P|213:193|213:232,1,76.5000014591217,0|0,1:0|0:0,0:0:0:0:
269,325,66316,2,0,P|302:290|314:249,1,76.5000014591217,0|0,1:0|0:0,0:0:0:0:
228,25,66516,6,0,L|263:41,1,31.4999990386963,8|0,0:0|0:0,0:0:0:0:
393,59,66716,1,0,1:0:0:0:
388,83,66782,1,0,1:0:0:0:
383,108,66849,1,0,1:0:0:0:
378,133,66916,2,0,L|343:149,1,31.4999990386963,8|0,0:0|0:0,0:0:0:0:
118,215,67116,1,0,1:0:0:0:
124,246,67182,1,0,1:0:0:0:
131,278,67249,1,0,1:0:0:0:
137,312,67316,6,0,L|239:291,1,76.5000014591217,4|0,1:2|0:0,0:0:0:0:
420,364,67642,2,0,L|336:309,1,76.5000014591217,0|0,1:0|0:0,0:0:0:0:
325,109,67913,2,0,L|306:201,1,76.5000014591217,0|0,1:0|0:0,0:0:0:0:
273,368,68113,6,0,L|279:337,1,31.4999990386963,8|0,0:0|0:0,0:0:0:0:
215,168,68301,1,0,1:0:0:0:
210,139,68367,1,0,1:0:0:0:
196,113,68434,1,0,1:0:0:0:
175,92,68501,2,0,L|125:97,1,31.4999990386963,8|0,0:0|0:0,0:0:0:0:
395,211,68735,1,0,1:0:0:0:
410,186,68799,1,0,1:0:0:0:
433,168,68864,1,0,1:0:0:0:
462,157,68928,6,0,P|476:244|372:298,1,153.000002918243,4|0,1:2|0:0,0:0:0:0:
302,157,69218,1,0,1:0:0:0:
312,149,69315,2,0,L|301:260,1,76.5000014591217,0|0,0:0|0:0,0:0:0:0:
105,361,69509,5,0,1:0:0:0:
188,348,69613,1,0,1:0:0:0:
271,335,69713,5,8,0:0:0:0:
270,319,69813,1,0,1:0:0:0:
266,305,69913,1,0,1:0:0:0:
258,291,70013,1,0,1:0:0:0:
186,267,70113,5,8,0:0:0:0:
186,251,70213,1,0,1:0:0:0:
190,237,70313,1,0,1:0:0:0:
198,223,70413,1,0,1:0:0:0:
265,167,70513,6,0,L|236:59,1,76.5000014591217,4|0,1:2|0:0,0:0:0:0:
116,193,70813,2,0,L|36:271,1,76.5000014591217,0|0,1:0|0:0,0:0:0:0:
214,308,71113,2,0,L|321:337,1,76.5000014591217,0|0,1:0|0:0,0:0:0:0:
428,48,71313,6,0,L|397:39,1,31.4999990386963,8|0,0:0|0:0,0:0:0:0:
438,124,71513,1,0,1:0:0:0:
441,149,71579,1,0,1:0:0:0:
445,174,71646,1,0,1:0:0:0:
448,198,71713,2,0,L|417:189,1,31.4999990386963,8|0,0:0|0:0,0:0:0:0:
462,281,71886,1,0,1:0:0:0:
465,311,71952,1,0,1:0:0:0:
470,341,72019,1,0,1:0:0:0:
474,369,72086,6,0,P|442:354|383:351,1,76.5000014591217,4|0,1:2|0:0,0:0:0:0:
336,170,72440,2,0,P|303:198|277:245,1,76.5000014591217,0|0,1:0|0:0,0:0:0:0:
98,215,72740,2,0,P|110:256|143:299,1,76.5000014591217,0|0,1:0|0:0,0:0:0:0:
263,360,72940,6,0,P|276:347|276:329,1,31.4999990386963,8|0,0:0|0:0,0:0:0:0:
354,295,73106,1,0,1:0:0:0:
356,263,73173,1,0,1:0:0:0:
348,233,73240,1,0,1:0:0:0:
331,206,73306,2,0,P|308:193|292:194,1,41.9999987182618,8|0,0:0|0:0,0:0:0:0:
292,82,73506,1,0,1:0:0:0:
250,79,73573,1,0,1:0:0:0:
211,89,73640,1,0,1:0:0:0:
175,112,73706,6,0,P|158:128|143:191,1,76.5000014591217,4|0,1:2|0:0,0:0:0:0:
248,306,74015,2,0,P|241:282|195:238,1,76.5000014591217,0|0,1:0|0:0,0:0:0:0:
43,272,74315,2,0,P|66:278|127:260,1,76.5000014591217,0|0,1:0|0:0,0:0:0:0:
292,82,74515,6,0,L|285:135,1,31.4999990386963,8|0,0:0|0:0,0:0:0:0:
389,238,74683,5,0,1:0:0:0:
406,237,74783,1,0,1:0:0:0:
396,216,74883,5,8,0:0:0:0:
367,206,74983,1,8,0:0:0:0:
284,210,75083,1,8,0:0:0:0:
210,261,75183,1,8,0:0:0:0:
165,344,75283,6,0,L|241:330,1,62.9999980773926,2|0,1:3|0:0,0:0:0:0:
493,307,75616,2,0,L|417:321,1,62.9999980773926,2|0,1:3|0:0,0:0:0:0:
338,384,75916,6,0,L|334:325,1,31.4999990386963,4|0,1:2|0:0,0:0:0:0:
329,277,76116,1,4,1:2:0:0:
329,277,76913,5,2,0:0:0:0:
325,51,77113,2,0,L|314:139,1,72,2|0,1:3|0:0,0:0:0:0:
436,256,77313,2,0,L|409:261,1,26.9999991760254,2|0,1:3|0:0,0:0:0:0:
253,319,77484,6,0,P|213:265|134:263,1,135,4|0,0:2|0:0,0:0:0:0:
64,366,77867,1,0,1:0:0:0:
73,350,77967,1,0,0:0:0:0:
80,333,78067,2,0,L|70:280,1,45,0|0,0:0|0:0,0:0:0:0:
84,208,78282,5,0,1:0:0:0:
75,192,78348,1,0,1:0:0:0:
66,176,78415,1,0,1:0:0:0:
59,159,78482,2,0,L|69:106,1,45,8|0,0:0|0:0,0:0:0:0:
35,41,78682,5,0,0:0:0:0:
148,154,78882,1,0,1:0:0:0:
190,0,79082,1,8,0:0:0:0:
153,234,79282,2,0,P|198:219|230:176,1,67.5000025749208
352,83,79466,5,0,1:0:0:0:
287,33,79566,1,0,1:0:0:0:
277,113,79692,2,0,L|288:201,1,67.5000025749208,8|0,0:0|0:0,0:0:0:0:
437,298,79892,5,0,1:0:0:0:
444,272,79958,1,0,1:0:0:0:
442,245,80025,1,0,1:0:0:0:
430,220,80092,2,0,P|401:202|368:197,1,67.5000025749208,8|0,0:0|0:0,0:0:0:0:
238,347,80292,5,0,1:0:0:0:
238,347,80492,2,0,L|246:280,1,67.5000025749208,0|0,1:0|0:0,0:0:0:0:
287,33,80692,1,8,0:0:0:0:
287,33,81092,5,0,1:0:0:0:
292,59,81192,1,0,1:0:0:0:
288,85,81292,1,0,1:0:0:0:
279,110,81392,1,0,1:0:0:0:
211,61,81492,1,8,0:0:0:0:
422,36,81680,5,2,1:3:0:0:
413,74,81780,1,2,0:3:0:0:
393,107,81880,1,2,0:3:0:0:
367,138,81980,1,2,0:3:0:0:
279,110,82080,5,2,1:3:0:0:
282,129,82180,1,2,0:3:0:0:
302,203,82280,1,10,0:3:0:0:
306,223,82380,1,2,0:3:0:0:
311,249,82480,6,0,L|242:231,1,67.5000025749208,2|2,0:3|0:3,0:3:0:0:
290,329,82680,2,0,L|221:311,1,67.5000025749208,2|2,0:3|0:3,0:3:0:0:
48,125,82880,1,8,0:0:0:0:
48,125,83080,5,0,1:0:0:0:
52,151,83146,1,0,1:0:0:0:
56,178,83213,1,0,1:0:0:0:
35,203,83280,6,0,P|131:234|139:268,1,90,8|0,0:0|0:0,0:0:0:0:
154,303,83480,2,0,P|243:257|273:275,1,90,2|2,1:3|0:3,0:3:0:0:
308,289,83680,2,0,P|339:193|373:185,1,90,2|2,1:3|0:3,0:3:0:0:
426,104,83880,6,0,L|401:305,1,161.999995056153,4|0,1:2|0:0,0:0:0:0:
415,343,84313,6,0,P|353:363|348:375,1,67.5000025749208,0|0,1:0|0:0,0:0:0:0:
154,303,84480,1,0,0:0:0:0:
275,362,84680,5,0,1:0:0:0:
272,344,84746,1,0,1:0:0:0:
269,326,84813,1,0,1:0:0:0:
250,307,84880,2,0,L|261:235,1,67.5000025749208,8|0,0:0|0:0,0:0:0:0:
198,63,85101,5,0,0:0:0:0:
338,193,85301,1,0,1:0:0:0:
132,155,85475,1,8,0:0:0:0:
306,75,85701,1,0,0:0:0:0:
115,242,85889,5,0,1:0:0:0:
190,287,85989,1,0,1:0:0:0:
241,216,86089,2,0,L|214:126,1,67.5000025749208,8|0,0:0|0:0,0:0:0:0:
90,66,86301,5,0,1:0:0:0:
96,56,86367,1,0,1:0:0:0:
101,47,86434,1,0,0:0:0:0:
129,42,86501,1,8,0:0:0:0:
115,242,86701,1,0,1:0:0:0:
5,80,86901,1,0,1:0:0:0:
303,156,87092,2,0,L|285:256,1,90,8|0,0:0|0:0,0:0:0:0:
248,94,87492,5,0,1:0:0:0:
264,81,87592,1,0,1:0:0:0:
281,72,87692,1,0,1:0:0:0:
301,65,87792,1,0,1:0:0:0:
386,41,87878,5,8,0:0:0:0:
378,80,87978,1,0,0:0:0:0:
331,147,88078,5,2,1:3:0:0:
368,162,88178,1,2,0:3:0:0:
394,192,88278,1,2,0:3:0:0:
403,231,88378,1,2,0:3:0:0:
415,316,88494,5,2,0:3:0:0:
395,310,88594,1,2,0:3:0:0:
376,304,88694,1,2,0:3:0:0:
356,299,88794,1,2,0:3:0:0:
289,247,88894,5,2,0:3:0:0:
259,256,88994,1,2,0:3:0:0:
230,265,89094,1,2,0:3:0:0:
200,272,89194,1,2,0:3:0:0:
86,354,89294,5,0,1:0:0:0:
99,309,89360,1,0,1:0:0:0:
113,265,89427,1,0,1:0:0:0:
122,218,89494,2,0,B|144:209|144:209|127:241,1,33.7500012874604,0|0,1:0|0:0,0:0:0:0:
26,257,89694,6,0,P|19:147|83:111,1,180,4|0,1:2|1:0,0:0:0:0:
306,138,89975,1,8,0:0:0:0:
247,193,90103,2,0,P|224:140|228:95,1,90,0|8,1:0|0:0,0:0:0:0:
370,79,90314,2,0,P|393:132|389:177,1,90,0|8,1:0|0:0,0:0:0:0:
200,272,90513,6,0,P|269:311|273:336,1,90,0|8,1:0|0:0,0:0:0:0:
488,316,90713,1,0,1:0:0:0:
437,379,90813,1,8,0:0:0:0:
356,384,90913,2,0,P|352:311|438:238,1,180,0|0,1:0|1:0,0:0:0:0:
447,58,91204,1,8,0:0:0:0:
511,107,91313,6,0,B|403:100|459:46|305:40,1,180,0|0,1:0|1:0,0:0:0:0:
150,156,91600,1,8,0:0:0:0:
221,188,91713,2,0,P|237:147|216:109,1,90,0|8,1:0|0:0,0:0:0:0:
84,201,91913,2,0,P|112:235|156:236,1,90,0|8,1:0|0:0,0:0:0:0:
142,76,92113,2,0,P|99:83|76:121,1,90,0|8,1:0|0:0,0:0:0:0:
284,249,92307,1,0,1:0:0:0:
259,326,92405,1,8,0:0:0:0:
178,330,92513,2,0,B|170:257|170:257|160:248|160:248|141:82,1,180,0|0,1:0|1:0,0:0:0:0:
403,109,92806,5,8,0:0:0:0:
324,26,92922,2,0,L|313:151,1,90,0|8,1:0|0:0,0:0:0:0:
376,197,93113,2,0,L|365:322,1,90,0|8,1:0|0:0,0:0:0:0:
233,81,93313,2,0,P|231:140|267:163,1,90,0|8,1:0|0:0,0:0:0:0:
506,119,93513,2,0,P|487:176|443:183,1,90,0|8,1:0|0:0,0:0:0:0:
215,260,93713,1,0,1:0:0:0:
161,198,93813,1,8,0:0:0:0:
82,219,93913,2,0,L|115:328,1,90,0|8,1:0|0:0,0:0:0:0:
356,342,94102,5,0,1:0:0:0:
276,357,94195,1,8,0:0:0:0:
349,323,94295,1,0,1:0:0:0:
239,279,94388,1,8,0:0:0:0:
356,342,94513,6,0,B|417:355|417:355|522:274,1,180,0|0,1:0|1:0,0:0:0:0:
288,65,94786,1,8,0:0:0:0:
362,95,94913,2,0,P|385:163|405:279,1,180,0|0,1:0|1:0,0:0:0:0:
201,200,95201,1,8,0:0:0:0:
187,110,95301,1,0,1:0:0:0:
99,88,95397,1,8,0:0:0:0:
38,154,95520,2,0,L|65:260,1,90,0|8,1:0|0:0,0:0:0:0:
180,21,95708,2,0,L|207:127,1,90,0|8,1:0|0:0,0:0:0:0:
274,342,95899,5,0,1:0:0:0:
188,287,95992,1,8,0:0:0:0:
284,351,96092,2,0,P|336:320|335:172,1,180,4|0,1:2|1:0,0:0:0:0:
234,116,96399,5,8,0:0:0:0:
152,106,96513,2,0,P|95:85|80:60,1,90,0|8,1:0|0:0,0:0:0:0:
280,46,96719,2,0,P|326:7|355:6,1,90,0|8,1:0|0:0,0:0:0:0:
266,188,96913,2,0,P|275:247|262:272,1,90,0|8,1:0|0:0,0:0:0:0:
77,279,97113,5,0,1:0:0:0:
59,202,97198,1,8,0:0:0:0:
0,286,97329,2,0,B|121:308|54:352|194:368,1,180,0|0,1:0|1:0,0:0:0:0:
403,327,97580,1,8,0:0:0:0:
355,250,97713,2,0,P|272:263|251:366,1,180,0|0,1:0|1:0,0:0:0:0:
462,232,97985,5,8,0:0:0:0:
421,156,98124,1,0,1:0:0:0:
464,242,98224,1,8,0:0:0:0:
506,134,98324,2,0,P|423:121|402:18,1,180,0|0,1:0|1:0,0:0:0:0:
165,93,98607,1,8,0:0:0:0:
217,20,98707,2,0,B|254:48|254:48|256:112,1,90,0|8,1:0|0:0,0:0:0:0:
104,317,98913,5,0,1:0:0:0:
184,339,99006,1,8,0:0:0:0:
102,297,99113,1,0,1:0:0:0:
233,264,99213,1,8,0:0:0:0:
102,297,99313,6,0,L|113:188,1,90,0|8,1:0|0:0,0:0:0:0:
246,181,99518,2,0,L|257:72,1,90,0|8,1:0|0:0,0:0:0:0:
345,273,99713,2,0,L|334:164,1,90,0|8,1:0|0:0,0:0:0:0:
161,110,99913,2,0,L|150:1,1,90,0|8,1:0|0:0,0:0:0:0:
380,91,100108,1,0,1:0:0:0:
312,22,100208,1,8,0:0:0:0:
499,36,100308,2,0,P|470:118|463:163,1,90,0|8,1:0|0:0,0:0:0:0:
464,324,100508,5,8,0:0:0:0:
345,273,100604,1,8,0:0:0:0:
472,340,100704,1,8,0:0:0:0:
381,356,100801,1,8,0:0:0:0:
439,226,100905,6,0,P|453:179|510:137,1,99.0000030212403,4|0,1:2|0:0,0:0:0:0:
434,81,101205,2,0,P|388:98|357:137,1,99.0000030212403,2|0,1:3|0:0,0:0:0:0:
350,244,101495,1,2,1:3:0:0:
350,244,101688,5,8,0:0:0:0:
330,228,101788,1,8,0:0:0:0:
215,175,101888,5,4,1:0:0:0:
242,271,101988,1,4,1:0:0:0:
269,367,102088,1,4,1:0:0:0:
269,367,102534,6,0,P|311:346|397:355,1,90,0|8,1:0|0:0,0:0:0:0:
512,332,102727,2,0,P|467:327|427:307,1,90,0|8,1:0|0:0,0:0:0:0:
280,111,102905,1,0,1:0:0:0:
332,79,103005,1,8,0:0:0:0:
390,98,103105,1,0,1:0:0:0:
413,154,103205,1,8,0:0:0:0:
381,222,103298,6,0,L|253:209,1,90,0|8,1:0|0:0,0:0:0:0:
223,173,103495,2,0,L|95:160,1,90,0|8,1:0|0:0,0:0:0:0:
22,295,103678,2,0,L|150:282,1,90,0|8,1:0|0:0,0:0:0:0:
122,61,103897,2,0,L|250:48,1,90,0|8,1:0|0:0,0:0:0:0:
474,160,104081,5,0,1:0:0:0:
413,154,104181,1,8,0:0:0:0:
376,105,104281,1,0,1:0:0:0:
388,46,104381,1,8,0:0:0:0:
441,15,104481,5,0,1:0:0:0:
453,28,104581,1,8,0:0:0:0:
463,42,104681,1,0,1:0:0:0:
470,58,104781,1,8,0:0:0:0:
475,134,104874,5,0,1:0:0:0:
423,98,104974,1,8,0:0:0:0:
363,80,105074,1,0,1:0:0:0:
300,82,105174,1,8,0:0:0:0:
241,104,105274,1,0,1:0:0:0:
206,156,105374,1,8,0:0:0:0:
147,165,105474,1,0,1:0:0:0:
106,120,105574,1,8,0:0:0:0:
119,61,105674,5,0,1:0:0:0:
132,49,105774,1,8,0:0:0:0:
149,43,105885,2,0,L|135:160,1,90,0|8,1:0|0:0,0:0:0:0:
176,322,106082,1,0,1:0:0:0:
163,334,106175,1,8,0:0:0:0:
146,340,106298,2,0,L|160:223,1,90,0|8,1:0|0:0,0:0:0:0:
296,193,106498,6,0,L|206:182,1,90,0|8,1:0|0:0,0:0:0:0:
0,190,106696,2,0,L|88:200,1,90,0|8,1:0|0:0,0:0:0:0:
319,312,106898,2,0,P|372:256|406:251,1,90,0|8,1:0|0:0,0:0:0:0:
298,84,107098,2,0,P|368:116|401:107,1,90,0|8,1:0|0:0,0:0:0:0:
479,300,107265,5,0,1:0:0:0:
432,255,107365,1,8,0:0:0:0:
429,202,107465,1,0,1:0:0:0:
442,175,107565,1,8,0:0:0:0:
458,166,107665,1,0,1:0:0:0:
476,165,107765,1,8,0:0:0:0:
492,174,107865,1,0,1:0:0:0:
501,190,107965,1,8,0:0:0:0:
500,273,108065,5,0,1:0:0:0:
457,260,108165,1,8,0:0:0:0:
390,221,108265,1,0,1:0:0:0:
334,161,108365,1,8,0:0:0:0:
319,46,108483,5,4,1:0:0:0:
260,118,108583,1,8,0:0:0:0:
335,77,108683,1,4,1:0:0:0:
243,86,108783,1,8,0:0:0:0:
126,38,108904,6,0,P|166:115|161:164,1,90,4|8,1:2|0:0,0:0:0:0:
80,282,109090,2,0,P|92:239|120:203,1,90,0|8,1:0|0:0,0:0:0:0:
323,291,109280,1,0,1:0:0:0:
380,312,109380,1,8,0:0:0:0:
435,286,109480,1,0,1:0:0:0:
454,227,109580,1,8,0:0:0:0:
424,174,109699,6,0,L|441:271,1,90,0|10,1:0|0:0,0:0:0:0:
321,119,109899,2,0,L|338:216,1,90,0|8,1:0|0:0,0:0:0:0:
417,8,110108,2,0,L|400:105,1,90,0|8,1:0|0:0,0:0:0:0:
241,73,110313,2,0,L|224:170,1,90,0|8,1:0|0:0,0:0:0:0:
119,338,110496,5,0,1:0:0:0:
58,332,110596,1,8,0:0:0:0:
24,281,110696,1,0,1:0:0:0:
42,223,110796,1,8,0:0:0:0:
99,201,110887,5,0,1:0:0:0:
96,219,110987,1,8,0:0:0:0:
89,235,111087,1,0,1:0:0:0:
80,251,111187,1,8,0:0:0:0:
19,202,111287,5,0,1:0:0:0:
13,140,111387,1,8,0:0:0:0:
51,92,111487,1,0,1:0:0:0:
112,85,111587,1,8,0:0:0:0:
161,122,111680,1,0,1:0:0:0:
156,183,111780,1,8,0:0:0:0:
194,231,111880,1,0,1:0:0:0:
255,239,111964,1,8,0:0:0:0:
327,211,112092,6,0,P|313:156|349:133,1,90,0|8,1:0|0:0,0:0:0:0:
484,137,112298,2,0,P|443:176|405:155,1,90,0|8,1:0|0:0,0:0:0:0:
343,37,112492,2,0,P|397:52|398:95,1,90,0|8,1:0|0:0,0:0:0:0:
448,262,112713,2,0,P|393:277|392:320,1,90,0|8,1:0|0:0,0:0:0:0:
203,339,112888,5,0,1:0:0:0:
154,301,112988,1,8,0:0:0:0:
141,241,113088,1,0,1:0:0:0:
170,186,113188,1,8,0:0:0:0:
265,162,113288,5,0,1:0:0:0:
259,188,113388,1,8,0:0:0:0:
254,215,113488,1,0,1:0:0:0:
249,241,113588,1,8,0:0:0:0:
203,339,113670,5,8,1:3:0:0:
273,348,113770,1,8,0:3:0:0:
334,313,113870,1,8,1:3:0:0:
361,248,113970,1,8,0:3:0:0:
410,182,114070,5,8,1:3:0:0:
394,106,114170,1,8,0:3:0:0:
319,76,114270,1,8,1:3:0:0:
335,0,114370,1,8,0:3:0:0:
415,0,114488,5,4,1:0:0:0:
419,17,114588,1,4,1:0:0:0:
429,32,114688,1,4,1:0:0:0:
442,44,114788,1,4,1:0:0:0:
414,122,114903,6,4,L|418:155,1,33.7500012874604,4|4,1:0|1:0,0:0:0:0:
489,146,115104,2,4,L|484:112,1,33.7500012874604,4|4,1:0|1:0,0:0:0:0:
305,115,115313,5,4,1:2:0:0:
270,123,115413,1,0,0:0:0:0:
239,142,115513,1,0,0:0:0:0:
217,170,115613,1,0,0:0:0:0:
206,204,115713,2,0,L|222:291,2,72,0|0|0,1:0|0:0|0:0,0:0:0:0:
121,329,116013,1,0,0:0:0:0:
125,342,116113,2,0,L|141:255,2,72,8|0|0,0:0|0:0|0:0,0:0:0:0:
300,310,116404,1,0,0:0:0:0:
295,300,116504,5,0,1:0:0:0:
313,269,116604,1,0,0:0:0:0:
340,245,116704,1,0,0:0:0:0:
373,232,116804,1,0,0:0:0:0:
395,317,116904,5,0,1:0:0:0:
402,330,117004,1,0,0:0:0:0:
388,337,117104,1,0,0:0:0:0:
381,322,117204,1,0,0:0:0:0:
373,232,117304,5,0,1:0:0:0:
406,219,117404,1,0,0:0:0:0:
433,195,117504,1,0,0:0:0:0:
451,164,117604,1,0,0:0:0:0:
457,77,117703,6,0,L|340:95,1,72,8|0,0:0|0:0,0:0:0:0:
269,106,117903,2,0,L|152:124,1,72,0|0,1:0|0:0,0:0:0:0:
120,94,118103,1,0,0:0:0:0:
118,106,118203,1,0,0:0:0:0:
115,118,118303,1,0,0:0:0:0:
112,130,118403,1,0,0:0:0:0:
34,157,118503,5,0,1:0:0:0:
66,174,118603,1,0,0:0:0:0:
90,200,118703,1,0,0:0:0:0:
104,233,118803,1,0,0:0:0:0:
107,269,118903,5,0,1:0:0:0:
102,282,119003,1,0,0:0:0:0:
96,295,119103,1,0,0:0:0:0:
92,308,119203,1,0,0:0:0:0:
51,372,119303,5,8,0:0:0:0:
73,319,119403,1,0,0:0:0:0:
118,284,119503,1,0,0:0:0:0:
174,274,119603,1,0,0:0:0:0:
228,293,119703,1,0,1:0:0:0:
267,334,119803,1,0,0:0:0:0:
320,355,119903,1,0,0:0:0:0:
376,345,120003,1,0,0:0:0:0:
414,301,120103,5,0,1:0:0:0:
416,286,120203,1,0,0:0:0:0:
418,271,120309,2,0,L|401:178,1,72,0|0,0:0|0:0,0:0:0:0:
340,10,120509,1,0,1:0:0:0:
338,25,120609,1,0,0:0:0:0:
336,40,120709,2,0,L|353:133,1,72,0|0,0:0|0:0,0:0:0:0:
512,281,120909,5,4,1:0:0:0:
487,214,121009,1,4,1:0:0:0:
426,179,121109,1,4,1:0:0:0:
357,192,121209,1,4,1:0:0:0:
345,190,121309,5,4,0:3:0:0:
284,266,121409,1,4,0:3:0:0:
187,268,121509,1,4,0:3:0:0:
124,193,121609,1,4,0:3:0:0:
142,97,121709,5,0,1:0:0:0:
152,87,121809,1,0,0:0:0:0:
160,75,121901,2,0,P|186:102|181:177,1,72,0|0,0:0|0:0,0:0:0:0:
128,296,122102,1,0,1:0:0:0:
135,307,122202,1,0,0:0:0:0:
141,320,122302,2,0,P|171:298|181:223,1,72,0|0,0:0|0:0,0:0:0:0:
299,92,122502,5,8,0:0:0:0:
343,56,122602,1,0,0:0:0:0:
400,52,122702,1,0,0:0:0:0:
449,79,122802,1,0,0:0:0:0:
476,130,122913,5,0,1:0:0:0:
467,141,123013,1,0,0:0:0:0:
458,152,123113,1,0,0:0:0:0:
450,164,123213,1,0,0:0:0:0:
485,221,123313,5,0,1:0:0:0:
440,185,123413,1,0,0:0:0:0:
383,181,123513,1,0,0:0:0:0:
334,208,123613,1,0,0:0:0:0:
307,259,123713,5,0,1:0:0:0:
317,270,123813,1,0,0:0:0:0:
326,281,123913,1,0,0:0:0:0:
334,293,124013,1,0,0:0:0:0:
259,323,124113,6,0,L|152:316,1,72,8|0,0:0|0:0,0:0:0:0:
414,300,124313,2,0,L|485:304,1,72,0|0,0:0|0:0,0:0:0:0:
256,179,124513,5,0,1:0:0:0:
264,167,124613,1,0,0:0:0:0:
273,156,124713,1,0,0:0:0:0:
283,145,124813,1,0,0:0:0:0:
349,100,124913,5,0,1:0:0:0:
314,46,125013,1,0,0:0:0:0:
255,24,125113,1,0,0:0:0:0:
194,42,125213,1,0,0:0:0:0:
156,93,125313,1,0,1:0:0:0:
156,156,125413,1,0,0:0:0:0:
170,169,125513,2,0,P|177:224|162:258,1,72,0|0,0:0|0:0,0:0:0:0:
10,348,125706,5,8,0:0:0:0:
60,308,125806,1,0,0:0:0:0:
123,297,125906,1,0,0:0:0:0:
184,318,126006,1,0,0:0:0:0:
251,281,126106,5,0,1:0:0:0:
273,320,126206,1,0,0:0:0:0:
311,343,126306,1,0,0:0:0:0:
355,345,126397,1,0,0:0:0:0:
443,349,126497,5,0,1:0:0:0:
432,285,126597,1,0,0:0:0:0:
401,216,126697,1,0,0:0:0:0:
390,152,126797,1,0,0:0:0:0:
345,104,126897,5,0,1:0:0:0:
379,107,126997,1,0,0:0:0:0:
408,87,127097,1,0,0:0:0:0:
418,53,127197,1,0,0:0:0:0:
346,18,127323,5,8,0:0:0:0:
503,294,127503,2,0,L|409:282,1,72,0|0,0:0|0:0,0:0:0:0:
275,58,127703,2,0,L|181:70,1,72,8|0,0:0|0:0,0:0:0:0:
10,237,127903,5,0,1:0:0:0:
28,145,128003,1,0,1:0:0:0:
46,53,128113,2,0,P|44:132|83:169,1,99.0000030212403,8|0,0:0|0:0,0:0:0:0:
75,278,128313,2,0,P|151:280|186:213,1,80.9999975280763,4|0,1:0|0:0,0:0:0:0:
269,320,128513,2,0,P|294:276|296:244,1,62.9999980773926,4|0,1:0|0:0,0:0:0:0:
259,176,128713,6,0,B|247:164|243:136|243:136|233:166|250:185,1,94.499997116089,4|0,0:2|0:0,0:0:0:0:
416,194,129113,5,0,1:0:0:0:
397,186,129213,1,0,0:0:0:0:
379,175,129313,2,0,L|397:289,1,67.5000025749208,0|0,0:0|0:0,0:0:0:0:
511,140,129493,5,0,1:0:0:0:
491,134,129559,1,0,1:0:0:0:
471,128,129626,1,0,1:0:0:0:
452,120,129693,2,0,L|474:271,1,135.000005149842,4|0,0:2|0:0,0:0:0:0:
241,309,130113,1,0,1:0:0:0:
469,342,130313,1,8,0:0:0:0:
325,326,130513,2,0,P|314:265|292:236,1,67.5000025749208,0|0,0:0|0:0,0:0:0:0:
159,45,130713,5,0,1:0:0:0:
152,126,130813,1,0,1:0:0:0:
174,48,130913,1,8,0:0:0:0:
35,219,131113,5,0,1:0:0:0:
38,211,131179,1,0,1:0:0:0:
40,202,131246,1,0,1:0:0:0:
76,190,131313,1,8,0:0:0:0:
221,315,131513,1,0,1:0:0:0:
61,108,131713,1,0,1:0:0:0:
260,91,131913,1,8,0:0:0:0:
260,91,132313,5,0,1:0:0:0:
250,107,132413,1,0,1:0:0:0:
193,169,132513,5,0,1:0:0:0:
265,157,132613,1,0,1:0:0:0:
337,145,132713,1,8,0:0:0:0:
131,72,132904,6,0,P|117:102|120:135,1,67.5000025749208,8|0,0:0|0:0,0:0:0:0:
345,145,133104,2,0,P|359:115|356:82,1,67.5000025749208
244,238,133304,5,0,0:0:0:0:
254,254,133404,1,0,0:0:0:0:
311,316,133504,5,8,0:0:0:0:
239,304,133604,1,0,0:0:0:0:
167,292,133704,5,0,1:0:0:0:
157,285,133804,1,0,1:0:0:0:
149,274,133904,1,0,1:0:0:0:
145,261,134004,1,0,1:0:0:0:
76,300,134104,5,8,0:0:0:0:
236,218,134294,5,0,1:0:0:0:
246,209,134360,1,0,1:0:0:0:
253,197,134427,1,0,1:0:0:0:
251,178,134485,6,0,L|237:66,1,90,8|0,0:0|0:0,0:0:0:0:
339,219,134685,2,0,L|346:106,1,90,4|0,1:0|0:0,0:0:0:0:
414,284,134885,2,0,L|442:174,1,90,4|0,1:0|0:0,0:0:0:0:
346,355,135085,6,0,B|323:332|310:296|310:296|278:311|243:313,1,135,4|0,0:2|0:0,0:0:0:0:
32,285,135498,5,0,1:0:0:0:
47,290,135598,1,0,0:0:0:0:
67,312,135689,2,0,L|52:228,1,67.5000025749208,0|0,0:0|0:0,0:0:0:0:
88,81,135872,5,0,1:0:0:0:
54,91,135938,1,0,1:0:0:0:
35,122,136005,1,0,1:0:0:0:
34,158,136088,2,0,P|104:168|130:243,1,135.000005149842,8|0,0:0|0:0,0:0:0:0:
336,254,136476,1,0,1:0:0:0:
151,299,136669,2,0,P|184:293|211:275,1,67.5000025749208,8|0,0:0|0:0,0:0:0:0:
327,162,136869,1,0,0:0:0:0:
392,323,137062,5,0,1:0:0:0:
368,349,137128,1,0,1:0:0:0:
331,352,137195,1,0,1:0:0:0:
299,337,137262,1,0,1:0:0:0:
325,151,137462,1,0,1:0:0:0:
465,264,137708,1,8,0:0:0:0:
356,62,137908,1,0,1:0:0:0:
484,180,138108,1,0,1:0:0:0:
233,146,138308,6,0,B|225:110|225:110|257:174,1,67.5000025749208,8|0,0:0|0:0,0:0:0:0:
192,226,138508,2,0,P|261:253|310:317,1,135.000005149842,0|0,0:0|1:0,0:0:0:0:
460,312,138780,1,0,1:0:0:0:
469,317,138880,1,0,1:0:0:0:
431,356,138980,1,0,1:0:0:0:
377,351,139080,1,8,0:0:0:0:
132,384,139301,5,8,0:0:0:0:
155,335,139401,1,0,1:0:0:0:
172,284,139501,1,0,1:0:0:0:
182,231,139601,1,0,1:0:0:0:
271,212,139694,5,0,1:0:0:0:
259,187,139794,1,0,1:0:0:0:
250,162,139894,1,0,1:0:0:0:
245,135,139994,1,0,1:0:0:0:
186,85,140094,5,4,0:3:0:0:
192,72,140194,1,4,0:3:0:0:
196,60,140294,1,4,0:3:0:0:
199,46,140394,1,4,0:3:0:0:
113,43,140494,5,0,1:0:0:0:
108,38,140594,1,0,1:0:0:0:
113,34,140694,1,0,1:0:0:0:
117,38,140794,1,0,1:0:0:0:
43,97,140894,5,4,0:2:0:0:
43,97,142488,6,0,P|132:92|184:196,1,202.500007724762,6|0,0:0|0:0,0:0:0:0:
132,245,142888,1,0,0:0:0:0:
283,347,143101,1,4,0:0:0:0:
262,271,143294,1,8,0:0:0:0:
72,307,143482,2,0,P|158:312|225:339,1,135.000005149842,4|0,0:0|0:0,0:0:0:0:
435,343,143882,2,0,L|386:348,1,33.7500012874604,0|0,0:0|0:0,0:0:0:0:
383,351,144082,6,0,P|385:288|395:257,1,67.5000025749208,0|0,0:0|0:0,0:0:0:0:
408,90,144290,1,4,0:0:0:0:
470,257,144490,1,4,0:0:0:0:
490,249,144713,2,0,B|415:231|458:196|382:172,1,135.000005149842,0|8,0:0|0:0,0:0:0:0:
192,189,145109,1,4,0:0:0:0:
259,242,145309,1,0,0:0:0:0:
275,213,145397,1,0,0:0:0:0:
278,179,145477,1,4,0:0:0:0:
366,11,145700,6,0,P|309:71|178:91,1,202.500007724762,4|0,0:0|0:0,0:0:0:0:
12,147,146097,5,4,0:0:0:0:
32,62,146197,1,4,0:0:0:0:
95,121,146297,1,4,0:0:0:0:
45,281,146497,5,8,0:0:0:0:
33,271,146721,2,0,B|159:273|69:353|216:356,1,202.500007724762,4|0,0:0|0:0,0:0:0:0:
415,214,147121,5,4,0:0:0:0:
392,254,147187,1,4,0:0:0:0:
385,299,147254,1,4,0:0:0:0:
399,342,147321,2,0,P|400:282|380:243,1,67.5000025749208,8|0,0:0|0:0,0:0:0:0:
151,144,147521,6,0,P|201:135|304:191,1,90,2|0,0:0|0:0,0:0:0:0:
410,86,147704,2,0,P|359:97|285:187,1,90,0|0,0:0|0:0,0:0:0:0:
255,51,147935,2,0,P|293:190|305:283,1,202.500007724762,6|0,0:0|0:0,0:0:0:0:
145,377,148304,5,8,0:0:0:0:
134,360,148404,1,8,0:0:0:0:
223,301,148504,5,4,0:0:0:0:
145,340,148604,1,4,0:0:0:0:
234,294,148704,5,8,0:0:0:0:
70,270,148804,1,8,0:0:0:0:
187,224,148904,5,4,0:3:0:0:
193,211,149004,1,4,0:3:0:0:
159,171,149104,5,0,1:0:0:0:
202,202,149204,1,0,1:0:0:0:
254,214,149304,1,0,1:0:0:0:
307,205,149404,1,0,1:0:0:0:
391,241,149504,5,4,0:3:0:0:
415,165,149604,1,4,0:3:0:0:
335,126,149704,1,4,0:3:0:0:
311,50,149804,1,4,0:3:0:0:
408,29,149904,5,4,1:0:0:0:
406,35,149954,1,4,1:0:0:0:
405,42,150004,1,4,1:0:0:0:
403,48,150054,1,4,1:0:0:0:
391,59,150103,6,0,L|457:72,1,67.5000025749208,8|0,0:0|0:0,0:0:0:0:
457,72,150491,6,0,L|468:138,3,53.9999983520508,10|0|0|0,0:0|0:0|0:0|0:0,0:0:0:0:
280,78,150910,2,0,L|291:12,2,53.9999983520508,10|0|0,0:0|0:0|0:0,0:0:0:0:
158,238,151228,1,0,0:0:0:0:
151,223,151311,2,0,P|198:221|221:231,1,53.9999983520508,10|0,0:0|0:0,0:0:0:0:
297,185,151511,2,0,P|331:216|340:240,1,53.9999983520508,0|0,0:0|0:0,0:0:0:0:
434,257,151711,1,10,0:0:0:0:
431,272,151811,1,0,0:0:0:0:
428,288,151911,1,0,0:0:0:0:
425,304,152004,1,0,0:0:0:0:
440,336,152127,6,0,L|353:344,1,53.9999983520508,10|0,0:0|0:0,0:0:0:0:
195,333,152313,1,0,0:0:0:0:
197,318,152423,1,0,0:0:0:0:
199,303,152523,2,0,L|252:307,1,53.9999983520508,10|0,0:0|0:0,0:0:0:0:
179,220,152723,2,0,L|232:224,1,53.9999983520508,0|0,0:0|0:0,0:0:0:0:
451,129,152914,5,10,0:0:0:0:
373,163,153005,1,8,0:0:0:0:
477,226,153105,1,8,0:0:0:0:
384,175,153205,1,8,0:0:0:0:
394,259,153305,5,4,0:3:0:0:
409,271,153405,1,4,0:3:0:0:
404,284,153505,1,4,0:3:0:0:
414,294,153605,1,4,0:3:0:0:
447,362,153705,5,6,0:0:0:0:
447,362,153915,6,0,P|383:322|368:331,1,90
231,352,154103,2,0,P|297:316|297:299,1,90,2|0,0:0|0:0,0:0:0:0:
297,129,154291,6,0,L|316:228,1,101.250003862381,4|0,0:0|0:0,0:0:0:0:
146,313,154701,5,8,0:0:0:0:
186,235,154792,1,8,0:0:0:0:
63,284,154892,5,8,0:0:0:0:
39,200,154992,1,8,0:0:0:0:
170,147,155092,5,8,0:0:0:0:
156,139,155192,1,8,0:0:0:0:
156,156,155292,1,6,1:3:0:0:
113,70,155501,5,0,0:0:0:0:
113,70,155699,2,0,P|197:109|262:93,1,135.000005149842,2|2,0:0|0:0,0:0:0:0:
357,36,156092,1,2,0:0:0:0:
423,220,156302,2,0,B|414:76|283:191|259:29,1,270.000010299683,2|0,0:0|0:0,0:0:0:0:
481,269,156902,5,0,0:0:0:0:
431,119,157102,1,2,0:0:0:0:
399,295,157302,1,2,0:0:0:0:
501,182,157502,1,2,0:0:0:0:
298,207,157695,2,0,L|326:366,1,135.000005149842,10|2,0:0|0:0,0:0:0:0:
484,170,158108,2,0,L|447:376,1,202.500007724762,2|0,0:0|0:0,0:0:0:0:
244,377,158501,5,0,0:0:0:0:
311,300,158701,1,0,0:0:0:0:
134,277,158917,1,2,0:0:0:0:
131,270,159017,1,2,0:0:0:0:
128,263,159117,1,2,0:0:0:0:
75,333,159283,1,10,0:0:0:0:
60,165,159500,2,0,B|169:186|97:265|250:300,1,202.500007724762,2|0,0:0|0:0,0:0:0:0:
367,339,159900,5,4,0:0:0:0:
363,319,159950,1,4,0:0:0:0:
360,299,160000,1,4,0:0:0:0:
357,279,160050,1,4,0:0:0:0:
331,252,160100,5,10,0:0:0:0:
467,179,160291,6,0,P|395:192|383:228,1,90,4|0,0:2|0:0,0:0:0:0:
294,179,160477,2,0,P|272:140|230:130,1,90,0|0,0:0|0:0,0:0:0:0:
123,84,160713,6,0,L|147:239,1,135,6|0,0:0|0:0,0:0:0:0:
221,363,161099,1,0,0:0:0:0:
210,358,161199,1,0,0:0:0:0:
128,346,161277,5,8,0:0:0:0:
179,283,161377,1,8,0:0:0:0:
259,280,161463,1,8,0:0:0:0:
322,330,161563,1,8,0:0:0:0:
388,378,161663,5,4,1:0:0:0:
394,356,161763,1,4,1:0:0:0:
404,335,161863,1,4,1:0:0:0:
421,321,161963,1,4,1:0:0:0:
503,288,162075,6,0,L|492:354,1,45,4|4,1:0|1:0,0:0:0:0:
452,194,162275,2,0,L|441:260,1,45,4|4,1:0|1:0,0:0:0:0:
258,279,162475,2,0,L|251:235,1,45,4|4,1:0|1:0,0:0:0:0:
287,70,162673,5,4,0:0:0:0:
273,102,162739,1,4,0:0:0:0:
244,122,162806,1,4,0:0:0:0:
198,108,162873,5,10,0:0:0:0:
198,108,163294,5,10,0:0:0:0:
193,130,163394,1,0,0:0:0:0:
187,149,163494,2,0,L|282:131,1,67.5000025749208,0|0,0:0|0:0,0:0:0:0:
422,232,163694,1,10,0:0:0:0:
417,210,163794,1,0,0:0:0:0:
411,191,163894,2,0,L|506:209,1,67.5000025749208,0|0,0:0|0:0,0:0:0:0:
241,239,164113,6,0,L|174:250,1,67.5000025749208,10|0,0:0|0:0,0:0:0:0:
352,282,164313,2,0,L|395:333,1,67.5000025749208,0|0,0:0|0:0,0:0:0:0:
332,165,164513,2,0,L|363:80,1,67.5000025749208,10|0,0:0|0:0,0:0:0:0:
70,54,164713,5,0,0:0:0:0:
80,100,164813,1,0,0:0:0:0:
90,146,164913,2,0,L|113:251,1,67.5000025749208,10|0,0:0|0:0,0:0:0:0:
206,49,165113,2,0,L|183:154,1,67.5000025749208,0|0,0:0|0:0,0:0:0:0:
85,160,165313,2,0,L|108:265,1,67.5000025749208,10|0,0:0|0:0,0:0:0:0:
289,19,165513,2,0,L|266:124,1,67.5000025749208,0|0,0:0|0:0,0:0:0:0:
110,308,165691,5,10,0:0:0:0:
307,205,165891,1,4,1:0:0:0:
479,362,166091,1,4,1:0:0:0:
479,362,166491,6,0,L|465:277,1,67.5000025749208,4|0,0:2|0:0,0:0:0:0:
479,362,167691,6,0,L|465:277,1,67.5000025749208,4|0,1:2|0:0,0:0:0:0:
321,311,168122,2,0,L|335:226,1,67.5000025749208,4|0,1:2|0:0,0:0:0:0:
416,211,168693,2,0,L|402:126,1,67.5000025749208,4|0,1:2|0:0,0:0:0:0:
168,53,169265,5,4,1:3:0:0:
254,67,169365,1,8,0:0:0:0:
340,81,169465,2,0,L|192:102,1,90,8|8,0:0|0:0,0:0:0:0:
118,286,169665,6,0,P|115:342|78:368,1,90,0|8,1:0|0:0,0:0:0:0:
71,191,169865,2,0,P|24:160|19:115,1,90,0|8,1:0|0:0,0:0:0:0:
176,197,170065,2,0,P|225:171|267:190,1,90,0|8,1:0|0:0,0:0:0:0:
372,364,170282,2,0,L|349:233,1,90,0|8,1:0|0:0,0:0:0:0:
415,97,170483,5,0,1:0:0:0:
503,113,170575,1,8,0:0:0:0:
405,85,170684,2,0,P|340:120|305:113,1,90,0|8,1:0|0:0,0:0:0:0:
229,35,170883,2,0,L|244:123,1,90,0|8,1:0|0:0,0:0:0:0:
369,223,171077,2,0,P|325:231|289:206,1,90,0|8,1:0|0:0,0:0:0:0:
151,43,171290,6,0,P|107:34|34:144,1,180,0|0,1:0|1:0,0:0:0:0:
54,334,171590,1,8,0:0:0:0:
38,317,171690,2,0,L|135:327,1,90,0|8,1:0|0:0,0:0:0:0:
330,307,171903,2,0,P|308:345|266:359,1,90,0|8,1:0|0:0,0:0:0:0:
167,246,172114,2,0,P|180:204|219:182,1,90,0|8,1:0|0:0,0:0:0:0:
418,64,172290,1,0,1:0:0:0:
415,71,172390,1,8,0:0:0:0:
495,111,172490,5,0,1:0:0:0:
386,162,172590,1,8,0:0:0:0:
455,215,172703,2,0,L|448:264,1,33.7500012874604,0|8,1:0|0:0,0:0:0:0:
460,328,172899,6,0,P|399:243|289:242,1,180,0|0,1:0|1:0,0:0:0:0:
114,264,173199,1,8,0:0:0:0:
161,329,173327,2,0,P|195:275|163:224,1,90,0|8,1:0|0:0,0:0:0:0:
36,276,173518,2,0,P|35:232|65:200,1,90,0|8,1:0|0:0,0:0:0:0:
8,32,173718,6,0,P|53:107|138:130,1,180,0|0,1:0|1:0,0:0:0:0:
418,104,174001,1,8,0:0:0:0:
420,122,174113,2,0,L|393:17,1,90,0|8,1:0|0:0,0:0:0:0:
316,217,174301,2,0,L|265:122,1,90,0|8,1:0|0:0,0:0:0:0:
274,384,174499,6,0,L|139:241,1,180,0|0,1:0|1:0,0:0:0:0:
112,43,174780,1,8,0:0:0:0:
126,33,174895,2,0,L|101:131,1,90,0|8,1:0|0:0,0:0:0:0:
41,313,175088,1,0,1:0:0:0:
8,238,175188,1,8,0:0:0:0:
79,200,175288,6,0,L|187:214,1,90,0|8,1:0|0:0,0:0:0:0:
433,168,175488,1,0,1:0:0:0:
481,103,175588,1,8,0:0:0:0:
467,97,175688,2,0,P|473:160|502:200,1,90,0|8,1:0|0:0,0:0:0:0:
291,65,175888,2,0,P|261:121|219:147,1,90,0|8,1:0|0:0,0:0:0:0:
386,35,176087,6,0,P|364:161|343:322,1,207.000003948212,0|8,1:0|0:0,0:0:0:0:
136,297,176390,1,8,0:0:0:0:
212,356,176481,1,8,0:0:0:0:
303,313,176581,1,8,0:0:0:0:
394,344,176698,2,0,B|442:341|442:341|330:305,1,103.500001974106,0|0,1:0|0:0,0:0:0:0:
122,176,176899,5,8,0:0:0:0:
67,240,176990,1,8,0:0:0:0:
64,105,177090,5,8,0:0:0:0:
134,188,177190,1,8,0:0:0:0:
132,63,177316,6,0,L|115:169,1,103.500001974106,0|8,1:0|0:0,0:0:0:0:
197,355,177505,5,8,0:0:0:0:
65,260,177605,1,8,0:0:0:0:
276,293,177705,5,4,0:3:0:0:
296,288,177771,1,4,0:3:0:0:
316,284,177838,1,4,0:3:0:0:
336,280,177905,1,4,0:3:0:0:
197,131,178110,5,4,0:3:0:0:
213,134,178176,1,4,0:3:0:0:
229,137,178243,1,4,0:3:0:0:
245,140,178310,2,0,P|288:124|303:56,1,103.500001974106,4|0,0:3|0:0,0:0:0:0:
227,37,178510,5,4,1:0:0:0:
228,42,178576,1,4,1:0:0:0:
229,47,178643,1,4,1:0:0:0:
230,52,178710,1,4,1:0:0:0:
347,179,178948,6,0,L|334:299,1,101.250003862381,4|0,0:2|0:0,0:0:0:0:
382,370,179339,6,0,P|477:336|487:351,1,90,0|8,1:0|0:0,0:0:0:0:
271,356,179539,2,0,P|185:302|172:315,1,90,0|8,1:0|0:0,0:0:0:0:
94,132,179707,1,0,1:0:0:0:
136,63,179807,1,8,0:0:0:0:
105,137,179928,2,0,L|122:256,1,90,0|8,1:0|0:0,0:0:0:0:
222,229,180124,2,0,P|209:157|250:122,1,90,0|8,1:0|0:0,0:0:0:0:
99,351,180300,2,0,P|40:309|44:255,1,90,0|8,1:0|0:0,0:0:0:0:
387,290,180493,6,0,P|435:186|529:159,1,180,0|0,1:0|1:0,0:0:0:0:
356,32,180784,1,8,0:0:0:0:
388,111,180884,5,0,1:0:0:0:
405,104,180984,1,8,0:0:0:0:
420,94,181084,1,0,1:0:0:0:
431,80,181184,1,8,0:0:0:0:
470,25,181301,2,0,L|436:141,1,90,0|8,1:0|0:0,0:0:0:0:
302,109,181501,2,0,L|268:225,1,90,0|8,1:0|0:0,0:0:0:0:
63,267,181685,5,0,1:0:0:0:
40,189,181785,1,8,0:0:0:0:
111,151,181901,2,0,L|223:169,1,90,0|8,1:0|0:0,0:0:0:0:
417,258,182113,2,0,L|305:276,1,90,0|8,1:0|0:0,0:0:0:0:
55,275,182275,1,0,1:0:0:0:
49,289,182375,1,8,0:0:0:0:
24,309,182487,6,0,P|135:348|174:289,1,180,0|0,1:0|1:0,0:0:0:0:
241,99,182763,1,8,0:0:0:0:
170,47,182878,2,0,L|196:147,1,90,0|8,1:0|0:0,0:0:0:0:
317,46,183084,2,0,L|343:146,1,90,0|8,1:0|0:0,0:0:0:0:
496,334,183273,5,0,1:0:0:0:
457,273,183373,1,8,0:0:0:0:
396,238,183473,1,0,1:0:0:0:
324,235,183573,1,8,0:0:0:0:
256,258,183673,2,0,P|254:316|305:347,1,90,0|8,1:0|0:0,0:0:0:0:
507,340,183910,2,0,P|509:282|458:251,1,90,0|8,1:0|0:0,0:0:0:0:
409,31,184104,6,0,P|365:115|265:104,1,180,0|0,1:0|1:0,0:0:0:0:
87,89,184377,1,8,0:0:0:0:
106,69,184511,2,0,B|73:246|116:71|80:246,1,180,0|0,1:0|1:0,0:0:0:0:
333,209,184790,5,8,0:0:0:0:
413,196,184913,2,0,L|521:182,1,90,0|8,1:0|0:0,0:0:0:0:
253,222,185113,2,0,L|145:236,1,90,0|8,1:0|0:0,0:0:0:0:
346,289,185301,2,0,L|360:397,1,90,0|8,1:0|0:0,0:0:0:0:
320,129,185487,2,0,L|306:21,1,90,0|8,1:0|0:0,0:0:0:0:
229,19,185698,6,0,P|357:46|426:110,1,180,4|0,1:2|1:0,0:0:0:0:
457,291,185975,1,8,0:0:0:0:
460,303,186100,2,0,P|483:242|512:224,1,90,0|8,1:0|0:0,0:0:0:0:
376,281,186291,2,0,P|374:215|394:188,1,90,0|8,1:0|0:0,0:0:0:0:
226,128,186491,6,0,P|249:189|278:207,1,90,0|8,1:0|0:0,0:0:0:0:
142,150,186691,2,0,P|140:215|160:242,1,90,0|8,1:0|0:0,0:0:0:0:
10,296,186891,2,0,P|125:318|227:375,1,180,0|0,1:0|1:0,0:0:0:0:
405,331,187191,1,8,0:0:0:0:
334,373,187314,6,0,B|309:349|309:349|319:285,1,90,0|8,1:0|0:0,0:0:0:0:
482,352,187514,2,0,B|496:320|496:320|462:264,1,90,0|8,1:0|0:0,0:0:0:0:
435,25,187690,1,0,1:0:0:0:
405,90,187790,1,8,0:0:0:0:
336,112,187890,1,0,1:0:0:0:
266,92,187990,1,8,0:0:0:0:
212,38,188113,6,0,P|250:134|239:160,1,90,0|8,1:0|0:0,0:0:0:0:
153,282,188313,2,0,P|163:238|193:205,1,90,0|8,1:0|0:0,0:0:0:0:
490,191,188475,1,0,1:0:0:0:
439,241,188575,1,8,0:0:0:0:
367,233,188701,2,0,L|250:215,1,90,0|8,1:0|0:0,0:0:0:0:
64,281,188901,6,0,P|30:120|-4:100,1,180,0|0,1:0|1:0,0:0:0:0:
45,33,189174,1,8,0:0:0:0:
59,38,189303,2,0,P|129:63|163:51,1,90,0|8,1:0|0:0,0:0:0:0:
275,28,189513,2,0,L|230:153,1,90,0|8,1:0|0:0,0:0:0:0:
296,271,189697,5,0,1:0:0:0:
291,262,189797,1,8,0:0:0:0:
373,247,189903,2,0,P|427:273|450:310,1,90,0|8,1:0|0:0,0:0:0:0:
263,341,190103,2,0,P|213:374|169:376,1,90,0|8,1:0|0:0,0:0:0:0:
237,198,190303,2,0,P|232:138|253:99,1,90,0|8,1:0|0:0,0:0:0:0:
461,73,190495,5,0,1:0:0:0:
454,79,190595,1,8,0:0:0:0:
374,72,190695,5,8,0:0:0:0:
450,90,190795,1,8,0:0:0:0:
357,78,190895,5,8,0:0:0:0:
489,164,190995,1,8,0:0:0:0:
329,167,191103,6,0,L|347:281,1,90,8|0,0:0|0:0,0:0:0:0:
110,303,191316,5,8,0:0:0:0:
183,257,191412,1,8,0:0:0:0:
115,321,191509,5,8,0:0:0:0:
93,208,191606,1,8,0:0:0:0:
207,331,191736,6,0,L|221:242,1,90,0|8,0:0|0:0,0:0:0:0:
136,6,191912,2,0,L|121:94,1,90,8|8,0:0|0:0,0:0:0:0:
86,331,192088,5,4,0:2:0:0:
42,322,192188,1,0,0:0:0:0:
15,287,192288,1,0,0:0:0:0:
18,243,192388,1,0,0:0:0:0:
49,211,192488,1,0,0:0:0:0:
93,208,192588,1,0,0:0:0:0:
128,234,192688,1,0,0:0:0:0:
149,273,192788,1,0,0:0:0:0:
221,312,192874,6,0,L|238:216,2,67.5000025749208,8|0|0,0:0|0:0|0:0,0:0:0:0:
252,145,193197,1,0,0:0:0:0:
259,153,193318,2,0,L|163:170,1,67.5000025749208,0|0,0:0|0:0,0:0:0:0:
308,324,193493,2,0,L|374:312,1,67.5000025749208,0|0,0:0|0:0,0:0:0:0:
500,232,193704,5,4,1:2:0:0:
496,179,193804,1,0,0:0:0:0:
470,132,193904,1,0,0:0:0:0:
422,108,194004,1,0,0:0:0:0:
361,174,194104,5,0,0:0:0:0:
368,205,194204,1,0,0:0:0:0:
350,233,194304,1,0,0:0:0:0:
318,238,194404,1,0,0:0:0:0:
267,308,194512,6,0,P|248:336|247:369,1,67.5000025749208,8|0,0:0|0:0,0:0:0:0:
249,184,194712,2,0,P|235:153|207:134,1,67.5000025749208,8|0,0:0|0:0,0:0:0:0:
185,262,194912,5,0,0:0:0:0:
191,262,195012,1,0,0:0:0:0:
184,256,195100,1,8,0:0:0:0:
191,255,195212,1,0,0:0:0:0:
105,309,195312,5,4,1:2:0:0:
156,267,195412,1,0,0:0:0:0:
165,202,195512,1,0,0:0:0:0:
127,149,195612,1,0,0:0:0:0:
62,137,195712,6,0,P|38:118|46:71,1,67.5000025749208
291,143,195912,2,0,P|279:173|248:183,1,67.5000025749208
131,66,196095,2,0,L|118:0,1,67.5000025749208,8|0,0:0|0:0,0:0:0:0:
206,13,196295,2,0,L|219:79,1,67.5000025749208,0|0,0:0|0:0,0:0:0:0:
153,206,196488,5,0,0:0:0:0:
135,214,196588,1,0,0:0:0:0:
121,230,196688,1,0,0:0:0:0:
115,249,196788,1,0,0:0:0:0:
113,282,196888,5,4,1:2:0:0:
151,336,196988,1,0,0:0:0:0:
216,348,197088,1,0,0:0:0:0:
272,314,197188,1,0,0:0:0:0:
273,299,197288,5,0,0:0:0:0:
311,245,197388,1,0,0:0:0:0:
376,233,197488,1,0,0:0:0:0:
432,267,197588,1,0,0:0:0:0:
498,322,197688,5,4,0:3:0:0:
503,308,197788,1,4,0:3:0:0:
510,229,197888,5,8,0:0:0:0:
457,168,197988,1,8,0:0:0:0:
448,124,198088,1,4,1:0:0:0:
455,88,198188,1,4,1:0:0:0:
466,67,198288,1,4,1:0:0:0:
477,57,198388,1,4,1:0:0:0:
502,43,198491,6,0,L|379:57,1,67.5000025749208,4|0,1:2|0:0,0:0:0:0:
214,78,198707,2,0,L|281:70,1,67.5000025749208,0|0,0:0|0:0,0:0:0:0:
363,61,198898,1,0,0:0:0:0:
359,56,198998,1,0,0:0:0:0:
354,61,199098,1,0,0:0:0:0:
359,66,199198,1,0,0:0:0:0:
397,142,199298,6,0,P|347:168|331:205,1,67.5000025749208,8|0,0:0|0:0,0:0:0:0:
268,148,199498,2,0,P|251:201|265:239,1,67.5000025749208,0|0,0:0|0:0,0:0:0:0:
307,359,199721,2,0,P|306:325|291:295,1,67.5000025749208,0|0,0:0|0:0,0:0:0:0:
218,323,199907,2,0,P|194:299|162:289,1,67.5000025749208,0|0,0:0|0:0,0:0:0:0:
19,359,200100,5,4,1:2:0:0:
1,294,200200,1,0,0:0:0:0:
23,232,200300,1,0,0:0:0:0:
77,193,200400,1,0,0:0:0:0:
154,207,200500,5,0,0:0:0:0:
160,208,200600,1,0,0:0:0:0:
159,214,200700,1,0,0:0:0:0:
152,213,200800,1,0,0:0:0:0:
116,114,200896,6,0,P|109:73|108:30,1,67.5000025749208,8|0,0:0|0:0,0:0:0:0:
246,224,201096,2,0,L|235:273,3,33.7500012874604,0|0|0|0,0:0|0:0|0:0|0:0,0:0:0:0:
212,147,201307,2,0,P|279:129|294:140,1,67.5000025749208,0|0,0:0|0:0,0:0:0:0:
218,348,201498,2,0,P|187:335|170:306,1,67.5000025749208,8|0,0:0|0:0,0:0:0:0:
0,151,201713,5,4,1:2:0:0:
14,215,201813,1,0,0:0:0:0:
69,250,201913,1,0,0:0:0:0:
133,235,202013,1,0,0:0:0:0:
168,179,202113,1,0,0:0:0:0:
203,123,202213,1,0,0:0:0:0:
267,108,202313,1,0,0:0:0:0:
322,143,202413,1,0,0:0:0:0:
337,208,202513,6,0,L|315:315,1,67.5000025749208,8|0,0:0|0:0,0:0:0:0:
254,195,202713,2,0,L|232:302,1,67.5000025749208,0|0,0:0|0:0,0:0:0:0:
170,308,202891,2,0,B|306:286|238:377|368:372,1,202.500007724762,8|0,0:0|0:0,0:0:0:0:
490,348,203277,6,0,B|441:337|441:337|410:205,1,180,6|0,0:3|0:0,0:0:0:0:
349,128,203610,2,0,B|384:163|384:163|338:291,1,180,6|0,0:3|0:0,0:0:0:0:
260,296,203910,2,0,B|221:322|221:322|299:317,1,90,4|0,0:2|0:0,0:0:0:0:
497,230,204106,1,4,0:2:0:0:
497,230,204899,5,4,0:3:0:0:
464,90,205099,2,0,P|508:133|504:190,1,72,2|0,0:0|0:0,0:0:0:0:
455,307,205277,2,0,L|428:312,1,26.9999991760254,2|0,0:0|0:0,0:0:0:0:
253,268,205477,6,0,P|240:309|135:304,1,135.000005149842,10|0,0:0|0:0,0:0:0:0:
52,324,205888,1,0,1:0:0:0:
43,308,205988,1,0,0:0:0:0:
36,291,206088,2,0,L|46:238,1,45,0|0,0:0|0:0,0:0:0:0:
7,136,206278,5,0,1:0:0:0:
23,145,206344,1,0,1:0:0:0:
39,154,206411,1,0,1:0:0:0:
56,161,206478,2,0,L|109:151,1,45,8|0,0:0|0:0,0:0:0:0:
245,59,206693,5,0,0:0:0:0:
258,200,206913,1,0,1:0:0:0:
171,17,207106,1,8,0:0:0:0:
355,9,207306,2,0,P|335:35|327:68,1,67.5000025749208,0|0,0:0|0:0,0:0:0:0:
449,333,207483,5,0,1:0:0:0:
384,383,207549,1,0,1:0:0:0:
376,303,207616,1,0,1:0:0:0:
377,291,207683,2,0,L|388:203,1,67.5000025749208,8|0,0:0|0:0,0:0:0:0:
512,106,207883,5,0,1:0:0:0:
498,129,207949,1,0,1:0:0:0:
477,146,208016,1,0,1:0:0:0:
451,155,208105,2,0,P|417:146|391:126,1,67.5000025749208,8|0,0:0|0:0,0:0:0:0:
238,37,208293,5,0,1:0:0:0:
238,37,208499,2,0,L|246:104,1,67.5000025749208,0|0,1:0|0:0,0:0:0:0:
287,351,208699,1,8,0:0:0:0:
287,351,209099,5,0,1:0:0:0:
282,325,209199,1,0,1:0:0:0:
286,299,209299,1,0,1:0:0:0:
295,274,209399,1,0,1:0:0:0:
363,323,209499,5,8,0:0:0:0:
288,76,209687,5,0,1:0:0:0:
332,103,209787,1,0,1:0:0:0:
351,152,209887,1,0,1:0:0:0:
333,202,209987,1,0,1:0:0:0:
320,198,210087,5,0,1:0:0:0:
306,197,210187,1,0,1:0:0:0:
237,168,210287,1,8,0:0:0:0:
223,169,210387,1,0,1:0:0:0:
172,236,210505,6,0,L|189:301,1,67.5000025749208,0|0,1:0|1:0,1:0:0:0:
146,152,210705,2,0,L|128:86,1,67.5000025749208,0|0,1:0|1:0,1:0:0:0:
29,251,210915,1,8,0:0:0:0:
29,251,211115,5,0,1:0:0:0:
55,247,211181,1,0,1:0:0:0:
82,243,211248,1,0,1:0:0:0:
108,227,211323,6,0,P|165:251|186:302,1,90,8|0,0:0|0:0,0:0:0:0:
354,272,211543,2,0,P|292:272|253:312,1,90,2|0,1:3|0:0,0:0:0:0:
108,227,211724,2,0,P|165:251|186:302,1,90,2|0,1:3|0:0,0:0:0:0:
411,329,211924,6,0,L|379:165,1,135,4|0,0:2|0:0,0:0:0:0:
408,122,212310,1,0,1:0:0:0:
408,113,212410,1,0,0:0:0:0:
415,117,212510,1,0,0:0:0:0:
505,101,212698,5,0,1:0:0:0:
493,73,212764,1,0,1:0:0:0:
474,49,212831,1,0,1:0:0:0:
449,32,212921,2,0,P|370:27|330:62,1,135.000005149842,8|0,0:0|0:0,0:0:0:0:
279,204,213321,1,0,1:0:0:0:
247,83,213504,2,0,P|286:139|297:298,1,202.500007724762,8|0,0:0|0:0,0:0:0:0:
147,332,213873,5,0,1:0:0:0:
156,336,213939,1,0,1:0:0:0:
166,340,214006,1,0,1:0:0:0:
177,345,214073,2,0,P|193:274|169:243,1,67.5000025749208,8|0,0:0|0:0,0:0:0:0:
0,202,214289,5,0,1:0:0:0:
21,217,214355,1,0,1:0:0:0:
46,226,214422,1,0,1:0:0:0:
73,226,214489,2,0,L|198:211,1,67.5000025749208,8|0,0:0|0:0,0:0:0:0:
356,195,214689,1,0,1:0:0:0:
171,138,214875,1,0,1:0:0:0:
361,281,215075,1,8,0:0:0:0:
361,281,215501,5,0,1:0:0:0:
365,240,215601,1,0,1:0:0:0:
384,205,215701,1,0,1:0:0:0:
416,181,215801,1,0,1:0:0:0:
481,154,215894,2,0,L|471:260,1,67.5000025749208,8|0,0:0|0:0,0:0:0:0:
506,369,216086,5,0,1:0:0:0:
457,322,216182,1,0,1:0:0:0:
396,295,216279,1,0,1:0:0:0:
329,293,216376,1,0,1:0:0:0:
242,338,216495,5,4,1:3:0:0:
244,304,216595,1,0,1:0:0:0:
247,270,216695,1,0,1:0:0:0:
250,237,216795,1,0,1:0:0:0:
252,149,216895,5,4,1:3:0:0:
228,151,216995,1,0,1:0:0:0:
192,167,217095,1,0,1:0:0:0:
168,165,217195,1,0,1:0:0:0:
92,218,217295,5,4,1:3:0:0:
86,204,217395,1,0,1:0:0:0:
65,181,217495,1,0,1:0:0:0:
15,169,217595,1,0,1:0:0:0:
3,174,217695,6,0,P|26:259|42:342,1,135.000005149842,4|4,0:2|1:0,0:0:0:0:
128,267,218022,1,0,0:0:0:0:
138,265,218122,2,0,P|129:306|118:336,1,67.5000025749208,4|0,1:0|0:0,0:0:0:0:
213,324,218313,2,0,P|198:363|174:391,1,67.5000025749208,4|0,1:2|0:0,0:0:0:0:
360,245,218523,5,8,0:0:0:0:
339,255,218623,1,0,0:0:0:0:
322,251,218723,2,0,L|345:181,1,67.5000025749208,0|0,0:0|0:0,0:0:0:0:
397,336,218923,2,0,L|441:285,1,67.5000025749208,0|0,0:0|0:0,0:0:0:0:
220,227,219123,2,0,L|215:154,1,67.5000025749208,0|0,0:0|0:0,0:0:0:0:
461,48,219323,5,0,1:0:0:0:
435,79,219423,1,0,0:0:0:0:
396,91,219523,2,0,L|306:86,1,67.5000025749208,0|0,0:0|0:0,0:0:0:0:
102,90,219723,1,0,1:0:0:0:
78,26,219823,1,0,0:0:0:0:
117,80,219923,2,0,L|104:183,1,67.5000025749208,0|0,0:0|0:0,0:0:0:0:
255,317,220123,5,8,0:0:0:0:
175,332,220223,1,0,0:0:0:0:
118,273,220323,2,0,P|141:213|169:208,1,67.5000025749208,0|0,0:0|0:0,0:0:0:0:
351,312,220504,2,0,P|351:345|330:370,1,67.5000025749208,0|0,1:0|0:0,0:0:0:0:
66,355,220717,2,0,P|39:296|56:272,1,67.5000025749208,0|0,1:0|0:0,0:0:0:0:
180,142,220917,6,0,P|256:187|356:199,1,135.000005149842,0|0,1:0|0:0,0:0:0:0:
487,184,221217,1,0,0:0:0:0:
484,177,221317,2,0,P|477:140|451:124,1,67.5000025749208,0|0,0:0|0:0,0:0:0:0:
368,130,221517,2,0,L|395:240,1,67.5000025749208,0|0,1:0|0:0,0:0:0:0:
467,355,221717,5,8,0:0:0:0:
485,364,221817,1,0,0:0:0:0:
495,346,221917,1,0,0:0:0:0:
477,337,222017,1,0,0:0:0:0:
405,310,222108,2,0,L|314:337,1,67.5000025749208,0|0,0:0|0:0,0:0:0:0:
95,313,222308,1,0,0:0:0:0:
172,347,222408,1,0,0:0:0:0:
163,352,222508,6,0,L|148:253,1,67.5000025749208,0|0,1:0|0:0,0:0:0:0:
60,151,222708,1,0,0:0:0:0:
75,185,222808,1,0,0:0:0:0:
90,222,222931,2,0,L|23:211,1,67.5000025749208,0|0,1:0|0:0,0:0:0:0:
7,126,223123,2,0,L|74:137,1,67.5000025749208,0|0,0:0|0:0,0:0:0:0:
281,285,223309,5,0,1:0:0:0:
290,231,223404,1,0,0:0:0:0:
317,184,223500,1,0,0:0:0:0:
359,150,223595,1,0,0:0:0:0:
429,182,223691,5,4,1:3:0:0:
417,198,223786,1,4,0:3:0:0:
410,217,223882,1,4,0:3:0:0:
408,237,223977,1,4,0:3:0:0:
512,232,224089,6,0,P|508:251|514:239,1,67.5000025749208,4|0,1:2|0:0,0:0:0:0:
500,119,224289,2,0,P|452:94|442:63,1,67.5000025749208,4|0,1:0|0:0,0:0:0:0:
453,332,224517,2,0,P|400:336|378:362,1,67.5000025749208,4|0,1:0|0:0,0:0:0:0:
222,343,224708,1,4,1:2:0:0:
208,328,224808,1,0,0:0:0:0:
188,322,224908,6,0,L|180:250,1,67.5000025749208,8|0,0:0|0:0,0:0:0:0:
86,63,225108,1,0,0:0:0:0:
163,31,225208,1,0,0:0:0:0:
154,54,225311,2,0,L|133:137,1,67.5000025749208,0|0,0:0|0:0,0:0:0:0:
97,269,225511,2,0,L|113:203,1,67.5000025749208,0|0,0:0|0:0,0:0:0:0:
308,106,225711,5,0,1:0:0:0:
322,92,225811,1,0,0:0:0:0:
301,91,225911,2,0,P|249:129|243:166,1,67.5000025749208,0|0,0:0|0:0,0:0:0:0:
16,223,226123,1,0,0:0:0:0:
5,142,226223,1,0,0:0:0:0:
85,146,226327,2,0,L|175:168,1,67.5000025749208
432,234,226538,6,0,L|356:240,1,67.5000025749208,8|0,0:0|0:0,0:0:0:0:
217,287,226698,1,0,1:0:0:0:
226,294,226798,1,0,1:0:0:0:
235,304,226898,2,0,L|311:310,1,67.5000025749208,8|0,0:0|0:0,0:0:0:0:
388,319,227098,2,0,L|464:325,1,67.5000025749208,8|0,0:0|0:0,0:0:0:0:
497,147,227283,5,12,0:0:0:0:
482,102,227383,1,0,0:0:0:0:
451,65,227483,1,0,0:0:0:0:
406,48,227583,1,0,0:0:0:0:
312,40,227683,5,12,0:0:0:0:
330,97,227783,1,0,0:0:0:0:
298,149,227883,1,0,0:0:0:0:
240,167,227983,1,0,0:0:0:0:
123,195,228083,5,12,0:0:0:0:
85,123,228183,1,0,0:0:0:0:
107,45,228283,1,0,0:0:0:0:
181,12,228383,1,0,0:0:0:0:
245,81,228483,5,12,0:0:0:0:
239,92,228583,1,0,0:0:0:0:
195,242,228683,1,0,0:0:0:0:
201,253,228783,1,0,0:0:0:0:
130,297,228907,6,0,P|250:331|312:366,1,180,2|0,0:0|0:0,0:0:0:0:
475,205,229207,2,0,P|394:244|306:264,1,180,2|0,0:0|0:0,0:0:0:0:
233,170,229490,2,0,P|271:152|302:182,1,90,4|0,1:2|0:0,0:0:0:0:
378,376,229690,1,4,0:2:0:0:
256,192,229790,12,0,231290,0:0:0:0:
168,140,231505,5,4,0:3:0:0:
172,157,231571,1,4,0:3:0:0:
175,175,231638,1,4,0:3:0:0:
156,206,231705,5,8,0:0:0:0:
246,64,231905,1,0,1:0:0:0:
82,294,232091,6,0,P|45:235|43:152,1,135.000005149842,4|0,1:2|0:0,0:0:0:0:
33,80,232449,6,0,L|123:106,1,67.5000025749208,4|0,1:0|0:0,0:0:0:0:
173,118,232717,1,4,1:0:0:0:
322,43,232917,6,0,P|261:52|224:93,1,67.5000025749208,8|0,0:0|0:0,0:0:0:0:
353,139,233117,1,0,0:0:0:0:
341,134,233217,1,0,0:0:0:0:
330,134,233317,2,0,P|293:182|295:238,1,67.5000025749208,8|0,0:0|0:0,0:0:0:0:
446,174,233517,1,0,0:0:0:0:
418,191,233617,1,0,0:0:0:0:
397,217,233717,2,0,P|404:278|456:334,1,135.000005149842,4|0,0:3|0:0,0:0:0:0:
462,335,234017,6,0,P|501:312|490:266,1,67.5000025749208,4|0,1:0|0:0,0:0:0:0:
446,174,234303,1,4,1:0:0:0:
290,284,234511,6,0,L|192:264,1,67.5000025749208,8|0,0:0|0:0,0:0:0:0:
50,320,234704,1,0,1:0:0:0:
67,325,234804,1,0,1:0:0:0:
80,326,234890,2,0,L|178:306,1,67.5000025749208,8|0,0:0|0:0,0:0:0:0:
172,168,235113,1,0,1:0:0:0:
162,121,235213,1,0,1:0:0:0:
146,77,235298,2,0,P|166:173|167:260,1,135.000005149842,4|0,0:3|0:0,0:0:0:0:
198,353,235609,6,0,P|173:292|117:296,1,90,4|0,1:0|0:0,0:0:0:0:
50,320,235892,1,4,1:0:0:0:
8,152,236100,6,0,B|-6:183|-6:183|118:163,1,135.000005149842,8|0,0:0|1:0,0:0:0:0:
346,95,236400,1,0,1:0:0:0:
337,83,236488,2,0,L|327:137,1,33.7500012874604,8|0,0:0|0:0,0:0:0:0:
354,292,236711,1,0,1:0:0:0:
315,302,236811,1,0,1:0:0:0:
282,279,236892,2,0,L|299:190,1,90,4|0,0:3|0:0,0:0:0:0:
418,131,237208,1,4,1:0:0:0:
418,131,237308,1,0,0:0:0:0:
184,27,237504,5,0,1:0:0:0:
194,98,237604,1,0,1:0:0:0:
204,169,237704,1,8,0:0:0:0:
106,65,237904,1,0,1:0:0:0:
104,82,238004,1,0,1:0:0:0:
101,100,238104,1,8,0:0:0:0:
184,27,238311,5,8,0:0:0:0:
194,98,238411,1,8,0:0:0:0:
204,169,238511,2,0,P|148:170|91:234,1,135.000005149842,4|0,0:2|0:0,0:0:0:0:
91,302,238833,6,0,L|184:289,1,67.5000025749208,4|0,1:0|0:0,0:0:0:0:
235,278,239106,1,4,1:0:0:0:
496,309,239309,6,0,L|517:218,1,67.5000025749208,8|0,0:0|0:0,0:0:0:0:
410,309,239509,1,0,1:0:0:0:
415,289,239609,1,0,1:0:0:0:
421,269,239697,2,0,L|442:178,1,67.5000025749208,8|0,0:0|0:0,0:0:0:0:
318,319,239913,5,0,1:0:0:0:
331,273,240013,1,0,1:0:0:0:
342,226,240104,2,0,L|363:135,1,90,4|0,0:3|0:0,0:0:0:0:
384,66,240422,1,4,1:0:0:0:
508,86,240708,2,0,L|464:79,1,45,4|0,1:0|0:0,0:0:0:0:
301,29,240919,6,0,P|255:89|186:94,1,135.000005149842,8|0,0:0|1:0,0:0:0:0:
59,58,241219,1,0,1:0:0:0:
75,55,241300,2,0,P|113:90|104:133,1,67.5000025749208,8|0,0:0|0:0,0:0:0:0:
199,227,241530,1,0,1:0:0:0:
182,271,241630,1,0,1:0:0:0:
155,309,241712,2,0,P|193:218|185:150,1,135.000005149842,4|0,0:3|0:0,0:0:0:0:
142,5,242012,6,0,P|194:9|218:29,1,67.5000025749208,4|0,1:0|0:0,0:0:0:0:
200,97,242293,1,4,1:0:0:0:
414,236,242499,6,0,L|280:222,1,135.000005149842,8|0,0:0|1:0,0:0:0:0:
40,225,242790,1,0,1:0:0:0:
25,238,242890,5,0,1:0:0:0:
5,204,242990,1,0,1:0:0:0:
16,166,243090,1,0,1:0:0:0:
52,148,243190,1,0,1:0:0:0:
144,139,243283,5,8,0:0:0:0:
132,191,243364,1,8,0:0:0:0:
120,244,243480,5,2,1:3:0:0:
152,268,243580,1,2,1:3:0:0:
191,276,243680,1,2,1:3:0:0:
230,266,243780,1,2,1:3:0:0:
307,255,243898,5,8,0:0:0:0:
295,203,243976,1,8,0:0:0:0:
283,150,244076,5,2,1:3:0:0:
315,125,244176,1,2,1:3:0:0:
354,117,244276,1,2,1:3:0:0:
393,127,244376,1,2,1:3:0:0:
450,204,244476,5,8,0:0:0:0:
477,165,244562,1,8,0:0:0:0:
484,138,244676,1,4,0:3:0:0:
483,120,244776,1,4,0:3:0:0:
451,45,244876,5,4,0:2:0:0:
422,284,245056,1,0,0:0:0:0:
229,139,245213,1,4,1:0:0:0:
229,139,245313,1,0,1:0:0:0:
377,17,245495,5,4,1:0:0:0:
482,233,245698,1,8,0:0:0:0:
242,217,245904,1,0,0:0:0:0:
275,209,245997,1,0,0:0:0:0:
307,200,246085,1,8,0:0:0:0:
163,39,246313,5,0,0:0:0:0:
228,55,246413,1,0,0:0:0:0:
292,73,246506,2,0,P|219:42|132:93,1,135.000005149842,4|0,0:3|0:0,0:0:0:0:
86,70,246797,2,0,L|115:235,1,135.000005149842,4|0,1:0|0:0,0:0:0:0:
194,207,247090,2,0,L|182:273,1,67.5000025749208,4|0,1:0|0:0,0:0:0:0:
8,130,247311,1,8,0:0:0:0:
164,355,247531,1,0,1:0:0:0:
159,350,247631,1,0,1:0:0:0:
165,348,247731,1,8,0:0:0:0:
359,157,247927,5,0,1:0:0:0:
305,162,248027,1,0,1:0:0:0:
281,209,248127,1,4,0:0:0:0:
444,61,248327,1,0,0:0:0:0:
371,26,248427,1,4,1:0:0:0:
449,46,248527,1,0,0:0:0:0:
409,243,248703,1,4,1:0:0:0:
136,78,248923,1,8,0:0:0:0:
320,97,249104,1,0,1:0:0:0:
305,98,249204,1,0,1:0:0:0:
291,100,249304,1,8,0:0:0:0:
145,173,249509,5,0,1:0:0:0:
138,159,249609,1,0,1:0:0:0:
62,170,249709,2,0,B|187:212|63:163|191:206,1,135.000005149842,4|0,0:3|0:0,0:0:0:0:
375,320,250037,1,4,1:0:0:0:
368,334,250137,1,0,0:0:0:0:
395,107,250323,1,4,1:0:0:0:
419,177,250419,1,0,0:0:0:0:
364,227,250516,5,8,0:0:0:0:
397,233,250613,1,0,0:0:0:0:
427,248,250710,1,0,0:0:0:0:
451,272,250806,1,0,0:0:0:0:
466,355,250903,5,4,0:3:0:0:
461,354,251000,1,4,0:3:0:0:
456,353,251097,1,4,0:3:0:0:
451,352,251193,1,4,0:3:0:0:
368,334,251301,6,0,L|227:363,1,135.000005149842,4|0,0:2|0:0,0:0:0:0:
134,207,251619,1,4,1:0:0:0:
140,213,251719,1,0,0:0:0:0:
152,359,251919,2,0,P|160:318|146:268,1,67.5000025749208,4|0,1:0|0:0,0:0:0:0:
0,176,252119,2,0,P|33:172|66:180,1,67.5000025749208,8|0,0:0|0:0,0:0:0:0:
364,268,252312,5,0,1:0:0:0:
357,259,252378,1,0,1:0:0:0:
342,240,252445,1,0,1:0:0:0:
328,221,252512,1,0,1:0:0:0:
349,142,252612,1,0,1:0:0:0:
375,59,252712,5,4,0:3:0:0:
435,173,252812,1,4,0:3:0:0:
273,117,252912,2,0,P|350:132|446:145,1,135.000005149842,4|0,0:3|0:0,0:0:0:0:
512,200,253193,2,0,P|432:260|398:214,1,135.000005149842,4|0,1:0|0:0,0:0:0:0:
145,46,253504,1,4,1:0:0:0:
166,53,253570,1,0,1:0:0:0:
196,83,253637,1,0,1:0:0:0:
200,167,253720,2,0,L|185:267,1,67.5000025749208,8|0,0:0|0:0,0:0:0:0:
74,344,253906,5,0,1:0:0:0:
23,280,254006,1,0,1:0:0:0:
68,347,254106,2,0,P|137:336|164:300,1,67.5000025749208,0|0,0:0|0:0,0:0:0:0:
321,187,254323,1,0,1:0:0:0:
328,180,254423,1,0,1:0:0:0:
253,233,254523,5,6,0:3:0:0:
306,99,254656,1,2,0:0:0:0:
397,244,254789,1,2,0:0:0:0:
226,142,254923,5,2,0:0:0:0:
412,246,255056,1,2,0:0:0:0:
383,51,255189,1,2,0:0:0:0:
300,318,255323,5,8,0:0:0:0:
320,236,255423,1,0,1:0:0:0:
404,231,255523,1,0,1:0:0:0:
412,246,255623,1,0,1:0:0:0:
512,358,255723,5,8,0:0:0:0:
494,271,255823,1,0,1:0:0:0:
475,183,255914,2,0,L|460:116,1,67.5000025749208,0|0,1:0|1:0,0:0:0:0:
285,41,256092,5,4,0:3:0:0:
295,48,256192,1,4,0:3:0:0:
375,34,256292,5,8,0:0:0:0:
250,112,256392,1,8,0:0:0:0:
103,57,256492,2,0,L|187:67,1,67.5000025749208,8|8,0:0|0:0,0:0:0:0:
278,199,256692,2,0,L|211:207,1,67.5000025749208,4|4,0:3|0:3,0:0:0:0:
35,225,256880,5,8,0:0:0:0:
66,304,256980,1,8,0:0:0:0:
29,230,257080,5,8,0:0:0:0:
148,298,257180,1,8,0:0:0:0:
102,148,257280,5,4,1:0:0:0:
106,168,257380,1,4,1:0:0:0:
110,188,257480,1,4,1:0:0:0:
113,208,257580,1,4,1:0:0:0:
148,298,257680,6,0,P|236:255|283:271,1,135.000005149842,4|0,0:2|0:0,0:0:0:0:
428,165,258033,1,4,1:0:0:0:
412,154,258115,2,0,L|400:285,1,67.5000025749208,0|0,0:0|0:0,0:0:0:0:
396,305,258315,2,0,L|384:436,1,67.5000025749208,4|0,1:0|0:0,0:0:0:0:
512,173,258501,6,0,P|472:236|447:237,1,67.5000025749208,8|0,0:0|0:0,0:0:0:0:
281,206,258699,5,0,1:0:0:0:
264,169,258799,1,0,1:0:0:0:
228,149,258899,1,8,0:0:0:0:
226,137,259098,5,0,1:0:0:0:
153,173,259198,1,0,1:0:0:0:
94,117,259298,2,0,P|137:228|136:268,1,135.000005149842,4|0,0:3|0:0,0:0:0:0:
56,218,259598,2,0,P|31:334|8:367,1,135.000005149842,4|0,1:0|0:0,0:0:0:0:
24,346,259881,2,0,P|49:332|70:330,1,33.7500012874604,4|0,1:0|0:0,0:0:0:0:
266,355,260097,5,8,0:0:0:0:
129,298,260288,5,0,1:0:0:0:
182,301,260388,1,0,1:0:0:0:
227,272,260488,1,8,0:0:0:0:
232,260,260704,5,0,1:0:0:0:
274,191,260804,1,0,1:0:0:0:
353,205,260904,1,4,0:3:0:0:
360,220,261004,1,0,0:0:0:0:
430,265,261104,6,0,L|415:317,2,45.0000017166138
494,200,261295,1,0,0:0:0:0:
471,178,261361,1,0,0:0:0:0:
455,150,261428,1,0,0:0:0:0:
454,119,261495,6,0,L|463:75,1,45.0000017166138,4|4,0:0|0:0,0:0:0:0:
373,14,261695,2,0,L|382:57,2,45.0000017166138,8|0|0,0:0|0:0|0:0,0:0:0:0:
454,119,261896,5,0,1:0:0:0:
368,140,261996,1,0,1:0:0:0:
306,77,262096,1,8,0:0:0:0:
292,66,262332,5,0,1:0:0:0:
252,58,262432,1,0,1:0:0:0:
216,77,262513,2,0,P|239:166|253:232,1,135.000005149842,4|0,0:3|0:0,0:0:0:0:
331,217,262813,2,0,P|308:306|294:372,1,135.000005149842,4|0,0:3|0:0,0:0:0:0:
147,321,263113,5,0,1:0:0:0:
104,252,263213,1,0,1:0:0:0:
25,272,263313,5,8,0:0:0:0:
21,259,263413,1,0,0:0:0:0:
20,245,263513,2,0,L|42:153,1,67.5000025749208,0|0,1:0|1:0,0:0:0:0:
194,33,263694,5,8,0:0:0:0:
226,109,263794,1,8,0:0:0:0:
213,39,263894,1,4,1:0:0:0:
235,92,263994,1,4,1:0:0:0:
245,38,264100,6,0,P|200:115|228:180,1,135.000005149842,4|0,1:2|0:0,0:0:0:0:
139,191,264433,2,0,P|191:263|261:264,1,135.000005149842,4|0,1:0|0:0,0:0:0:0:
369,179,264713,6,0,P|337:187|319:305,1,90,4|0,1:0|0:0,0:0:0:0:
291,340,264913,2,0,P|304:321|322:308,1,45,8|0,0:0|0:0,0:0:0:0:
497,354,265136,5,0,1:0:0:0:
458,342,265236,1,0,1:0:0:0:
438,306,265317,1,8,0:0:0:0:
440,294,265526,5,0,1:0:0:0:
486,227,265619,1,0,1:0:0:0:
495,146,265704,2,0,P|482:93|385:53,1,135.000005149842,4|0,0:3|0:0,0:0:0:0:
352,103,266004,2,0,P|297:103|236:189,1,135.000005149842,4|0,1:0|0:0,0:0:0:0:
241,327,266304,6,0,L|224:238,1,90,4|0,1:0|0:0,0:0:0:0:
166,145,266504,2,0,L|157:189,1,45,8|0,0:0|0:0,0:0:0:0:
49,326,266723,5,0,1:0:0:0:
83,316,266823,1,0,1:0:0:0:
105,288,266923,1,8,0:0:0:0:
108,272,267123,5,0,1:0:0:0:
172,215,267223,1,0,1:0:0:0:
248,252,267323,2,0,P|257:185|287:102,1,135.000005149842,4|0,0:3|0:0,0:0:0:0:
347,184,267609,2,0,P|380:125|439:59,1,135.000005149842,4|0,1:0|0:0,0:0:0:0:
270,0,267909,6,0,P|327:38|314:92,1,90,4|0,1:0|0:0,0:0:0:0:
430,208,268109,2,0,P|412:252|401:264,1,45,8|0,0:0|0:0,0:0:0:0:
221,325,268309,5,0,1:0:0:0:
228,314,268409,1,0,1:0:0:0:
314,249,268509,5,4,0:3:0:0:
286,295,268609,1,4,0:3:0:0:
230,305,268709,1,4,0:3:0:0:
187,271,268809,1,4,0:3:0:0:
74,221,268909,5,8,0:0:0:0:
47,144,269009,1,8,0:0:0:0:
116,102,269109,1,0,1:0:0:0:
99,303,269309,1,0,1:0:0:0:
128,108,269509,5,8,0:0:0:0:
206,86,269600,1,8,0:0:0:0:
230,48,269700,1,4,0:3:0:0:
226,25,269800,1,4,0:3:0:0:
213,15,269900,1,4,0:3:0:0:
203,15,270000,1,4,0:3:0:0:
142,28,270102,6,0,B|251:54|199:105|306:139,1,202.500007724762,4|0,1:0|0:0,0:0:0:0:
474,75,270495,5,4,1:2:0:0:
453,73,270595,1,0,1:0:0:0:
434,78,270695,1,0,1:0:0:0:
419,91,270795,1,0,1:0:0:0:
401,83,270884,2,0,L|419:182,1,67.5000025749208,2|0,1:3|1:0,0:0:0:0:
486,293,271077,1,0,1:0:0:0:
437,328,271177,1,0,1:0:0:0:
377,316,271277,2,0,L|283:294,1,67.5000025749208,10|0,0:0|0:0,0:0:0:0:
122,343,271490,2,0,L|210:303,1,67.5000025749208
223,126,271687,5,10,0:0:0:0:
284,179,271787,1,0,0:0:0:0:
208,209,271887,2,0,L|228:114,1,67.5000025749208,0|0,0:0|0:0,0:0:0:0:
57,49,272087,6,0,P|86:84|122:79,2,67.5000025749208,6|0|0,0:3|0:0|0:0,0:0:0:0:
161,21,272398,1,0,0:0:0:0:
168,26,272514,2,0,P|226:0|246:-16,1,67.5000025749208,2|0,0:0|0:0,0:0:0:0:
107,174,272714,2,0,P|132:233|134:275,1,90
34,364,272913,5,10,0:0:0:0:
73,343,273013,1,0,0:0:0:0:
117,334,273113,1,0,0:0:0:0:
161,338,273213,1,0,0:0:0:0:
177,353,273313,5,10,0:0:0:0:
265,369,273413,1,0,0:0:0:0:
344,326,273513,1,0,0:0:0:0:
375,241,273613,1,0,0:0:0:0:
341,149,273714,6,0,L|250:165,1,67.5000025749208,6|0,0:3|0:0,0:0:0:0:
368,225,273937,2,0,L|277:241,1,67.5000025749208
101,181,274113,1,2,0:0:0:0:
89,156,274213,1,0,0:0:0:0:
126,169,274313,1,0,0:0:0:0:
114,144,274413,1,0,0:0:0:0:
86,74,274513,6,0,P|106:154|104:171,1,67.5000025749208,10|0,0:0|0:0,0:0:0:0:
3,270,274713,2,0,P|9:236|22:206,1,67.5000025749208,0|0,0:0|0:0,0:0:0:0:
246,102,274913,5,6,0:3:0:0:
241,121,275013,1,4,0:3:0:0:
236,141,275113,1,4,0:3:0:0:
231,161,275213,1,4,0:3:0:0:
174,222,275313,5,2,1:3:0:0:
218,270,275413,1,0,1:0:0:0:
284,279,275513,1,0,1:0:0:0:
340,244,275613,1,0,1:0:0:0:
374,153,275713,5,6,0:3:0:0:
378,171,275813,1,4,0:3:0:0:
358,166,275913,1,4,0:3:0:0:
374,153,276013,1,4,0:3:0:0:
449,116,276113,6,0,P|484:142|528:152,1,90,10|0,0:0|0:0,0:0:0:0:
273,151,276313,2,0,P|250:189|213:214,1,90,0|0,0:0|0:0,0:0:0:0:
427,231,276513,2,0,P|443:272|455:332,1,67.5000025749208,2|0,0:0|0:0,0:0:0:0:
357,257,276713,2,0,P|366:289|379:320,1,67.5000025749208,8|0,0:0|0:0,0:0:0:0:
231,313,276913,5,2,1:3:0:0:
197,254,277013,1,0,0:0:0:0:
144,213,277113,1,0,0:0:0:0:
80,193,277213,1,0,0:0:0:0:
58,197,277313,6,0,L|77:272,1,67.5000025749208,2|0,0:0|0:0,0:0:0:0:
0,384,277513,2,0,L|16:318,1,67.5000025749208
215,164,277713,5,10,0:0:0:0:
217,157,277813,1,0,0:0:0:0:
283,208,277913,2,0,P|324:253|329:285,1,67.5000025749208,0|0,0:0|0:0,0:0:0:0:
137,195,278113,2,0,P|77:208|47:196,1,67.5000025749208,10|0,0:0|0:0,0:0:0:0:
221,75,278313,2,0,P|239:16|264:-3,1,67.5000025749208
422,112,278513,6,0,P|354:124|330:106,1,67.5000025749208,2|0,0:0|0:0,0:0:0:0:
467,179,278713,2,0,P|408:215|379:207,1,67.5000025749208,0|0,0:0|0:0,0:0:0:0:
171,137,278913,2,0,L|187:239,1,67.5000025749208,2|0,0:0|0:0,0:0:0:0:
248,149,279113,2,0,L|264:251,1,67.5000025749208,0|0,0:0|0:0,0:0:0:0:
434,361,279313,6,0,L|444:294,1,67.5000025749208,10|0,0:0|0:0,0:0:0:0:
357,373,279501,2,0,L|367:306,1,67.5000025749208,0|0,0:0|0:0,0:0:0:0:
192,272,279701,2,0,L|113:294,2,67.5000025749208,10|0|0,0:0|0:0|0:0,0:0:0:0:
61,175,280001,5,0,0:0:0:0:
62,187,280113,2,0,L|141:209,1,67.5000025749208,2|0,0:0|0:0,0:0:0:0:
248,375,280313,2,0,L|182:356,1,67.5000025749208,0|0,0:0|0:0,0:0:0:0:
227,94,280513,2,0,L|210:204,3,67.5000025749208,2|0|0|0,0:0|0:0|0:0|0:0,0:0:0:0:
278,259,280913,6,0,P|309:271|342:269,1,67.5000025749208,10|0,0:0|0:0,0:0:0:0:
120,75,281113,1,0,0:0:0:0:
128,121,281213,1,0,0:0:0:0:
135,167,281313,2,0,L|152:277,1,67.5000025749208,10|0,0:0|0:0,0:0:0:0:
294,176,281513,2,0,P|360:188|383:214,1,67.5000025749208,0|0,0:0|0:0,0:0:0:0:
495,59,281708,5,10,0:0:0:0:
481,66,281806,1,8,0:0:0:0:
455,93,281904,1,4,0:3:0:0:
439,142,282002,1,4,0:3:0:0:
443,221,282100,5,4,1:0:0:0:
458,224,282198,1,4,1:0:0:0:
495,304,282296,1,8,0:0:0:0:
480,307,282394,1,8,0:0:0:0:
320,265,282492,5,4,0:3:0:0:
288,340,282590,1,4,0:3:0:0:
363,371,282688,1,4,1:0:0:0:
395,297,282786,1,4,1:0:0:0:
317,253,282884,6,4,L|221:267,1,67.5000025749208,4|4,1:0|1:0,1:0:0:0:
381,375,283080,2,4,L|447:384,1,67.5000025749208,4|4,1:0|1:0,1:0:0:0:
443,221,283276,5,6,0:3:0:0:
419,197,283376,1,0,0:0:0:0:
403,167,283476,1,0,0:0:0:0:
399,134,283576,1,0,0:0:0:0:
422,85,283676,6,0,L|409:167,1,67.5000025749208,2|0,0:0|0:0,0:0:0:0:
310,120,283876,2,0,L|297:202,1,67.5000025749208
149,71,284076,5,10,0:0:0:0:
162,55,284176,1,0,0:0:0:0:
179,44,284271,2,0,P|242:69|257:105,1,67.5000025749208,0|0,0:0|0:0,0:0:0:0:
95,265,284487,1,10,0:0:0:0:
101,204,284587,1,0,0:0:0:0:
144,161,284687,2,0,P|211:160|239:188,1,67.5000025749208,0|0,0:0|0:0,0:0:0:0:
369,283,284913,6,0,L|378:208,2,67.5000025749208,2|0|0,0:0|0:0|0:0,0:0:0:0:
458,189,285213,1,0,0:0:0:0:
466,192,285313,2,0,L|474:259,1,67.5000025749208,2|0,0:0|0:0,0:0:0:0:
274,305,285501,2,0,L|265:237,1,67.5000025749208,0|0,0:0|0:0,0:0:0:0:
110,90,285701,5,10,0:0:0:0:
105,82,285801,1,0,0:0:0:0:
113,78,285901,1,0,0:0:0:0:
116,85,286001,1,0,0:0:0:0:
219,30,286092,6,0,L|198:121,1,67.5000025749208,10|0,0:0|0:0,0:0:0:0:
180,169,286308,2,0,L|159:260,1,67.5000025749208,0|0,0:0|0:0,0:0:0:0:
96,363,286496,6,0,P|64:322|29:325,1,67.5000025749208,2|0,0:0|0:0,0:0:0:0:
270,277,286696,2,0,P|265:225|234:209,1,67.5000025749208,0|0,0:0|0:0,0:0:0:0:
463,300,286896,2,0,P|487:254|470:223,1,67.5000025749208,2|0,0:0|0:0,0:0:0:0:
383,30,287096,6,0,P|326:61|325:98,1,67.5000025749208
303,133,287296,2,0,P|358:166|390:149,1,67.5000025749208,10|0,0:0|0:0,0:0:0:0:
433,151,287496,2,0,P|434:86|403:66,1,67.5000025749208,0|0,0:0|0:0,0:0:0:0:
161,95,287696,5,10,0:0:0:0:
230,53,287796,1,0,0:0:0:0:
154,82,287884,2,0,L|169:191,1,67.5000025749208,0|0,0:0|0:0,0:0:0:0:
69,333,288097,5,2,1:3:0:0:
101,299,288197,1,0,1:0:0:0:
146,285,288297,1,0,1:0:0:0:
192,292,288397,1,0,1:0:0:0:
227,312,288497,1,2,1:3:0:0:
266,321,288597,1,0,1:0:0:0:
272,314,288697,5,4,0:3:0:0:
345,279,288797,1,4,0:3:0:0:
365,200,288897,1,10,0:0:0:0:
335,124,288997,1,0,1:0:0:0:
258,97,289097,1,0,1:0:0:0:
189,140,289197,1,0,1:0:0:0:
252,191,289297,5,6,1:1:0:0:
254,204,289397,1,4,1:0:0:0:
256,217,289497,1,4,1:0:0:0:
258,230,289597,1,4,1:0:0:0:
345,279,289715,6,0,L|334:373,1,67.5000025749208,2|0,1:3|0:0,0:0:0:0:
262,311,289915,2,0,L|251:405,1,67.5000025749208,0|0,0:0|0:0,0:0:0:0:
113,202,290115,5,2,0:0:0:0:
146,128,290215,1,0,0:0:0:0:
223,104,290315,2,0,L|289:115,1,67.5000025749208,0|0,0:0|0:0,0:0:0:0:
490,95,290506,6,0,L|500:28,1,67.5000025749208,10|0,0:0|0:0,0:0:0:0:
420,25,290706,2,0,L|409:91,1,67.5000025749208,0|0,0:0|0:0,0:0:0:0:
345,279,290906,2,0,L|355:345,1,67.5000025749208,10|0,0:0|0:0,0:0:0:0:
275,349,291106,2,0,L|264:282,1,67.5000025749208,0|0,0:0|0:0,0:0:0:0:
471,209,291306,6,0,L|404:226,2,67.5000025749208,2|0|0,1:3|0:0|0:0,0:0:0:0:
310,120,291606,1,0,0:0:0:0:
317,131,291706,2,0,L|383:148,1,67.5000025749208,2|0,1:3|0:0,0:0:0:0:
508,323,291906,2,0,L|443:307,1,67.5000025749208,0|0,1:0|0:0,0:0:0:0:
253,181,292094,5,10,0:0:0:0:
257,200,292194,1,0,0:0:0:0:
261,220,292294,1,0,0:0:0:0:
265,240,292394,1,0,0:0:0:0:
347,263,292494,6,0,P|354:231|370:201,1,67.5000025749208,10|0,0:0|0:0,0:0:0:0:
195,288,292702,2,0,P|176:261|151:239,1,67.5000025749208,0|0,0:0|0:0,0:0:0:0:
317,135,292902,6,0,P|341:112|352:80,1,67.5000025749208,2|0,1:3|0:0,0:0:0:0:
502,74,293102,2,0,P|510:106|502:139,1,67.5000025749208,0|0,0:0|0:0,0:0:0:0:
163,32,293315,2,0,P|195:26|222:5,1,67.5000025749208,2|0,0:0|0:0,0:0:0:0:
288,238,293521,6,0,L|220:230,1,67.5000025749208
18,171,293699,2,0,L|85:178,1,67.5000025749208,10|0,0:0|0:0,0:0:0:0:
360,147,293899,2,0,L|292:154,1,67.5000025749208
66,97,294099,1,10,0:0:0:0:
128,116,294199,1,0,0:0:0:0:
160,173,294299,1,0,0:0:0:0:
143,237,294399,1,0,0:0:0:0:
77,298,294499,6,0,L|143:314,2,67.5000025749208,2|0|0,0:0|0:0|0:0,0:0:0:0:
279,254,294799,1,0,0:0:0:0:
285,243,294899,2,0,L|203:262,1,67.5000025749208,2|0,0:0|0:0,0:0:0:0:
384,240,295099,5,0,0:0:0:0:
411,295,295199,1,0,0:0:0:0:
398,353,295299,2,0,P|401:290|417:274,1,67.5000025749208,10|0,0:0|0:0,0:0:0:0:
467,104,295499,1,0,0:0:0:0:
458,99,295599,1,0,0:0:0:0:
450,51,295699,5,2,0:0:0:0:
421,112,295799,1,0,0:0:0:0:
364,133,295899,1,0,0:0:0:0:
308,109,295999,1,0,0:0:0:0:
242,49,296099,6,0,L|255:158,1,67.5000025749208,2|0,0:0|0:0,0:0:0:0:
170,78,296299,2,0,L|183:187,1,67.5000025749208
436,352,296499,5,2,0:0:0:0:
358,376,296599,1,0,0:0:0:0:
317,305,296714,2,0,L|335:210,1,67.5000025749208
155,221,296914,5,10,0:0:0:0:
145,224,297005,1,0,0:0:0:0:
66,244,297098,2,0,L|-11:260,1,67.5000025749208,0|0,0:0|0:0,0:0:0:0:
165,303,297298,2,0,L|181:380,1,67.5000025749208,10|0,0:0|0:0,0:0:0:0:
125,145,297498,2,0,L|109:68,1,67.5000025749208,0|0,0:0|0:0,0:0:0:0:
290,190,297716,6,0,L|224:204,2,67.5000025749208,2|0|0,0:0|0:0|0:0,0:0:0:0:
494,262,298007,1,0,0:0:0:0:
486,265,298118,2,0,P|456:248|439:220,1,67.5000025749208,2|0,0:0|0:0,0:0:0:0:
445,348,298311,2,0,P|411:344|384:324,1,67.5000025749208,0|0,0:0|0:0,0:0:0:0:
397,104,298505,5,10,0:0:0:0:
392,123,298605,1,0,0:0:0:0:
388,143,298705,1,0,0:0:0:0:
384,163,298805,1,0,0:0:0:0:
316,80,298898,6,0,L|305:14,1,67.5000025749208,10|0,0:0|0:0,0:0:0:0:
303,170,299104,2,0,L|315:237,1,67.5000025749208,0|0,0:0|0:0,0:0:0:0:
455,289,299297,6,0,P|420:270|370:275,1,67.5000025749208,2|0,0:0|0:0,0:0:0:0:
198,350,299500,2,0,P|231:346|260:329,1,67.5000025749208,0|0,0:0|0:0,0:0:0:0:
219,126,299713,2,0,P|185:122|154:134,1,67.5000025749208,2|0,0:0|0:0,0:0:0:0:
37,265,299901,5,0,0:0:0:0:
44,281,300001,1,0,0:0:0:0:
30,325,300101,5,10,0:0:0:0:
64,283,300201,1,0,0:0:0:0:
108,269,300301,1,0,0:0:0:0:
142,272,300401,1,0,0:0:0:0:
206,354,300501,5,10,0:0:0:0:
270,305,300601,1,0,0:0:0:0:
192,329,300701,2,0,L|292:346,1,67.5000025749208,0|0,0:0|0:0,0:0:0:0:
499,182,300903,6,0,P|497:134|522:83,1,67.5000025749208,2|0,0:0|0:0,0:0:0:0:
423,215,301103,2,0,P|403:171|407:114,1,67.5000025749208,0|0,0:0|0:0,0:0:0:0:
364,274,301294,2,0,P|329:240|311:186,1,67.5000025749208,2|0,0:0|0:0,0:0:0:0:
235,101,301494,6,0,P|233:149|258:200,1,67.5000025749208,0|0,0:0|0:0,0:0:0:0:
159,68,301720,2,0,P|139:111|143:168,1,67.5000025749208,2|0,0:0|0:0,0:0:0:0:
100,9,301911,2,0,P|65:42|47:96,1,67.5000025749208,0|0,0:0|0:0,0:0:0:0:
324,139,302111,5,2,0:0:0:0:
324,117,302211,1,0,0:0:0:0:
310,133,302311,1,0,0:0:0:0:
330,127,302411,1,0,0:0:0:0:
310,121,302511,1,0,0:0:0:0:
256,192,302611,12,2,308911,0:0:0:0:
