osu file format v14

[General]
AudioFilename: audio.mp3
AudioLeadIn: 0
PreviewTime: 168266
Countdown: 0
SampleSet: None
StackLeniency: 0.7
Mode: 3
LetterboxInBreaks: 0
SpecialStyle: 0
WidescreenStoryboard: 1

[Editor]
DistanceSpacing: 1
BeatDivisor: 4
GridSize: 4
TimelineZoom: 2.5

[Metadata]
Title:City Lights feat. EVO+, Jinmenusagi (Zekk Remix)
TitleUnicode:City Lights feat. EVO+, Jinmenusagi (Zekk Remix)
Artist:HyperJuice
ArtistUnicode:HyperJuice
Creator:Viandanesh
Version:Shiny Rice Box
Source:
Tags:EVO Waifu Wednesday
BeatmapID:1433871
BeatmapSetID:673050

[Difficulty]
HPDrainRate:5
CircleSize:4
OverallDifficulty:5
ApproachRate:5
SliderMultiplier:1.6
SliderTickRate:1

[Events]
//Background and Video events
0,0,"vEUUpSA.png",0,0
//Break Periods
//Storyboard Layer 0 (Background)
//Storyboard Layer 1 (Fail)
//Storyboard Layer 2 (Pass)
//Storyboard Layer 3 (Foreground)
//Storyboard Layer 4 (Overlay)
//Storyboard Sound Samples

[TimingPoints]
275,375,4,3,0,100,1,0

[HitObjects]
64,192,275,5,0,0:0:0:0:
320,192,275,1,0,0:0:0:0:
448,192,275,128,0,1775:0:0:0:0:
64,192,1775,128,0,2525:0:0:0:0:
320,192,2525,128,0,3275:0:0:0:0:
192,192,3275,128,0,4775:0:0:0:0:
448,192,4775,128,0,6275:0:0:0:0:
320,192,6275,128,0,7775:0:0:0:0:
64,192,7775,128,0,9275:0:0:0:0:
192,192,9275,128,0,10775:0:0:0:0:
448,192,10775,128,0,11150:0:0:0:0:
320,192,11150,128,0,11525:0:0:0:0:
192,192,11525,128,0,11900:0:0:0:0:
448,192,11712,1,0,0:0:0:0:
320,192,11900,1,0,0:0:0:0:
64,192,11900,128,0,12275:0:0:0:0:
192,192,12087,1,0,0:0:0:0:
320,192,12275,1,0,0:0:0:0:
448,192,12275,1,0,0:0:0:0:
192,192,12275,1,0,0:0:0:0:
64,192,12462,1,0,0:0:0:0:
192,192,12650,1,0,0:0:0:0:
320,192,12837,1,0,0:0:0:0:
448,192,12837,1,0,0:0:0:0:
192,192,13025,1,0,0:0:0:0:
64,192,13025,1,0,0:0:0:0:
448,192,13025,1,0,0:0:0:0:
320,192,13212,1,0,0:0:0:0:
64,192,13400,1,0,0:0:0:0:
192,192,13400,1,0,0:0:0:0:
448,192,13587,1,0,0:0:0:0:
320,192,13775,1,0,0:0:0:0:
64,192,13962,1,0,0:0:0:0:
192,192,14150,1,0,0:0:0:0:
448,192,14337,1,0,0:0:0:0:
320,192,14337,1,0,0:0:0:0:
64,192,14525,1,0,0:0:0:0:
192,192,14525,1,0,0:0:0:0:
448,192,14525,1,0,0:0:0:0:
320,192,14712,1,0,0:0:0:0:
64,192,14900,1,0,0:0:0:0:
448,192,15087,1,0,0:0:0:0:
192,192,15275,1,0,0:0:0:0:
320,192,15275,1,0,0:0:0:0:
64,192,15462,1,0,0:0:0:0:
192,192,15650,1,0,0:0:0:0:
320,192,15837,1,0,0:0:0:0:
448,192,15837,1,0,0:0:0:0:
192,192,16025,1,0,0:0:0:0:
64,192,16025,1,0,0:0:0:0:
448,192,16025,1,0,0:0:0:0:
320,192,16212,1,0,0:0:0:0:
64,192,16400,1,0,0:0:0:0:
448,192,16400,1,0,0:0:0:0:
192,192,16587,1,0,0:0:0:0:
320,192,16775,1,0,0:0:0:0:
448,192,16775,1,0,0:0:0:0:
192,192,16962,1,0,0:0:0:0:
64,192,16962,1,0,0:0:0:0:
320,192,17150,1,0,0:0:0:0:
448,192,17337,1,0,0:0:0:0:
64,192,17337,1,0,0:0:0:0:
320,192,17431,1,0,0:0:0:0:
192,192,17431,1,0,0:0:0:0:
192,192,17525,1,0,0:0:0:0:
64,192,17525,1,0,0:0:0:0:
448,192,17525,1,0,0:0:0:0:
320,192,17712,1,0,0:0:0:0:
64,192,17900,1,0,0:0:0:0:
192,192,18087,1,0,0:0:0:0:
320,192,18275,1,0,0:0:0:0:
448,192,18275,1,0,0:0:0:0:
192,192,18462,1,0,0:0:0:0:
64,192,18650,1,0,0:0:0:0:
192,192,18837,1,0,0:0:0:0:
320,192,18837,1,0,0:0:0:0:
320,192,19025,1,0,0:0:0:0:
448,192,19025,1,0,0:0:0:0:
64,192,19025,1,0,0:0:0:0:
192,192,19212,1,0,0:0:0:0:
448,192,19400,1,0,0:0:0:0:
64,192,19400,1,0,0:0:0:0:
320,192,19587,1,0,0:0:0:0:
192,192,19775,1,0,0:0:0:0:
448,192,19962,1,0,0:0:0:0:
64,192,20150,1,0,0:0:0:0:
192,192,20337,1,0,0:0:0:0:
320,192,20337,1,0,0:0:0:0:
64,192,20525,1,0,0:0:0:0:
320,192,20525,1,0,0:0:0:0:
448,192,20525,1,0,0:0:0:0:
192,192,20712,1,0,0:0:0:0:
448,192,20900,1,0,0:0:0:0:
320,192,21087,1,0,0:0:0:0:
192,192,21275,1,0,0:0:0:0:
64,192,21275,1,0,0:0:0:0:
320,192,21462,1,0,0:0:0:0:
448,192,21650,1,0,0:0:0:0:
192,192,21837,1,0,0:0:0:0:
320,192,21837,1,0,0:0:0:0:
64,192,22025,1,0,0:0:0:0:
192,192,22025,1,0,0:0:0:0:
448,192,22025,1,0,0:0:0:0:
320,192,22212,1,0,0:0:0:0:
192,192,22400,1,0,0:0:0:0:
64,192,22400,1,0,0:0:0:0:
192,192,22493,1,0,0:0:0:0:
64,192,22493,1,0,0:0:0:0:
320,192,22587,1,0,0:0:0:0:
448,192,22587,1,0,0:0:0:0:
448,192,22681,1,0,0:0:0:0:
320,192,22681,1,0,0:0:0:0:
192,192,22775,1,0,0:0:0:0:
64,192,22775,128,0,24275:0:0:0:0:
320,192,23150,1,0,0:0:0:0:
448,192,23431,1,0,0:0:0:0:
320,192,23525,1,0,0:0:0:0:
192,192,23525,1,0,0:0:0:0:
448,192,23712,1,0,0:0:0:0:
192,192,23900,1,0,0:0:0:0:
320,192,24087,1,0,0:0:0:0:
192,192,24275,1,0,0:0:0:0:
448,192,24275,1,0,0:0:0:0:
320,192,24275,1,0,0:0:0:0:
64,192,24368,1,0,0:0:0:0:
320,192,24462,1,0,0:0:0:0:
192,192,24556,1,0,0:0:0:0:
64,192,24650,1,0,0:0:0:0:
448,192,24650,1,0,0:0:0:0:
320,192,24743,1,0,0:0:0:0:
192,192,24837,1,0,0:0:0:0:
448,192,24931,1,0,0:0:0:0:
64,192,25025,1,0,0:0:0:0:
320,192,25118,1,0,0:0:0:0:
448,192,25212,1,0,0:0:0:0:
192,192,25212,1,0,0:0:0:0:
64,192,25306,1,0,0:0:0:0:
320,192,25400,1,0,0:0:0:0:
448,192,25400,1,0,0:0:0:0:
192,192,25493,1,0,0:0:0:0:
320,192,25587,1,0,0:0:0:0:
192,192,25681,1,0,0:0:0:0:
448,192,25775,1,0,0:0:0:0:
64,192,25775,1,0,0:0:0:0:
320,192,25868,1,0,0:0:0:0:
192,192,25962,1,0,0:0:0:0:
448,192,26056,1,0,0:0:0:0:
64,192,26150,1,0,0:0:0:0:
320,192,26150,1,0,0:0:0:0:
192,192,26243,1,0,0:0:0:0:
448,192,26337,1,0,0:0:0:0:
320,192,26431,1,0,0:0:0:0:
64,192,26525,1,0,0:0:0:0:
192,192,26618,1,0,0:0:0:0:
320,192,26712,1,0,0:0:0:0:
448,192,26712,1,0,0:0:0:0:
192,192,26806,1,0,0:0:0:0:
64,192,26900,1,0,0:0:0:0:
448,192,26900,1,0,0:0:0:0:
320,192,26993,1,0,0:0:0:0:
192,192,27087,1,0,0:0:0:0:
64,192,27181,1,0,0:0:0:0:
192,192,27275,1,0,0:0:0:0:
448,192,27275,1,0,0:0:0:0:
320,192,27368,1,0,0:0:0:0:
64,192,27462,1,0,0:0:0:0:
448,192,27556,1,0,0:0:0:0:
320,192,27650,1,0,0:0:0:0:
192,192,27650,1,0,0:0:0:0:
64,192,27743,1,0,0:0:0:0:
192,192,27837,1,0,0:0:0:0:
448,192,27931,1,0,0:0:0:0:
320,192,28025,1,0,0:0:0:0:
192,192,28118,1,0,0:0:0:0:
64,192,28212,1,0,0:0:0:0:
448,192,28212,1,0,0:0:0:0:
320,192,28306,1,0,0:0:0:0:
192,192,28400,1,0,0:0:0:0:
64,192,28400,1,0,0:0:0:0:
448,192,28493,1,0,0:0:0:0:
320,192,28587,1,0,0:0:0:0:
192,192,28681,1,0,0:0:0:0:
64,192,28775,1,0,0:0:0:0:
448,192,28775,1,0,0:0:0:0:
320,192,28868,1,0,0:0:0:0:
192,192,28962,1,0,0:0:0:0:
320,192,29056,1,0,0:0:0:0:
448,192,29150,1,0,0:0:0:0:
64,192,29150,1,0,0:0:0:0:
192,192,29243,1,0,0:0:0:0:
320,192,29337,1,0,0:0:0:0:
64,192,29431,1,0,0:0:0:0:
448,192,29525,1,0,0:0:0:0:
192,192,29618,1,0,0:0:0:0:
320,192,29712,1,0,0:0:0:0:
448,192,29712,1,0,0:0:0:0:
64,192,29806,1,0,0:0:0:0:
320,192,29900,1,0,0:0:0:0:
192,192,29900,1,0,0:0:0:0:
64,192,30087,1,0,0:0:0:0:
448,192,30087,1,0,0:0:0:0:
320,192,30181,1,0,0:0:0:0:
192,192,30275,1,0,0:0:0:0:
64,192,30275,1,0,0:0:0:0:
448,192,30275,1,0,0:0:0:0:
320,192,30368,1,0,0:0:0:0:
64,192,30462,1,0,0:0:0:0:
192,192,30556,1,0,0:0:0:0:
320,192,30650,1,0,0:0:0:0:
448,192,30650,1,0,0:0:0:0:
64,192,30743,1,0,0:0:0:0:
192,192,30837,1,0,0:0:0:0:
448,192,30931,1,0,0:0:0:0:
320,192,31025,1,0,0:0:0:0:
192,192,31118,1,0,0:0:0:0:
64,192,31212,1,0,0:0:0:0:
448,192,31212,1,0,0:0:0:0:
320,192,31306,1,0,0:0:0:0:
192,192,31400,1,0,0:0:0:0:
64,192,31400,1,0,0:0:0:0:
448,192,31493,1,0,0:0:0:0:
320,192,31587,1,0,0:0:0:0:
192,192,31681,1,0,0:0:0:0:
64,192,31775,1,0,0:0:0:0:
448,192,31775,1,0,0:0:0:0:
320,192,31868,1,0,0:0:0:0:
192,192,31962,1,0,0:0:0:0:
320,192,32056,1,0,0:0:0:0:
448,192,32150,1,0,0:0:0:0:
64,192,32150,1,0,0:0:0:0:
192,192,32243,1,0,0:0:0:0:
320,192,32337,1,0,0:0:0:0:
64,192,32431,1,0,0:0:0:0:
192,192,32525,1,0,0:0:0:0:
448,192,32618,1,0,0:0:0:0:
320,192,32712,1,0,0:0:0:0:
64,192,32712,1,0,0:0:0:0:
192,192,32806,1,0,0:0:0:0:
64,192,32900,1,0,0:0:0:0:
448,192,32900,1,0,0:0:0:0:
320,192,32993,1,0,0:0:0:0:
192,192,33087,1,0,0:0:0:0:
320,192,33181,1,0,0:0:0:0:
448,192,33275,1,0,0:0:0:0:
64,192,33275,1,0,0:0:0:0:
192,192,33368,1,0,0:0:0:0:
320,192,33462,1,0,0:0:0:0:
64,192,33556,1,0,0:0:0:0:
448,192,33650,1,0,0:0:0:0:
192,192,33650,1,0,0:0:0:0:
320,192,33743,1,0,0:0:0:0:
64,192,33837,1,0,0:0:0:0:
448,192,33931,1,0,0:0:0:0:
192,192,34025,1,0,0:0:0:0:
320,192,34118,1,0,0:0:0:0:
64,192,34212,1,0,0:0:0:0:
448,192,34212,1,0,0:0:0:0:
192,192,34306,1,0,0:0:0:0:
320,192,34400,1,0,0:0:0:0:
448,192,34400,1,0,0:0:0:0:
64,192,34493,1,0,0:0:0:0:
192,192,34587,1,0,0:0:0:0:
320,192,34681,1,0,0:0:0:0:
448,192,34775,1,0,0:0:0:0:
64,192,34775,1,0,0:0:0:0:
192,192,34775,1,0,0:0:0:0:
64,192,34962,1,0,0:0:0:0:
448,192,35150,1,0,0:0:0:0:
320,192,35150,1,0,0:0:0:0:
192,192,35337,1,0,0:0:0:0:
320,192,35431,1,0,0:0:0:0:
448,192,35525,1,0,0:0:0:0:
64,192,35525,1,0,0:0:0:0:
192,192,35618,1,0,0:0:0:0:
320,192,35712,1,0,0:0:0:0:
448,192,35712,1,0,0:0:0:0:
64,192,35806,1,0,0:0:0:0:
192,192,35900,1,0,0:0:0:0:
320,192,35900,1,0,0:0:0:0:
448,192,35993,1,0,0:0:0:0:
192,192,36087,1,0,0:0:0:0:
64,192,36087,1,0,0:0:0:0:
320,192,36181,1,0,0:0:0:0:
448,192,36275,1,0,0:0:0:0:
192,192,36275,1,0,0:0:0:0:
64,192,36275,1,0,0:0:0:0:
320,192,36368,1,0,0:0:0:0:
64,192,36462,1,0,0:0:0:0:
192,192,36556,1,0,0:0:0:0:
448,192,36650,1,0,0:0:0:0:
320,192,36650,1,0,0:0:0:0:
64,192,36650,1,0,0:0:0:0:
192,192,36743,1,0,0:0:0:0:
320,192,36837,1,0,0:0:0:0:
192,192,36931,1,0,0:0:0:0:
64,192,37025,1,0,0:0:0:0:
448,192,37025,1,0,0:0:0:0:
320,192,37025,1,0,0:0:0:0:
192,192,37118,1,0,0:0:0:0:
64,192,37212,1,0,0:0:0:0:
448,192,37212,1,0,0:0:0:0:
320,192,37306,1,0,0:0:0:0:
448,192,37400,1,0,0:0:0:0:
192,192,37400,1,0,0:0:0:0:
64,192,37400,1,0,0:0:0:0:
320,192,37493,1,0,0:0:0:0:
192,192,37587,1,0,0:0:0:0:
320,192,37681,1,0,0:0:0:0:
448,192,37775,1,0,0:0:0:0:
192,192,37775,1,0,0:0:0:0:
64,192,37775,1,0,0:0:0:0:
320,192,37868,1,0,0:0:0:0:
64,192,37962,1,0,0:0:0:0:
192,192,38056,1,0,0:0:0:0:
320,192,38150,1,0,0:0:0:0:
448,192,38150,1,0,0:0:0:0:
64,192,38150,1,0,0:0:0:0:
192,192,38243,1,0,0:0:0:0:
448,192,38337,1,0,0:0:0:0:
320,192,38431,1,0,0:0:0:0:
192,192,38525,1,0,0:0:0:0:
64,192,38525,1,0,0:0:0:0:
448,192,38525,1,0,0:0:0:0:
320,192,38618,1,0,0:0:0:0:
64,192,38712,1,0,0:0:0:0:
192,192,38712,1,0,0:0:0:0:
448,192,38806,1,0,0:0:0:0:
192,192,38900,1,0,0:0:0:0:
320,192,38900,1,0,0:0:0:0:
64,192,38993,1,0,0:0:0:0:
448,192,38993,1,0,0:0:0:0:
192,192,39087,1,0,0:0:0:0:
320,192,39181,1,0,0:0:0:0:
448,192,39181,1,0,0:0:0:0:
192,192,39275,1,0,0:0:0:0:
64,192,39275,1,0,0:0:0:0:
448,192,39368,1,0,0:0:0:0:
320,192,39462,1,0,0:0:0:0:
192,192,39556,1,0,0:0:0:0:
448,192,39650,1,0,0:0:0:0:
64,192,39650,1,0,0:0:0:0:
320,192,39650,1,0,0:0:0:0:
192,192,39743,1,0,0:0:0:0:
320,192,39837,1,0,0:0:0:0:
192,192,39931,1,0,0:0:0:0:
64,192,40025,1,0,0:0:0:0:
448,192,40025,1,0,0:0:0:0:
320,192,40025,1,0,0:0:0:0:
192,192,40118,1,0,0:0:0:0:
64,192,40212,1,0,0:0:0:0:
448,192,40212,1,0,0:0:0:0:
320,192,40306,1,0,0:0:0:0:
64,192,40400,1,0,0:0:0:0:
448,192,40400,1,0,0:0:0:0:
192,192,40400,1,0,0:0:0:0:
320,192,40493,1,0,0:0:0:0:
192,192,40587,1,0,0:0:0:0:
320,192,40681,1,0,0:0:0:0:
448,192,40775,1,0,0:0:0:0:
64,192,40775,1,0,0:0:0:0:
192,192,40775,1,0,0:0:0:0:
320,192,40868,1,0,0:0:0:0:
64,192,40962,1,0,0:0:0:0:
192,192,41056,1,0,0:0:0:0:
320,192,41150,1,0,0:0:0:0:
448,192,41150,1,0,0:0:0:0:
64,192,41150,1,0,0:0:0:0:
192,192,41243,1,0,0:0:0:0:
320,192,41337,1,0,0:0:0:0:
192,192,41431,1,0,0:0:0:0:
64,192,41525,1,0,0:0:0:0:
448,192,41525,1,0,0:0:0:0:
320,192,41525,1,0,0:0:0:0:
192,192,41618,1,0,0:0:0:0:
64,192,41712,1,0,0:0:0:0:
448,192,41712,1,0,0:0:0:0:
320,192,41806,1,0,0:0:0:0:
64,192,41900,1,0,0:0:0:0:
192,192,41900,1,0,0:0:0:0:
320,192,41993,1,0,0:0:0:0:
448,192,41993,1,0,0:0:0:0:
64,192,42087,1,0,0:0:0:0:
192,192,42181,1,0,0:0:0:0:
320,192,42181,1,0,0:0:0:0:
448,192,42275,1,0,0:0:0:0:
192,192,42275,1,0,0:0:0:0:
64,192,42275,1,0,0:0:0:0:
320,192,42462,1,0,0:0:0:0:
448,192,42462,1,0,0:0:0:0:
64,192,42462,1,0,0:0:0:0:
320,192,42650,1,0,0:0:0:0:
192,192,42650,1,0,0:0:0:0:
192,192,42837,1,0,0:0:0:0:
64,192,42837,1,0,0:0:0:0:
448,192,42837,1,0,0:0:0:0:
320,192,43025,1,0,0:0:0:0:
64,192,43025,1,0,0:0:0:0:
448,192,43212,1,0,0:0:0:0:
192,192,43212,1,0,0:0:0:0:
64,192,43306,1,0,0:0:0:0:
320,192,43306,1,0,0:0:0:0:
448,192,43400,1,0,0:0:0:0:
192,192,43400,1,0,0:0:0:0:
320,192,43587,1,0,0:0:0:0:
64,192,43587,1,0,0:0:0:0:
320,192,43775,1,0,0:0:0:0:
192,192,43775,1,0,0:0:0:0:
192,192,43962,1,0,0:0:0:0:
448,192,43962,1,0,0:0:0:0:
64,192,43962,1,0,0:0:0:0:
64,192,44150,1,0,0:0:0:0:
320,192,44150,1,0,0:0:0:0:
320,192,44337,1,0,0:0:0:0:
448,192,44337,1,0,0:0:0:0:
192,192,44337,1,0,0:0:0:0:
448,192,44525,1,0,0:0:0:0:
64,192,44525,1,0,0:0:0:0:
192,192,44712,1,0,0:0:0:0:
64,192,44712,1,0,0:0:0:0:
320,192,44806,1,0,0:0:0:0:
448,192,44806,1,0,0:0:0:0:
192,192,44900,1,0,0:0:0:0:
64,192,44900,1,0,0:0:0:0:
320,192,45087,1,0,0:0:0:0:
192,192,45087,1,0,0:0:0:0:
448,192,45275,1,0,0:0:0:0:
320,192,45275,1,0,0:0:0:0:
192,192,45368,1,0,0:0:0:0:
64,192,45462,1,0,0:0:0:0:
448,192,45462,1,0,0:0:0:0:
320,192,45556,1,0,0:0:0:0:
64,192,45650,1,0,0:0:0:0:
192,192,45650,1,0,0:0:0:0:
320,192,45743,1,0,0:0:0:0:
448,192,45837,1,0,0:0:0:0:
64,192,45837,1,0,0:0:0:0:
192,192,45931,1,0,0:0:0:0:
448,192,46025,1,0,0:0:0:0:
320,192,46025,1,0,0:0:0:0:
192,192,46118,1,0,0:0:0:0:
64,192,46118,1,0,0:0:0:0:
320,192,46212,1,0,0:0:0:0:
448,192,46212,1,0,0:0:0:0:
192,192,46306,1,0,0:0:0:0:
64,192,46306,1,0,0:0:0:0:
320,192,46400,1,0,0:0:0:0:
448,192,46400,1,0,0:0:0:0:
192,192,46493,1,0,0:0:0:0:
64,192,46493,1,0,0:0:0:0:
320,192,46587,1,0,0:0:0:0:
448,192,46587,1,0,0:0:0:0:
192,192,46681,1,0,0:0:0:0:
64,192,46681,1,0,0:0:0:0:
64,192,46775,1,0,0:0:0:0:
320,192,46775,1,0,0:0:0:0:
448,192,46775,1,0,0:0:0:0:
64,192,46962,1,0,0:0:0:0:
192,192,47009,1,0,0:0:0:0:
448,192,47056,1,0,0:0:0:0:
320,192,47103,1,0,0:0:0:0:
64,192,47150,1,0,0:0:0:0:
192,192,47243,1,0,0:0:0:0:
448,192,47337,1,0,0:0:0:0:
320,192,47431,1,0,0:0:0:0:
64,192,47525,1,0,0:0:0:0:
192,192,47525,1,0,0:0:0:0:
448,192,47806,1,0,0:0:0:0:
320,192,47806,1,0,0:0:0:0:
192,192,48087,1,0,0:0:0:0:
64,192,48275,1,0,0:0:0:0:
448,192,48275,1,0,0:0:0:0:
64,192,48462,1,0,0:0:0:0:
448,192,48462,1,0,0:0:0:0:
64,192,48650,1,0,0:0:0:0:
448,192,48650,1,0,0:0:0:0:
192,192,48650,1,0,0:0:0:0:
320,192,48650,1,0,0:0:0:0:
320,192,48837,1,0,0:0:0:0:
64,192,48931,1,0,0:0:0:0:
448,192,48931,1,0,0:0:0:0:
192,192,49025,1,0,0:0:0:0:
320,192,49118,1,0,0:0:0:0:
448,192,49212,1,0,0:0:0:0:
64,192,49212,1,0,0:0:0:0:
64,192,49400,1,0,0:0:0:0:
320,192,49400,1,0,0:0:0:0:
448,192,49400,1,0,0:0:0:0:
192,192,49400,1,0,0:0:0:0:
320,192,49587,1,0,0:0:0:0:
192,192,49587,1,0,0:0:0:0:
448,192,49681,1,0,0:0:0:0:
192,192,49775,1,0,0:0:0:0:
64,192,49775,1,0,0:0:0:0:
320,192,49868,1,0,0:0:0:0:
192,192,49962,1,0,0:0:0:0:
320,192,50056,1,0,0:0:0:0:
448,192,50150,1,0,0:0:0:0:
64,192,50150,1,0,0:0:0:0:
192,192,50337,1,0,0:0:0:0:
448,192,50431,1,0,0:0:0:0:
320,192,50431,1,0,0:0:0:0:
64,192,50525,1,0,0:0:0:0:
192,192,50618,1,0,0:0:0:0:
320,192,50712,1,0,0:0:0:0:
64,192,50712,1,0,0:0:0:0:
320,192,50900,1,0,0:0:0:0:
448,192,50900,1,0,0:0:0:0:
192,192,50900,1,0,0:0:0:0:
64,192,50900,1,0,0:0:0:0:
448,192,51087,1,0,0:0:0:0:
320,192,51087,1,0,0:0:0:0:
192,192,51181,1,0,0:0:0:0:
64,192,51181,1,0,0:0:0:0:
320,192,51275,1,0,0:0:0:0:
448,192,51275,1,0,0:0:0:0:
192,192,51462,1,0,0:0:0:0:
320,192,51556,1,0,0:0:0:0:
448,192,51650,1,0,0:0:0:0:
64,192,51650,1,0,0:0:0:0:
192,192,51837,1,0,0:0:0:0:
64,192,51931,1,0,0:0:0:0:
320,192,51931,1,0,0:0:0:0:
192,192,52025,1,0,0:0:0:0:
320,192,52118,1,0,0:0:0:0:
448,192,52212,1,0,0:0:0:0:
64,192,52212,1,0,0:0:0:0:
320,192,52400,1,0,0:0:0:0:
448,192,52400,1,0,0:0:0:0:
64,192,52400,1,0,0:0:0:0:
192,192,52400,1,0,0:0:0:0:
64,192,52587,1,0,0:0:0:0:
320,192,52587,1,0,0:0:0:0:
192,192,52681,1,0,0:0:0:0:
320,192,52775,1,0,0:0:0:0:
448,192,52775,1,0,0:0:0:0:
448,192,52962,1,0,0:0:0:0:
320,192,52962,1,0,0:0:0:0:
448,192,53150,1,0,0:0:0:0:
320,192,53150,1,0,0:0:0:0:
192,192,53243,1,0,0:0:0:0:
320,192,53337,1,0,0:0:0:0:
448,192,53431,1,0,0:0:0:0:
64,192,53431,1,0,0:0:0:0:
192,192,53525,1,0,0:0:0:0:
320,192,53618,1,0,0:0:0:0:
192,192,53712,1,0,0:0:0:0:
64,192,53712,1,0,0:0:0:0:
320,192,53900,1,0,0:0:0:0:
448,192,53900,1,0,0:0:0:0:
64,192,53900,1,0,0:0:0:0:
192,192,53900,1,0,0:0:0:0:
320,192,54087,1,0,0:0:0:0:
192,192,54181,1,0,0:0:0:0:
448,192,54275,1,0,0:0:0:0:
64,192,54275,1,0,0:0:0:0:
320,192,54462,1,0,0:0:0:0:
192,192,54556,1,0,0:0:0:0:
64,192,54650,1,0,0:0:0:0:
320,192,54650,1,0,0:0:0:0:
448,192,54650,1,0,0:0:0:0:
192,192,54837,1,0,0:0:0:0:
64,192,54931,1,0,0:0:0:0:
448,192,54931,1,0,0:0:0:0:
320,192,55025,1,0,0:0:0:0:
192,192,55118,1,0,0:0:0:0:
64,192,55212,1,0,0:0:0:0:
448,192,55212,1,0,0:0:0:0:
448,192,55400,1,0,0:0:0:0:
320,192,55400,1,0,0:0:0:0:
192,192,55400,1,0,0:0:0:0:
64,192,55400,1,0,0:0:0:0:
192,192,55587,1,0,0:0:0:0:
64,192,55587,1,0,0:0:0:0:
320,192,55775,1,0,0:0:0:0:
448,192,55775,1,0,0:0:0:0:
192,192,55962,1,0,0:0:0:0:
320,192,56056,1,0,0:0:0:0:
448,192,56150,1,0,0:0:0:0:
64,192,56150,1,0,0:0:0:0:
192,192,56243,1,0,0:0:0:0:
320,192,56337,1,0,0:0:0:0:
448,192,56431,1,0,0:0:0:0:
192,192,56431,1,0,0:0:0:0:
64,192,56525,1,0,0:0:0:0:
320,192,56618,1,0,0:0:0:0:
192,192,56712,1,0,0:0:0:0:
64,192,56712,1,0,0:0:0:0:
64,192,56900,1,0,0:0:0:0:
192,192,56900,1,0,0:0:0:0:
320,192,56900,1,0,0:0:0:0:
448,192,56900,1,0,0:0:0:0:
448,192,57087,1,0,0:0:0:0:
320,192,57087,1,0,0:0:0:0:
192,192,57181,1,0,0:0:0:0:
64,192,57181,1,0,0:0:0:0:
320,192,57275,1,0,0:0:0:0:
448,192,57275,1,0,0:0:0:0:
192,192,57462,1,0,0:0:0:0:
64,192,57462,1,0,0:0:0:0:
320,192,57556,1,0,0:0:0:0:
448,192,57650,1,0,0:0:0:0:
64,192,57650,1,0,0:0:0:0:
192,192,57837,1,0,0:0:0:0:
448,192,57931,1,0,0:0:0:0:
64,192,57931,1,0,0:0:0:0:
320,192,58025,1,0,0:0:0:0:
192,192,58118,1,0,0:0:0:0:
64,192,58212,1,0,0:0:0:0:
448,192,58212,1,0,0:0:0:0:
64,192,58400,1,0,0:0:0:0:
192,192,58400,1,0,0:0:0:0:
320,192,58400,1,0,0:0:0:0:
448,192,58400,1,0,0:0:0:0:
320,192,58587,1,0,0:0:0:0:
192,192,58587,1,0,0:0:0:0:
64,192,58775,1,0,0:0:0:0:
320,192,58775,1,0,0:0:0:0:
448,192,58775,1,0,0:0:0:0:
192,192,58868,1,0,0:0:0:0:
448,192,58962,1,0,0:0:0:0:
320,192,59056,1,0,0:0:0:0:
192,192,59150,1,0,0:0:0:0:
64,192,59150,1,0,0:0:0:0:
448,192,59150,1,0,0:0:0:0:
320,192,59243,1,0,0:0:0:0:
64,192,59337,1,0,0:0:0:0:
192,192,59431,1,0,0:0:0:0:
320,192,59525,1,0,0:0:0:0:
448,192,59525,1,0,0:0:0:0:
64,192,59525,1,0,0:0:0:0:
192,192,59618,1,0,0:0:0:0:
448,192,59712,1,0,0:0:0:0:
320,192,59806,1,0,0:0:0:0:
192,192,59900,1,0,0:0:0:0:
64,192,59900,1,0,0:0:0:0:
448,192,59900,1,0,0:0:0:0:
320,192,59993,1,0,0:0:0:0:
64,192,60087,1,0,0:0:0:0:
192,192,60181,1,0,0:0:0:0:
448,192,60275,1,0,0:0:0:0:
320,192,60275,1,0,0:0:0:0:
64,192,60368,1,0,0:0:0:0:
192,192,60462,1,0,0:0:0:0:
320,192,60556,1,0,0:0:0:0:
448,192,60650,1,0,0:0:0:0:
192,192,60650,1,0,0:0:0:0:
64,192,60650,1,0,0:0:0:0:
320,192,60837,1,0,0:0:0:0:
448,192,60931,1,0,0:0:0:0:
64,192,60931,1,0,0:0:0:0:
192,192,61025,1,0,0:0:0:0:
320,192,61118,1,0,0:0:0:0:
448,192,61212,1,0,0:0:0:0:
64,192,61212,1,0,0:0:0:0:
192,192,61400,1,0,0:0:0:0:
64,192,61400,1,0,0:0:0:0:
320,192,61400,1,0,0:0:0:0:
448,192,61400,1,0,0:0:0:0:
448,192,61587,1,0,0:0:0:0:
320,192,61587,1,0,0:0:0:0:
64,192,61775,1,0,0:0:0:0:
192,192,61775,1,0,0:0:0:0:
448,192,61868,1,0,0:0:0:0:
320,192,61962,1,0,0:0:0:0:
192,192,62056,1,0,0:0:0:0:
64,192,62150,1,0,0:0:0:0:
448,192,62150,1,0,0:0:0:0:
320,192,62243,1,0,0:0:0:0:
192,192,62337,1,0,0:0:0:0:
64,192,62431,1,0,0:0:0:0:
320,192,62431,1,0,0:0:0:0:
448,192,62525,1,0,0:0:0:0:
192,192,62618,1,0,0:0:0:0:
320,192,62712,1,0,0:0:0:0:
448,192,62712,1,0,0:0:0:0:
192,192,62900,1,0,0:0:0:0:
64,192,62900,1,0,0:0:0:0:
320,192,62900,1,0,0:0:0:0:
448,192,62900,1,0,0:0:0:0:
192,192,63087,1,0,0:0:0:0:
64,192,63087,1,0,0:0:0:0:
320,192,63181,1,0,0:0:0:0:
448,192,63181,1,0,0:0:0:0:
192,192,63275,1,0,0:0:0:0:
64,192,63275,1,0,0:0:0:0:
448,192,63368,1,0,0:0:0:0:
320,192,63462,1,0,0:0:0:0:
192,192,63462,1,0,0:0:0:0:
64,192,63556,1,0,0:0:0:0:
320,192,63650,1,0,0:0:0:0:
448,192,63650,1,0,0:0:0:0:
192,192,63743,1,0,0:0:0:0:
448,192,63837,1,0,0:0:0:0:
320,192,63931,1,0,0:0:0:0:
64,192,63931,1,0,0:0:0:0:
192,192,64025,1,0,0:0:0:0:
320,192,64118,1,0,0:0:0:0:
448,192,64212,1,0,0:0:0:0:
64,192,64212,1,0,0:0:0:0:
192,192,64400,1,0,0:0:0:0:
64,192,64400,1,0,0:0:0:0:
320,192,64400,1,0,0:0:0:0:
448,192,64400,1,0,0:0:0:0:
64,192,64587,1,0,0:0:0:0:
320,192,64587,1,0,0:0:0:0:
192,192,64681,1,0,0:0:0:0:
320,192,64775,1,0,0:0:0:0:
448,192,64775,1,0,0:0:0:0:
448,192,64962,1,0,0:0:0:0:
320,192,64962,1,0,0:0:0:0:
192,192,65150,1,0,0:0:0:0:
64,192,65150,1,0,0:0:0:0:
448,192,65243,1,0,0:0:0:0:
320,192,65337,1,0,0:0:0:0:
192,192,65431,1,0,0:0:0:0:
448,192,65431,1,0,0:0:0:0:
64,192,65525,1,0,0:0:0:0:
320,192,65618,1,0,0:0:0:0:
192,192,65712,1,0,0:0:0:0:
64,192,65712,1,0,0:0:0:0:
64,192,65900,1,0,0:0:0:0:
192,192,65900,1,0,0:0:0:0:
320,192,65900,1,0,0:0:0:0:
448,192,65900,1,0,0:0:0:0:
320,192,66087,1,0,0:0:0:0:
192,192,66181,1,0,0:0:0:0:
64,192,66275,1,0,0:0:0:0:
448,192,66275,1,0,0:0:0:0:
320,192,66368,1,0,0:0:0:0:
192,192,66462,1,0,0:0:0:0:
64,192,66462,1,0,0:0:0:0:
320,192,66556,1,0,0:0:0:0:
448,192,66650,1,0,0:0:0:0:
192,192,66650,1,0,0:0:0:0:
64,192,66650,1,0,0:0:0:0:
320,192,66837,1,0,0:0:0:0:
64,192,66931,1,0,0:0:0:0:
448,192,66931,1,0,0:0:0:0:
192,192,67025,1,0,0:0:0:0:
320,192,67118,1,0,0:0:0:0:
192,192,67212,1,0,0:0:0:0:
64,192,67212,1,0,0:0:0:0:
64,192,67400,1,0,0:0:0:0:
192,192,67400,1,0,0:0:0:0:
320,192,67400,1,0,0:0:0:0:
448,192,67400,1,0,0:0:0:0:
448,192,67587,1,0,0:0:0:0:
320,192,67587,1,0,0:0:0:0:
192,192,67775,1,0,0:0:0:0:
64,192,67775,1,0,0:0:0:0:
192,192,67962,1,0,0:0:0:0:
64,192,67962,1,0,0:0:0:0:
320,192,68150,1,0,0:0:0:0:
448,192,68150,1,0,0:0:0:0:
192,192,68243,1,0,0:0:0:0:
320,192,68337,1,0,0:0:0:0:
448,192,68431,1,0,0:0:0:0:
64,192,68431,1,0,0:0:0:0:
192,192,68525,1,0,0:0:0:0:
320,192,68618,1,0,0:0:0:0:
64,192,68712,1,0,0:0:0:0:
448,192,68712,1,0,0:0:0:0:
192,192,68900,1,0,0:0:0:0:
64,192,68900,1,0,0:0:0:0:
320,192,68900,1,0,0:0:0:0:
448,192,68900,1,0,0:0:0:0:
192,192,69087,1,0,0:0:0:0:
64,192,69087,1,0,0:0:0:0:
320,192,69181,1,0,0:0:0:0:
448,192,69181,1,0,0:0:0:0:
192,192,69275,1,0,0:0:0:0:
64,192,69275,1,0,0:0:0:0:
448,192,69368,1,0,0:0:0:0:
320,192,69462,1,0,0:0:0:0:
192,192,69556,1,0,0:0:0:0:
64,192,69556,1,0,0:0:0:0:
448,192,69650,1,0,0:0:0:0:
320,192,69743,1,0,0:0:0:0:
192,192,69837,1,0,0:0:0:0:
448,192,69837,1,0,0:0:0:0:
64,192,69931,1,0,0:0:0:0:
320,192,70025,1,0,0:0:0:0:
192,192,70118,1,0,0:0:0:0:
64,192,70118,1,0,0:0:0:0:
448,192,70212,1,0,0:0:0:0:
192,192,70400,1,0,0:0:0:0:
64,192,70400,1,0,0:0:0:0:
320,192,70400,1,0,0:0:0:0:
448,192,70400,1,0,0:0:0:0:
192,192,70587,1,0,0:0:0:0:
64,192,70587,1,0,0:0:0:0:
64,192,70775,1,0,0:0:0:0:
320,192,70775,1,0,0:0:0:0:
448,192,70775,128,0,72275:0:0:0:0:
192,192,70962,1,0,0:0:0:0:
64,192,71150,1,0,0:0:0:0:
320,192,71337,1,0,0:0:0:0:
192,192,71431,1,0,0:0:0:0:
64,192,71525,1,0,0:0:0:0:
320,192,71525,1,0,0:0:0:0:
192,192,71806,1,0,0:0:0:0:
64,192,71806,1,0,0:0:0:0:
320,192,72087,1,0,0:0:0:0:
192,192,72087,1,0,0:0:0:0:
192,192,72275,1,0,0:0:0:0:
320,192,72275,1,0,0:0:0:0:
64,192,72275,128,0,73775:0:0:0:0:
448,192,72650,1,0,0:0:0:0:
448,192,72931,1,0,0:0:0:0:
448,192,73212,1,0,0:0:0:0:
448,192,73587,1,0,0:0:0:0:
192,192,73775,128,0,75275:0:0:0:0:
320,192,73775,1,0,0:0:0:0:
320,192,74150,1,0,0:0:0:0:
320,192,74431,1,0,0:0:0:0:
320,192,74712,1,0,0:0:0:0:
320,192,75087,1,0,0:0:0:0:
448,192,75275,128,0,76775:0:0:0:0:
64,192,75275,1,0,0:0:0:0:
64,192,75650,1,0,0:0:0:0:
64,192,75931,1,0,0:0:0:0:
64,192,76212,1,0,0:0:0:0:
64,192,76587,1,0,0:0:0:0:
320,192,76775,128,0,78275:0:0:0:0:
192,192,76775,1,0,0:0:0:0:
192,192,77150,1,0,0:0:0:0:
192,192,77431,1,0,0:0:0:0:
192,192,77712,1,0,0:0:0:0:
192,192,78087,1,0,0:0:0:0:
64,192,78275,128,0,79775:0:0:0:0:
448,192,78275,1,0,0:0:0:0:
320,192,78650,1,0,0:0:0:0:
320,192,78931,1,0,0:0:0:0:
320,192,79212,1,0,0:0:0:0:
320,192,79587,1,0,0:0:0:0:
448,192,79775,128,0,81275:0:0:0:0:
192,192,79775,1,0,0:0:0:0:
64,192,80150,1,0,0:0:0:0:
64,192,80431,1,0,0:0:0:0:
64,192,80712,1,0,0:0:0:0:
64,192,81087,1,0,0:0:0:0:
192,192,81275,128,0,82775:0:0:0:0:
320,192,81275,1,0,0:0:0:0:
448,192,81650,1,0,0:0:0:0:
448,192,81931,1,0,0:0:0:0:
448,192,82212,1,0,0:0:0:0:
448,192,82587,1,0,0:0:0:0:
320,192,82775,128,0,84275:0:0:0:0:
64,192,82775,1,0,0:0:0:0:
192,192,83150,1,0,0:0:0:0:
192,192,83431,1,0,0:0:0:0:
192,192,83712,1,0,0:0:0:0:
192,192,84087,1,0,0:0:0:0:
64,192,84275,1,0,0:0:0:0:
448,192,84275,1,0,0:0:0:0:
192,192,84368,1,0,0:0:0:0:
320,192,84462,1,0,0:0:0:0:
64,192,84556,1,0,0:0:0:0:
448,192,84650,1,0,0:0:0:0:
192,192,84743,1,0,0:0:0:0:
320,192,84837,1,0,0:0:0:0:
64,192,84931,1,0,0:0:0:0:
192,192,85025,1,0,0:0:0:0:
448,192,85118,1,0,0:0:0:0:
320,192,85212,1,0,0:0:0:0:
192,192,85306,1,0,0:0:0:0:
64,192,85400,128,0,85587:0:0:0:0:
448,192,85587,1,0,0:0:0:0:
192,192,85681,1,0,0:0:0:0:
320,192,85775,1,0,0:0:0:0:
64,192,85868,1,0,0:0:0:0:
192,192,85962,1,0,0:0:0:0:
320,192,86056,1,0,0:0:0:0:
448,192,86150,1,0,0:0:0:0:
192,192,86243,1,0,0:0:0:0:
64,192,86337,1,0,0:0:0:0:
448,192,86431,1,0,0:0:0:0:
320,192,86525,1,0,0:0:0:0:
64,192,86618,1,0,0:0:0:0:
192,192,86712,1,0,0:0:0:0:
320,192,86806,1,0,0:0:0:0:
64,192,86900,128,0,87087:0:0:0:0:
448,192,87087,1,0,0:0:0:0:
192,192,87181,1,0,0:0:0:0:
320,192,87275,1,0,0:0:0:0:
64,192,87368,1,0,0:0:0:0:
448,192,87462,1,0,0:0:0:0:
320,192,87556,1,0,0:0:0:0:
192,192,87650,1,0,0:0:0:0:
64,192,87743,1,0,0:0:0:0:
448,192,87837,1,0,0:0:0:0:
192,192,87931,1,0,0:0:0:0:
320,192,88025,1,0,0:0:0:0:
64,192,88118,1,0,0:0:0:0:
192,192,88212,1,0,0:0:0:0:
320,192,88306,1,0,0:0:0:0:
448,192,88400,128,0,88587:0:0:0:0:
64,192,88587,128,0,88775:0:0:0:0:
192,192,88775,128,0,89150:0:0:0:0:
448,192,89150,1,0,0:0:0:0:
64,192,89243,1,0,0:0:0:0:
320,192,89337,1,0,0:0:0:0:
192,192,89431,1,0,0:0:0:0:
448,192,89525,1,0,0:0:0:0:
320,192,89618,1,0,0:0:0:0:
192,192,89712,1,0,0:0:0:0:
64,192,89806,1,0,0:0:0:0:
448,192,89900,1,0,0:0:0:0:
320,192,89993,1,0,0:0:0:0:
64,192,90087,1,0,0:0:0:0:
192,192,90181,1,0,0:0:0:0:
448,192,90275,1,0,0:0:0:0:
320,192,90368,1,0,0:0:0:0:
192,192,90462,1,0,0:0:0:0:
64,192,90556,1,0,0:0:0:0:
448,192,90650,1,0,0:0:0:0:
192,192,90743,1,0,0:0:0:0:
320,192,90837,1,0,0:0:0:0:
64,192,90931,1,0,0:0:0:0:
192,192,91025,1,0,0:0:0:0:
320,192,91118,1,0,0:0:0:0:
448,192,91212,1,0,0:0:0:0:
64,192,91306,1,0,0:0:0:0:
192,192,91400,128,0,91587:0:0:0:0:
448,192,91587,128,0,91775:0:0:0:0:
64,192,91775,128,0,92150:0:0:0:0:
448,192,92150,1,0,0:0:0:0:
192,192,92243,1,0,0:0:0:0:
320,192,92337,1,0,0:0:0:0:
64,192,92431,1,0,0:0:0:0:
192,192,92525,1,0,0:0:0:0:
320,192,92618,1,0,0:0:0:0:
448,192,92712,1,0,0:0:0:0:
192,192,92806,1,0,0:0:0:0:
64,192,92900,1,0,0:0:0:0:
320,192,92993,1,0,0:0:0:0:
192,192,93087,1,0,0:0:0:0:
448,192,93181,1,0,0:0:0:0:
64,192,93275,128,0,94775:0:0:0:0:
192,192,93275,1,0,0:0:0:0:
320,192,93368,1,0,0:0:0:0:
448,192,93462,1,0,0:0:0:0:
192,192,93556,1,0,0:0:0:0:
320,192,93650,1,0,0:0:0:0:
448,192,93743,1,0,0:0:0:0:
192,192,93837,1,0,0:0:0:0:
320,192,93931,1,0,0:0:0:0:
448,192,94025,1,0,0:0:0:0:
320,192,94118,1,0,0:0:0:0:
192,192,94212,1,0,0:0:0:0:
448,192,94306,1,0,0:0:0:0:
320,192,94400,1,0,0:0:0:0:
192,192,94493,1,0,0:0:0:0:
448,192,94587,1,0,0:0:0:0:
320,192,94681,1,0,0:0:0:0:
192,192,94775,128,0,95150:0:0:0:0:
448,192,95150,128,0,95525:0:0:0:0:
320,192,95525,128,0,95900:0:0:0:0:
192,192,95525,1,0,0:0:0:0:
64,192,95900,128,0,96275:0:0:0:0:
448,192,95900,1,0,0:0:0:0:
192,192,96275,1,0,0:0:0:0:
320,192,96275,1,0,0:0:0:0:
448,192,96275,1,0,0:0:0:0:
64,192,96368,1,0,0:0:0:0:
192,192,96462,1,0,0:0:0:0:
448,192,96556,1,0,0:0:0:0:
320,192,96650,1,0,0:0:0:0:
192,192,96743,1,0,0:0:0:0:
64,192,96837,1,0,0:0:0:0:
448,192,96837,1,0,0:0:0:0:
320,192,96931,1,0,0:0:0:0:
192,192,97025,1,0,0:0:0:0:
64,192,97025,1,0,0:0:0:0:
448,192,97025,1,0,0:0:0:0:
320,192,97118,1,0,0:0:0:0:
64,192,97212,1,0,0:0:0:0:
192,192,97306,1,0,0:0:0:0:
448,192,97400,1,0,0:0:0:0:
320,192,97400,1,0,0:0:0:0:
64,192,97493,1,0,0:0:0:0:
192,192,97587,1,0,0:0:0:0:
320,192,97681,1,0,0:0:0:0:
448,192,97775,1,0,0:0:0:0:
64,192,97775,1,0,0:0:0:0:
192,192,97868,1,0,0:0:0:0:
320,192,97962,1,0,0:0:0:0:
64,192,98056,1,0,0:0:0:0:
448,192,98150,1,0,0:0:0:0:
192,192,98243,1,0,0:0:0:0:
320,192,98337,1,0,0:0:0:0:
448,192,98337,1,0,0:0:0:0:
192,192,98431,1,0,0:0:0:0:
64,192,98525,1,0,0:0:0:0:
320,192,98525,1,0,0:0:0:0:
448,192,98525,1,0,0:0:0:0:
192,192,98618,1,0,0:0:0:0:
64,192,98712,1,0,0:0:0:0:
448,192,98806,1,0,0:0:0:0:
192,192,98900,1,0,0:0:0:0:
320,192,98993,1,0,0:0:0:0:
64,192,99087,1,0,0:0:0:0:
192,192,99181,1,0,0:0:0:0:
320,192,99275,1,0,0:0:0:0:
448,192,99275,1,0,0:0:0:0:
64,192,99368,1,0,0:0:0:0:
192,192,99462,1,0,0:0:0:0:
448,192,99556,1,0,0:0:0:0:
320,192,99650,1,0,0:0:0:0:
192,192,99743,1,0,0:0:0:0:
64,192,99837,1,0,0:0:0:0:
448,192,99837,1,0,0:0:0:0:
320,192,99931,1,0,0:0:0:0:
192,192,100025,1,0,0:0:0:0:
64,192,100025,1,0,0:0:0:0:
448,192,100025,1,0,0:0:0:0:
320,192,100118,1,0,0:0:0:0:
64,192,100212,1,0,0:0:0:0:
448,192,100306,1,0,0:0:0:0:
192,192,100400,1,0,0:0:0:0:
320,192,100400,1,0,0:0:0:0:
64,192,100493,1,0,0:0:0:0:
192,192,100587,1,0,0:0:0:0:
320,192,100681,1,0,0:0:0:0:
64,192,100775,1,0,0:0:0:0:
448,192,100775,1,0,0:0:0:0:
192,192,100868,1,0,0:0:0:0:
448,192,100962,1,0,0:0:0:0:
320,192,100962,1,0,0:0:0:0:
64,192,101056,1,0,0:0:0:0:
192,192,101150,1,0,0:0:0:0:
320,192,101243,1,0,0:0:0:0:
448,192,101337,1,0,0:0:0:0:
64,192,101337,1,0,0:0:0:0:
192,192,101431,1,0,0:0:0:0:
320,192,101431,1,0,0:0:0:0:
64,192,101525,1,0,0:0:0:0:
448,192,101525,1,0,0:0:0:0:
192,192,101618,1,0,0:0:0:0:
320,192,101712,1,0,0:0:0:0:
64,192,101806,1,0,0:0:0:0:
448,192,101900,1,0,0:0:0:0:
192,192,101900,1,0,0:0:0:0:
320,192,101993,1,0,0:0:0:0:
64,192,102087,1,0,0:0:0:0:
192,192,102181,1,0,0:0:0:0:
448,192,102275,1,0,0:0:0:0:
320,192,102275,1,0,0:0:0:0:
64,192,102368,1,0,0:0:0:0:
192,192,102462,1,0,0:0:0:0:
320,192,102556,1,0,0:0:0:0:
448,192,102650,1,0,0:0:0:0:
192,192,102650,1,0,0:0:0:0:
64,192,102650,1,0,0:0:0:0:
320,192,102743,1,0,0:0:0:0:
64,192,102837,1,0,0:0:0:0:
448,192,102931,1,0,0:0:0:0:
320,192,103025,1,0,0:0:0:0:
192,192,103025,1,0,0:0:0:0:
64,192,103025,1,0,0:0:0:0:
448,192,103118,1,0,0:0:0:0:
320,192,103212,1,0,0:0:0:0:
192,192,103306,1,0,0:0:0:0:
64,192,103400,1,0,0:0:0:0:
448,192,103400,1,0,0:0:0:0:
320,192,103493,1,0,0:0:0:0:
192,192,103587,1,0,0:0:0:0:
320,192,103681,1,0,0:0:0:0:
448,192,103775,1,0,0:0:0:0:
64,192,103775,1,0,0:0:0:0:
192,192,103868,1,0,0:0:0:0:
320,192,103962,1,0,0:0:0:0:
64,192,104056,1,0,0:0:0:0:
448,192,104150,1,0,0:0:0:0:
320,192,104243,1,0,0:0:0:0:
192,192,104337,1,0,0:0:0:0:
64,192,104337,1,0,0:0:0:0:
320,192,104431,1,0,0:0:0:0:
64,192,104525,1,0,0:0:0:0:
448,192,104525,1,0,0:0:0:0:
192,192,104525,1,0,0:0:0:0:
320,192,104618,1,0,0:0:0:0:
192,192,104712,1,0,0:0:0:0:
448,192,104806,1,0,0:0:0:0:
64,192,104900,1,0,0:0:0:0:
320,192,104993,1,0,0:0:0:0:
192,192,105087,1,0,0:0:0:0:
448,192,105181,1,0,0:0:0:0:
320,192,105275,1,0,0:0:0:0:
64,192,105275,1,0,0:0:0:0:
192,192,105368,1,0,0:0:0:0:
448,192,105462,1,0,0:0:0:0:
320,192,105556,1,0,0:0:0:0:
192,192,105650,1,0,0:0:0:0:
64,192,105743,1,0,0:0:0:0:
320,192,105837,1,0,0:0:0:0:
448,192,105837,1,0,0:0:0:0:
192,192,105931,1,0,0:0:0:0:
64,192,106025,1,0,0:0:0:0:
320,192,106025,1,0,0:0:0:0:
448,192,106025,1,0,0:0:0:0:
192,192,106118,1,0,0:0:0:0:
448,192,106212,1,0,0:0:0:0:
64,192,106306,1,0,0:0:0:0:
320,192,106400,1,0,0:0:0:0:
448,192,106400,1,0,0:0:0:0:
192,192,106493,1,0,0:0:0:0:
64,192,106493,1,0,0:0:0:0:
320,192,106587,1,0,0:0:0:0:
448,192,106587,1,0,0:0:0:0:
192,192,106681,1,0,0:0:0:0:
64,192,106681,1,0,0:0:0:0:
64,192,106775,1,0,0:0:0:0:
320,192,106775,1,0,0:0:0:0:
448,192,106775,1,0,0:0:0:0:
192,192,106868,1,0,0:0:0:0:
448,192,106962,1,0,0:0:0:0:
320,192,107056,1,0,0:0:0:0:
192,192,107150,1,0,0:0:0:0:
64,192,107150,1,0,0:0:0:0:
320,192,107243,1,0,0:0:0:0:
448,192,107337,1,0,0:0:0:0:
64,192,107337,1,0,0:0:0:0:
192,192,107431,1,0,0:0:0:0:
320,192,107525,1,0,0:0:0:0:
448,192,107525,1,0,0:0:0:0:
192,192,107618,1,0,0:0:0:0:
64,192,107618,1,0,0:0:0:0:
448,192,107712,1,0,0:0:0:0:
320,192,107712,1,0,0:0:0:0:
192,192,107806,1,0,0:0:0:0:
64,192,107900,1,0,0:0:0:0:
448,192,107900,1,0,0:0:0:0:
320,192,107993,1,0,0:0:0:0:
192,192,107993,1,0,0:0:0:0:
64,192,108087,1,0,0:0:0:0:
448,192,108087,1,0,0:0:0:0:
320,192,108181,1,0,0:0:0:0:
192,192,108181,1,0,0:0:0:0:
448,192,108275,1,0,0:0:0:0:
64,192,108275,128,0,108650:0:0:0:0:
192,192,108650,1,0,0:0:0:0:
320,192,108650,1,0,0:0:0:0:
448,192,108650,1,0,0:0:0:0:
64,192,108743,1,0,0:0:0:0:
192,192,108837,1,0,0:0:0:0:
320,192,108837,1,0,0:0:0:0:
448,192,108931,1,0,0:0:0:0:
192,192,109025,1,0,0:0:0:0:
64,192,109025,1,0,0:0:0:0:
320,192,109025,1,0,0:0:0:0:
448,192,109118,1,0,0:0:0:0:
320,192,109212,1,0,0:0:0:0:
64,192,109306,1,0,0:0:0:0:
192,192,109400,1,0,0:0:0:0:
448,192,109400,1,0,0:0:0:0:
320,192,109493,1,0,0:0:0:0:
64,192,109587,1,0,0:0:0:0:
448,192,109681,1,0,0:0:0:0:
320,192,109775,1,0,0:0:0:0:
192,192,109775,1,0,0:0:0:0:
64,192,109868,1,0,0:0:0:0:
192,192,109962,1,0,0:0:0:0:
448,192,110056,1,0,0:0:0:0:
320,192,110150,1,0,0:0:0:0:
192,192,110243,1,0,0:0:0:0:
64,192,110337,1,0,0:0:0:0:
448,192,110337,1,0,0:0:0:0:
320,192,110431,1,0,0:0:0:0:
192,192,110525,1,0,0:0:0:0:
64,192,110525,1,0,0:0:0:0:
448,192,110525,1,0,0:0:0:0:
320,192,110618,1,0,0:0:0:0:
64,192,110712,1,0,0:0:0:0:
448,192,110806,1,0,0:0:0:0:
192,192,110900,1,0,0:0:0:0:
320,192,110993,1,0,0:0:0:0:
64,192,111087,1,0,0:0:0:0:
192,192,111181,1,0,0:0:0:0:
320,192,111275,1,0,0:0:0:0:
448,192,111275,1,0,0:0:0:0:
64,192,111368,1,0,0:0:0:0:
192,192,111462,1,0,0:0:0:0:
448,192,111556,1,0,0:0:0:0:
320,192,111650,1,0,0:0:0:0:
192,192,111743,1,0,0:0:0:0:
64,192,111837,1,0,0:0:0:0:
448,192,111837,1,0,0:0:0:0:
320,192,111931,1,0,0:0:0:0:
192,192,112025,1,0,0:0:0:0:
64,192,112025,1,0,0:0:0:0:
448,192,112025,1,0,0:0:0:0:
320,192,112118,1,0,0:0:0:0:
192,192,112212,1,0,0:0:0:0:
448,192,112306,1,0,0:0:0:0:
64,192,112400,1,0,0:0:0:0:
320,192,112400,1,0,0:0:0:0:
192,192,112493,1,0,0:0:0:0:
448,192,112587,1,0,0:0:0:0:
64,192,112681,1,0,0:0:0:0:
192,192,112775,1,0,0:0:0:0:
320,192,112775,1,0,0:0:0:0:
448,192,112868,1,0,0:0:0:0:
192,192,112962,1,0,0:0:0:0:
64,192,112962,1,0,0:0:0:0:
320,192,113056,1,0,0:0:0:0:
448,192,113150,1,0,0:0:0:0:
64,192,113243,1,0,0:0:0:0:
192,192,113337,1,0,0:0:0:0:
320,192,113337,1,0,0:0:0:0:
448,192,113431,1,0,0:0:0:0:
64,192,113431,1,0,0:0:0:0:
192,192,113525,1,0,0:0:0:0:
320,192,113525,1,0,0:0:0:0:
448,192,113618,1,0,0:0:0:0:
320,192,113712,1,0,0:0:0:0:
192,192,113806,1,0,0:0:0:0:
64,192,113900,1,0,0:0:0:0:
448,192,113900,1,0,0:0:0:0:
320,192,113993,1,0,0:0:0:0:
192,192,114087,1,0,0:0:0:0:
64,192,114087,1,0,0:0:0:0:
320,192,114181,1,0,0:0:0:0:
448,192,114275,1,0,0:0:0:0:
64,192,114275,1,0,0:0:0:0:
192,192,114368,1,0,0:0:0:0:
192,192,114556,1,0,0:0:0:0:
320,192,114650,1,0,0:0:0:0:
448,192,114650,1,0,0:0:0:0:
64,192,114650,1,0,0:0:0:0:
