osu file format v14

[General]
AudioFilename: audio.mp3
AudioLeadIn: 0
PreviewTime: -1
Countdown: 1
SampleSet: Normal
StackLeniency: 0.7
Mode: 3
LetterboxInBreaks: 0
SpecialStyle: 0
WidescreenStoryboard: 0

[Editor]
DistanceSpacing: 0.5
BeatDivisor: 6
GridSize: 4
TimelineZoom: 1

[Metadata]
Title:Tropical Resort (Sonic Colors Remix)
TitleUnicode:Tropical Resort (Sonic Colors Remix)
Artist:Hyper Potions
ArtistUnicode:Hyper Potions
Creator:Mk3605
Version:
Source:
Tags:
BeatmapID:1789673
BeatmapSetID:856663

[Difficulty]
HPDrainRate:8
CircleSize:4
OverallDifficulty:8
ApproachRate:5
SliderMultiplier:1.4
SliderTickRate:1

[Events]
//Background and Video events
//Break Periods
//Storyboard Layer 0 (Background)
//Storyboard Layer 1 (Fail)
//Storyboard Layer 2 (Pass)
//Storyboard Layer 3 (Foreground)
//Storyboard Sound Samples

[TimingPoints]
39.0260851279426,714.285714285714,4,1,0,100,1,0
40,-50,4,1,0,100,0,0
11383,352.941176470588,4,1,0,100,1,0
22688,352.941176470588,4,1,0,100,1,0
53751,184.615384615385,4,1,0,100,1,0
53752,-200,4,1,0,100,0,0
55204.0713296399,166.604986149584,4,1,0,100,1,0
57999,352.941176470588,4,1,0,100,1,0

[HitObjects]
448,192,99,5,0,0:0:0:0:
448,192,452,1,0,0:0:0:0:
320,192,629,1,0,0:0:0:0:
64,192,805,1,0,0:0:0:0:
448,192,805,1,0,0:0:0:0:
320,192,1158,1,0,0:0:0:0:
192,192,1334,1,0,0:0:0:0:
448,192,1511,1,0,0:0:0:0:
64,192,1687,1,0,0:0:0:0:
320,192,1864,1,0,0:0:0:0:
448,192,2040,1,0,0:0:0:0:
192,192,2040,1,0,0:0:0:0:
192,192,2393,1,0,0:0:0:0:
448,192,2570,1,0,0:0:0:0:
64,192,2746,1,0,0:0:0:0:
448,192,2923,1,0,0:0:0:0:
192,192,2923,1,0,0:0:0:0:
448,192,3276,1,0,0:0:0:0:
192,192,3452,1,0,0:0:0:0:
64,192,3629,1,0,0:0:0:0:
320,192,3629,1,0,0:0:0:0:
448,192,3982,1,0,0:0:0:0:
320,192,4158,1,0,0:0:0:0:
448,192,4334,1,0,0:0:0:0:
64,192,4511,1,0,0:0:0:0:
192,192,4687,1,0,0:0:0:0:
320,192,4864,1,0,0:0:0:0:
64,192,4864,1,0,0:0:0:0:
448,192,5217,1,0,0:0:0:0:
320,192,5393,1,0,0:0:0:0:
448,192,5570,1,0,0:0:0:0:
320,192,5746,1,0,0:0:0:0:
192,192,5746,1,0,0:0:0:0:
64,192,6099,1,0,0:0:0:0:
320,192,6276,1,0,0:0:0:0:
64,192,6452,1,0,0:0:0:0:
448,192,6452,1,0,0:0:0:0:
320,192,6805,1,0,0:0:0:0:
192,192,6982,1,0,0:0:0:0:
320,192,7158,1,0,0:0:0:0:
64,192,7334,1,0,0:0:0:0:
448,192,7511,1,0,0:0:0:0:
320,192,7687,1,0,0:0:0:0:
192,192,7687,1,0,0:0:0:0:
64,192,8040,1,0,0:0:0:0:
320,192,8217,1,0,0:0:0:0:
192,192,8393,1,0,0:0:0:0:
64,192,8570,1,0,0:0:0:0:
448,192,8570,1,0,0:0:0:0:
64,192,8923,1,0,0:0:0:0:
448,192,8923,1,0,0:0:0:0:
64,192,9276,1,0,0:0:0:0:
448,192,9276,1,0,0:0:0:0:
320,192,9629,1,0,0:0:0:0:
64,192,9805,1,0,0:0:0:0:
320,192,9982,1,0,0:0:0:0:
192,192,9982,1,0,0:0:0:0:
320,192,10334,1,0,0:0:0:0:
192,192,10334,1,0,0:0:0:0:
320,192,10511,1,0,0:0:0:0:
192,192,10511,1,0,0:0:0:0:
64,192,10864,1,0,0:0:0:0:
64,192,11040,1,0,0:0:0:0:
64,192,11217,1,0,0:0:0:0:
448,192,11393,1,0,0:0:0:0:
320,192,11393,1,0,0:0:0:0:
192,192,11559,1,0,0:0:0:0:
192,192,11735,1,0,0:0:0:0:
64,192,11735,128,0,11853:0:0:0:0:
448,192,11736,1,0,0:0:0:0:
64,192,11912,1,0,0:0:0:0:
192,192,11912,128,0,12030:0:0:0:0:
320,192,12089,1,0,0:0:0:0:
448,192,12089,1,0,0:0:0:0:
192,192,12265,1,0,0:0:0:0:
64,192,12441,1,0,0:0:0:0:
448,192,12442,1,0,0:0:0:0:
192,192,12618,1,0,0:0:0:0:
448,192,12794,128,0,12912:0:0:0:0:
320,192,12795,1,0,0:0:0:0:
64,192,12971,1,0,0:0:0:0:
320,192,12971,128,0,13088:0:0:0:0:
448,192,12971,1,0,0:0:0:0:
64,192,13147,1,0,0:0:0:0:
64,192,13324,1,0,0:0:0:0:
320,192,13500,1,0,0:0:0:0:
448,192,13500,1,0,0:0:0:0:
64,192,13677,1,0,0:0:0:0:
192,192,13677,1,0,0:0:0:0:
320,192,13853,1,0,0:0:0:0:
448,192,13853,1,0,0:0:0:0:
64,192,14030,1,0,0:0:0:0:
192,192,14030,1,0,0:0:0:0:
64,192,14206,1,0,0:0:0:0:
192,192,14206,1,0,0:0:0:0:
320,192,14383,1,0,0:0:0:0:
448,192,14559,1,0,0:0:0:0:
320,192,14736,1,0,0:0:0:0:
192,192,14912,1,0,0:0:0:0:
64,192,14912,1,0,0:0:0:0:
320,192,15089,1,0,0:0:0:0:
192,192,15265,1,0,0:0:0:0:
64,192,15442,1,0,0:0:0:0:
448,192,15618,1,0,0:0:0:0:
320,192,15618,1,0,0:0:0:0:
192,192,15795,1,0,0:0:0:0:
448,192,15971,1,0,0:0:0:0:
64,192,16148,1,0,0:0:0:0:
192,192,16148,1,0,0:0:0:0:
448,192,16324,1,0,0:0:0:0:
320,192,16324,1,0,0:0:0:0:
64,192,16500,1,0,0:0:0:0:
192,192,16500,1,0,0:0:0:0:
448,192,16677,1,0,0:0:0:0:
320,192,16677,1,0,0:0:0:0:
320,192,16853,1,0,0:0:0:0:
448,192,16853,1,0,0:0:0:0:
64,192,17030,1,0,0:0:0:0:
192,192,17030,1,0,0:0:0:0:
192,192,17206,1,0,0:0:0:0:
64,192,17383,1,0,0:0:0:0:
192,192,17559,1,0,0:0:0:0:
320,192,17736,1,0,0:0:0:0:
448,192,17736,1,0,0:0:0:0:
448,192,17912,1,0,0:0:0:0:
320,192,18089,1,0,0:0:0:0:
192,192,18265,1,0,0:0:0:0:
64,192,18442,1,0,0:0:0:0:
192,192,18442,1,0,0:0:0:0:
64,192,18618,1,0,0:0:0:0:
192,192,18795,1,0,0:0:0:0:
320,192,18971,1,0,0:0:0:0:
448,192,19148,1,0,0:0:0:0:
320,192,19148,1,0,0:0:0:0:
320,192,19324,1,0,0:0:0:0:
448,192,19324,1,0,0:0:0:0:
320,192,19500,1,0,0:0:0:0:
448,192,19500,1,0,0:0:0:0:
320,192,19677,1,0,0:0:0:0:
448,192,19677,1,0,0:0:0:0:
192,192,19853,1,0,0:0:0:0:
64,192,19853,1,0,0:0:0:0:
448,192,20030,1,0,0:0:0:0:
192,192,20206,1,0,0:0:0:0:
64,192,20206,1,0,0:0:0:0:
320,192,20382,1,0,0:0:0:0:
192,192,20559,1,0,0:0:0:0:
64,192,20559,1,0,0:0:0:0:
64,192,20736,1,0,0:0:0:0:
192,192,20912,1,0,0:0:0:0:
192,192,21089,1,0,0:0:0:0:
320,192,21265,1,0,0:0:0:0:
448,192,21442,1,0,0:0:0:0:
320,192,21442,1,0,0:0:0:0:
192,192,21530,1,0,0:0:0:0:
448,192,21618,1,0,0:0:0:0:
320,192,21618,1,0,0:0:0:0:
64,192,21706,1,0,0:0:0:0:
448,192,21795,1,0,0:0:0:0:
320,192,21795,1,0,0:0:0:0:
192,192,21883,1,0,0:0:0:0:
448,192,21971,1,0,0:0:0:0:
320,192,21971,1,0,0:0:0:0:
448,192,22148,1,0,0:0:0:0:
320,192,22206,1,0,0:0:0:0:
192,192,22265,1,0,0:0:0:0:
64,192,22324,1,0,0:0:0:0:
320,192,22441,128,0,22805:0:0:0:0:
192,192,22500,128,0,23158:0:0:0:0:
64,192,22559,128,0,22982:0:0:0:0:
448,192,22677,128,0,22746:0:0:0:0:
448,192,22864,128,0,22982:0:0:0:0:
320,192,22864,128,0,22923:0:0:0:0:
320,192,23040,128,0,23158:0:0:0:0:
64,192,23040,128,0,23158:0:0:0:0:
448,192,23040,128,0,23099:0:0:0:0:
64,192,23217,128,0,23335:0:0:0:0:
192,192,23217,128,0,23511:0:0:0:0:
320,192,23393,128,0,23452:0:0:0:0:
448,192,23393,128,0,23511:0:0:0:0:
64,192,23393,128,0,23864:0:0:0:0:
448,192,23570,128,0,23629:0:0:0:0:
320,192,23570,128,0,23688:0:0:0:0:
192,192,23570,128,0,24040:0:0:0:0:
320,192,23746,128,0,23805:0:0:0:0:
448,192,23746,128,0,23864:0:0:0:0:
448,192,23923,128,0,23982:0:0:0:0:
320,192,23923,128,0,24040:0:0:0:0:
64,192,23923,128,0,24040:0:0:0:0:
64,192,24099,128,0,24217:0:0:0:0:
192,192,24099,128,0,24217:0:0:0:0:
320,192,24276,128,0,24335:0:0:0:0:
448,192,24276,128,0,24393:0:0:0:0:
64,192,24276,128,0,24393:0:0:0:0:
448,192,24452,128,0,24511:0:0:0:0:
320,192,24452,128,0,24570:0:0:0:0:
192,192,24452,128,0,24570:0:0:0:0:
320,192,24629,128,0,24688:0:0:0:0:
448,192,24629,128,0,24746:0:0:0:0:
64,192,24629,128,0,24746:0:0:0:0:
448,192,24805,128,0,25335:0:0:0:0:
320,192,24805,128,0,25158:0:0:0:0:
192,192,24805,128,0,24982:0:0:0:0:
64,192,24982,128,0,25099:0:0:0:0:
64,192,25158,128,0,25276:0:0:0:0:
64,192,25335,128,0,25452:0:0:0:0:
64,192,25511,128,0,25570:0:0:0:0:
192,192,25511,128,0,25643:0:0:0:0:
320,192,25511,128,0,25996:0:0:0:0:
448,192,25511,128,0,25820:0:0:0:0:
192,192,25688,128,0,25746:0:0:0:0:
64,192,25688,128,0,25805:0:0:0:0:
192,192,25864,128,0,25996:0:0:0:0:
64,192,25864,128,0,25923:0:0:0:0:
448,192,25864,128,0,25996:0:0:0:0:
320,192,26040,128,0,26349:0:0:0:0:
448,192,26040,128,0,26173:0:0:0:0:
192,192,26217,128,0,26283:0:0:0:0:
64,192,26217,128,0,26335:0:0:0:0:
448,192,26217,128,0,26702:0:0:0:0:
64,192,26393,128,0,26452:0:0:0:0:
192,192,26393,128,0,26511:0:0:0:0:
320,192,26393,128,0,26879:0:0:0:0:
192,192,26570,128,0,26636:0:0:0:0:
64,192,26570,128,0,26687:0:0:0:0:
64,192,26746,128,0,26805:0:0:0:0:
192,192,26746,128,0,26864:0:0:0:0:
448,192,26746,128,0,26879:0:0:0:0:
320,192,26923,128,0,27040:0:0:0:0:
448,192,26923,128,0,27040:0:0:0:0:
64,192,27099,128,0,27217:0:0:0:0:
192,192,27099,128,0,27158:0:0:0:0:
448,192,27099,128,0,27217:0:0:0:0:
192,192,27276,128,0,27393:0:0:0:0:
64,192,27276,128,0,27335:0:0:0:0:
320,192,27276,128,0,27408:0:0:0:0:
192,192,27452,128,0,27511:0:0:0:0:
64,192,27452,128,0,27570:0:0:0:0:
448,192,27474,128,0,27585:0:0:0:0:
192,192,27629,128,0,27982:0:0:0:0:
64,192,27629,128,0,28158:0:0:0:0:
320,192,27629,128,0,27805:0:0:0:0:
448,192,27805,128,0,27923:0:0:0:0:
448,192,27982,128,0,28099:0:0:0:0:
320,192,28158,128,0,30217:0:0:0:0:
448,192,28158,128,0,28276:0:0:0:0:
448,192,28335,128,0,28452:0:0:0:0:
448,192,28335,128,0,28452:0:0:0:0:
192,192,28335,128,0,28629:0:0:0:0:
64,192,28511,128,0,28805:0:0:0:0:
448,192,28511,128,0,28629:0:0:0:0:
448,192,28687,128,0,28805:0:0:0:0:
192,192,28687,128,0,28805:0:0:0:0:
448,192,28864,128,0,28982:0:0:0:0:
192,192,28864,128,0,28982:0:0:0:0:
64,192,28864,128,0,29158:0:0:0:0:
192,192,29040,128,0,29158:0:0:0:0:
448,192,29040,128,0,29158:0:0:0:0:
448,192,29217,128,0,29511:0:0:0:0:
64,192,29217,128,0,29335:0:0:0:0:
192,192,29217,128,0,29511:0:0:0:0:
64,192,29393,128,0,29511:0:0:0:0:
64,192,29570,128,0,29687:0:0:0:0:
448,192,29570,128,0,29864:0:0:0:0:
192,192,29570,128,0,29864:0:0:0:0:
64,192,29746,128,0,29864:0:0:0:0:
192,192,29923,128,0,30805:0:0:0:0:
448,192,29923,128,0,30276:0:0:0:0:
64,192,29923,128,0,30040:0:0:0:0:
64,192,30099,128,0,30217:0:0:0:0:
64,192,30276,128,0,30629:0:0:0:0:
320,192,30276,128,0,30982:0:0:0:0:
448,192,30452,128,0,30570:0:0:0:0:
448,192,30629,128,0,30746:0:0:0:0:
448,192,30805,128,0,30923:0:0:0:0:
448,192,30982,128,0,31099:0:0:0:0:
64,192,31158,128,0,31629:0:0:0:0:
320,192,31158,128,0,31629:0:0:0:0:
192,192,31511,128,0,31805:0:0:0:0:
448,192,31511,128,0,31805:0:0:0:0:
64,192,31687,128,0,31982:0:0:0:0:
320,192,31687,128,0,31982:0:0:0:0:
192,192,31864,128,0,32864:0:0:0:0:
448,192,31864,128,0,32158:0:0:0:0:
64,192,32040,128,0,33040:0:0:0:0:
320,192,32040,128,0,32335:0:0:0:0:
448,192,32217,128,0,32511:0:0:0:0:
320,192,32393,128,0,32687:0:0:0:0:
448,192,32570,128,0,32923:0:0:0:0:
320,192,32746,128,0,33099:0:0:0:0:
192,192,32923,128,0,33276:0:0:0:0:
64,192,33099,128,0,33452:0:0:0:0:
448,192,33099,128,0,33393:0:0:0:0:
448,192,33452,128,0,33746:0:0:0:0:
192,192,33746,128,0,34099:0:0:0:0:
320,192,33805,128,0,34452:0:0:0:0:
448,192,33864,128,0,34276:0:0:0:0:
64,192,33982,128,0,34099:0:0:0:0:
64,192,34158,128,0,34276:0:0:0:0:
192,192,34158,128,0,34217:0:0:0:0:
192,192,34335,128,0,34482:0:0:0:0:
448,192,34335,128,0,34452:0:0:0:0:
64,192,34335,128,0,34393:0:0:0:0:
320,192,34511,128,0,34805:0:0:0:0:
448,192,34511,128,0,34629:0:0:0:0:
192,192,34687,128,0,34746:0:0:0:0:
64,192,34687,128,0,34805:0:0:0:0:
448,192,34687,128,0,35158:0:0:0:0:
192,192,34864,128,0,34982:0:0:0:0:
320,192,34864,128,0,35335:0:0:0:0:
64,192,34864,128,0,34923:0:0:0:0:
192,192,35040,128,0,35099:0:0:0:0:
64,192,35040,128,0,35158:0:0:0:0:
64,192,35217,128,0,35276:0:0:0:0:
192,192,35217,128,0,35335:0:0:0:0:
448,192,35217,128,0,35335:0:0:0:0:
448,192,35393,128,0,35511:0:0:0:0:
320,192,35393,128,0,35511:0:0:0:0:
192,192,35570,128,0,35636:0:0:0:0:
64,192,35570,128,0,35687:0:0:0:0:
448,192,35570,128,0,35717:0:0:0:0:
192,192,35746,128,0,35864:0:0:0:0:
320,192,35746,128,0,35893:0:0:0:0:
64,192,35746,128,0,35805:0:0:0:0:
192,192,35923,128,0,35989:0:0:0:0:
64,192,35923,128,0,36040:0:0:0:0:
448,192,35923,128,0,36070:0:0:0:0:
64,192,36099,128,0,36629:0:0:0:0:
192,192,36099,128,0,36452:0:0:0:0:
320,192,36099,128,0,36276:0:0:0:0:
448,192,36276,128,0,36393:0:0:0:0:
448,192,36452,128,0,36570:0:0:0:0:
448,192,36629,128,0,36746:0:0:0:0:
448,192,36805,128,0,36864:0:0:0:0:
320,192,36805,128,0,36923:0:0:0:0:
192,192,36805,128,0,37276:0:0:0:0:
64,192,36805,128,0,37099:0:0:0:0:
320,192,36982,128,0,37040:0:0:0:0:
448,192,36982,128,0,37099:0:0:0:0:
320,192,37158,128,0,37276:0:0:0:0:
448,192,37158,128,0,37217:0:0:0:0:
64,192,37158,128,0,37276:0:0:0:0:
192,192,37335,128,0,37629:0:0:0:0:
64,192,37335,128,0,37452:0:0:0:0:
320,192,37511,128,0,37570:0:0:0:0:
448,192,37511,128,0,37629:0:0:0:0:
64,192,37511,128,0,37982:0:0:0:0:
448,192,37687,128,0,37746:0:0:0:0:
320,192,37687,128,0,37805:0:0:0:0:
192,192,37687,128,0,38158:0:0:0:0:
320,192,37864,128,0,37923:0:0:0:0:
448,192,37864,128,0,37982:0:0:0:0:
448,192,38040,128,0,38099:0:0:0:0:
320,192,38040,128,0,38158:0:0:0:0:
64,192,38040,128,0,38158:0:0:0:0:
192,192,38217,128,0,38335:0:0:0:0:
64,192,38217,128,0,38335:0:0:0:0:
448,192,38393,128,0,38511:0:0:0:0:
320,192,38393,128,0,38452:0:0:0:0:
64,192,38393,128,0,38540:0:0:0:0:
320,192,38570,128,0,38687:0:0:0:0:
448,192,38570,128,0,38629:0:0:0:0:
192,192,38570,128,0,38687:0:0:0:0:
320,192,38746,128,0,38805:0:0:0:0:
448,192,38746,128,0,38864:0:0:0:0:
64,192,38746,128,0,38864:0:0:0:0:
320,192,38923,128,0,39276:0:0:0:0:
448,192,38923,128,0,39452:0:0:0:0:
192,192,38923,128,0,39099:0:0:0:0:
64,192,39099,128,0,39217:0:0:0:0:
64,192,39276,128,0,39393:0:0:0:0:
192,192,39452,128,0,41511:0:0:0:0:
64,192,39452,128,0,39570:0:0:0:0:
64,192,39629,128,0,39746:0:0:0:0:
320,192,39629,128,0,39923:0:0:0:0:
448,192,39805,128,0,40099:0:0:0:0:
64,192,39805,128,0,39923:0:0:0:0:
64,192,39982,128,0,40099:0:0:0:0:
320,192,39982,128,0,40099:0:0:0:0:
64,192,40158,128,0,40276:0:0:0:0:
320,192,40158,128,0,40276:0:0:0:0:
448,192,40158,128,0,40452:0:0:0:0:
320,192,40335,128,0,40452:0:0:0:0:
64,192,40335,128,0,40452:0:0:0:0:
64,192,40511,128,0,40805:0:0:0:0:
448,192,40511,128,0,40629:0:0:0:0:
320,192,40511,128,0,40805:0:0:0:0:
448,192,40687,128,0,40805:0:0:0:0:
448,192,40864,128,0,40982:0:0:0:0:
64,192,40864,128,0,41158:0:0:0:0:
320,192,40864,128,0,41158:0:0:0:0:
448,192,41040,128,0,41158:0:0:0:0:
320,192,41217,128,0,42099:0:0:0:0:
64,192,41217,128,0,41570:0:0:0:0:
448,192,41217,128,0,41335:0:0:0:0:
448,192,41393,128,0,41511:0:0:0:0:
448,192,41570,128,0,41923:0:0:0:0:
192,192,41570,128,0,42276:0:0:0:0:
64,192,41923,128,0,42040:0:0:0:0:
64,192,42099,128,0,42217:0:0:0:0:
64,192,42276,128,0,42423:0:0:0:0:
448,192,42452,128,0,42923:0:0:0:0:
192,192,42452,128,0,42923:0:0:0:0:
320,192,42805,128,0,43099:0:0:0:0:
64,192,42805,128,0,43099:0:0:0:0:
448,192,42982,128,0,43276:0:0:0:0:
192,192,42982,128,0,43276:0:0:0:0:
320,192,43158,128,0,44158:0:0:0:0:
64,192,43158,128,0,43452:0:0:0:0:
448,192,43335,128,0,44335:0:0:0:0:
192,192,43335,128,0,43629:0:0:0:0:
64,192,43511,128,0,43805:0:0:0:0:
192,192,43687,128,0,43982:0:0:0:0:
64,192,43864,128,0,44217:0:0:0:0:
192,192,44040,128,0,44393:0:0:0:0:
320,192,44217,128,0,44570:0:0:0:0:
448,192,44393,128,0,44746:0:0:0:0:
64,192,44393,1,0,0:0:0:0:
192,192,44570,1,0,0:0:0:0:
64,192,44570,128,0,45923:0:0:0:0:
320,192,44746,1,0,0:0:0:0:
192,192,44746,128,0,45217:0:0:0:0:
448,192,44923,1,0,0:0:0:0:
320,192,44923,128,0,45570:0:0:0:0:
448,192,45099,128,0,46629:0:0:0:0:
192,192,45276,128,0,45393:0:0:0:0:
192,192,45452,128,0,45570:0:0:0:0:
192,192,45629,128,0,45746:0:0:0:0:
320,192,45629,128,0,46099:0:0:0:0:
192,192,45805,128,0,45923:0:0:0:0:
192,192,45982,128,0,46099:0:0:0:0:
64,192,45982,128,0,46276:0:0:0:0:
192,192,46158,128,0,46276:0:0:0:0:
320,192,46158,128,0,46805:0:0:0:0:
192,192,46335,128,0,46452:0:0:0:0:
64,192,46335,128,0,47335:0:0:0:0:
192,192,46511,128,0,46629:0:0:0:0:
192,192,46687,128,0,46805:0:0:0:0:
448,192,46687,128,0,46982:0:0:0:0:
192,192,46864,128,0,46982:0:0:0:0:
320,192,46864,128,0,47158:0:0:0:0:
192,192,47040,128,0,47158:0:0:0:0:
448,192,47040,128,0,47511:0:0:0:0:
192,192,47217,128,0,47335:0:0:0:0:
320,192,47217,128,0,47687:0:0:0:0:
192,192,47393,128,0,48393:0:0:0:0:
64,192,47393,128,0,47864:0:0:0:0:
448,192,47570,128,0,47982:0:0:0:0:
320,192,47746,128,0,48217:0:0:0:0:
64,192,47923,128,0,49276:0:0:0:0:
448,192,48040,128,0,48099:0:0:0:0:
448,192,48158,128,0,48393:0:0:0:0:
320,192,48276,128,0,48570:0:0:0:0:
192,192,48452,128,0,48746:0:0:0:0:
448,192,48452,128,0,48746:0:0:0:0:
320,192,48629,128,0,48923:0:0:0:0:
192,192,48805,128,0,49099:0:0:0:0:
448,192,48805,128,0,49099:0:0:0:0:
320,192,48982,128,0,49276:0:0:0:0:
192,192,49158,128,0,49452:0:0:0:0:
448,192,49158,128,0,50864:0:0:0:0:
64,192,49335,128,0,49629:0:0:0:0:
320,192,49335,128,0,49629:0:0:0:0:
192,192,49511,128,0,49805:0:0:0:0:
320,192,49687,128,0,49982:0:0:0:0:
64,192,49687,128,0,49982:0:0:0:0:
192,192,49864,128,0,50158:0:0:0:0:
64,192,50040,128,0,50335:0:0:0:0:
320,192,50040,128,0,50335:0:0:0:0:
192,192,50217,128,0,50511:0:0:0:0:
64,192,50393,128,0,50687:0:0:0:0:
320,192,50393,128,0,50687:0:0:0:0:
192,192,50570,128,0,50864:0:0:0:0:
64,192,50746,128,0,50864:0:0:0:0:
320,192,50746,128,0,50864:0:0:0:0:
320,192,50923,128,0,51217:0:0:0:0:
192,192,50923,128,0,51217:0:0:0:0:
64,192,50923,128,0,51570:0:0:0:0:
448,192,50923,128,0,51217:0:0:0:0:
320,192,51276,128,0,51393:0:0:0:0:
192,192,51276,128,0,51746:0:0:0:0:
448,192,51276,128,0,52099:0:0:0:0:
320,192,51452,128,0,51570:0:0:0:0:
320,192,51629,128,0,51746:0:0:0:0:
64,192,51629,128,0,52099:0:0:0:0:
320,192,51805,128,0,51923:0:0:0:0:
192,192,51805,128,0,52276:0:0:0:0:
320,192,51982,128,0,52099:0:0:0:0:
320,192,52158,128,0,52276:0:0:0:0:
448,192,52158,128,0,52629:0:0:0:0:
64,192,52158,128,0,53335:0:0:0:0:
320,192,52335,128,0,52452:0:0:0:0:
192,192,52335,128,0,52452:0:0:0:0:
320,192,52511,128,0,52629:0:0:0:0:
192,192,52511,128,0,52982:0:0:0:0:
320,192,52687,128,0,52805:0:0:0:0:
448,192,52687,128,0,52805:0:0:0:0:
320,192,52864,128,0,52982:0:0:0:0:
448,192,52864,128,0,53158:0:0:0:0:
320,192,53040,128,0,53158:0:0:0:0:
192,192,53040,128,0,53158:0:0:0:0:
320,192,53217,128,0,53335:0:0:0:0:
192,192,53217,128,0,53511:0:0:0:0:
448,192,53217,128,0,53511:0:0:0:0:
320,192,53393,128,0,53511:0:0:0:0:
64,192,53393,128,0,53923:0:0:0:0:
320,192,53570,128,0,53687:0:0:0:0:
192,192,53570,128,0,53864:0:0:0:0:
448,192,53570,128,0,53687:0:0:0:0:
448,192,53746,128,0,54335:0:0:0:0:
320,192,53746,128,0,54040:0:0:0:0:
192,192,53967,128,0,54026:0:0:0:0:
64,192,53967,128,0,54202:0:0:0:0:
192,192,54056,128,0,54233:0:0:0:0:
320,192,54056,128,0,54350:0:0:0:0:
64,192,54235,128,0,54294:0:0:0:0:
192,192,54235,128,0,54352:0:0:0:0:
192,192,54414,128,0,54708:0:0:0:0:
64,192,54414,128,0,55002:0:0:0:0:
320,192,54592,128,0,54650:0:0:0:0:
448,192,54681,128,0,54917:0:0:0:0:
320,192,54771,128,0,54948:0:0:0:0:
192,192,54771,128,0,55065:0:0:0:0:
320,192,54949,128,0,55066:0:0:0:0:
448,192,54949,128,0,55007:0:0:0:0:
64,192,55128,128,0,55422:0:0:0:0:
448,192,55128,128,0,55422:0:0:0:0:
192,192,55306,128,0,55364:0:0:0:0:
320,192,55396,128,0,55455:0:0:0:0:
192,192,55485,1,0,0:0:0:0:
192,192,55485,128,0,55779:0:0:0:0:
320,192,55485,128,0,55779:0:0:0:0:
64,192,55664,128,0,55723:0:0:0:0:
448,192,55664,128,0,55782:0:0:0:0:
64,192,55842,128,0,56136:0:0:0:0:
192,192,55931,128,0,56063:0:0:0:0:
448,192,55931,128,0,56064:0:0:0:0:
320,192,56021,128,0,56154:0:0:0:0:
192,192,56110,128,0,56242:0:0:0:0:
448,192,56110,128,0,56286:0:0:0:0:
320,192,56199,128,0,56287:0:0:0:0:
64,192,56199,128,0,56508:0:0:0:0:
192,192,56289,128,0,56421:0:0:0:0:
320,192,56289,128,0,56510:0:0:0:0:
448,192,56378,128,0,56555:0:0:0:0:
192,192,56467,128,0,56556:0:0:0:0:
448,192,56556,128,0,56865:0:0:0:0:
320,192,56646,128,0,56955:0:0:0:0:
64,192,56735,128,0,57044:0:0:0:0:
192,192,56824,128,0,57133:0:0:0:0:
448,192,56914,128,0,57223:0:0:0:0:
320,192,57003,128,0,57223:0:0:0:0:
64,192,57092,128,0,57313:0:0:0:0:
192,192,57181,128,0,57314:0:0:0:0:
320,192,57271,128,0,57403:0:0:0:0:
448,192,57271,128,0,57403:0:0:0:0:
192,192,57360,128,0,57448:0:0:0:0:
64,192,57360,128,0,57448:0:0:0:0:
320,192,57449,128,0,57537:0:0:0:0:
448,192,57449,128,0,57493:0:0:0:0:
192,192,57449,128,0,57537:0:0:0:0:
64,192,57539,128,0,57583:0:0:0:0:
320,192,57539,128,0,57584:0:0:0:0:
448,192,57539,128,0,57584:0:0:0:0:
64,192,57628,128,0,57672:0:0:0:0:
192,192,57628,128,0,57672:0:0:0:0:
448,192,57628,128,0,57672:0:0:0:0:
320,192,57628,128,0,57672:0:0:0:0:
192,192,57628,128,0,57672:0:0:0:0:
64,192,57628,128,0,57672:0:0:0:0:
320,192,57806,128,0,57850:0:0:0:0:
448,192,57806,128,0,57850:0:0:0:0:
64,192,57806,128,0,57850:0:0:0:0:
192,192,57806,128,0,57850:0:0:0:0:
320,192,57896,1,0,0:0:0:0:
448,192,57896,1,0,0:0:0:0:
64,192,57896,128,0,58426:0:0:0:0:
192,192,57896,128,0,58426:0:0:0:0:
