osu file format v14

[General]
AudioFilename: audio.mp3
AudioLeadIn: 0
PreviewTime: -1
Countdown: 0
SampleSet: None
StackLeniency: 0.7
Mode: 3
LetterboxInBreaks: 0
SpecialStyle: 0
WidescreenStoryboard: 0

[Editor]
Bookmarks: 71037,102579
DistanceSpacing: 1
BeatDivisor: 4
GridSize: 8
TimelineZoom: 1

[Metadata]
Title:Time Trials (Sonic Mania Pre-Order Trailer Song)
TitleUnicode:Time Trials (Sonic Mania Pre-Order Trailer Song)
Artist:Hyper Potions
ArtistUnicode:Hyper Potions
Creator:Mirt
Version:Hyper
Source:Sonic
Tags:
BeatmapID:1377668
BeatmapSetID:650076

[Difficulty]
HPDrainRate:7
CircleSize:4
OverallDifficulty:8
ApproachRate:5
SliderMultiplier:1.4
SliderTickRate:1

[Events]
//Background and Video events
0,0,"Sonic-Mania-Tyson-Hesse-trailer.png",0,0
//Break Periods
//Storyboard Layer 0 (Background)
//Storyboard Layer 1 (Fail)
//Storyboard Layer 2 (Pass)
//Storyboard Layer 3 (Foreground)
//Storyboard Sound Samples

[TimingPoints]
-275,342.84942791762,4,2,0,50,1,0
774,-133.333333333333,4,2,0,50,0,0
12153,-100,4,2,0,50,0,0
37502,-100,4,2,0,50,0,0

[HitObjects]
64,192,1182,5,0,0:0:0:0:
448,192,1182,1,0,0:0:0:0:
320,192,1353,1,0,0:0:0:0:
192,192,1353,1,0,0:0:0:0:
448,192,1524,1,0,0:0:0:0:
64,192,1524,1,0,0:0:0:0:
192,192,1696,1,0,0:0:0:0:
320,192,1696,1,0,0:0:0:0:
64,192,1867,1,0,0:0:0:0:
448,192,1867,1,0,0:0:0:0:
192,192,2039,1,0,0:0:0:0:
320,192,2039,1,0,0:0:0:0:
64,192,2210,1,0,0:0:0:0:
448,192,2210,1,0,0:0:0:0:
64,192,2382,128,0,2810:0:0:0:0:
448,192,2382,128,0,2810:0:0:0:0:
320,192,2810,1,0,0:0:0:0:
192,192,2982,1,0,0:0:0:0:
320,192,3153,1,0,0:0:0:0:
448,192,3496,1,0,0:0:0:0:
64,192,3496,1,0,0:0:0:0:
320,192,3839,1,0,0:0:0:0:
192,192,3839,1,0,0:0:0:0:
64,192,4010,1,0,0:0:0:0:
192,192,4010,1,0,0:0:0:0:
64,192,4353,1,0,0:0:0:0:
320,192,4353,1,0,0:0:0:0:
64,192,4524,1,0,0:0:0:0:
320,192,4524,1,0,0:0:0:0:
448,192,4867,1,0,0:0:0:0:
320,192,4867,1,0,0:0:0:0:
448,192,5210,1,0,0:0:0:0:
64,192,5210,1,0,0:0:0:0:
64,192,5382,1,0,0:0:0:0:
320,192,5382,1,0,0:0:0:0:
192,192,5724,1,0,0:0:0:0:
448,192,5724,1,0,0:0:0:0:
320,192,5896,1,0,0:0:0:0:
448,192,5896,1,0,0:0:0:0:
64,192,6067,1,0,0:0:0:0:
448,192,6239,1,0,0:0:0:0:
320,192,6410,1,0,0:0:0:0:
64,192,6581,1,0,0:0:0:0:
448,192,6581,1,0,0:0:0:0:
448,192,6753,1,0,0:0:0:0:
320,192,6924,1,0,0:0:0:0:
448,192,7096,1,0,0:0:0:0:
320,192,7267,1,0,0:0:0:0:
192,192,7439,1,0,0:0:0:0:
64,192,7610,1,0,0:0:0:0:
192,192,7781,1,0,0:0:0:0:
320,192,7953,1,0,0:0:0:0:
64,192,7953,1,0,0:0:0:0:
192,192,8124,1,0,0:0:0:0:
64,192,8296,1,0,0:0:0:0:
448,192,8467,1,0,0:0:0:0:
320,192,8639,1,0,0:0:0:0:
192,192,8810,1,0,0:0:0:0:
448,192,8981,1,0,0:0:0:0:
320,192,9153,1,0,0:0:0:0:
448,192,9324,1,0,0:0:0:0:
64,192,9324,1,0,0:0:0:0:
192,192,9496,1,0,0:0:0:0:
320,192,9667,1,0,0:0:0:0:
448,192,9839,1,0,0:0:0:0:
320,192,10010,1,0,0:0:0:0:
448,192,10181,1,0,0:0:0:0:
320,192,10353,1,0,0:0:0:0:
192,192,10524,1,0,0:0:0:0:
64,192,10696,1,0,0:0:0:0:
448,192,10696,1,0,0:0:0:0:
320,192,10867,1,0,0:0:0:0:
192,192,11039,1,0,0:0:0:0:
448,192,11210,1,0,0:0:0:0:
320,192,11381,1,0,0:0:0:0:
448,192,11553,1,0,0:0:0:0:
192,192,11724,1,0,0:0:0:0:
64,192,11896,1,0,0:0:0:0:
192,192,12067,1,0,0:0:0:0:
448,192,12067,1,0,0:0:0:0:
448,192,12410,1,0,0:0:0:0:
64,192,12410,1,0,0:0:0:0:
448,192,12581,1,0,0:0:0:0:
64,192,12581,1,0,0:0:0:0:
448,192,12753,1,0,0:0:0:0:
64,192,12753,1,0,0:0:0:0:
448,192,12924,1,0,0:0:0:0:
64,192,12924,1,0,0:0:0:0:
448,192,13353,1,0,0:0:0:0:
64,192,13353,1,0,0:0:0:0:
448,192,13610,1,0,0:0:0:0:
320,192,13696,1,0,0:0:0:0:
192,192,13781,1,0,0:0:0:0:
64,192,13867,1,0,0:0:0:0:
320,192,13953,1,4,0:0:0:0:
448,192,13953,1,4,0:0:0:0:
64,192,14038,1,0,0:0:0:0:
448,192,14124,1,0,0:0:0:0:
320,192,14210,1,0,0:0:0:0:
448,192,14296,1,0,0:0:0:0:
320,192,14381,1,0,0:0:0:0:
448,192,14467,1,0,0:0:0:0:
320,192,14553,1,0,0:0:0:0:
192,192,14638,1,4,0:0:0:0:
448,192,14638,1,4,0:0:0:0:
64,192,14724,1,0,0:0:0:0:
192,192,14810,1,0,0:0:0:0:
320,192,14896,1,0,0:0:0:0:
448,192,14981,1,0,0:0:0:0:
320,192,15067,1,0,0:0:0:0:
448,192,15153,1,0,0:0:0:0:
192,192,15238,1,0,0:0:0:0:
64,192,15324,1,4,0:0:0:0:
320,192,15324,1,4,0:0:0:0:
448,192,15410,1,0,0:0:0:0:
320,192,15496,1,0,0:0:0:0:
192,192,15581,1,0,0:0:0:0:
448,192,15667,1,0,0:0:0:0:
192,192,15753,1,0,0:0:0:0:
320,192,15838,1,0,0:0:0:0:
448,192,15924,1,0,0:0:0:0:
320,192,16010,1,4,0:0:0:0:
64,192,16010,1,4,0:0:0:0:
448,192,16096,1,0,0:0:0:0:
192,192,16181,1,0,0:0:0:0:
448,192,16267,1,0,0:0:0:0:
320,192,16353,1,0,0:0:0:0:
448,192,16438,1,0,0:0:0:0:
192,192,16524,1,0,0:0:0:0:
64,192,16610,1,0,0:0:0:0:
320,192,16696,1,4,0:0:0:0:
448,192,16696,1,4,0:0:0:0:
192,192,16781,1,0,0:0:0:0:
64,192,16867,1,0,0:0:0:0:
320,192,16953,1,0,0:0:0:0:
192,192,17038,1,0,0:0:0:0:
320,192,17124,1,0,0:0:0:0:
448,192,17210,1,0,0:0:0:0:
320,192,17296,1,4,0:0:0:0:
64,192,17296,1,4,0:0:0:0:
192,192,17381,1,0,0:0:0:0:
448,192,17467,1,4,0:0:0:0:
64,192,17467,1,4,0:0:0:0:
320,192,17553,1,0,0:0:0:0:
192,192,17638,1,0,0:0:0:0:
320,192,17724,1,0,0:0:0:0:
64,192,17810,1,0,0:0:0:0:
320,192,17896,1,0,0:0:0:0:
192,192,17981,1,0,0:0:0:0:
320,192,18067,1,4,0:0:0:0:
64,192,18067,1,4,0:0:0:0:
448,192,18153,1,0,0:0:0:0:
320,192,18238,1,0,0:0:0:0:
192,192,18324,1,0,0:0:0:0:
320,192,18410,1,0,0:0:0:0:
192,192,18496,1,0,0:0:0:0:
448,192,18581,1,0,0:0:0:0:
64,192,18667,1,0,0:0:0:0:
448,192,18753,1,4,0:0:0:0:
192,192,18753,1,4,0:0:0:0:
64,192,18838,1,0,0:0:0:0:
320,192,18924,1,0,0:0:0:0:
192,192,19010,1,0,0:0:0:0:
320,192,19095,1,0,0:0:0:0:
448,192,19181,1,0,0:0:0:0:
320,192,19267,1,0,0:0:0:0:
448,192,19353,1,0,0:0:0:0:
320,192,19438,1,4,0:0:0:0:
64,192,19438,1,4,0:0:0:0:
192,192,19524,1,0,0:0:0:0:
320,192,19610,1,0,0:0:0:0:
448,192,19695,1,0,0:0:0:0:
320,192,19781,1,0,0:0:0:0:
448,192,19867,1,0,0:0:0:0:
320,192,19953,1,0,0:0:0:0:
192,192,20038,1,0,0:0:0:0:
64,192,20124,1,4,0:0:0:0:
448,192,20124,1,4,0:0:0:0:
320,192,20210,1,0,0:0:0:0:
192,192,20295,1,0,0:0:0:0:
64,192,20381,1,0,0:0:0:0:
192,192,20467,1,0,0:0:0:0:
320,192,20553,1,0,0:0:0:0:
448,192,20638,1,0,0:0:0:0:
320,192,20724,1,0,0:0:0:0:
448,192,20810,1,4,0:0:0:0:
64,192,20810,1,4,0:0:0:0:
192,192,20895,1,0,0:0:0:0:
64,192,20981,1,0,0:0:0:0:
320,192,21067,1,0,0:0:0:0:
448,192,21153,1,0,0:0:0:0:
192,192,21238,1,0,0:0:0:0:
320,192,21324,1,0,0:0:0:0:
448,192,21410,1,0,0:0:0:0:
320,192,21495,1,4,0:0:0:0:
64,192,21495,1,4,0:0:0:0:
448,192,21581,1,0,0:0:0:0:
320,192,21667,1,0,0:0:0:0:
192,192,21753,1,0,0:0:0:0:
448,192,21838,1,0,0:0:0:0:
320,192,21924,1,0,0:0:0:0:
192,192,22010,1,0,0:0:0:0:
320,192,22095,1,0,0:0:0:0:
448,192,22181,1,4,0:0:0:0:
192,192,22181,1,4,0:0:0:0:
64,192,22267,1,0,0:0:0:0:
192,192,22353,1,0,0:0:0:0:
320,192,22438,1,0,0:0:0:0:
448,192,22524,1,0,0:0:0:0:
320,192,22610,1,0,0:0:0:0:
192,192,22695,1,0,0:0:0:0:
448,192,22781,1,0,0:0:0:0:
320,192,22867,1,4,0:0:0:0:
64,192,22867,1,4,0:0:0:0:
192,192,22953,1,0,0:0:0:0:
448,192,23038,1,0,0:0:0:0:
192,192,23124,1,0,0:0:0:0:
320,192,23210,1,0,0:0:0:0:
448,192,23295,1,0,0:0:0:0:
64,192,23381,1,0,0:0:0:0:
448,192,23467,1,4,0:0:0:0:
192,192,23467,1,4,0:0:0:0:
320,192,23638,1,0,0:0:0:0:
192,192,23724,1,0,0:0:0:0:
320,192,23810,1,0,0:0:0:0:
192,192,23895,1,4,0:0:0:0:
64,192,23895,1,4,0:0:0:0:
320,192,23981,1,0,0:0:0:0:
192,192,24067,1,0,0:0:0:0:
320,192,24153,1,4,0:0:0:0:
448,192,24153,1,4,0:0:0:0:
192,192,24238,1,0,0:0:0:0:
320,192,24324,1,4,0:0:0:0:
64,192,24324,1,4,0:0:0:0:
192,192,24410,1,0,0:0:0:0:
320,192,24495,1,0,0:0:0:0:
448,192,24581,1,0,0:0:0:0:
320,192,24667,1,0,0:0:0:0:
192,192,24753,1,0,0:0:0:0:
64,192,24838,1,4,0:0:0:0:
448,192,24838,1,4,0:0:0:0:
320,192,24924,1,0,0:0:0:0:
192,192,25010,1,0,0:0:0:0:
64,192,25095,1,0,0:0:0:0:
192,192,25181,1,0,0:0:0:0:
64,192,25267,1,0,0:0:0:0:
192,192,25352,1,0,0:0:0:0:
320,192,25438,1,0,0:0:0:0:
64,192,25524,1,0,0:0:0:0:
320,192,25610,1,4,0:0:0:0:
448,192,25610,1,4,0:0:0:0:
192,192,25695,1,0,0:0:0:0:
64,192,25781,1,0,0:0:0:0:
192,192,25867,1,0,0:0:0:0:
64,192,25952,1,0,0:0:0:0:
320,192,26038,1,0,0:0:0:0:
448,192,26124,1,0,0:0:0:0:
192,192,26210,1,4,0:0:0:0:
64,192,26210,1,4,0:0:0:0:
320,192,26295,1,0,0:0:0:0:
448,192,26381,1,0,0:0:0:0:
320,192,26467,1,0,0:0:0:0:
192,192,26552,1,0,0:0:0:0:
448,192,26638,1,0,0:0:0:0:
192,192,26724,1,0,0:0:0:0:
320,192,26810,1,0,0:0:0:0:
448,192,26895,1,0,0:0:0:0:
320,192,26981,1,4,0:0:0:0:
64,192,26981,1,4,0:0:0:0:
192,192,27067,1,0,0:0:0:0:
448,192,27152,1,0,0:0:0:0:
320,192,27238,1,0,0:0:0:0:
192,192,27324,1,0,0:0:0:0:
64,192,27410,1,0,0:0:0:0:
192,192,27495,1,0,0:0:0:0:
448,192,27581,1,0,0:0:0:0:
320,192,27667,1,4,0:0:0:0:
64,192,27667,1,4,0:0:0:0:
448,192,27752,1,0,0:0:0:0:
320,192,27838,1,0,0:0:0:0:
192,192,27924,1,0,0:0:0:0:
320,192,28010,1,0,0:0:0:0:
192,192,28095,1,0,0:0:0:0:
448,192,28181,1,0,0:0:0:0:
192,192,28267,1,0,0:0:0:0:
64,192,28352,1,4,0:0:0:0:
448,192,28352,1,4,0:0:0:0:
320,192,28438,1,0,0:0:0:0:
192,192,28524,1,0,0:0:0:0:
448,192,28610,1,0,0:0:0:0:
320,192,28695,1,0,0:0:0:0:
192,192,28781,1,0,0:0:0:0:
64,192,28867,1,0,0:0:0:0:
320,192,28952,1,0,0:0:0:0:
448,192,29038,1,4,0:0:0:0:
64,192,29038,1,4,0:0:0:0:
192,192,29124,1,0,0:0:0:0:
320,192,29210,1,0,0:0:0:0:
192,192,29295,1,0,0:0:0:0:
448,192,29381,1,0,0:0:0:0:
320,192,29467,1,0,0:0:0:0:
448,192,29552,1,0,0:0:0:0:
64,192,29638,1,0,0:0:0:0:
320,192,29724,1,4,0:0:0:0:
448,192,29724,1,4,0:0:0:0:
64,192,29810,1,0,0:0:0:0:
448,192,29895,1,4,0:0:0:0:
320,192,29895,1,4,0:0:0:0:
192,192,29981,1,0,0:0:0:0:
64,192,30067,1,0,0:0:0:0:
448,192,30152,1,0,0:0:0:0:
320,192,30238,1,0,0:0:0:0:
192,192,30324,1,0,0:0:0:0:
448,192,30410,1,4,0:0:0:0:
64,192,30410,1,4,0:0:0:0:
192,192,30495,1,0,0:0:0:0:
320,192,30581,1,0,0:0:0:0:
192,192,30667,1,0,0:0:0:0:
448,192,30752,1,0,0:0:0:0:
64,192,30838,1,0,0:0:0:0:
320,192,30924,1,0,0:0:0:0:
64,192,31010,1,0,0:0:0:0:
320,192,31095,1,4,0:0:0:0:
192,192,31095,1,4,0:0:0:0:
448,192,31181,1,0,0:0:0:0:
320,192,31267,1,0,0:0:0:0:
192,192,31352,1,0,0:0:0:0:
448,192,31438,1,0,0:0:0:0:
320,192,31524,1,0,0:0:0:0:
192,192,31609,1,0,0:0:0:0:
448,192,31695,1,0,0:0:0:0:
192,192,31781,1,4,0:0:0:0:
64,192,31781,1,4,0:0:0:0:
448,192,31867,1,0,0:0:0:0:
320,192,31952,1,0,0:0:0:0:
192,192,32038,1,0,0:0:0:0:
448,192,32124,1,0,0:0:0:0:
192,192,32209,1,0,0:0:0:0:
320,192,32295,1,0,0:0:0:0:
448,192,32381,1,0,0:0:0:0:
320,192,32467,1,4,0:0:0:0:
64,192,32467,1,4,0:0:0:0:
192,192,32638,1,4,0:0:0:0:
320,192,32638,1,4,0:0:0:0:
448,192,32724,1,0,0:0:0:0:
64,192,32724,1,0,0:0:0:0:
320,192,32809,1,0,0:0:0:0:
192,192,32809,1,0,0:0:0:0:
320,192,32981,1,0,0:0:0:0:
192,192,32981,1,0,0:0:0:0:
320,192,33152,1,0,0:0:0:0:
192,192,33152,1,0,0:0:0:0:
320,192,33324,1,0,0:0:0:0:
192,192,33324,1,0,0:0:0:0:
448,192,33495,1,0,0:0:0:0:
64,192,33495,1,0,0:0:0:0:
64,192,33667,1,0,0:0:0:0:
448,192,33667,1,0,0:0:0:0:
448,192,33838,1,0,0:0:0:0:
64,192,33838,1,0,0:0:0:0:
320,192,33924,1,0,0:0:0:0:
192,192,34009,1,0,0:0:0:0:
64,192,34095,1,0,0:0:0:0:
448,192,34095,1,0,0:0:0:0:
192,192,34181,1,0,0:0:0:0:
320,192,34267,1,0,0:0:0:0:
448,192,34352,1,0,0:0:0:0:
64,192,34352,1,0,0:0:0:0:
320,192,34438,1,0,0:0:0:0:
192,192,34524,1,0,0:0:0:0:
64,192,34609,1,0,0:0:0:0:
448,192,34609,1,0,0:0:0:0:
192,192,34695,1,0,0:0:0:0:
320,192,34781,1,0,0:0:0:0:
448,192,34867,1,0,0:0:0:0:
64,192,34867,1,0,0:0:0:0:
320,192,34952,1,0,0:0:0:0:
192,192,35038,1,0,0:0:0:0:
64,192,35124,1,0,0:0:0:0:
448,192,35124,1,0,0:0:0:0:
192,192,35209,1,0,0:0:0:0:
448,192,35295,1,0,0:0:0:0:
64,192,35295,1,0,0:0:0:0:
320,192,35381,1,0,0:0:0:0:
192,192,35381,1,0,0:0:0:0:
64,192,35552,1,0,0:0:0:0:
448,192,35552,1,0,0:0:0:0:
448,192,35724,1,0,0:0:0:0:
448,192,35895,1,0,0:0:0:0:
320,192,36067,1,0,0:0:0:0:
320,192,36238,1,0,0:0:0:0:
320,192,36409,1,0,0:0:0:0:
192,192,36581,1,0,0:0:0:0:
192,192,36752,1,0,0:0:0:0:
192,192,36924,1,0,0:0:0:0:
64,192,37095,1,0,0:0:0:0:
64,192,37267,1,0,0:0:0:0:
64,192,37438,1,0,0:0:0:0:
320,192,37438,1,0,0:0:0:0:
320,192,37609,1,0,0:0:0:0:
64,192,37609,1,0,0:0:0:0:
64,192,37781,1,0,0:0:0:0:
320,192,37781,1,0,0:0:0:0:
320,192,37952,1,0,0:0:0:0:
64,192,37952,1,0,0:0:0:0:
448,192,38124,1,0,0:0:0:0:
64,192,38124,1,0,0:0:0:0:
320,192,38209,1,0,0:0:0:0:
192,192,38295,1,0,0:0:0:0:
320,192,38381,1,0,0:0:0:0:
448,192,38466,1,0,0:0:0:0:
320,192,38552,1,0,0:0:0:0:
64,192,38638,1,4,0:0:0:0:
448,192,38638,1,4,0:0:0:0:
192,192,38809,1,0,0:0:0:0:
448,192,38809,1,0,0:0:0:0:
320,192,38981,1,0,0:0:0:0:
64,192,38981,1,0,0:0:0:0:
448,192,39152,1,0,0:0:0:0:
192,192,39152,1,0,0:0:0:0:
320,192,39324,1,0,0:0:0:0:
64,192,39324,1,0,0:0:0:0:
320,192,39495,1,0,0:0:0:0:
448,192,39495,1,0,0:0:0:0:
64,192,40009,1,0,0:0:0:0:
448,192,40009,1,0,0:0:0:0:
192,192,40181,1,0,0:0:0:0:
64,192,40181,1,0,0:0:0:0:
448,192,40352,1,0,0:0:0:0:
192,192,40352,1,0,0:0:0:0:
64,192,40524,1,0,0:0:0:0:
320,192,40524,1,0,0:0:0:0:
448,192,40695,1,0,0:0:0:0:
192,192,40695,1,0,0:0:0:0:
320,192,40866,1,0,0:0:0:0:
64,192,40866,1,0,0:0:0:0:
448,192,41381,1,0,0:0:0:0:
192,192,41381,1,0,0:0:0:0:
320,192,41552,1,0,0:0:0:0:
64,192,41552,1,0,0:0:0:0:
448,192,41724,1,0,0:0:0:0:
192,192,41724,1,0,0:0:0:0:
320,192,41895,1,0,0:0:0:0:
64,192,41895,1,0,0:0:0:0:
192,192,42066,1,0,0:0:0:0:
64,192,42066,1,0,0:0:0:0:
448,192,42238,1,0,0:0:0:0:
320,192,42238,1,0,0:0:0:0:
448,192,42409,1,0,0:0:0:0:
192,192,42409,1,0,0:0:0:0:
320,192,42581,1,0,0:0:0:0:
64,192,42581,1,0,0:0:0:0:
448,192,42752,1,0,0:0:0:0:
192,192,42752,1,0,0:0:0:0:
320,192,42924,1,0,0:0:0:0:
448,192,42924,1,0,0:0:0:0:
192,192,43095,1,0,0:0:0:0:
64,192,43095,1,0,0:0:0:0:
448,192,43266,1,0,0:0:0:0:
192,192,43266,1,0,0:0:0:0:
320,192,43438,1,0,0:0:0:0:
64,192,43438,1,0,0:0:0:0:
448,192,43609,1,0,0:0:0:0:
64,192,43609,1,0,0:0:0:0:
448,192,44124,1,0,0:0:0:0:
64,192,44124,1,0,0:0:0:0:
320,192,44295,1,0,0:0:0:0:
192,192,44295,1,0,0:0:0:0:
448,192,44466,1,0,0:0:0:0:
320,192,44466,1,0,0:0:0:0:
64,192,44638,1,0,0:0:0:0:
192,192,44638,1,0,0:0:0:0:
448,192,44809,1,0,0:0:0:0:
320,192,44809,1,0,0:0:0:0:
64,192,44981,1,0,0:0:0:0:
448,192,44981,1,0,0:0:0:0:
448,192,45495,1,0,0:0:0:0:
64,192,45495,1,0,0:0:0:0:
192,192,45666,1,0,0:0:0:0:
320,192,45666,1,0,0:0:0:0:
64,192,45838,1,0,0:0:0:0:
320,192,45838,1,0,0:0:0:0:
448,192,46009,1,0,0:0:0:0:
192,192,46009,1,0,0:0:0:0:
448,192,46181,1,0,0:0:0:0:
64,192,46181,1,0,0:0:0:0:
320,192,46352,1,4,0:0:0:0:
192,192,46352,1,4,0:0:0:0:
448,192,46695,1,0,0:0:0:0:
64,192,46695,1,0,0:0:0:0:
192,192,46866,1,0,0:0:0:0:
320,192,46866,1,0,0:0:0:0:
448,192,47038,1,0,0:0:0:0:
64,192,47038,1,0,0:0:0:0:
320,192,47209,1,0,0:0:0:0:
448,192,47209,1,0,0:0:0:0:
192,192,47381,1,0,0:0:0:0:
64,192,47381,1,0,0:0:0:0:
448,192,47552,1,0,0:0:0:0:
320,192,47552,1,0,0:0:0:0:
64,192,47723,1,0,0:0:0:0:
448,192,47723,1,0,0:0:0:0:
320,192,47895,1,0,0:0:0:0:
64,192,47895,1,0,0:0:0:0:
448,192,48066,5,0,0:0:0:0:
192,192,48066,1,0,0:0:0:0:
320,192,48238,1,0,0:0:0:0:
448,192,48238,1,0,0:0:0:0:
192,192,48409,1,0,0:0:0:0:
64,192,48409,1,0,0:0:0:0:
448,192,48581,1,0,0:0:0:0:
192,192,48581,1,0,0:0:0:0:
448,192,48752,1,0,0:0:0:0:
320,192,48752,1,0,0:0:0:0:
64,192,48923,1,0,0:0:0:0:
448,192,48923,1,0,0:0:0:0:
64,192,49095,128,0,50466:0:0:0:0:
448,192,49095,1,0,0:0:0:0:
320,192,49266,1,0,0:0:0:0:
320,192,49609,1,0,0:0:0:0:
448,192,49781,1,0,0:0:0:0:
320,192,49952,1,0,0:0:0:0:
192,192,50123,1,0,0:0:0:0:
320,192,50295,1,0,0:0:0:0:
192,192,50466,128,0,51752:0:0:0:0:
448,192,50466,1,0,0:0:0:0:
320,192,50809,1,0,0:0:0:0:
448,192,50980,1,0,0:0:0:0:
320,192,51152,1,0,0:0:0:0:
64,192,51323,1,0,0:0:0:0:
448,192,51495,1,0,0:0:0:0:
64,192,51666,1,0,0:0:0:0:
320,192,51752,128,0,53123:0:0:0:0:
192,192,52352,1,0,0:0:0:0:
64,192,52523,1,0,0:0:0:0:
192,192,52695,1,0,0:0:0:0:
448,192,52866,1,0,0:0:0:0:
192,192,53038,1,0,0:0:0:0:
192,192,53209,128,0,53723:0:0:0:0:
448,192,53380,1,0,0:0:0:0:
320,192,53552,1,0,0:0:0:0:
64,192,53895,128,0,54495:0:0:0:0:
192,192,53895,1,0,0:0:0:0:
320,192,54066,1,0,0:0:0:0:
448,192,54238,1,0,0:0:0:0:
320,192,54409,1,0,0:0:0:0:
320,192,54580,128,0,55866:0:0:0:0:
192,192,54752,1,0,0:0:0:0:
64,192,54923,1,0,0:0:0:0:
192,192,55095,1,0,0:0:0:0:
448,192,55266,1,0,0:0:0:0:
192,192,55438,1,0,0:0:0:0:
64,192,55609,1,0,0:0:0:0:
192,192,55780,1,0,0:0:0:0:
448,192,55952,128,0,57152:0:0:0:0:
320,192,56466,1,0,0:0:0:0:
192,192,56638,1,0,0:0:0:0:
64,192,56809,1,0,0:0:0:0:
320,192,56809,1,0,0:0:0:0:
192,192,56980,1,0,0:0:0:0:
320,192,57152,1,0,0:0:0:0:
64,192,57152,1,0,0:0:0:0:
192,192,57323,1,4,0:0:0:0:
64,192,57323,1,4,0:0:0:0:
448,192,57495,1,0,0:0:0:0:
320,192,57666,1,0,0:0:0:0:
192,192,57837,1,0,0:0:0:0:
64,192,58009,1,0,0:0:0:0:
192,192,58180,1,0,0:0:0:0:
320,192,58352,1,0,0:0:0:0:
448,192,58523,1,0,0:0:0:0:
64,192,58695,1,4,0:0:0:0:
320,192,58695,1,4,0:0:0:0:
192,192,58866,1,0,0:0:0:0:
320,192,59037,1,0,0:0:0:0:
448,192,59209,1,0,0:0:0:0:
320,192,59380,1,0,0:0:0:0:
192,192,59552,1,0,0:0:0:0:
64,192,59723,1,0,0:0:0:0:
320,192,59895,1,0,0:0:0:0:
448,192,60066,1,4,0:0:0:0:
64,192,60066,1,4,0:0:0:0:
320,192,60237,1,0,0:0:0:0:
192,192,60409,1,0,0:0:0:0:
448,192,60580,1,0,0:0:0:0:
320,192,60752,1,0,0:0:0:0:
192,192,60923,1,0,0:0:0:0:
448,192,61095,1,0,0:0:0:0:
320,192,61266,1,0,0:0:0:0:
64,192,61437,1,4,0:0:0:0:
192,192,61437,1,4,0:0:0:0:
448,192,61609,1,0,0:0:0:0:
320,192,61780,1,0,0:0:0:0:
448,192,61952,1,0,0:0:0:0:
192,192,62123,1,0,0:0:0:0:
64,192,62295,1,0,0:0:0:0:
320,192,62466,1,0,0:0:0:0:
448,192,62637,1,0,0:0:0:0:
64,192,62809,1,4,0:0:0:0:
320,192,62809,1,4,0:0:0:0:
448,192,62980,1,0,0:0:0:0:
192,192,63152,1,0,0:0:0:0:
448,192,63323,1,0,0:0:0:0:
320,192,63494,1,0,0:0:0:0:
192,192,63666,1,0,0:0:0:0:
448,192,63837,1,0,0:0:0:0:
320,192,64009,1,0,0:0:0:0:
64,192,64180,128,0,64523:0:0:0:0:
192,192,64523,128,0,64866:0:0:0:0:
320,192,64866,128,0,65209:0:0:0:0:
448,192,65209,128,0,65380:0:0:0:0:
320,192,65380,128,0,65552:0:0:0:0:
448,192,65552,128,0,66923:0:0:0:0:
320,192,65723,1,0,0:0:0:0:
64,192,65894,1,0,0:0:0:0:
320,192,66066,1,0,0:0:0:0:
64,192,66237,1,0,0:0:0:0:
320,192,66409,1,0,0:0:0:0:
192,192,66580,1,0,0:0:0:0:
64,192,66752,1,0,0:0:0:0:
320,192,66923,128,0,68294:0:0:0:0:
64,192,67094,1,0,0:0:0:0:
192,192,67266,1,0,0:0:0:0:
448,192,67437,1,0,0:0:0:0:
64,192,67609,1,0,0:0:0:0:
192,192,67780,1,0,0:0:0:0:
448,192,67952,1,0,0:0:0:0:
192,192,68123,1,0,0:0:0:0:
64,192,68294,128,0,68637:0:0:0:0:
448,192,68466,1,0,0:0:0:0:
320,192,68637,128,0,68980:0:0:0:0:
192,192,68809,1,0,0:0:0:0:
64,192,68980,1,0,0:0:0:0:
192,192,69152,1,0,0:0:0:0:
64,192,69323,1,0,0:0:0:0:
448,192,69323,128,0,70523:0:0:0:0:
192,192,69494,1,0,0:0:0:0:
320,192,69666,1,0,0:0:0:0:
192,192,69837,1,0,0:0:0:0:
64,192,70009,1,0,0:0:0:0:
192,192,70180,1,0,0:0:0:0:
320,192,70351,1,0,0:0:0:0:
192,192,70523,1,0,0:0:0:0:
192,192,70694,1,0,0:0:0:0:
448,192,70694,1,0,0:0:0:0:
192,192,70866,1,0,0:0:0:0:
448,192,70866,1,0,0:0:0:0:
192,192,71037,1,0,0:0:0:0:
448,192,71037,1,0,0:0:0:0:
320,192,71123,1,0,0:0:0:0:
192,192,71209,1,0,0:0:0:0:
64,192,71294,1,0,0:0:0:0:
320,192,71380,1,0,0:0:0:0:
192,192,71466,1,0,0:0:0:0:
448,192,71551,1,0,0:0:0:0:
320,192,71637,1,0,0:0:0:0:
64,192,71723,1,0,0:0:0:0:
192,192,71809,1,0,0:0:0:0:
448,192,71894,1,0,0:0:0:0:
320,192,71980,1,0,0:0:0:0:
64,192,72066,1,0,0:0:0:0:
192,192,72151,1,0,0:0:0:0:
320,192,72237,1,0,0:0:0:0:
192,192,72323,1,0,0:0:0:0:
64,192,72409,1,0,0:0:0:0:
192,192,72494,1,0,0:0:0:0:
320,192,72580,1,0,0:0:0:0:
192,192,72666,1,0,0:0:0:0:
320,192,72751,1,0,0:0:0:0:
448,192,72837,1,0,0:0:0:0:
192,192,72923,1,0,0:0:0:0:
320,192,73009,1,0,0:0:0:0:
64,192,73094,1,0,0:0:0:0:
192,192,73180,1,0,0:0:0:0:
448,192,73266,1,0,0:0:0:0:
320,192,73351,1,0,0:0:0:0:
64,192,73437,1,0,0:0:0:0:
192,192,73523,1,0,0:0:0:0:
448,192,73609,1,0,0:0:0:0:
320,192,73694,1,0,0:0:0:0:
64,192,73780,1,0,0:0:0:0:
192,192,73866,1,0,0:0:0:0:
448,192,73951,1,0,0:0:0:0:
320,192,74037,1,0,0:0:0:0:
192,192,74123,1,0,0:0:0:0:
320,192,74209,1,0,0:0:0:0:
64,192,74294,1,0,0:0:0:0:
320,192,74380,1,0,0:0:0:0:
448,192,74466,1,0,0:0:0:0:
192,192,74551,1,0,0:0:0:0:
64,192,74637,1,0,0:0:0:0:
448,192,74723,1,0,0:0:0:0:
320,192,74809,1,0,0:0:0:0:
192,192,74894,1,0,0:0:0:0:
448,192,74980,1,0,0:0:0:0:
64,192,75066,1,0,0:0:0:0:
320,192,75151,1,0,0:0:0:0:
448,192,75237,1,0,0:0:0:0:
64,192,75323,1,0,0:0:0:0:
320,192,75409,1,0,0:0:0:0:
64,192,75494,1,0,0:0:0:0:
448,192,75580,1,0,0:0:0:0:
192,192,75666,1,0,0:0:0:0:
320,192,75751,1,0,0:0:0:0:
64,192,75837,1,0,0:0:0:0:
448,192,75923,1,0,0:0:0:0:
192,192,76008,1,0,0:0:0:0:
448,192,76094,1,0,0:0:0:0:
320,192,76180,1,0,0:0:0:0:
64,192,76266,1,0,0:0:0:0:
192,192,76351,1,0,0:0:0:0:
64,192,76437,1,0,0:0:0:0:
192,192,76523,1,0,0:0:0:0:
320,192,76608,1,0,0:0:0:0:
192,192,76694,1,0,0:0:0:0:
320,192,76780,1,0,0:0:0:0:
448,192,76866,1,0,0:0:0:0:
320,192,76951,1,0,0:0:0:0:
192,192,77037,1,0,0:0:0:0:
64,192,77123,1,0,0:0:0:0:
192,192,77208,1,0,0:0:0:0:
320,192,77294,1,0,0:0:0:0:
448,192,77380,1,0,0:0:0:0:
320,192,77466,1,0,0:0:0:0:
192,192,77551,1,0,0:0:0:0:
64,192,77637,1,0,0:0:0:0:
448,192,77723,1,0,0:0:0:0:
320,192,77808,1,0,0:0:0:0:
448,192,77894,1,0,0:0:0:0:
192,192,77980,1,0,0:0:0:0:
320,192,78066,1,0,0:0:0:0:
64,192,78151,1,0,0:0:0:0:
320,192,78237,1,0,0:0:0:0:
192,192,78323,1,0,0:0:0:0:
448,192,78408,1,0,0:0:0:0:
320,192,78494,1,0,0:0:0:0:
192,192,78580,1,0,0:0:0:0:
64,192,78666,1,0,0:0:0:0:
320,192,78666,1,0,0:0:0:0:
448,192,78751,1,0,0:0:0:0:
320,192,78837,1,0,0:0:0:0:
64,192,78923,1,0,0:0:0:0:
192,192,79008,1,0,0:0:0:0:
448,192,79094,1,0,0:0:0:0:
320,192,79180,1,0,0:0:0:0:
192,192,79266,1,0,0:0:0:0:
64,192,79351,1,0,0:0:0:0:
448,192,79437,1,0,0:0:0:0:
320,192,79523,1,0,0:0:0:0:
64,192,79608,1,0,0:0:0:0:
192,192,79694,1,0,0:0:0:0:
448,192,79780,1,0,0:0:0:0:
320,192,79866,1,0,0:0:0:0:
192,192,79951,1,0,0:0:0:0:
64,192,80037,1,0,0:0:0:0:
192,192,80123,1,0,0:0:0:0:
448,192,80208,1,0,0:0:0:0:
320,192,80294,1,0,0:0:0:0:
64,192,80380,1,0,0:0:0:0:
448,192,80466,1,0,0:0:0:0:
192,192,80551,1,0,0:0:0:0:
448,192,80637,1,0,0:0:0:0:
192,192,80723,1,0,0:0:0:0:
320,192,80808,1,0,0:0:0:0:
448,192,80894,1,0,0:0:0:0:
192,192,80980,1,0,0:0:0:0:
320,192,81066,1,0,0:0:0:0:
64,192,81151,1,0,0:0:0:0:
320,192,81237,1,0,0:0:0:0:
192,192,81323,1,0,0:0:0:0:
64,192,81408,1,0,0:0:0:0:
192,192,81494,1,0,0:0:0:0:
448,192,81580,1,0,0:0:0:0:
320,192,81666,1,0,0:0:0:0:
64,192,81751,1,0,0:0:0:0:
192,192,81837,1,0,0:0:0:0:
448,192,81923,1,4,0:0:0:0:
64,192,81923,1,4,0:0:0:0:
320,192,82008,1,0,0:0:0:0:
192,192,82094,1,0,0:0:0:0:
448,192,82180,1,0,0:0:0:0:
320,192,82265,1,0,0:0:0:0:
192,192,82351,1,0,0:0:0:0:
320,192,82437,1,0,0:0:0:0:
448,192,82523,1,0,0:0:0:0:
192,192,82608,1,0,0:0:0:0:
320,192,82694,1,0,0:0:0:0:
448,192,82780,1,0,0:0:0:0:
192,192,82865,1,0,0:0:0:0:
64,192,82951,1,0,0:0:0:0:
320,192,83037,1,0,0:0:0:0:
64,192,83123,1,0,0:0:0:0:
448,192,83208,1,0,0:0:0:0:
192,192,83294,1,0,0:0:0:0:
320,192,83380,1,0,0:0:0:0:
64,192,83465,1,0,0:0:0:0:
448,192,83551,1,0,0:0:0:0:
64,192,83637,1,0,0:0:0:0:
320,192,83723,1,0,0:0:0:0:
192,192,83808,1,0,0:0:0:0:
448,192,83894,1,0,0:0:0:0:
64,192,83980,1,0,0:0:0:0:
320,192,84065,1,0,0:0:0:0:
192,192,84151,1,0,0:0:0:0:
448,192,84237,1,0,0:0:0:0:
64,192,84323,1,0,0:0:0:0:
320,192,84408,1,0,0:0:0:0:
192,192,84494,1,0,0:0:0:0:
448,192,84580,1,0,0:0:0:0:
192,192,84665,1,0,0:0:0:0:
320,192,84751,1,0,0:0:0:0:
448,192,84837,1,0,0:0:0:0:
64,192,84923,1,0,0:0:0:0:
320,192,85008,1,0,0:0:0:0:
64,192,85094,1,0,0:0:0:0:
448,192,85180,1,0,0:0:0:0:
192,192,85265,1,0,0:0:0:0:
448,192,85351,1,0,0:0:0:0:
64,192,85437,1,0,0:0:0:0:
320,192,85523,1,0,0:0:0:0:
192,192,85608,1,0,0:0:0:0:
448,192,85694,1,0,0:0:0:0:
64,192,85780,1,0,0:0:0:0:
320,192,85865,1,0,0:0:0:0:
448,192,85951,1,0,0:0:0:0:
64,192,86037,1,0,0:0:0:0:
320,192,86123,1,0,0:0:0:0:
448,192,86208,1,0,0:0:0:0:
192,192,86294,1,0,0:0:0:0:
448,192,86380,1,0,0:0:0:0:
64,192,86465,1,0,0:0:0:0:
320,192,86551,1,0,0:0:0:0:
64,192,86637,1,0,0:0:0:0:
448,192,86723,1,0,0:0:0:0:
192,192,86808,1,0,0:0:0:0:
320,192,86894,1,0,0:0:0:0:
192,192,86980,1,0,0:0:0:0:
64,192,87065,1,0,0:0:0:0:
448,192,87151,1,0,0:0:0:0:
320,192,87237,1,0,0:0:0:0:
192,192,87323,1,0,0:0:0:0:
64,192,87408,1,0,0:0:0:0:
448,192,87494,1,0,0:0:0:0:
192,192,87580,1,0,0:0:0:0:
448,192,87665,1,0,0:0:0:0:
64,192,87751,1,0,0:0:0:0:
320,192,87837,1,0,0:0:0:0:
448,192,87923,1,0,0:0:0:0:
192,192,88008,1,0,0:0:0:0:
64,192,88094,1,0,0:0:0:0:
320,192,88180,1,0,0:0:0:0:
448,192,88265,1,0,0:0:0:0:
192,192,88351,1,0,0:0:0:0:
64,192,88437,1,0,0:0:0:0:
320,192,88523,1,0,0:0:0:0:
448,192,88608,1,0,0:0:0:0:
192,192,88694,1,0,0:0:0:0:
320,192,88780,1,0,0:0:0:0:
448,192,88865,1,0,0:0:0:0:
320,192,88951,1,0,0:0:0:0:
64,192,89037,1,0,0:0:0:0:
192,192,89122,1,0,0:0:0:0:
448,192,89208,1,0,0:0:0:0:
320,192,89294,1,0,0:0:0:0:
64,192,89380,1,0,0:0:0:0:
192,192,89465,1,0,0:0:0:0:
448,192,89551,1,0,0:0:0:0:
320,192,89637,1,0,0:0:0:0:
192,192,89722,1,0,0:0:0:0:
64,192,89808,1,0,0:0:0:0:
448,192,89894,1,0,0:0:0:0:
320,192,89980,1,0,0:0:0:0:
192,192,90065,1,0,0:0:0:0:
64,192,90151,1,0,0:0:0:0:
192,192,90237,1,0,0:0:0:0:
448,192,90322,1,0,0:0:0:0:
320,192,90408,1,0,0:0:0:0:
64,192,90494,1,0,0:0:0:0:
192,192,90580,1,0,0:0:0:0:
320,192,90665,1,0,0:0:0:0:
448,192,90751,1,0,0:0:0:0:
320,192,90837,1,0,0:0:0:0:
192,192,90922,1,0,0:0:0:0:
64,192,91008,1,0,0:0:0:0:
448,192,91094,1,0,0:0:0:0:
320,192,91180,1,0,0:0:0:0:
192,192,91265,1,0,0:0:0:0:
448,192,91351,1,0,0:0:0:0:
320,192,91437,1,0,0:0:0:0:
192,192,91522,1,0,0:0:0:0:
64,192,91608,1,4,0:0:0:0:
448,192,91608,1,4,0:0:0:0:
192,192,91694,1,0,0:0:0:0:
320,192,91780,1,0,0:0:0:0:
448,192,91865,1,0,0:0:0:0:
320,192,91951,1,0,0:0:0:0:
448,192,92037,1,0,0:0:0:0:
320,192,92122,1,0,0:0:0:0:
192,192,92208,1,0,0:0:0:0:
64,192,92294,1,4,0:0:0:0:
448,192,92294,1,4,0:0:0:0:
192,192,92380,1,0,0:0:0:0:
320,192,92465,1,0,0:0:0:0:
448,192,92551,1,0,0:0:0:0:
320,192,92637,1,0,0:0:0:0:
192,192,92722,1,0,0:0:0:0:
64,192,92808,1,0,0:0:0:0:
192,192,92894,1,4,0:0:0:0:
448,192,92894,1,4,0:0:0:0:
320,192,92980,1,0,0:0:0:0:
192,192,93065,1,0,0:0:0:0:
64,192,93151,1,0,0:0:0:0:
320,192,93237,1,0,0:0:0:0:
192,192,93322,1,0,0:0:0:0:
64,192,93408,1,0,0:0:0:0:
448,192,93494,1,0,0:0:0:0:
320,192,93580,1,0,0:0:0:0:
192,192,93665,1,0,0:0:0:0:
448,192,93751,1,4,0:0:0:0:
64,192,93751,1,0,0:0:0:0:
320,192,93837,1,0,0:0:0:0:
192,192,93922,1,0,0:0:0:0:
64,192,94008,1,0,0:0:0:0:
192,192,94094,1,0,0:0:0:0:
320,192,94180,1,0,0:0:0:0:
64,192,94265,1,4,0:0:0:0:
448,192,94265,1,4,0:0:0:0:
320,192,94351,1,0,0:0:0:0:
192,192,94437,1,0,0:0:0:0:
448,192,94522,1,0,0:0:0:0:
320,192,94608,1,0,0:0:0:0:
192,192,94694,1,0,0:0:0:0:
64,192,94780,1,4,0:0:0:0:
448,192,94780,1,4,0:0:0:0:
192,192,94865,1,0,0:0:0:0:
320,192,94951,1,0,0:0:0:0:
448,192,95037,1,0,0:0:0:0:
320,192,95122,1,0,0:0:0:0:
448,192,95208,1,4,0:0:0:0:
64,192,95208,1,4,0:0:0:0:
320,192,95294,1,0,0:0:0:0:
192,192,95379,1,0,0:0:0:0:
448,192,95465,1,0,0:0:0:0:
192,192,95551,1,0,0:0:0:0:
448,192,95637,1,4,0:0:0:0:
64,192,95637,1,4,0:0:0:0:
320,192,95722,1,0,0:0:0:0:
192,192,95808,1,0,0:0:0:0:
448,192,95894,1,0,0:0:0:0:
320,192,95979,1,0,0:0:0:0:
192,192,96065,1,0,0:0:0:0:
320,192,96151,1,0,0:0:0:0:
64,192,96237,1,4,0:0:0:0:
448,192,96237,1,4,0:0:0:0:
192,192,96322,1,0,0:0:0:0:
320,192,96408,1,0,0:0:0:0:
64,192,96494,1,0,0:0:0:0:
192,192,96579,1,0,0:0:0:0:
320,192,96665,1,0,0:0:0:0:
448,192,96751,1,4,0:0:0:0:
64,192,96751,1,4,0:0:0:0:
192,192,96837,1,0,0:0:0:0:
320,192,96922,1,0,0:0:0:0:
64,192,97008,1,4,0:0:0:0:
448,192,97008,1,4,0:0:0:0:
192,192,97094,1,0,0:0:0:0:
320,192,97179,1,0,0:0:0:0:
448,192,97265,1,0,0:0:0:0:
320,192,97351,1,0,0:0:0:0:
192,192,97437,1,0,0:0:0:0:
64,192,97522,1,0,0:0:0:0:
192,192,97608,1,0,0:0:0:0:
320,192,97694,1,0,0:0:0:0:
448,192,97779,1,0,0:0:0:0:
320,192,97865,1,0,0:0:0:0:
192,192,97951,1,0,0:0:0:0:
64,192,98037,1,0,0:0:0:0:
192,192,98122,1,0,0:0:0:0:
320,192,98208,1,0,0:0:0:0:
192,192,98294,1,0,0:0:0:0:
64,192,98379,1,4,0:0:0:0:
448,192,98379,1,4,0:0:0:0:
320,192,98465,1,0,0:0:0:0:
64,192,98551,1,0,0:0:0:0:
320,192,98637,1,0,0:0:0:0:
448,192,98722,1,0,0:0:0:0:
320,192,98808,1,0,0:0:0:0:
64,192,98894,1,0,0:0:0:0:
192,192,98979,1,0,0:0:0:0:
448,192,99065,1,0,0:0:0:0:
320,192,99151,1,0,0:0:0:0:
64,192,99237,1,0,0:0:0:0:
192,192,99322,1,0,0:0:0:0:
448,192,99408,1,4,0:0:0:0:
64,192,99408,1,4,0:0:0:0:
192,192,99494,1,0,0:0:0:0:
320,192,99579,1,0,0:0:0:0:
192,192,99665,1,0,0:0:0:0:
64,192,99751,1,4,0:0:0:0:
448,192,99751,1,4,0:0:0:0:
320,192,99837,1,0,0:0:0:0:
192,192,99922,1,0,0:0:0:0:
64,192,100008,1,0,0:0:0:0:
192,192,100094,1,0,0:0:0:0:
448,192,100179,1,0,0:0:0:0:
320,192,100265,1,0,0:0:0:0:
64,192,100351,1,0,0:0:0:0:
192,192,100437,1,0,0:0:0:0:
448,192,100522,1,0,0:0:0:0:
320,192,100608,1,0,0:0:0:0:
64,192,100694,1,4,0:0:0:0:
448,192,100694,1,4,0:0:0:0:
192,192,100779,1,0,0:0:0:0:
320,192,100865,1,0,0:0:0:0:
192,192,100951,1,0,0:0:0:0:
320,192,101037,1,0,0:0:0:0:
64,192,101122,1,4,0:0:0:0:
448,192,101122,1,4,0:0:0:0:
320,192,101208,1,0,0:0:0:0:
192,192,101294,1,0,0:0:0:0:
64,192,101379,1,0,0:0:0:0:
448,192,101465,1,0,0:0:0:0:
320,192,101551,1,0,0:0:0:0:
192,192,101636,1,0,0:0:0:0:
64,192,101722,1,0,0:0:0:0:
448,192,101808,1,0,0:0:0:0:
320,192,101894,1,0,0:0:0:0:
192,192,101979,1,0,0:0:0:0:
64,192,102065,1,0,0:0:0:0:
448,192,102151,1,0,0:0:0:0:
320,192,102236,1,0,0:0:0:0:
192,192,102322,1,0,0:0:0:0:
64,192,102408,1,0,0:0:0:0:
448,192,102494,1,4,0:0:0:0:
192,192,102494,1,4,0:0:0:0:
