osu file format v14

[General]
AudioFilename: audio.mp3
AudioLeadIn: 0
PreviewTime: 27176
Countdown: 0
SampleSet: Normal
StackLeniency: 0.7
Mode: 1
LetterboxInBreaks: 0
WidescreenStoryboard: 0

[Editor]
Bookmarks: 13462,39005,49291
DistanceSpacing: 3.3
BeatDivisor: 4
GridSize: 16
TimelineZoom: 1.300001

[Metadata]
Title:Time Trials
TitleUnicode:Time Trials
Artist:Hyper Potions
ArtistUnicode:Hyper Potions
Creator:Alwaysyukaz
Version:Muzukashii
Source:Sonic Mania
Tags:ソニック マニア SEGA Pre-Order Trailer Theme ハイパー ポションズ ][_-GH-_][ Roger Video Game Electronic OST
BeatmapID:1987092
BeatmapSetID:928125

[Difficulty]
HPDrainRate:6
CircleSize:2
OverallDifficulty:5
ApproachRate:0
SliderMultiplier:1.4
SliderTickRate:1

[Events]
//Background and Video events
0,0,"BG time trial.jpg",0,20
//Break Periods
//Storyboard Layer 0 (Background)
//Storyboard Layer 1 (Fail)
//Storyboard Layer 2 (Pass)
//Storyboard Layer 3 (Foreground)
//Storyboard Sound Samples

[TimingPoints]
-80,342.857142857143,4,1,0,45,1,8
2662,342.857142857143,4,1,0,45,1,0
12090,-100,4,1,0,60,0,0
13462,-100,4,1,0,75,0,0
24776,-100,4,1,0,25,0,0
26490,-100,4,1,0,75,0,0
27347,342.857142857143,4,1,0,85,1,1
49118,-100,4,1,0,85,0,0
49461,-100,4,1,0,75,0,0
58718,-100,4,1,0,45,0,0
58889,-100,4,1,0,15,0,0
60261,-100,4,1,0,60,0,0
68489,-100,4,1,0,40,0,0
69175,-100,4,1,0,45,0,0
69861,-100,4,1,0,50,0,0
70547,-100,4,1,0,55,0,0
71232,-100,4,1,0,60,0,0
71918,-100,4,1,0,70,0,0
72604,-100,4,1,0,80,0,0

[HitObjects]
254,188,1291,5,0,0:0:0:0:
254,188,1634,1,0,0:0:0:0:
254,188,1805,1,8,0:0:0:0:
254,188,1977,1,0,0:0:0:0:
254,188,2148,1,0,0:0:0:0:
254,188,2491,1,12,0:0:0:0:
254,188,3004,1,8,0:0:0:0:
254,188,3176,1,0,0:0:0:0:
254,188,3519,1,8,0:0:0:0:
254,188,3690,1,8,0:0:0:0:
254,188,3862,1,0,0:0:0:0:
254,188,4376,1,0,0:0:0:0:
254,188,4547,1,8,0:0:0:0:
254,188,4890,1,0,0:0:0:0:
254,188,5062,1,0,0:0:0:0:
254,188,5233,1,8,0:0:0:0:
254,188,5747,1,8,0:0:0:0:
254,188,5919,1,0,0:0:0:0:
254,188,6262,1,8,0:0:0:0:
254,188,6433,1,8,0:0:0:0:
254,188,6604,1,0,0:0:0:0:
254,188,6947,1,0,0:0:0:0:
245,177,7119,1,8,0:0:0:0:
254,188,7290,1,8,0:0:0:0:
238,183,7633,1,8,0:0:0:0:
238,183,7804,1,0,0:0:0:0:
238,183,7976,1,0,0:0:0:0:
238,183,8490,1,8,0:0:0:0:
238,183,8662,1,0,0:0:0:0:
238,183,9004,1,8,0:0:0:0:
238,183,9176,1,8,0:0:0:0:
238,183,9347,1,0,0:0:0:0:
256,190,9862,1,0,0:0:0:0:
256,190,10033,1,8,0:0:0:0:
256,194,10376,1,0,0:0:0:0:
256,190,10547,1,0,0:0:0:0:
256,190,10719,1,8,0:0:0:0:
237,183,11233,1,8,0:0:0:0:
237,183,11404,1,0,0:0:0:0:
263,191,11747,1,8,0:0:0:0:
263,191,11919,1,0,0:0:0:0:
263,191,12090,1,12,0:0:0:0:
250,195,12433,1,4,0:0:0:0:
250,195,12604,1,4,0:0:0:0:
250,195,12776,1,4,0:0:0:0:
250,195,12947,1,12,0:0:0:0:
237,193,13462,1,12,0:0:0:0:
250,195,13804,1,0,0:0:0:0:
250,195,13976,1,8,0:0:0:0:
247,191,14147,1,8,0:0:0:0:
244,192,14233,1,8,0:0:0:0:
247,191,14319,1,8,0:0:0:0:
247,191,14490,1,8,0:0:0:0:
250,195,14662,1,0,0:0:0:0:
250,195,14833,1,0,0:0:0:0:
247,191,15176,1,8,0:0:0:0:
247,191,15347,1,0,0:0:0:0:
247,191,15519,1,8,0:0:0:0:
250,195,15690,1,0,0:0:0:0:
250,195,15776,1,0,0:0:0:0:
250,195,15862,1,0,0:0:0:0:
250,195,16033,1,0,0:0:0:0:
247,191,16204,1,8,0:0:0:0:
250,195,16547,1,0,0:0:0:0:
250,195,16719,1,8,0:0:0:0:
247,191,16890,1,8,0:0:0:0:
244,192,16976,1,8,0:0:0:0:
247,191,17062,1,8,0:0:0:0:
247,191,17233,1,8,0:0:0:0:
250,195,17404,1,0,0:0:0:0:
250,195,17576,1,0,0:0:0:0:
247,191,17919,1,8,0:0:0:0:
247,191,18090,1,0,0:0:0:0:
247,191,18262,1,8,0:0:0:0:
250,195,18433,1,0,0:0:0:0:
241,191,18519,1,0,0:0:0:0:
250,195,18604,1,0,0:0:0:0:
250,195,18776,1,8,0:0:0:0:
247,191,18947,1,4,0:0:0:0:
250,195,19462,1,8,0:0:0:0:
247,191,19633,1,8,0:0:0:0:
244,192,19719,1,8,0:0:0:0:
247,191,19804,1,8,0:0:0:0:
247,191,19976,1,8,0:0:0:0:
250,195,20147,1,0,0:0:0:0:
250,195,20319,1,0,0:0:0:0:
247,191,20662,1,8,0:0:0:0:
247,191,20833,1,0,0:0:0:0:
247,191,21004,1,8,0:0:0:0:
250,195,21176,1,0,0:0:0:0:
250,195,21262,1,0,0:0:0:0:
250,195,21347,1,0,0:0:0:0:
250,195,21519,1,0,0:0:0:0:
247,191,21690,1,8,0:0:0:0:
255,195,21862,1,4,0:0:0:0:
250,195,22204,1,8,0:0:0:0:
250,195,22376,1,0,0:0:0:0:
255,195,22547,1,8,0:0:0:0:
255,195,22719,1,8,0:0:0:0:
255,195,22890,1,0,0:0:0:0:
255,193,23062,1,0,0:0:0:0:
250,195,23233,1,8,0:0:0:0:
255,193,23576,1,8,0:0:0:0:
255,193,23747,1,0,0:0:0:0:
255,193,23919,1,8,0:0:0:0:
255,193,24090,1,8,0:0:0:0:
255,193,24176,1,8,0:0:0:0:
255,193,24262,1,8,0:0:0:0:
255,193,24433,1,8,0:0:0:0:
255,193,24604,1,4,0:0:0:0:
256,192,24776,12,0,26319,0:0:0:0:
246,190,26490,5,0,0:0:0:0:
246,190,26662,1,8,0:0:0:0:
246,190,27004,1,8,0:0:0:0:
246,190,27347,1,4,0:0:0:0:
246,190,27518,1,8,0:0:0:0:
246,190,27689,1,8,0:0:0:0:
246,190,27861,1,0,0:0:0:0:
246,190,28032,1,8,0:0:0:0:
259,197,28118,1,8,0:0:0:0:
256,192,28204,5,8,0:0:0:0:
256,192,28375,5,8,0:0:0:0:
256,192,28547,5,0,0:0:0:0:
256,192,28718,5,8,0:0:0:0:
256,192,29061,5,8,0:0:0:0:
246,190,29232,1,0,0:0:0:0:
256,192,29404,1,8,0:0:0:0:
246,190,29918,1,0,0:0:0:0:
256,192,30089,5,8,0:0:0:0:
256,192,30432,5,8,0:0:0:0:
256,192,30604,5,0,0:0:0:0:
256,192,30775,5,8,0:0:0:0:
256,192,30947,5,0,0:0:0:0:
246,190,31118,1,8,0:0:0:0:
246,190,31461,1,0,0:0:0:0:
246,190,31632,1,8,0:0:0:0:
246,190,31718,1,8,0:0:0:0:
246,190,31804,1,8,0:0:0:0:
256,192,31975,5,0,0:0:0:0:
256,192,32147,5,0,0:0:0:0:
256,192,32318,5,8,0:0:0:0:
256,192,32489,5,8,0:0:0:0:
256,192,32661,5,4,0:0:0:0:
246,190,33175,1,8,0:0:0:0:
246,190,33347,1,0,0:0:0:0:
246,190,33518,1,0,0:0:0:0:
246,190,33689,1,8,0:0:0:0:
256,192,33861,5,8,0:0:0:0:
256,192,34032,5,0,0:0:0:0:
256,190,34204,1,0,0:0:0:0:
256,192,34547,5,0,0:0:0:0:
256,192,34718,5,8,0:0:0:0:
246,190,34889,1,0,0:0:0:0:
246,190,35061,1,0,0:0:0:0:
246,190,35232,1,8,0:0:0:0:
246,190,35404,1,8,0:0:0:0:
256,192,35575,1,0,0:0:0:0:
256,192,35918,5,8,0:0:0:0:
256,192,36089,5,8,0:0:0:0:
246,190,36175,5,8,0:0:0:0:
256,192,36261,1,8,0:0:0:0:
256,192,36432,5,8,0:0:0:0:
256,192,36604,5,0,0:0:0:0:
256,192,36775,1,0,0:0:0:0:
256,192,36947,1,8,0:0:0:0:
256,192,37289,5,8,0:0:0:0:
256,192,37461,5,0,0:0:0:0:
256,192,37547,1,0,0:0:0:0:
256,192,37632,5,0,0:0:0:0:
256,192,37804,5,8,0:0:0:0:
256,192,37975,5,8,0:0:0:0:
256,192,38147,5,4,0:0:0:0:
256,192,38661,1,8,0:0:0:0:
256,192,38832,1,0,0:0:0:0:
246,190,39004,1,8,0:0:0:0:
259,197,39089,1,8,0:0:0:0:
256,192,39175,5,8,0:0:0:0:
256,192,39347,5,8,0:0:0:0:
256,192,39518,5,0,0:0:0:0:
256,192,39689,5,8,0:0:0:0:
256,192,40032,5,8,0:0:0:0:
246,190,40204,1,0,0:0:0:0:
256,192,40375,1,8,0:0:0:0:
246,190,40889,1,0,0:0:0:0:
256,192,41061,5,8,0:0:0:0:
256,192,41404,5,8,0:0:0:0:
256,192,41575,5,0,0:0:0:0:
256,192,41747,5,8,0:0:0:0:
256,192,41918,5,0,0:0:0:0:
246,190,42089,1,8,0:0:0:0:
246,190,42432,1,0,0:0:0:0:
246,190,42604,1,8,0:0:0:0:
246,190,42689,1,8,0:0:0:0:
246,190,42775,1,8,0:0:0:0:
256,192,42947,5,0,0:0:0:0:
256,192,43118,5,0,0:0:0:0:
256,192,43289,5,8,0:0:0:0:
256,192,43461,5,8,0:0:0:0:
256,192,43632,5,4,0:0:0:0:
246,190,44147,1,8,0:0:0:0:
246,190,44318,1,0,0:0:0:0:
246,190,44489,1,0,0:0:0:0:
246,190,44661,1,8,0:0:0:0:
256,192,44832,5,8,0:0:0:0:
256,192,45004,5,0,0:0:0:0:
256,190,45175,1,0,0:0:0:0:
256,192,45518,5,0,0:0:0:0:
256,192,45689,5,8,0:0:0:0:
246,190,45861,1,0,0:0:0:0:
246,190,46032,1,0,0:0:0:0:
246,190,46204,1,8,0:0:0:0:
246,190,46375,1,8,0:0:0:0:
256,192,46547,1,0,0:0:0:0:
256,192,46889,5,8,0:0:0:0:
256,192,47061,5,8,0:0:0:0:
246,190,47147,5,8,0:0:0:0:
256,192,47232,1,8,0:0:0:0:
256,192,47404,5,8,0:0:0:0:
256,192,47575,5,0,0:0:0:0:
256,192,47747,5,0,0:0:0:0:
256,192,47918,1,8,0:0:0:0:
256,192,48261,5,8,0:0:0:0:
256,192,48432,5,0,0:0:0:0:
256,192,48518,1,0,0:0:0:0:
256,192,48604,5,0,0:0:0:0:
256,192,48775,5,8,0:0:0:0:
256,192,48947,5,8,0:0:0:0:
256,192,49118,5,4,0:0:0:0:
256,192,49632,1,8,0:0:0:0:
256,192,49975,1,8,0:0:0:0:
256,192,50147,1,0,0:0:0:0:
256,192,50489,1,8,0:0:0:0:
256,192,50832,1,0,0:0:0:0:
256,192,51004,1,8,0:0:0:0:
256,192,51347,1,8,0:0:0:0:
256,192,51518,1,0,0:0:0:0:
256,192,51861,1,8,0:0:0:0:
256,192,52204,1,0,0:0:0:0:
256,192,52375,1,8,0:0:0:0:
256,192,52718,1,8,0:0:0:0:
256,192,52889,1,0,0:0:0:0:
256,192,53232,1,12,0:0:0:0:
256,192,53575,1,8,0:0:0:0:
254,183,53747,1,8,0:0:0:0:
256,192,53918,1,4,0:0:0:0:
256,192,54261,1,0,0:0:0:0:
256,192,54432,1,0,0:0:0:0:
256,192,54604,1,12,0:0:0:0:
256,192,55118,1,8,0:0:0:0:
256,192,55461,1,8,0:0:0:0:
256,192,55632,1,0,0:0:0:0:
256,192,55975,1,8,0:0:0:0:
256,192,56318,1,0,0:0:0:0:
256,192,56489,1,8,0:0:0:0:
256,192,56832,1,8,0:0:0:0:
256,192,57004,1,0,0:0:0:0:
256,192,57347,1,8,0:0:0:0:
256,192,57689,1,0,0:0:0:0:
256,192,57861,1,8,0:0:0:0:
246,193,58204,1,12,0:0:0:0:
246,193,58375,1,0,0:0:0:0:
256,192,58718,12,0,60089,0:0:0:0:
253,187,60261,5,4,0:0:0:0:
253,187,60775,1,0,0:0:0:0:
244,186,61289,1,8,0:0:0:0:
242,186,61632,1,0,0:0:0:0:
241,183,61975,1,8,0:0:0:0:
244,186,62147,1,0,0:0:0:0:
236,184,62318,1,12,0:0:0:0:
242,186,62661,1,8,0:0:0:0:
242,186,62832,1,8,0:0:0:0:
242,189,63004,1,4,0:0:0:0:
242,189,63347,1,0,0:0:0:0:
242,186,63518,1,8,0:0:0:0:
242,186,63689,1,8,0:0:0:0:
242,189,64032,1,0,0:0:0:0:
242,189,64375,1,0,0:0:0:0:
242,186,64547,1,8,0:0:0:0:
242,186,64889,1,0,0:0:0:0:
242,189,65061,1,12,0:0:0:0:
242,189,65404,1,0,0:0:0:0:
242,186,65575,1,8,0:0:0:0:
242,186,65661,1,8,0:0:0:0:
242,186,65747,1,8,0:0:0:0:
242,189,66089,1,8,0:0:0:0:
242,189,66261,1,0,0:0:0:0:
242,186,66604,1,0,0:0:0:0:
242,186,66775,1,8,0:0:0:0:
242,189,67118,1,0,0:0:0:0:
242,186,67461,1,8,0:0:0:0:
242,186,67632,1,0,0:0:0:0:
242,186,67804,1,12,0:0:0:0:
242,189,68147,1,8,0:0:0:0:
242,189,68318,1,8,0:0:0:0:
242,186,68489,1,4,0:0:0:0:
242,189,68832,1,0,0:0:0:0:
242,186,69004,1,8,0:0:0:0:
254,193,69518,1,0,0:0:0:0:
254,193,69861,1,0,0:0:0:0:
254,193,70204,1,0,0:0:0:0:
254,193,70375,1,8,0:0:0:0:
254,193,70547,1,0,0:0:0:0:
254,193,70718,1,8,0:0:0:0:
254,193,70804,1,8,0:0:0:0:
254,193,70889,1,8,0:0:0:0:
254,193,71061,1,0,0:0:0:0:
256,193,71232,1,8,0:0:0:0:
256,193,71747,1,8,0:0:0:0:
236,186,72261,1,0,0:0:0:0:
236,186,72432,1,8,0:0:0:0:
236,186,72604,1,8,0:0:0:0:
236,186,72775,1,0,0:0:0:0:
236,186,72947,1,0,0:0:0:0:
236,186,73118,1,8,0:0:0:0:
236,186,73204,1,8,0:0:0:0:
236,186,73289,1,8,0:0:0:0:
