osu file format v14

[General]
AudioFilename: [Sonic Mania] Hyper Potions - Time Trials.mp3
AudioLeadIn: 0
PreviewTime: 27348
Countdown: 0
SampleSet: Soft
StackLeniency: 0.7
Mode: 0
LetterboxInBreaks: 1
WidescreenStoryboard: 0

[Editor]
Bookmarks: 8491,30520,40891,60262,60777,61291,62320,65748,73291
DistanceSpacing: 1
BeatDivisor: 4
GridSize: 16
TimelineZoom: 2.2

[Metadata]
Title:Time Trials
TitleUnicode:Time Trials
Artist:Hyper Potions
ArtistUnicode:Hyper Potions
Creator:-Harpuia-
Version:anneasparagus' Normal
Source:Sonic Mania
Tags:ソニック マニア SEGA Pre-Order Trailer Theme ハイパー ポションズ anneasparagus RatinA0 Kaitjuh _kotachi_
BeatmapID:1557355
BeatmapSetID:735903

[Difficulty]
HPDrainRate:4
CircleSize:3.5
OverallDifficulty:4
ApproachRate:4
SliderMultiplier:1.00000000596046
SliderTickRate:1

[Events]
//Background and Video events
0,0,"[SCD] Z6A1A2_SSZ - PAST [SM] Z6A1_SSZ.jpg",0,0
//Break Periods
//Storyboard Layer 0 (Background)
//Storyboard Layer 1 (Fail)
//Storyboard Layer 2 (Pass)
//Storyboard Layer 3 (Foreground)
//Storyboard Sound Samples

[TimingPoints]
-80,342.857142857143,4,2,10,45,1,0
1291,-100,4,2,10,45,0,0
12091,-100,4,2,10,60,0,0
12434,-100,4,2,20,60,0,0
13462,-100,4,2,10,75,0,0
21862,-100,4,2,30,75,0,0
24605,-100,4,2,30,50,0,0
26491,-100,4,2,10,50,0,0
27348,-100,4,2,8,85,0,1
27520,-100,4,2,30,85,0,1
49120,-100,4,2,30,75,0,0
58720,-100,4,2,30,40,0,0
60262,-100,4,2,10,60,0,0
68491,-100,4,2,20,60,0,0

[Colours]
Combo1 : 215,215,215
Combo2 : 138,197,255
Combo3 : 215,215,215
Combo4 : 0,128,255
Combo5 : 215,215,215
Combo6 : 244,157,157
Combo7 : 215,215,215
Combo8 : 200,145,255
SliderBorder : 124,255,168
SliderTrackOverride : 0,29,10

[HitObjects]
295,255,1291,6,0,P|247:241|211:207,1,100.000000596046,2|2,0:0|0:0,0:0:0:0:
218,106,1977,1,2,0:0:0:0:
218,106,2148,1,2,0:0:0:0:
302,52,2491,5,6,0:0:0:0:
410,161,3005,1,10,0:0:0:0:
410,161,3177,2,8,L|410:267,2,100.000000596046,0|2|2,0:0|0:0|0:0,0:0:0:0:
261,140,4377,5,8,0:0:0:0:
261,140,4548,2,8,L|261:40,2,100.000000596046,2|2|0,0:0|0:0|0:0,0:0:0:0:
228,286,5748,5,8,0:0:0:0:
228,286,5920,2,0,L|108:262,1,100.000000596046,2|2,0:0|0:0,0:0:0:0:
49,207,6605,6,8,L|40:99,1,100.000000596046,2|2,0:0|0:0,0:0:0:0:
76,71,7120,2,8,L|111:34,1,50.000000298023,8|2,0:0|0:0,0:0:0:0:
205,65,7634,2,8,L|166:102,1,50.000000298023,2|10,0:0|0:0,0:0:0:0:
93,284,8491,5,10,0:0:0:0:
93,284,8663,2,8,P|139:267|187:278,1,100.000000596046,0|2,0:0|0:0,0:0:0:0:
269,335,9347,1,2,0:0:0:0:
374,227,9862,5,8,0:0:0:0:
374,227,10034,2,8,P|327:243|279:232,1,100.000000596046,2|2,0:0|0:0,0:0:0:0:
198,176,10720,1,0,0:0:0:0:
87,278,11234,5,8,0:0:0:0:
87,278,11405,1,2,0:0:0:0:
153,353,11748,1,2,0:0:0:0:
252,341,12091,6,8,P|297:326|354:361,1,100.000000596046,6|4,0:0|3:0,0:0:0:0:
389,327,12605,2,0,L|445:302,2,50.000000298023,4|4|4,3:0|3:0|3:0,0:0:0:0:
447,188,13462,5,6,0:0:0:0:
377,116,13805,2,8,L|392:67,2,50.000000298023,2|0|2,0:0|3:2|0:0,0:0:0:0:
347,157,14320,2,8,B|314:203|254:200,1,100.000000596046,2|0,3:2|3:2,0:0:0:0:
211,199,14834,1,2,0:0:0:0:
152,280,15177,6,8,L|207:291,2,50.000000298023,2|0|2,0:0|3:2|0:0,0:0:0:0:
109,256,15692,2,8,B|63:223|66:163,1,100.000000596046,2|0,3:2|3:2,0:0:0:0:
65,120,16206,1,2,0:0:0:0:
154,76,16548,6,8,L|142:21,2,50.000000298023,2|0|2,0:0|3:2|0:0,0:0:0:0:
178,119,17063,2,8,B|210:165|270:162,1,100.000000596046,2|0,3:2|3:2,0:0:0:0:
314,163,17577,1,2,0:0:0:0:
382,235,17920,6,8,L|336:267,2,50.000000298023,2|0|2,0:0|3:2|0:0,0:0:0:0:
419,202,18435,2,8,B|456:159|439:101,1,100.000000596046,2|0,3:2|3:2,0:0:0:0:
431,60,18949,1,6,0:0:0:0:
341,103,19291,6,8,L|291:96,1,50.000000298023,2|0,0:0|3:2,0:0:0:0:
241,100,19634,1,2,0:0:0:0:
241,100,19806,2,8,B|224:205,1,100.000000596046,2|0,3:2|3:2,0:0:0:0:
248,244,20319,1,2,0:0:0:0:
168,304,20662,6,8,L|118:311,1,50.000000298023,2|0,0:0|3:2,0:0:0:0:
68,307,21005,1,2,0:0:0:0:
68,307,21177,2,8,B|51:202,1,100.000000596046,0|0,3:2|3:2,0:0:0:0:
75,163,21690,1,2,0:0:0:0:
120,142,21862,6,14,B|171:131|204:149|221:117,1,100.000000596046,6|0,3:2|3:2,0:0:0:0:
279,46,22548,2,14,B|329:45|357:20|375:41,1,100.000000596046,6|0,3:2|3:2,0:0:0:0:
405,81,23062,1,0,3:2:0:0:
392,180,23405,5,0,3:2:0:0:
392,180,23577,2,8,P|346:198|291:237,1,100.000000596046,0|6,3:2|3:2,0:0:0:0:
265,258,24092,1,2,3:2:0:0:
232,296,24263,2,8,B|184:278,2,50.000000298023,2|0|4,3:2|3:2|3:1,0:0:0:0:
351,242,26662,5,10,3:2:0:0:
269,178,27005,1,8,3:2:0:0:
188,237,27348,6,8,P|146:258|90:289,1,100.000000596046,6|8,3:2|3:2,0:0:0:0:
104,183,28034,2,0,L|193:137,1,100.000000596046,2|10,3:2|3:2,0:0:0:0:
286,173,28720,2,0,P|334:205|390:213,1,100.000000596046,2|10,3:2|3:2,0:0:0:0:
363,113,29405,2,0,P|315:81|259:73,1,100.000000596046,2|8,3:2|3:2,0:0:0:0:
223,77,29920,5,0,0:0:0:0:
223,77,30091,1,6,3:2:0:0:
131,115,30434,1,14,3:2:0:0:
115,213,30777,1,6,3:2:0:0:
191,277,31120,1,14,3:2:0:0:
285,242,31462,1,6,3:2:0:0:
209,176,31805,1,14,3:2:0:0:
109,173,32148,6,0,B|97:132|97:132|115:72,1,100.000000596046,6|14,3:2|3:2,0:0:0:0:
148,44,32662,2,0,B|204:31|204:31|245:50,1,100.000000596046,4|2,2:1|0:0,0:0:0:0:
284,78,33177,5,10,3:2:0:0:
233,164,33520,2,0,B|221:204|221:204|237:260,1,100.000000596046,2|10,3:2|3:2,0:0:0:0:
275,292,34034,2,0,B|331:304|331:304|372:286,1,100.000000596046,2|0,0:0|0:0,0:0:0:0:
407,255,34548,5,10,3:2:0:0:
351,171,34891,2,0,B|332:133|332:133|278:99,1,100.000000596046,2|10,3:2|3:2,0:0:0:0:
234,103,35405,2,0,B|183:131|183:131|165:172,1,100.000000596046,2|0,0:0|0:0,0:0:0:0:
147,216,35920,5,10,3:2:0:0:
54,177,36262,2,8,P|32:130|39:75,1,100.000000596046,2|10,3:2|3:2,0:0:0:0:
60,39,36777,1,6,0:0:0:0:
158,19,37120,5,2,0:0:0:0:
158,19,37291,2,0,L|211:37,1,50.000000298023,8|0,3:2|0:0,0:0:0:0:
244,66,37634,2,8,L|250:170,1,100.000000596046,14|0,3:2|3:2,0:0:0:0:
255,215,38148,6,0,P|231:289|199:313,1,100.000000596046,4|2,2:1|0:0,0:0:0:0:
166,309,38662,1,8,3:2:0:0:
130,215,39005,6,0,B|111:168|111:168|54:161,1,100.000000596046,2|10,3:2|3:2,0:0:0:0:
79,64,39691,2,0,B|128:73|128:73|164:30,1,100.000000596046,2|10,3:2|3:2,0:0:0:0:
234,102,40377,2,0,B|201:139|201:139|218:186,1,100.000000596046,2|10,3:2|3:2,0:0:0:0:
245,228,40891,5,0,0:0:0:0:
245,228,41062,1,6,3:2:0:0:
285,319,41405,1,14,3:2:0:0:
384,328,41748,1,6,3:2:0:0:
442,246,42091,1,14,3:2:0:0:
405,153,42433,1,6,3:2:0:0:
305,145,42776,1,14,3:2:0:0:
223,87,43120,6,0,B|196:120|196:120|195:177,1,100.000000596046,6|14,3:2|3:2,0:0:0:0:
201,227,43634,2,0,B|227:260|227:260|228:317,1,100.000000596046,4|0,2:1|0:0,0:0:0:0:
190,351,44148,5,10,3:2:0:0:
111,289,44491,2,0,B|84:255|84:255|83:198,1,100.000000596046,2|10,3:2|3:2,0:0:0:0:
103,152,45005,2,0,B|129:118|129:118|130:61,1,100.000000596046,2|0,0:0|0:0,0:0:0:0:
162,22,45520,5,10,3:2:0:0:
250,67,45862,2,0,B|307:67|307:67|340:94,1,100.000000596046,2|10,3:2|3:2,0:0:0:0:
350,143,46377,2,0,B|349:200|349:200|314:243,1,100.000000596046,2|0,0:0|0:0,0:0:0:0:
281,263,46891,5,10,3:2:0:0:
306,359,47234,2,8,L|356:359,1,50.000000298023,2|0,3:2|0:0,0:0:0:0:
404,349,47577,1,10,3:2:0:0:
404,349,47748,6,8,P|468:293|480:231,1,150.000000894069,6|8,0:0|3:2,0:0:0:0:
462,184,48434,1,0,0:0:0:0:
423,152,48605,2,12,L|450:101,2,50.000000298023,14|8|0,3:2|0:0|3:2,0:0:0:0:
375,134,49120,1,6,0:0:0:0:
305,205,49462,6,0,L|251:205,1,50.000000298023,0|2,3:2|0:0,0:0:0:0:
184,275,49977,2,0,L|133:275,1,50.000000298023,8|2,0:0|3:2,0:0:0:0:
46,322,50490,1,2,0:0:0:0:
12,227,50834,6,0,L|49:193,1,50.000000298023,0|2,3:2|0:0,0:0:0:0:
32,94,51349,2,0,L|69:60,1,50.000000298023,8|2,0:0|3:2,0:0:0:0:
156,13,51862,1,2,0:0:0:0:
163,112,52205,6,0,L|213:112,1,50.000000298023,8|2,3:2|0:0,0:0:0:0:
294,170,52720,2,0,L|344:170,1,50.000000298023,8|2,0:0|3:2,0:0:0:0:
425,228,53233,1,6,0:0:0:0:
344,287,53577,6,0,B|347:320|316:364|316:364|324:379,1,100.000000596046,0|6,3:2|3:2,0:0:0:0:
245,315,54262,2,0,B|254:302|254:302|224:256|228:225,1,100.000000596046,2|6,3:2|3:2,0:0:0:0:
317,177,54948,6,0,L|370:193,1,50.000000298023,0|2,3:2|0:0,0:0:0:0:
461,163,55463,2,0,L|478:105,1,50.000000298023,8|2,0:0|3:2,0:0:0:0:
380,82,55976,1,2,0:0:0:0:
281,100,56320,6,0,L|224:100,1,50.000000298023,0|2,3:2|0:0,0:0:0:0:
139,58,56835,2,0,L|159:12,1,50.000000298023,8|0,0:0|0:0,0:0:0:0:
255,0,57348,1,2,0:0:0:0:
350,15,57691,6,0,L|370:61,1,50.000000298023,8|2,3:2|0:0,0:0:0:0:
305,137,58205,2,0,L|325:183,1,50.000000298023,12|2,0:0|0:0,0:0:0:0:
243,240,58719,1,4,2:1:0:0:
243,240,60262,6,0,P|166:246|110:292,2,150.000000894069,6|8|10,0:0|0:0|3:2,0:0:0:0:
227,339,61634,6,0,P|304:333|333:314,1,100.000000596046,2|2,3:2|3:2,0:0:0:0:
376,238,62320,1,14,0:0:0:0:
307,165,62662,1,2,0:0:0:0:
251,81,63005,6,0,P|327:69|392:101,2,150.000000894069,6|10|10,0:0|0:0|3:2,0:0:0:0:
157,118,64377,2,0,L|137:69,2,50.000000298023,2|2|2,3:2|0:0|3:2,0:0:0:0:
176,163,64890,1,0,3:2:0:0:
188,211,65062,2,0,P|148:244|97:257,1,100.000000596046,14|10,0:0|0:0,0:0:0:0:
58,346,65748,6,0,P|12:287|7:214,2,150.000000894069,6|10|10,0:0|0:0|3:2,0:0:0:0:
124,271,67120,2,0,P|176:268|227:288,1,100.000000596046,2|2,3:2|3:2,0:0:0:0:
309,330,67806,1,14,0:0:0:0:
377,257,68148,1,2,0:0:0:0:
463,308,68491,6,0,P|508:249|513:176,2,150.000000894069,6|0|2,3:2|3:2|3:2,0:0:0:0:
373,261,69862,2,0,L|326:247,2,50.000000298023,2|0|2,3:2|3:2|3:2,0:0:0:0:
382,161,70548,2,0,L|429:175,2,50.000000298023,2|0|2,3:2|3:2|3:2,0:0:0:0:
310,90,71234,6,0,P|258:98|203:90,1,100.000000596046,2|2,3:2|3:2,0:0:0:0:
164,73,71748,1,2,3:2:0:0:
113,73,71920,2,0,L|107:17,2,50.000000298023,2|2|2,3:2|3:2|3:2,0:0:0:0:
77,166,72605,2,0,L|83:233,1,50.000000298023,4|4,3:0|3:0,0:0:0:0:
46,251,72948,2,0,L|52:318,1,50.000000298023,4|4,3:0|3:0,0:0:0:0:
24,343,73291,1,4,3:0:0:0:
