osu file format v14

[General]
AudioFilename: [Sonic Mania] Hyper Potions - Time Trials.mp3
AudioLeadIn: 0
PreviewTime: 27348
Countdown: 0
SampleSet: Soft
StackLeniency: 0.2
Mode: 0
LetterboxInBreaks: 1
WidescreenStoryboard: 0

[Editor]
Bookmarks: 30091,32662,38148,41062,43634,46891,53234,68491,71234,71920,72605
DistanceSpacing: 1.6
BeatDivisor: 4
GridSize: 16
TimelineZoom: 2.02

[Metadata]
Title:Time Trials
TitleUnicode:Time Trials
Artist:Hyper Potions
ArtistUnicode:Hyper Potions
Creator:-Harpuia-
Version:Extra
Source:Sonic Mania
Tags:ソニック マニア SEGA Pre-Order Trailer Theme ハイパー ポションズ anneasparagus RatinA0 Kaitjuh _kotachi_
BeatmapID:1571141
BeatmapSetID:735903

[Difficulty]
HPDrainRate:6
CircleSize:4
OverallDifficulty:8.5
ApproachRate:9.2
SliderMultiplier:1.7
SliderTickRate:1

[Events]
//Background and Video events
0,0,"[SCD] Z6A1A2_SSZ - PRS [SM] Z6A2_SSZ.jpg",0,0
//Break Periods
2,24805,25921
//Storyboard Layer 0 (Background)
//Storyboard Layer 1 (Fail)
//Storyboard Layer 2 (Pass)
//Storyboard Layer 3 (Foreground)
//Storyboard Sound Samples

[TimingPoints]
-80,342.857142857143,4,2,10,45,1,0
1291,-125,4,2,10,45,0,0
12091,-100,4,2,10,60,0,0
12434,-100,4,2,20,60,0,0
13462,-100,4,2,10,75,0,0
21862,-100,4,2,30,75,0,0
24605,-125,4,2,30,75,0,0
26491,-125,4,2,10,50,0,0
26577,-125,4,2,10,60,0,0
26662,-125,4,2,10,70,0,0
27005,-200,4,2,10,50,0,0
27348,-83.3333333333333,4,2,8,85,0,1
27520,-83.3333333333333,4,2,30,85,0,1
49120,-100,4,2,30,75,0,0
58720,-200,4,2,30,40,0,0
58805,-200,4,2,30,5,0,0
60262,-125,4,2,10,60,0,0
68491,-100,4,2,20,50,0,0
69177,-100,4,2,20,52,0,0
69862,-100,4,2,20,54,0,0
70548,-100,4,2,20,56,0,0
71234,-100,4,2,20,60,0,0
71920,-100,4,2,20,70,0,0
72605,-100,4,2,20,80,0,0

[Colours]
Combo1 : 215,215,215
Combo2 : 255,168,211
Combo3 : 215,215,215
Combo4 : 128,128,192
Combo5 : 215,215,215
Combo6 : 255,255,119
Combo7 : 215,215,215
Combo8 : 228,159,251
SliderBorder : 255,110,175
SliderTrackOverride : 30,0,17

[HitObjects]
114,88,1291,5,2,0:0:0:0:
159,178,1462,1,0,0:0:0:0:
190,43,1634,5,2,0:0:0:0:
74,200,1805,1,0,0:0:0:0:
74,9,1977,5,2,0:0:0:0:
154,266,2148,1,2,0:0:0:0:
154,266,2491,6,0,B|201:261|201:261|236:234|236:234|280:230,1,136,6|0,0:0|0:0,0:0:0:0:
411,324,3005,1,10,0:0:0:0:
336,358,3177,2,0,P|329:323|339:282,1,68,0|0,0:0|0:0,0:0:0:0:
476,210,3520,2,0,P|482:243|476:276,1,68,2|8,0:0|0:0,0:0:0:0:
280,230,3862,6,0,P|342:209|399:242,1,136,2|0,0:0|0:0,0:0:0:0:
335,291,4377,1,8,0:0:0:0:
476,210,4548,2,0,P|455:182|426:165,1,68,2|0,0:0|0:0,0:0:0:0:
292,144,4891,2,0,P|325:140|355:123,1,68,2|8,0:0|0:0,0:0:0:0:
427,83,5234,1,0,0:0:0:0:
427,83,5577,5,0,0:0:0:0:
426,165,5748,1,8,0:0:0:0:
300,62,5920,2,0,P|266:65|236:82,1,68,2|0,0:0|0:0,0:0:0:0:
277,208,6262,2,0,P|290:177|291:143,1,68,2|8,0:0|0:0,0:0:0:0:
84,195,6605,6,0,B|132:190|132:190|167:163|167:163|211:160,1,136,2|2,0:0|0:0,0:0:0:0:
203,242,7120,1,8,0:0:0:0:
396,255,7291,2,0,B|348:259|348:259|313:286|313:286|269:290,1,136,2|2,0:0|0:0,0:0:0:0:
277,208,7806,1,10,0:0:0:0:
85,288,7977,6,0,B|172:278|172:278|208:234,1,136,2|0,0:0|0:0,0:0:0:0:
155,99,8491,1,10,0:0:0:0:
147,180,8662,2,0,P|180:176|210:160,1,68,0|0,0:0|0:0,0:0:0:0:
297,60,9005,2,0,P|263:64|234:80,1,68,2|8,0:0|0:0,0:0:0:0:
222,241,9348,6,0,P|278:206|289:141,1,136,2|0,0:0|0:0,0:0:0:0:
210,160,9862,1,8,0:0:0:0:
366,105,10034,2,0,L|460:105,1,68,2|0,0:0|0:0,0:0:0:0:
234,80,10377,2,0,L|139:80,1,68,2|8,0:0|0:0,0:0:0:0:
112,141,10720,1,0,0:0:0:0:
112,141,11062,5,0,0:0:0:0:
289,141,11234,1,8,0:0:0:0:
146,216,11405,2,0,P|111:223|70:212,1,68,2|0,0:0|0:0,0:0:0:0:
79,67,11748,2,0,P|114:60|154:70,1,68,2|8,0:0|0:0,0:0:0:0:
215,260,12091,6,0,B|236:219|217:178|217:178|198:136|220:96,1,170,6|4,0:0|3:0,0:0:0:0:
315,339,12605,1,4,3:0:0:0:
146,216,12777,1,4,3:0:0:0:
405,171,12948,1,4,3:0:0:0:
413,320,13462,22,0,P|442:243|404:170,1,170,6|2,0:0|0:0,0:0:0:0:
241,224,13977,1,0,3:2:0:0:
340,249,14148,1,2,0:0:0:0:
222,124,14320,1,2,3:2:0:0:
174,287,14491,1,0,0:0:0:0:
305,180,14662,1,0,3:2:0:0:
97,161,14834,6,0,B|88:204|88:204|107:239|107:239|78:281|107:336,1,170,2|2,0:0|0:0,0:0:0:0:
241,224,15348,1,0,3:2:0:0:
270,322,15520,1,2,0:0:0:0:
390,85,15691,1,2,3:2:0:0:
340,249,15862,1,2,0:0:0:0:
222,124,16034,1,0,3:2:0:0:
470,141,16205,6,0,L|305:180,1,170,2|2,0:0|0:0,0:0:0:0:
151,290,16720,1,0,3:2:0:0:
247,325,16891,1,2,0:0:0:0:
146,167,17062,1,2,3:2:0:0:
61,334,17234,1,0,0:0:0:0:
208,234,17405,1,0,3:2:0:0:
348,347,17577,6,0,L|309:181,1,170,2|2,0:0|0:0,0:0:0:0:
432,62,18091,1,0,3:2:0:0:
403,175,18262,1,2,0:0:0:0:
200,49,18434,1,2,3:2:0:0:
241,224,18605,1,0,0:0:0:0:
339,102,18777,1,0,3:2:0:0:
348,347,18948,6,0,B|297:324|297:324|177:368,1,170,6|2,0:0|0:0,0:0:0:0:
143,199,19462,1,0,3:2:0:0:
241,224,19634,1,2,0:0:0:0:
76,311,19805,1,2,3:2:0:0:
84,123,19977,1,0,0:0:0:0:
180,282,20148,1,0,3:2:0:0:
240,68,20320,6,0,L|411:93,1,170,2|2,0:0|0:0,0:0:0:0:
257,171,20834,1,0,3:2:0:0:
298,300,21005,1,2,0:0:0:0:
502,169,21177,1,0,3:2:0:0:
426,370,21348,1,2,0:0:0:0:
384,191,21520,1,0,3:2:0:0:
298,382,21691,1,0,0:0:0:0:
211,137,21862,5,6,3:2:0:0:
151,308,22034,1,0,3:2:0:0:
117,184,22205,1,0,3:2:0:0:
256,242,22377,1,0,3:2:0:0:
81,96,22548,5,6,3:2:0:0:
68,264,22720,1,0,3:2:0:0:
187,70,22891,1,0,3:2:0:0:
151,308,23062,1,0,3:2:0:0:
368,98,23234,5,6,3:2:0:0:
256,281,23405,1,0,3:2:0:0:
472,293,23577,1,0,3:2:0:0:
331,166,23748,1,0,3:2:0:0:
92,351,23920,6,0,L|137:287,1,42.5,6|0,3:2|0:0,0:0:0:0:
256,119,24091,2,0,L|291:169,1,42.5,2|0,3:2|0:0,0:0:0:0:
420,351,24262,2,0,L|364:314,1,42.5,2|0,3:2|0:0,0:0:0:0:
256,242,24434,2,0,L|202:277,1,42.5,0|0,3:2|0:0,0:0:0:0:
92,351,24605,1,4,3:1:0:0:
56,96,26491,5,0,3:2:0:0:
54,130,26577,1,0,3:2:0:0:
52,163,26662,1,10,3:2:0:0:
22,192,27005,6,0,L|27:116,1,63.75,8|0,3:2|0:0,0:0:0:0:
86,60,27348,6,0,L|80:162,1,101.999996887207,6|0,3:2|0:0,0:0:0:0:
228,248,27691,2,0,L|234:146,1,101.999996887207,8|0,3:2|0:0,0:0:0:0:
64,267,28034,5,2,3:2:0:0:
149,204,28205,1,2,0:0:0:0:
273,341,28377,2,0,P|224:353|167:330,1,101.999996887207,10|0,3:2|0:0,0:0:0:0:
80,161,28720,5,2,3:2:0:0:
228,248,28891,1,2,0:0:0:0:
284,57,29062,2,0,P|236:41|187:53,1,101.999996887207,10|0,3:2|0:0,0:0:0:0:
128,277,29405,5,2,3:2:0:0:
233,146,29577,1,2,0:0:0:0:
316,308,29748,1,8,3:2:0:0:
284,57,29920,5,0,0:0:0:0:
284,57,30005,1,2,0:0:0:0:
284,57,30091,1,6,3:2:0:0:
228,248,30262,1,0,0:0:0:0:
460,107,30434,1,14,3:2:0:0:
512,294,30605,1,0,0:0:0:0:
277,64,30777,5,6,3:2:0:0:
221,255,30948,1,0,0:0:0:0:
453,114,31120,1,14,3:2:0:0:
505,301,31291,1,0,0:0:0:0:
233,146,31462,6,0,L|379:175,1,101.999996887207,6|0,3:2|0:0,0:0:0:0:
429,296,31805,2,0,L|283:325,1,101.999996887207,14|0,3:2|0:0,0:0:0:0:
175,71,32148,5,6,3:2:0:0:
228,248,32320,1,0,0:0:0:0:
281,73,32491,1,14,3:2:0:0:
316,324,32662,6,0,B|261:324|228:280|228:280|195:324|141:324,1,203.999993774414,4|2,2:1|0:0,0:0:0:0:
81,138,33177,2,0,L|142:218,1,101.999996887207,10|0,3:2|0:0,0:0:0:0:
43,365,33520,2,0,B|35:315|35:315|52:267,1,101.999996887207,2|0,3:2|0:0,0:0:0:0:
193,118,33862,1,10,3:2:0:0:
242,220,34034,2,0,P|192:231|143:219,1,101.999996887207,2|0,0:0|3:2,0:0:0:0:
193,118,34377,1,0,0:0:0:0:
350,15,34548,6,0,L|337:115,1,101.999996887207,10|0,3:2|0:0,0:0:0:0:
512,140,34891,2,0,B|482:98|482:98|436:76,1,101.999996887207,2|0,3:2|0:0,0:0:0:0:
237,185,35233,1,10,3:2:0:0:
356,212,35405,2,0,P|357:162|337:116,1,101.999996887207,2|0,0:0|3:2,0:0:0:0:
237,185,35748,1,0,0:0:0:0:
424,316,35920,6,0,L|322:327,1,101.999996887207,10|0,3:2|0:0,0:0:0:0:
142,212,36262,2,0,B|192:203|192:203|240:220,1,101.999996887207,2|0,3:2|0:0,0:0:0:0:
180,350,36605,1,10,3:2:0:0:
24,150,36777,6,0,B|8:220|8:220|33:282|33:282|20:346,1,203.999993774414,6|2,0:0|0:0,0:0:0:0:
142,212,37291,1,8,3:2:0:0:
424,316,37462,5,0,0:0:0:0:
424,316,37548,1,0,0:0:0:0:
424,316,37634,1,14,3:2:0:0:
289,143,37805,1,10,0:0:0:0:
205,347,37977,1,0,3:2:0:0:
195,80,38148,6,0,P|279:29|371:67,1,203.999993774414,4|2,2:1|0:0,0:0:0:0:
297,244,38662,2,0,L|288:142,1,101.999996887207,8|0,3:2|0:0,0:0:0:0:
485,293,39005,5,2,3:2:0:0:
494,192,39177,1,2,0:0:0:0:
342,333,39348,2,0,P|293:345|236:322,1,101.999996887207,10|0,3:2|0:0,0:0:0:0:
167,152,39691,5,2,3:2:0:0:
297,244,39862,1,2,0:0:0:0:
341,60,40034,2,0,P|293:44|244:56,1,101.999996887207,10|0,3:2|0:0,0:0:0:0:
165,299,40377,5,2,3:2:0:0:
288,142,40548,1,2,0:0:0:0:
342,333,40720,1,10,3:2:0:0:
105,228,40891,5,0,0:0:0:0:
105,228,40977,1,2,0:0:0:0:
105,228,41062,1,6,3:2:0:0:
297,244,41234,1,0,0:0:0:0:
86,78,41405,1,14,3:2:0:0:
339,99,41577,1,0,0:0:0:0:
98,235,41748,5,6,3:2:0:0:
290,251,41920,1,0,0:0:0:0:
79,85,42091,1,14,3:2:0:0:
332,106,42263,1,0,0:0:0:0:
194,316,42434,6,0,L|232:172,1,101.999996887207,6|0,3:2|0:0,0:0:0:0:
62,169,42777,2,0,L|88:316,1,101.999996887207,14|0,3:2|0:0,0:0:0:0:
364,323,43120,5,6,3:2:0:0:
253,153,43291,1,0,0:0:0:0:
280,362,43462,1,14,3:2:0:0:
454,124,43634,6,0,B|411:159|358:146|358:146|361:201|319:236,1,203.999993774414,4|0,2:1|0:0,0:0:0:0:
153,131,44148,2,0,L|252:152,1,101.999996887207,10|0,3:2|0:0,0:0:0:0:
418,235,44491,2,0,B|368:247|368:247|319:235,1,101.999996887207,2|0,3:2|0:0,0:0:0:0:
215,37,44834,1,10,3:2:0:0:
325,86,45005,2,0,P|296:127|252:152,1,101.999996887207,2|0,0:0|3:2,0:0:0:0:
215,37,45348,1,0,0:0:0:0:
38,131,45520,6,0,L|62:255,1,101.999996887207,10|0,3:2|0:0,0:0:0:0:
142,379,45862,2,0,B|184:351|184:351|208:306,1,101.999996887207,2|0,3:2|0:0,0:0:0:0:
110,113,46205,1,10,3:2:0:0:
57,231,46377,2,0,P|105:244|154:234,1,101.999996887207,2|0,0:0|3:2,0:0:0:0:
110,113,46720,1,0,0:0:0:0:
285,50,46891,6,0,L|385:69,1,101.999996887207,10|0,3:2|0:0,0:0:0:0:
280,246,47234,2,0,B|253:202|253:202|250:152,1,101.999996887207,2|0,3:2|0:0,0:0:0:0:
384,163,47577,1,10,3:2:0:0:
207,327,47748,6,0,B|273:354|273:354|338:341|338:341|399:364,1,203.999993774414,6|2,0:0|0:0,0:0:0:0:
486,240,48262,1,8,3:2:0:0:
207,327,48434,1,0,0:0:0:0:
207,327,48520,1,0,0:0:0:0:
207,327,48605,1,14,3:2:0:0:
150,115,48777,1,8,0:0:0:0:
280,246,48948,1,0,3:2:0:0:
451,35,49120,5,6,0:0:0:0:
462,22,49462,5,0,3:2:0:0:
378,251,49634,1,2,0:0:0:0:
372,267,49977,5,8,0:0:0:0:
150,115,50148,1,2,3:2:0:0:
161,232,50320,1,0,0:0:0:0:
414,165,50491,1,2,0:0:0:0:
430,162,50834,5,0,3:2:0:0:
226,54,51005,1,2,0:0:0:0:
209,45,51348,5,8,0:0:0:0:
258,312,51520,1,2,3:2:0:0:
315,127,51691,1,0,0:0:0:0:
135,329,51862,1,2,0:0:0:0:
123,341,52205,5,8,3:2:0:0:
85,133,52377,1,2,0:0:0:0:
83,115,52720,5,8,0:0:0:0:
346,222,52891,1,2,3:2:0:0:
313,90,53062,1,0,0:0:0:0:
74,247,53234,1,6,0:0:0:0:
62,259,53577,5,0,3:2:0:0:
197,35,53748,1,2,0:0:0:0:
251,290,53920,1,6,3:2:0:0:
254,306,54262,5,2,3:2:0:0:
200,51,54434,1,0,0:0:0:0:
65,275,54605,1,6,3:2:0:0:
55,289,54948,5,0,3:2:0:0:
267,196,55120,1,2,0:0:0:0:
285,189,55462,5,8,0:0:0:0:
30,153,55634,1,2,3:2:0:0:
156,273,55805,1,0,0:0:0:0:
261,28,55977,1,2,0:0:0:0:
269,12,56320,5,0,3:2:0:0:
341,244,56491,1,2,0:0:0:0:
346,260,56834,5,8,0:0:0:0:
156,116,57005,1,2,3:2:0:0:
342,129,57177,1,0,0:0:0:0:
119,281,57348,1,2,0:0:0:0:
105,290,57691,5,8,3:2:0:0:
399,206,57862,1,2,0:0:0:0:
417,200,58205,5,12,0:0:0:0:
148,162,58377,1,2,0:0:0:0:
255,312,58548,1,0,3:0:0:0:
338,130,58720,6,0,B|294:147|261:123|261:123|224:142|224:142|217:109|187:71|131:56|85:90|63:120|68:169,1,361.25,4|0,2:1|0:0,0:0:0:0:
135,286,60262,6,0,B|112:244|112:244|147:163,1,136,6|0,0:0|3:2,0:0:0:0:
217,332,60777,2,0,B|192:372|192:372|105:382,1,136,8|0,0:0|3:2,0:0:0:0:
216,236,61291,2,0,L|285:236,1,68,10|0,3:2|0:0,0:0:0:0:
440,324,61634,5,2,3:2:0:0:
362,279,61805,1,0,0:0:0:0:
362,190,61977,1,2,3:2:0:0:
439,145,62148,1,0,3:2:0:0:
216,236,62320,5,14,0:0:0:0:
362,279,62491,1,0,3:2:0:0:
216,147,62662,1,2,0:0:0:0:
362,279,62833,1,8,3:2:0:0:
275,65,63005,6,0,P|226:45|148:71,1,136,6|0,0:0|3:2,0:0:0:0:
24,73,63520,2,0,P|73:93|151:67,1,136,10|0,0:0|3:2,0:0:0:0:
275,65,64034,2,0,L|317:146,1,68,10|0,3:2|0:0,0:0:0:0:
437,46,64377,5,2,3:2:0:0:
394,124,64548,1,2,0:0:0:0:
351,202,64720,1,2,3:2:0:0:
306,125,64891,1,0,3:2:0:0:
396,279,65062,5,14,0:0:0:0:
485,123,65234,1,0,3:2:0:0:
441,356,65405,1,10,0:0:0:0:
351,202,65577,5,8,3:2:0:0:
351,202,65662,1,8,3:2:0:0:
351,202,65748,2,0,B|286:223|286:223|222:202,1,136,6|0,0:0|3:2,0:0:0:0:
93,201,66262,2,0,B|157:179|157:179|221:201,1,136,10|0,0:0|3:2,0:0:0:0:
351,202,66777,2,0,L|351:129,1,68,10|0,3:2|0:0,0:0:0:0:
351,38,67120,5,2,3:2:0:0:
269,86,67291,1,0,0:0:0:0:
187,38,67462,1,2,3:2:0:0:
105,86,67634,1,0,3:2:0:0:
351,134,67805,5,14,0:0:0:0:
187,38,67976,1,0,3:2:0:0:
351,230,68148,1,2,0:0:0:0:
187,134,68320,1,8,3:2:0:0:
437,187,68491,5,6,3:2:0:0:
358,351,68662,1,0,3:2:0:0:
261,199,68834,1,2,3:2:0:0:
442,286,69005,1,0,3:2:0:0:
317,106,69177,5,2,3:2:0:0:
347,277,69348,1,0,3:2:0:0:
187,134,69520,1,2,3:2:0:0:
217,305,69691,1,0,3:2:0:0:
75,101,69862,5,2,3:2:0:0:
193,237,70034,1,0,3:2:0:0:
246,55,70205,1,2,3:2:0:0:
83,209,70377,1,0,3:2:0:0:
315,154,70548,5,2,3:2:0:0:
241,342,70720,1,0,3:2:0:0:
432,163,70891,1,2,3:2:0:0:
358,351,71063,5,0,3:2:0:0:
358,351,71148,1,0,0:0:0:0:
358,351,71234,1,2,3:2:0:0:
174,217,71405,1,2,3:2:0:0:
378,109,71577,1,2,3:2:0:0:
241,342,71748,1,2,3:2:0:0:
53,93,71920,5,2,3:2:0:0:
80,316,72091,1,2,3:2:0:0:
214,119,72262,1,2,3:2:0:0:
241,342,72433,1,2,3:2:0:0:
347,19,72605,5,4,3:0:0:0:
413,283,72776,1,4,3:0:0:0:
203,107,72948,1,4,3:0:0:0:
476,127,73119,1,4,3:0:0:0:
245,270,73291,1,4,3:0:0:0:
