osu file format v14

[General]
AudioFilename: [Sonic Mania] Hyper Potions - Time Trials.mp3
AudioLeadIn: 0
PreviewTime: 27348
Countdown: 0
SampleSet: Soft
StackLeniency: 0.2
Mode: 0
LetterboxInBreaks: 1
WidescreenStoryboard: 0

[Editor]
Bookmarks: 6262,20320,30091,32662,38148,40891,41062,43634,53234,68491,71234,71920,72605
DistanceSpacing: 3.3
BeatDivisor: 4
GridSize: 16
TimelineZoom: 1.7

[Metadata]
Title:Time Trials
TitleUnicode:Time Trials
Artist:Hyper Potions
ArtistUnicode:Hyper Potions
Creator:-Harpuia-
Version:Effervescent Adventures
Source:Sonic Mania
Tags:ソニック マニア SEGA Pre-Order Trailer Theme ハイパー ポションズ anneasparagus RatinA0 Kaitjuh _kotachi_
BeatmapID:1612329
BeatmapSetID:735903

[Difficulty]
HPDrainRate:6
CircleSize:4.2
OverallDifficulty:9.2
ApproachRate:9.2
SliderMultiplier:2
SliderTickRate:1

[Events]
//Background and Video events
0,0,"[SCD] Z6A1A2_SSZ - PRS [SM] Z6A2_SSZ.jpg",0,0
//Break Periods
2,24805,25921
//Storyboard Layer 0 (Background)
//Storyboard Layer 1 (Fail)
//Storyboard Layer 2 (Pass)
//Storyboard Layer 3 (Foreground)
//Storyboard Sound Samples

[TimingPoints]
-80,342.857142857143,4,2,10,45,1,0
1291,-125,4,2,10,45,0,0
6777,-125,4,2,10,5,0,0
6948,-125,4,2,10,45,0,0
7462,-125,4,2,10,5,0,0
7634,-125,4,2,10,45,0,0
12091,-100,4,2,10,60,0,0
12262,-100,4,2,20,60,0,0
13462,-100,4,2,10,75,0,0
21862,-100,4,2,30,75,0,0
24605,-125,4,2,30,75,0,0
26491,-125,4,2,10,50,0,0
26577,-125,4,2,10,60,0,0
26662,-125,4,2,10,70,0,0
27005,-200,4,2,10,50,0,0
27348,-83.3333333333333,4,2,8,85,0,1
27520,-83.3333333333333,4,2,30,85,0,1
49120,-100,4,2,30,75,0,0
58720,-166.666666666667,4,2,30,40,0,0
58805,-166.666666666667,4,2,30,5,0,0
60262,-125,4,2,10,60,0,0
68491,-100,4,2,20,50,0,0
69177,-100,4,2,20,52,0,0
69862,-100,4,2,20,54,0,0
70548,-100,4,2,20,56,0,0
71234,-100,4,2,20,60,0,0
71920,-100,4,2,20,70,0,0
72605,-100,4,2,20,80,0,0

[Colours]
Combo1 : 215,215,215
Combo2 : 255,168,211
Combo3 : 215,215,215
Combo4 : 128,128,192
Combo5 : 215,215,215
Combo6 : 255,255,119
Combo7 : 215,215,215
Combo8 : 228,159,251
SliderBorder : 255,110,175
SliderTrackOverride : 30,0,17

[HitObjects]
426,110,1291,5,2,0:0:0:0:
486,219,1462,1,0,0:0:0:0:
498,54,1634,5,2,0:0:0:0:
400,238,1805,1,0,0:0:0:0:
377,34,1977,5,2,0:0:0:0:
496,309,2148,1,2,0:0:0:0:
496,309,2491,6,0,B|422:340|422:340|345:322,1,160,6|0,0:0|0:0,0:0:0:0:
299,132,3005,1,10,0:0:0:0:
400,166,3177,2,0,P|414:203|414:243,1,80,0|0,0:0|0:0,0:0:0:0:
244,340,3520,2,0,P|244:300|258:262,1,80,2|8,0:0|0:0,0:0:0:0:
400,166,3862,6,0,P|326:190|256:156,1,160,2|0,0:0|0:0,0:0:0:0:
167,212,4377,1,8,0:0:0:0:
334,85,4548,2,0,L|339:5,1,80,2|0,0:0|0:0,0:0:0:0:
172,5,4891,2,0,L|177:84,1,80,2|8,0:0|0:0,0:0:0:0:
256,156,5234,1,0,0:0:0:0:
256,156,5576,5,0,0:0:0:0:
178,85,5748,1,8,0:0:0:0:
59,228,5920,2,0,P|52:189|59:150,1,80,2|0,0:0|0:0,0:0:0:0:
186,275,6262,2,0,P|192:314|186:353,1,80,2|8,0:0|0:0,0:0:0:0:
256,156,6605,6,0,L|354:156,1,80,2|0,0:0|0:0,0:0:0:0:
186,275,6948,1,2,0:0:0:0:
256,156,7120,1,8,0:0:0:0:
347,342,7291,2,0,L|249:342,1,80,2|0,0:0|0:0,0:0:0:0:
417,223,7634,1,2,0:0:0:0:
347,342,7806,1,10,0:0:0:0:
186,275,7977,6,0,B|140:238|140:238|156:110,1,160,2|0,0:0|0:0,0:0:0:0:
296,59,8491,1,10,0:0:0:0:
334,155,8662,2,0,P|295:162|256:156,1,80,0|0,0:0|0:0,0:0:0:0:
112,40,9005,2,0,P|151:33|190:39,1,80,2|8,0:0|0:0,0:0:0:0:
334,155,9348,6,0,P|297:84|321:6,1,160,2|0,0:0|0:0,0:0:0:0:
401,75,9862,1,8,0:0:0:0:
232,134,10034,2,0,P|231:173|244:211,1,80,2|0,0:0|0:0,0:0:0:0:
436,169,10377,2,0,P|422:206|396:237,1,80,2|8,0:0|0:0,0:0:0:0:
334,155,10720,1,0,0:0:0:0:
334,155,11062,5,0,0:0:0:0:
245,212,11233,1,8,0:0:0:0:
401,316,11405,2,0,L|395:236,1,80,2|0,0:0|0:0,0:0:0:0:
250,132,11748,2,0,L|244:211,1,80,2|8,0:0|0:0,0:0:0:0:
55,362,12091,6,0,L|48:258,1,100,6|0,0:0|0:0,0:0:0:0:
250,132,12434,1,4,3:0:0:0:
230,333,12605,1,4,3:0:0:0:
98,60,12777,1,4,3:0:0:0:
55,362,12948,1,4,3:0:0:0:
165,288,13462,6,0,B|117:277|117:277|61:191|61:191|71:144,1,200,6|2,0:0|0:0,0:0:0:0:
190,171,13977,1,0,3:2:0:0:
48,262,14148,1,2,0:0:0:0:
155,57,14320,1,2,3:2:0:0:
279,252,14491,1,0,0:0:0:0:
72,144,14662,1,0,3:2:0:0:
235,366,14834,6,0,P|310:370|400:257,1,200,2|2,0:0|0:0,0:0:0:0:
252,134,15348,1,0,3:2:0:0:
279,252,15520,1,2,0:0:0:0:
493,89,15691,1,2,3:2:0:0:
421,298,15863,1,2,0:0:0:0:
397,130,16034,1,0,3:2:0:0:
279,252,16205,6,0,B|233:217|233:217|93:243,1,200,2|2,0:0|0:0,0:0:0:0:
123,125,16720,1,0,3:2:0:0:
212,302,16891,1,2,0:0:0:0:
7,160,17062,1,2,3:2:0:0:
234,54,17234,1,0,0:0:0:0:
94,244,17405,1,0,3:2:0:0:
361,341,17577,6,0,P|399:251|360:162,1,200,2|2,0:0|0:0,0:0:0:0:
171,199,18091,1,0,3:2:0:0:
279,252,18262,1,2,0:0:0:0:
461,76,18434,1,2,3:2:0:0:
362,341,18605,1,0,0:0:0:0:
271,132,18777,1,0,3:2:0:0:
165,379,18948,6,0,L|362:341,1,200,6|2,0:0|0:0,0:0:0:0:
397,226,19462,1,0,3:2:0:0:
504,371,19634,1,2,0:0:0:0:
279,252,19805,1,2,3:2:0:0:
488,123,19977,1,0,0:0:0:0:
362,341,20148,1,0,3:2:0:0:
255,113,20320,6,0,B|114:138|114:138|84:188,1,200,2|2,0:0|0:0,0:0:0:0:
295,190,20834,1,0,3:2:0:0:
214,304,21005,1,2,0:0:0:0:
44,92,21177,1,0,3:2:0:0:
83,358,21348,1,2,0:0:0:0:
180,159,21520,1,0,3:2:0:0:
296,347,21691,1,2,0:0:0:0:
451,79,21862,5,6,3:2:0:0:
391,283,22033,1,0,3:2:0:0:
246,121,22205,1,0,3:2:0:0:
425,181,22377,1,0,3:2:0:0:
88,157,22548,5,6,3:2:0:0:
166,380,22720,1,0,3:2:0:0:
189,51,22891,1,0,3:2:0:0:
267,274,23063,1,0,3:2:0:0:
12,44,23233,5,6,3:2:0:0:
106,327,23405,1,0,3:2:0:0:
302,104,23577,1,0,3:2:0:0:
88,157,23748,1,0,3:2:0:0:
411,371,23920,6,0,L|398:298,1,50,6|0,3:2|0:0,0:0:0:0:
353,16,24091,2,0,L|312:102,1,50,2|0,3:2|0:0,0:0:0:0:
192,336,24262,2,0,L|271:293,1,50,2|0,3:2|0:0,0:0:0:0:
510,172,24434,2,0,L|417:159,1,50,0|0,3:2|0:0,0:0:0:0:
157,117,24605,1,4,3:1:0:0:
101,122,26491,5,0,3:2:0:0:
157,117,26576,1,0,3:2:0:0:
212,113,26662,1,10,3:2:0:0:
226,88,27005,6,0,L|140:95,1,75,8|0,3:2|0:0,0:0:0:0:
37,127,27348,6,0,L|157:116,1,119.999996337891,6|0,3:2|0:0,0:0:0:0:
266,299,27691,2,0,L|146:310,1,119.999996337891,8|0,3:2|0:0,0:0:0:0:
346,77,28034,5,2,3:2:0:0:
182,210,28205,1,2,0:0:0:0:
447,352,28377,2,0,P|471:297|465:238,1,119.999996337891,10|0,3:2|0:0,0:0:0:0:
226,88,28720,5,2,3:2:0:0:
352,278,28891,1,2,0:0:0:0:
53,355,29062,2,0,P|48:296|72:242,1,119.999996337891,10|0,3:2|0:0,0:0:0:0:
342,174,29405,5,2,3:2:0:0:
163,316,29577,1,2,0:0:0:0:
436,367,29748,1,8,3:2:0:0:
143,34,29920,5,0,0:0:0:0:
143,34,30005,1,2,0:0:0:0:
143,34,30091,1,6,3:2:0:0:
186,293,30262,1,0,0:0:0:0:
505,89,30434,1,14,3:2:0:0:
456,347,30605,1,0,0:0:0:0:
131,45,30777,5,6,3:2:0:0:
174,305,30948,1,0,0:0:0:0:
494,99,31120,1,14,3:2:0:0:
446,357,31291,1,0,0:0:0:0:
72,140,31462,5,6,3:2:0:0:
363,202,31634,1,0,0:0:0:0:
61,151,31805,5,14,3:2:0:0:
352,213,31977,1,0,0:0:0:0:
152,18,32148,5,6,3:2:0:0:
135,241,32320,1,0,0:0:0:0:
0,64,32491,1,14,3:2:0:0:
110,359,32662,6,0,B|169:372|220:327|220:327|274:372|332:359,1,239.999992675781,4|2,2:1|0:0,0:0:0:0:
329,123,33177,2,0,L|304:241,1,119.999996337891,10|0,3:2|0:0,0:0:0:0:
502,327,33520,2,0,L|477:209,1,119.999996337891,2|0,3:2|0:0,0:0:0:0:
241,28,33862,1,10,3:2:0:0:
218,156,34034,2,0,P|278:152|329:122,1,119.999996337891,2|0,0:0|3:2,0:0:0:0:
241,28,34377,1,0,0:0:0:0:
131,237,34548,6,0,L|106:119,1,119.999996337891,10|0,3:2|0:0,0:0:0:0:
279,358,34891,2,0,L|304:240,1,119.999996337891,2|0,3:2|0:0,0:0:0:0:
52,334,35234,1,10,3:2:0:0:
19,212,35406,2,0,P|78:211|131:237,1,119.999996337891,2|0,0:0|3:2,0:0:0:0:
52,334,35749,1,0,0:0:0:0:
215,152,35920,6,0,P|164:121|105:119,1,119.999996337891,10|0,3:2|0:0,0:0:0:0:
248,353,36262,2,0,P|308:350|359:320,1,119.999996337891,2|0,3:2|0:0,0:0:0:0:
131,237,36605,1,10,3:2:0:0:
463,135,36777,6,0,B|448:186|469:230|469:230|453:257|453:257|487:309|456:378,1,239.999992675781,6|2,0:0|0:0,0:0:0:0:
274,237,37291,1,8,3:2:0:0:
492,33,37462,1,0,0:0:0:0:
492,33,37548,1,0,0:0:0:0:
492,33,37634,1,14,3:2:0:0:
359,320,37805,1,10,0:0:0:0:
180,59,37977,1,0,3:2:0:0:
463,135,38148,6,0,L|225:157,1,239.999992675781,4|2,2:1|0:0,0:0:0:0:
119,342,38662,2,0,L|239:331,1,119.999996337891,8|0,3:2|0:0,0:0:0:0:
180,59,39005,5,2,3:2:0:0:
274,237,39177,1,2,0:0:0:0:
10,214,39348,2,0,P|-2:155|18:98,1,119.999996337891,10|0,3:2|0:0,0:0:0:0:
327,27,39691,5,2,3:2:0:0:
118,163,39862,1,2,0:0:0:0:
373,288,40034,2,0,P|385:229|365:172,1,119.999996337891,10|0,3:2|0:0,0:0:0:0:
98,38,40377,5,2,3:2:0:0:
274,237,40548,1,2,0:0:0:0:
10,214,40720,1,10,3:2:0:0:
396,67,40891,5,0,0:0:0:0:
396,67,40977,1,2,0:0:0:0:
396,67,41062,1,6,3:2:0:0:
98,108,41234,1,0,0:0:0:0:
453,321,41405,1,14,3:2:0:0:
117,369,41577,1,0,0:0:0:0:
385,76,41748,5,6,3:2:0:0:
87,118,41920,1,0,0:0:0:0:
443,331,42091,1,14,3:2:0:0:
107,380,42263,1,0,0:0:0:0:
296,67,42434,5,6,3:2:0:0:
258,341,42605,1,0,0:0:0:0:
286,78,42777,5,14,3:2:0:0:
248,352,42948,1,0,0:0:0:0:
481,67,43120,5,6,3:2:0:0:
256,192,43291,1,0,0:0:0:0:
476,325,43462,1,14,3:2:0:0:
129,369,43634,6,0,B|143:288|143:288|98:225|98:225|112:141,1,239.999992675781,4|0,2:1|0:0,0:0:0:0:
355,43,44148,2,0,L|374:161,1,119.999996337891,10|0,3:2|0:0,0:0:0:0:
197,238,44491,2,0,L|215:120,1,119.999996337891,2|0,3:2|0:0,0:0:0:0:
490,191,44833,1,10,3:2:0:0:
404,272,45005,2,0,P|374:220|374:161,1,119.999996337891,2|0,0:0|3:2,0:0:0:0:
490,191,45348,1,0,0:0:0:0:
329,364,45520,6,0,L|448:384,1,119.999996337891,10|0,3:2|0:0,0:0:0:0:
257,181,45862,2,0,L|375:161,1,119.999996337891,2|0,3:2|0:0,0:0:0:0:
181,374,46205,1,10,3:2:0:0:
122,264,46377,2,0,P|179:249|237:262,1,119.999996337891,2|0,0:0|3:2,0:0:0:0:
181,374,46720,1,0,0:0:0:0:
25,191,46891,6,0,P|2:245|8:304,1,119.999996337891,10|0,3:2|0:0,0:0:0:0:
297,140,47234,2,0,P|284:82|245:36,1,119.999996337891,2|0,3:2|0:0,0:0:0:0:
122,264,47576,1,10,3:2:0:0:
412,327,47748,6,0,B|387:273|421:221|421:221|405:194|405:194|426:150|411:99,1,239.999992675781,6|2,0:0|0:0,0:0:0:0:
503,281,48262,1,8,3:2:0:0:
297,140,48434,1,0,0:0:0:0:
297,140,48520,1,0,0:0:0:0:
297,140,48605,1,14,3:2:0:0:
88,305,48777,1,8,0:0:0:0:
61,43,48948,1,0,3:2:0:0:
296,301,49120,1,6,0:0:0:0:
302,310,49462,5,0,3:2:0:0:
220,41,49634,1,2,0:0:0:0:
217,31,49977,5,8,0:0:0:0:
467,155,50148,1,2,3:2:0:0:
439,22,50320,1,0,0:0:0:0:
137,153,50491,1,2,0:0:0:0:
128,158,50834,5,0,3:2:0:0:
398,228,51005,1,2,0:0:0:0:
407,231,51348,5,8,0:0:0:0:
159,364,51520,1,2,3:2:0:0:
207,201,51691,1,0,0:0:0:0:
479,358,51862,1,2,0:0:0:0:
488,362,52205,5,8,3:2:0:0:
215,293,52377,1,2,0:0:0:0:
206,291,52720,5,8,0:0:0:0:
452,158,52891,1,2,3:2:0:0:
414,308,53062,1,0,0:0:0:0:
136,109,53234,1,6,0:0:0:0:
128,104,53577,5,0,3:2:0:0:
454,60,53748,1,2,0:0:0:0:
307,356,53920,1,6,3:2:0:0:
303,365,54262,5,2,3:2:0:0:
450,69,54434,1,0,0:0:0:0:
124,113,54605,1,6,3:2:0:0:
115,115,54948,5,0,3:2:0:0:
355,260,55120,1,2,0:0:0:0:
364,265,55462,5,8,0:0:0:0:
243,11,55634,1,2,3:2:0:0:
417,108,55805,1,0,0:0:0:0:
105,115,55977,1,2,0:0:0:0:
94,115,56320,5,0,3:2:0:0:
281,321,56491,1,2,0:0:0:0:
287,329,56834,5,8,0:0:0:0:
24,234,57005,1,2,3:2:0:0:
116,373,57177,1,0,0:0:0:0:
360,153,57348,1,2,0:0:0:0:
368,146,57691,5,8,3:2:0:0:
131,251,57862,1,2,0:0:0:0:
112,257,58205,5,12,0:0:0:0:
328,19,58377,1,2,0:0:0:0:
426,325,58548,1,0,3:0:0:0:
233,149,58720,6,0,B|138:219|218:323|218:323|343:287|316:185|316:185|328:208|328:208|386:217|407:279,1,509.999984436036,4|0,2:1|0:0,0:0:0:0:
426,325,60262,6,0,B|420:265|420:265|447:233|447:233|442:174,1,160,6|0,0:0|3:2,0:0:0:0:
354,39,60777,2,0,B|359:98|359:98|332:130|332:130|338:189,1,160,8|0,0:0|3:2,0:0:0:0:
461,82,61291,2,0,L|453:2,1,80,10|0,3:2|0:0,0:0:0:0:
442,175,61634,5,2,3:2:0:0:
442,175,61805,1,0,0:0:0:0:
338,189,61977,1,2,3:2:0:0:
401,271,62148,1,0,3:2:0:0:
193,299,62320,5,14,0:0:0:0:
275,107,62491,1,0,3:2:0:0:
362,367,62662,1,2,0:0:0:0:
275,107,62834,1,8,3:2:0:0:
192,299,63005,6,0,P|121:329|48:300,1,160,6|0,0:0|3:2,0:0:0:0:
48,70,63520,2,0,P|119:39|192:68,1,160,10|0,0:0|3:2,0:0:0:0:
120,224,64034,2,0,L|120:144,1,80,10|0,3:2|0:0,0:0:0:0:
293,274,64377,5,2,3:2:0:0:
192,299,64548,1,2,0:0:0:0:
91,324,64720,1,2,3:2:0:0:
120,224,64891,1,0,3:2:0:0:
365,349,65062,5,14,0:0:0:0:
322,174,65234,1,0,3:2:0:0:
91,324,65405,1,10,0:0:0:0:
293,274,65577,5,8,3:2:0:0:
293,274,65662,1,8,3:2:0:0:
293,274,65748,6,0,L|469:274,1,160,6|0,0:0|3:2,0:0:0:0:
373,81,66262,2,0,L|213:81,1,160,10|0,0:0|3:2,0:0:0:0:
253,177,66777,2,0,L|333:178,1,80,10|0,3:2|0:0,0:0:0:0:
150,163,67120,5,2,3:2:0:0:
150,163,67291,1,0,0:0:0:0:
213,81,67462,1,2,3:2:0:0:
111,68,67634,1,0,3:2:0:0:
373,81,67805,5,14,0:0:0:0:
453,274,67977,1,0,3:2:0:0:
373,81,68148,1,2,0:0:0:0:
331,356,68320,1,8,3:2:0:0:
216,57,68491,5,6,3:2:0:0:
212,47,68577,1,0,0:0:0:0:
209,37,68662,1,0,3:2:0:0:
147,244,68834,1,2,3:2:0:0:
144,253,68920,1,0,0:0:0:0:
142,262,69005,1,0,3:2:0:0:
432,180,69177,5,2,3:2:0:0:
441,176,69262,1,0,0:0:0:0:
450,173,69348,1,0,3:2:0:0:
183,139,69520,1,2,3:2:0:0:
173,137,69605,1,0,0:0:0:0:
163,135,69691,1,0,3:2:0:0:
399,361,69862,5,2,3:2:0:0:
406,367,69948,1,0,0:0:0:0:
413,374,70034,1,0,3:2:0:0:
151,280,70205,1,2,3:2:0:0:
141,275,70291,1,0,0:0:0:0:
131,271,70377,1,0,3:2:0:0:
387,70,70548,5,2,3:2:0:0:
395,64,70634,1,0,0:0:0:0:
404,59,70720,1,0,3:2:0:0:
288,312,70891,5,2,3:2:0:0:
285,321,70977,1,0,0:0:0:0:
282,330,71062,1,0,3:2:0:0:
279,339,71148,1,0,0:0:0:0:
276,348,71234,5,2,3:2:0:0:
206,127,71405,1,2,3:2:0:0:
433,179,71577,1,2,3:2:0:0:
150,271,71748,1,2,3:2:0:0:
439,38,71920,5,2,3:2:0:0:
459,305,72091,1,2,3:2:0:0:
266,47,72262,1,2,3:2:0:0:
287,314,72433,1,2,3:2:0:0:
46,185,72605,5,4,3:0:0:0:
383,143,72776,1,4,3:0:0:0:
135,374,72948,1,4,3:0:0:0:
199,43,73119,1,4,3:0:0:0:
343,348,73291,1,4,3:0:0:0:
