osu file format v14

[General]
AudioFilename: [Sonic Mania] Hyper Potions - Time Trials.mp3
AudioLeadIn: 0
PreviewTime: 27348
Countdown: 0
SampleSet: Soft
StackLeniency: 0.7
Mode: 0
LetterboxInBreaks: 1
WidescreenStoryboard: 0

[Editor]
DistanceSpacing: 1.3
BeatDivisor: 4
GridSize: 16
TimelineZoom: 1.5

[Metadata]
Title:Time Trials
TitleUnicode:Time Trials
Artist:Hyper Potions
ArtistUnicode:Hyper Potions
Creator:-Harpuia-
Version:Easy
Source:Sonic Mania
Tags:ソニック マニア SEGA Pre-Order Trailer Theme ハイパー ポションズ anneasparagus RatinA0 Kaitjuh _kotachi_
BeatmapID:1557346
BeatmapSetID:735903

[Difficulty]
HPDrainRate:3
CircleSize:3.2
OverallDifficulty:2
ApproachRate:3
SliderMultiplier:0.749999999999999
SliderTickRate:1

[Events]
//Background and Video events
0,0,"[SCD] Z6A3_SSZ - F_GOOD.jpg",0,0
//Break Periods
//Storyboard Layer 0 (Background)
//Storyboard Layer 1 (Fail)
//Storyboard Layer 2 (Pass)
//Storyboard Layer 3 (Foreground)
//Storyboard Sound Samples

[TimingPoints]
-80,342.857142857143,4,2,10,45,1,0
12091,-100,4,2,10,60,0,0
12948,-100,4,2,20,60,0,0
13462,-100,4,2,10,75,0,0
21862,-100,4,2,30,75,0,0
26491,-100,4,2,10,50,0,0
27348,-100,4,2,8,85,0,1
27691,-100,4,2,30,85,0,1
49120,-100,4,2,30,75,0,0
58720,-100,4,2,30,40,0,0
60262,-100,4,2,10,60,0,0
68491,-100,4,2,20,60,0,0

[Colours]
Combo1 : 215,215,215
Combo2 : 140,247,121
Combo3 : 215,215,215
Combo4 : 78,242,49
Combo5 : 215,215,215
Combo6 : 121,188,255
Combo7 : 215,215,215
Combo8 : 40,148,255
SliderBorder : 124,163,255
SliderTrackOverride : 0,8,29

[HitObjects]
117,213,1291,6,0,L|37:203,2,74.9999999999999,2|2|2,0:0|0:0|0:0,0:0:0:0:
239,131,2491,1,6,0:0:0:0:
306,262,3005,6,0,P|344:221|398:208,1,112.5,10|2,0:0|0:0,0:0:0:0:
480,262,3862,1,2,0:0:0:0:
467,116,4377,2,0,L|348:105,1,112.5,8|2,0:0|0:0,0:0:0:0:
268,151,5234,1,0,0:0:0:0:
188,28,5748,6,0,P|134:12|81:28,1,112.5,8|2,0:0|0:0,0:0:0:0:
134,109,6605,2,0,L|126:194,1,74.9999999999999,2|2,0:0|0:0,0:0:0:0:
35,217,7291,2,0,L|42:302,2,74.9999999999999,2|2|2,0:0|0:0|0:0,0:0:0:0:
134,109,8491,6,0,P|188:121|240:102,1,112.5,10|2,0:0|0:0,0:0:0:0:
286,16,9348,1,2,0:0:0:0:
367,136,9862,2,0,L|379:265,1,112.5,8|2,0:0|0:0,0:0:0:0:
327,332,10720,1,0,0:0:0:0:
472,321,11234,6,0,B|498:271|498:271|493:216,1,112.5,8|2,0:0|0:0,0:0:0:0:
456,124,12091,2,0,B|414:138|414:138|368:120|368:120|335:81|335:81|337:37,1,187.5,6|4,0:0|3:0,0:0:0:0:
190,43,13462,6,0,P|217:91|214:146,1,112.5,6|0,0:0|3:2,0:0:0:0:
122,114,14320,2,0,P|66:110|18:137,2,112.5,2|2|0,3:2|0:0|3:2,0:0:0:0:
214,147,15691,2,0,L|325:133,1,112.5,2|2,3:2|0:0,0:0:0:0:
410,253,16720,5,0,3:2:0:0:
478,323,17062,2,0,P|505:275|501:220,2,112.5,2|2|0,3:2|0:0|3:2,0:0:0:0:
383,347,18434,2,0,L|255:332,1,112.5,2|6,3:2|0:0,0:0:0:0:
132,288,19462,5,0,3:2:0:0:
41,254,19805,2,0,P|36:309|63:357,2,112.5,2|2|2,3:2|0:0|3:2,0:0:0:0:
116,191,21177,2,0,L|106:111,1,74.9999999999999,0|2,3:2|3:2,0:0:0:0:
182,55,21862,6,0,B|255:69|255:69|329:55,1,150,6|6,3:2|3:2,0:0:0:0:
396,125,22891,1,0,3:2:0:0:
330,197,23234,2,0,B|256:182|256:182|182:197,2,150,6|6|4,3:2|3:2|3:1,0:0:0:0:
94,317,26662,5,10,3:2:0:0:
185,351,27005,1,8,3:2:0:0:
261,290,27348,6,0,B|297:284|297:284|333:296,1,74.9999999999999,6|8,3:2|3:2,0:0:0:0:
401,367,28034,2,0,L|480:360,1,74.9999999999999,2|10,3:2|3:2,0:0:0:0:
428,275,28720,2,0,L|461:202,1,74.9999999999999,2|10,3:2|3:2,0:0:0:0:
362,203,29405,2,0,L|355:123,1,74.9999999999999,2|8,3:2|3:2,0:0:0:0:
351,30,30091,5,6,3:2:0:0:
268,82,30434,1,10,3:2:0:0:
181,35,30777,2,0,L|106:40,1,74.9999999999999,6|10,3:2|3:2,0:0:0:0:
70,131,31462,2,0,L|144:136,2,74.9999999999999,6|10|6,3:2|3:2|3:2,0:0:0:0:
99,274,32662,6,0,B|128:239|128:239|207:232,1,112.5,4|10,2:1|3:2,0:0:0:0:
276,287,33520,1,2,3:2:0:0:
353,345,33862,2,0,L|434:337,1,74.9999999999999,10|0,3:2|3:2,0:0:0:0:
509,284,34548,1,10,3:2:0:0:
503,186,34891,1,2,3:2:0:0:
421,240,35234,6,0,L|339:232,1,74.9999999999999,10|0,3:2|3:2,0:0:0:0:
276,164,35920,1,10,3:2:0:0:
295,68,36262,1,2,3:2:0:0:
157,118,36777,2,0,L|146:247,1,112.5,6|8,0:0|3:2,0:0:0:0:
137,327,37634,1,14,3:2:0:0:
0,277,38148,6,0,B|42:248|42:248|48:178,1,112.5,4|8,2:1|3:2,0:0:0:0:
73,92,39005,2,0,L|95:15,1,74.9999999999999,2|10,3:2|3:2,0:0:0:0:
168,82,39691,2,0,L|245:62,1,74.9999999999999,2|10,3:2|3:2,0:0:0:0:
226,161,40377,2,0,L|300:182,1,74.9999999999999,2|10,3:2|3:2,0:0:0:0:
393,205,41062,5,6,3:2:0:0:
325,275,41405,1,10,3:2:0:0:
256,344,41748,2,0,L|169:336,1,74.9999999999999,6|10,3:2|3:2,0:0:0:0:
142,247,42434,2,0,L|218:241,2,74.9999999999999,6|10|6,3:2|3:2|3:2,0:0:0:0:
71,119,43634,6,0,B|109:144|109:144|187:131,1,112.5,4|10,2:1|3:2,0:0:0:0:
257,81,44491,1,2,3:2:0:0:
338,27,44834,2,0,L|420:34,1,74.9999999999999,10|0,3:2|3:2,0:0:0:0:
476,107,45520,1,10,3:2:0:0:
462,203,45862,1,2,3:2:0:0:
385,142,46205,6,0,L|302:149,1,74.9999999999999,10|0,3:2|3:2,0:0:0:0:
247,223,46891,1,10,3:2:0:0:
261,319,47234,1,2,3:2:0:0:
138,239,47748,2,0,L|128:112,1,112.5,6|8,0:0|3:2,0:0:0:0:
105,32,48605,1,14,3:2:0:0:
34,160,49120,6,0,B|39:235|39:235|19:270,1,112.5,6|2,0:0|0:0,0:0:0:0:
46,361,49977,1,8,0:0:0:0:
160,269,50491,2,0,B|272:278,1,112.5,2|2,0:0|0:0,0:0:0:0:
320,363,51348,1,8,0:0:0:0:
443,285,51862,2,0,B|452:172,1,112.5,2|2,0:0|0:0,0:0:0:0:
395,94,52719,1,8,0:0:0:0:
285,192,53234,6,0,L|198:184,1,74.9999999999999,6|0,0:0|3:2,0:0:0:0:
124,231,53920,2,0,L|50:224,1,74.9999999999999,6|2,3:2|3:2,0:0:0:0:
23,130,54605,6,0,B|98:135|98:135|130:116,1,112.5,6|2,3:2|0:0,0:0:0:0:
213,65,55462,1,8,0:0:0:0:
285,192,55977,2,0,L|403:181,1,112.5,2|2,0:0|0:0,0:0:0:0:
448,99,56834,1,8,0:0:0:0:
504,233,57348,2,0,L|493:351,1,112.5,2|2,0:0|0:0,0:0:0:0:
398,327,58205,6,0,B|357:321|357:321|324:331|324:331|273:323,1,112.5,12|4,0:0|2:1,0:0:0:0:
122,179,60262,6,0,P|66:180|10:148,2,112.5,6|8|10,0:0|0:0|3:2,0:0:0:0:
211,138,61634,1,2,3:2:0:0:
382,44,62320,2,0,L|375:123,1,74.9999999999999,14|2,0:0|0:0,0:0:0:0:
362,215,63005,6,0,P|417:213|473:245,2,112.5,6|10|10,0:0|0:0|3:2,0:0:0:0:
273,256,64377,1,2,3:2:0:0:
96,338,65062,2,0,L|102:258,1,74.9999999999999,14|10,0:0|0:0,0:0:0:0:
109,165,65748,6,0,P|54:166|5:140,2,112.5,6|10|10,0:0|0:0|3:2,0:0:0:0:
199,124,67120,1,2,3:2:0:0:
249,327,67805,1,14,0:0:0:0:
324,264,68148,1,2,0:0:0:0:
416,296,68491,5,6,3:2:0:0:
256,192,68662,12,4,73291,3:0:0:0:
