osu file format v14

[General]
AudioFilename: audio.mp3
AudioLeadIn: 0
PreviewTime: 87465
Countdown: 0
SampleSet: Normal
StackLeniency: 0.7
Mode: 1
LetterboxInBreaks: 0
WidescreenStoryboard: 1

[Editor]
Bookmarks: 756,6949,13143,19336,25530,31723,37917,44110,50304,56497,62691,87078,87465,112239,118433,124626,130820,137014,143207,149401,155594,161788,167981,174175,180368,186562,211336,217530,223723,229917,234175
DistanceSpacing: 0.1
BeatDivisor: 4
GridSize: 32
TimelineZoom: 1.9

[Metadata]
Title:Surf
TitleUnicode:Surf
Artist:Hyper Potions
ArtistUnicode:Hyper Potions
Creator:eiri-
Version:Kantan
Source:osu!
Tags:Ayyri Trynna Featured Artist FA Electronic Instrumental Future Bass Neon FM
BeatmapID:2485102
BeatmapSetID:1192583

[Difficulty]
HPDrainRate:8
CircleSize:2
OverallDifficulty:3
ApproachRate:10
SliderMultiplier:1.4
SliderTickRate:1

[Events]
//Background and Video events
0,0,"Surf.jpg",0,45
//Break Periods
//Storyboard Layer 0 (Background)
//Storyboard Layer 1 (Fail)
//Storyboard Layer 2 (Pass)
//Storyboard Layer 3 (Foreground)
//Storyboard Layer 4 (Overlay)
//Storyboard Sound Samples

[TimingPoints]
756,387.096774193548,4,1,0,75,1,0
62691,-100,4,1,0,100,0,1
87078,-100,4,1,0,75,0,0
87465,-100,4,1,0,100,0,1
112239,-100,4,1,0,75,0,0
186562,-100,4,1,0,100,0,1
211336,-100,4,1,0,75,0,0

[HitObjects]
256,192,756,5,4,0:0:0:0:
256,192,1336,1,8,0:0:0:0:
256,192,1917,1,0,0:0:0:0:
256,192,2497,1,8,0:0:0:0:
256,192,3078,1,0,0:0:0:0:
256,192,3852,1,0,0:0:0:0:
256,192,4433,1,8,0:0:0:0:
256,192,5014,1,0,0:0:0:0:
256,192,5594,1,8,0:0:0:0:
256,192,6949,1,0,0:0:0:0:
256,192,7530,1,8,0:0:0:0:
256,192,8110,1,0,0:0:0:0:
256,192,8691,1,8,0:0:0:0:
256,192,9272,1,0,0:0:0:0:
256,192,10046,1,0,0:0:0:0:
256,192,10626,1,8,0:0:0:0:
256,192,11207,1,0,0:0:0:0:
256,192,11788,1,8,0:0:0:0:
256,192,12755,1,8,0:0:0:0:
256,192,13143,1,12,0:0:0:0:
256,192,13723,1,0,0:0:0:0:
256,192,14304,1,8,0:0:0:0:
256,192,15272,1,0,0:0:0:0:
256,192,15852,1,8,0:0:0:0:
256,192,16626,1,0,0:0:0:0:
256,192,17401,1,8,0:0:0:0:
256,192,17788,1,0,0:0:0:0:
256,192,19336,1,8,0:0:0:0:
256,192,19917,1,0,0:0:0:0:
256,192,20497,1,8,0:0:0:0:
256,192,21465,1,0,0:0:0:0:
256,192,22046,1,8,0:0:0:0:
256,192,22820,1,0,0:0:0:0:
256,192,23594,1,8,0:0:0:0:
256,192,23981,1,0,0:0:0:0:
256,192,25530,1,12,0:0:0:0:
256,192,25917,1,0,0:0:0:0:
256,192,26304,1,8,0:0:0:0:
256,192,27078,1,0,0:0:0:0:
256,192,27465,1,8,0:0:0:0:
256,192,27852,1,0,0:0:0:0:
256,192,28626,1,8,0:0:0:0:
256,192,29014,1,0,0:0:0:0:
256,192,29401,1,8,0:0:0:0:
256,192,30175,1,0,0:0:0:0:
256,192,30562,1,8,0:0:0:0:
256,192,30949,1,0,0:0:0:0:
256,192,31723,1,8,0:0:0:0:
256,192,32110,1,8,0:0:0:0:
256,192,32497,1,8,0:0:0:0:
256,192,33272,1,8,0:0:0:0:
256,192,33659,1,8,0:0:0:0:
256,192,34046,1,8,0:0:0:0:
256,192,34820,1,8,0:0:0:0:
256,192,35594,1,8,0:0:0:0:
256,192,35981,1,8,0:0:0:0:
256,192,36368,1,0,0:0:0:0:
256,192,37917,1,4,0:0:0:0:
256,192,39078,1,4,0:0:0:0:
256,192,39659,1,4,0:0:0:0:
256,192,40626,1,8,0:0:0:0:
256,192,41014,1,4,0:0:0:0:
256,192,42175,1,4,0:0:0:0:
256,192,42755,1,4,0:0:0:0:
256,192,44110,1,4,0:0:0:0:
256,192,45078,1,4,0:0:0:0:
256,192,45465,1,4,0:0:0:0:
256,192,45852,1,4,0:0:0:0:
256,192,47207,1,4,0:0:0:0:
256,192,47981,1,8,0:0:0:0:
256,192,48368,1,0,0:0:0:0:
256,192,48949,1,0,0:0:0:0:
256,192,49530,1,8,0:0:0:0:
256,192,50304,1,4,0:0:0:0:
256,192,51465,1,4,0:0:0:0:
256,192,52046,1,4,0:0:0:0:
256,192,53014,1,8,0:0:0:0:
256,192,53401,1,4,0:0:0:0:
256,192,54562,1,4,0:0:0:0:
256,192,55143,1,4,0:0:0:0:
256,192,56497,1,4,0:0:0:0:
256,192,57465,1,4,0:0:0:0:
256,192,57852,1,4,0:0:0:0:
256,192,58239,1,4,0:0:0:0:
256,192,59594,1,4,0:0:0:0:
256,192,60368,1,8,0:0:0:0:
256,192,60755,1,0,0:0:0:0:
256,192,61336,1,0,0:0:0:0:
256,192,61917,1,8,0:0:0:0:
256,192,62691,1,4,0:0:0:0:
256,192,63465,1,8,0:0:0:0:
256,192,63852,1,4,0:0:0:0:
256,192,64433,1,4,0:0:0:0:
256,192,65788,1,4,0:0:0:0:
256,192,66562,1,8,0:0:0:0:
256,192,66949,1,4,0:0:0:0:
256,192,67530,1,4,0:0:0:0:
256,192,68110,1,8,0:0:0:0:
256,192,68497,1,0,0:0:0:0:
256,192,68885,1,12,0:0:0:0:
256,192,69852,1,4,0:0:0:0:
256,192,70239,1,4,0:0:0:0:
256,192,70626,1,4,0:0:0:0:
256,192,71981,1,4,0:0:0:0:
256,192,72755,1,8,0:0:0:0:
256,192,73143,1,4,0:0:0:0:
256,192,73723,1,4,0:0:0:0:
256,192,74304,1,8,0:0:0:0:
256,192,75078,1,12,0:0:0:0:
256,192,75852,1,8,0:0:0:0:
256,192,76239,1,4,0:0:0:0:
256,192,76820,1,4,0:0:0:0:
256,192,78175,1,4,0:0:0:0:
256,192,78949,1,8,0:0:0:0:
256,192,79336,1,4,0:0:0:0:
256,192,79917,1,4,0:0:0:0:
256,192,80497,1,8,0:0:0:0:
256,192,80885,1,0,0:0:0:0:
256,192,81272,1,12,0:0:0:0:
256,192,82239,1,4,0:0:0:0:
256,192,82626,1,4,0:0:0:0:
256,192,83014,1,4,0:0:0:0:
256,192,84368,1,4,0:0:0:0:
256,192,84949,1,4,0:0:0:0:
256,192,85530,1,4,0:0:0:0:
256,192,86110,1,4,0:0:0:0:
256,192,86691,1,8,0:0:0:0:
256,192,87465,1,12,0:0:0:0:
256,192,88239,1,8,0:0:0:0:
256,192,88626,1,0,0:0:0:0:
256,192,89014,1,8,0:0:0:0:
256,192,89788,1,8,0:0:0:0:
256,192,90562,1,8,0:0:0:0:
256,192,91336,1,8,0:0:0:0:
256,192,91723,1,0,0:0:0:0:
256,192,92110,1,8,0:0:0:0:
256,192,93659,1,12,0:0:0:0:
256,192,94433,1,8,0:0:0:0:
256,192,94820,1,0,0:0:0:0:
256,192,95207,1,8,0:0:0:0:
256,192,95981,1,8,0:0:0:0:
256,192,96755,1,8,0:0:0:0:
256,192,97530,1,8,0:0:0:0:
256,192,97917,1,0,0:0:0:0:
256,192,98304,1,8,0:0:0:0:
256,192,99852,1,12,0:0:0:0:
256,192,100239,1,0,0:0:0:0:
256,192,100626,1,8,0:0:0:0:
256,192,101401,1,8,0:0:0:0:
256,192,101788,1,0,0:0:0:0:
256,192,102175,1,8,0:0:0:0:
256,192,102949,1,8,0:0:0:0:
256,192,103336,1,0,0:0:0:0:
256,192,103723,1,8,0:0:0:0:
256,192,104497,1,8,0:0:0:0:
256,192,106046,1,12,0:0:0:0:
256,192,106433,1,0,0:0:0:0:
256,192,106820,1,8,0:0:0:0:
256,192,107594,1,8,0:0:0:0:
256,192,107981,1,0,0:0:0:0:
256,192,108368,1,8,0:0:0:0:
256,192,109143,1,8,0:0:0:0:
256,192,110691,1,8,0:0:0:0:
256,192,111272,1,0,0:0:0:0:
256,192,111852,1,0,0:0:0:0:
256,192,112239,1,12,0:0:0:0:
256,192,113788,1,8,0:0:0:0:
256,192,115336,1,0,0:0:0:0:
256,192,116110,1,8,0:0:0:0:
256,192,116885,1,0,0:0:0:0:
256,192,118433,1,8,0:0:0:0:
256,192,119981,1,8,0:0:0:0:
256,192,120755,1,0,0:0:0:0:
256,192,121530,1,8,0:0:0:0:
256,192,123078,1,8,0:0:0:0:
256,192,123852,1,0,0:0:0:0:
256,192,124239,1,12,0:0:0:0:
256,192,124626,1,4,0:0:0:0:
256,192,125207,1,8,0:0:0:0:
256,192,125788,1,0,0:0:0:0:
256,192,126368,1,8,0:0:0:0:
256,192,126949,1,0,0:0:0:0:
256,192,127723,1,0,0:0:0:0:
256,192,128304,1,8,0:0:0:0:
256,192,128885,1,0,0:0:0:0:
256,192,129465,1,8,0:0:0:0:
256,192,130820,1,0,0:0:0:0:
256,192,131401,1,8,0:0:0:0:
256,192,131981,1,0,0:0:0:0:
256,192,132562,1,8,0:0:0:0:
256,192,133143,1,0,0:0:0:0:
256,192,133917,1,0,0:0:0:0:
256,192,134497,1,8,0:0:0:0:
256,192,135078,1,0,0:0:0:0:
256,192,135659,1,8,0:0:0:0:
256,192,136626,1,8,0:0:0:0:
256,192,137014,1,12,0:0:0:0:
256,192,137594,1,0,0:0:0:0:
256,192,138175,1,8,0:0:0:0:
256,192,139143,1,0,0:0:0:0:
256,192,139723,1,8,0:0:0:0:
256,192,140497,1,0,0:0:0:0:
256,192,141272,1,8,0:0:0:0:
256,192,141659,1,0,0:0:0:0:
256,192,143207,1,8,0:0:0:0:
256,192,143788,1,0,0:0:0:0:
256,192,144368,1,8,0:0:0:0:
256,192,145336,1,0,0:0:0:0:
256,192,145917,1,8,0:0:0:0:
256,192,146691,1,0,0:0:0:0:
256,192,147465,1,8,0:0:0:0:
256,192,147852,1,0,0:0:0:0:
256,192,149401,1,12,0:0:0:0:
256,192,149788,1,0,0:0:0:0:
256,192,150175,1,8,0:0:0:0:
256,192,150949,1,0,0:0:0:0:
256,192,151336,1,8,0:0:0:0:
256,192,151723,1,0,0:0:0:0:
256,192,152497,1,8,0:0:0:0:
256,192,152885,1,0,0:0:0:0:
256,192,153272,1,8,0:0:0:0:
256,192,154046,1,0,0:0:0:0:
256,192,154433,1,8,0:0:0:0:
256,192,154820,1,0,0:0:0:0:
256,192,155594,1,8,0:0:0:0:
256,192,155981,1,8,0:0:0:0:
256,192,156368,1,8,0:0:0:0:
256,192,157143,1,8,0:0:0:0:
256,192,157530,1,8,0:0:0:0:
256,192,157917,1,8,0:0:0:0:
256,192,158691,1,8,0:0:0:0:
256,192,159465,1,8,0:0:0:0:
256,192,159852,1,8,0:0:0:0:
256,192,160239,1,0,0:0:0:0:
256,192,161788,1,4,0:0:0:0:
256,192,162949,1,4,0:0:0:0:
256,192,163530,1,4,0:0:0:0:
256,192,164497,1,8,0:0:0:0:
256,192,164885,1,4,0:0:0:0:
256,192,166046,1,4,0:0:0:0:
256,192,166626,1,4,0:0:0:0:
256,192,167981,1,4,0:0:0:0:
256,192,168949,1,4,0:0:0:0:
256,192,169336,1,4,0:0:0:0:
256,192,169723,1,4,0:0:0:0:
256,192,171078,1,4,0:0:0:0:
256,192,171852,1,8,0:0:0:0:
256,192,172239,1,0,0:0:0:0:
256,192,172820,1,0,0:0:0:0:
256,192,173401,1,8,0:0:0:0:
256,192,174175,1,4,0:0:0:0:
256,192,175336,1,4,0:0:0:0:
256,192,175917,1,4,0:0:0:0:
256,192,176885,1,8,0:0:0:0:
256,192,177272,1,4,0:0:0:0:
256,192,178433,1,4,0:0:0:0:
256,192,179014,1,4,0:0:0:0:
256,192,180368,1,4,0:0:0:0:
256,192,181336,1,4,0:0:0:0:
256,192,181723,1,4,0:0:0:0:
256,192,182110,1,4,0:0:0:0:
256,192,183465,1,4,0:0:0:0:
256,192,184239,1,8,0:0:0:0:
256,192,184626,1,0,0:0:0:0:
256,192,185207,1,0,0:0:0:0:
256,192,185788,1,8,0:0:0:0:
256,192,186562,1,12,0:0:0:0:
256,192,187723,1,4,0:0:0:0:
256,192,188304,1,4,0:0:0:0:
256,192,188885,1,8,0:0:0:0:
256,192,189659,1,4,0:0:0:0:
256,192,190820,1,4,0:0:0:0:
256,192,191401,1,4,0:0:0:0:
256,192,191981,1,8,0:0:0:0:
256,192,192368,1,0,0:0:0:0:
256,192,192755,1,12,0:0:0:0:
256,192,193723,1,4,0:0:0:0:
256,192,194110,1,4,0:0:0:0:
256,192,194497,1,4,0:0:0:0:
256,192,195078,1,8,0:0:0:0:
256,192,195852,1,4,0:0:0:0:
256,192,197014,1,0,0:0:0:0:
256,192,197594,1,0,0:0:0:0:
256,192,198175,1,8,0:0:0:0:
256,192,198562,1,0,0:0:0:0:
256,192,198949,1,12,0:0:0:0:
256,192,200110,1,4,0:0:0:0:
256,192,200691,1,4,0:0:0:0:
256,192,201272,1,8,0:0:0:0:
256,192,202046,1,4,0:0:0:0:
256,192,203207,1,4,0:0:0:0:
256,192,203788,1,4,0:0:0:0:
256,192,204368,1,8,0:0:0:0:
256,192,204755,1,0,0:0:0:0:
256,192,205143,1,12,0:0:0:0:
256,192,206110,1,4,0:0:0:0:
256,192,206497,1,4,0:0:0:0:
256,192,206885,1,4,0:0:0:0:
256,192,207465,1,8,0:0:0:0:
256,192,208239,1,4,0:0:0:0:
256,192,209401,1,8,0:0:0:0:
256,192,209981,1,0,0:0:0:0:
256,192,210562,1,8,0:0:0:0:
256,192,210949,1,0,0:0:0:0:
256,192,211336,1,12,0:0:0:0:
256,192,211917,1,8,0:0:0:0:
256,192,212497,1,0,0:0:0:0:
256,192,213078,1,8,0:0:0:0:
256,192,213659,1,0,0:0:0:0:
256,192,214433,1,8,0:0:0:0:
256,192,215014,1,8,0:0:0:0:
256,192,215594,1,0,0:0:0:0:
256,192,216175,1,8,0:0:0:0:
256,192,217530,1,8,0:0:0:0:
256,192,218110,1,8,0:0:0:0:
256,192,218691,1,0,0:0:0:0:
256,192,219272,1,8,0:0:0:0:
256,192,219852,1,0,0:0:0:0:
256,192,220626,1,8,0:0:0:0:
256,192,221207,1,8,0:0:0:0:
256,192,221788,1,0,0:0:0:0:
256,192,222368,1,8,0:0:0:0:
256,192,223723,1,12,0:0:0:0:
256,192,224304,1,8,0:0:0:0:
256,192,224885,1,0,0:0:0:0:
256,192,225465,1,8,0:0:0:0:
256,192,226046,1,0,0:0:0:0:
256,192,226820,1,8,0:0:0:0:
256,192,227401,1,8,0:0:0:0:
256,192,227981,1,0,0:0:0:0:
256,192,228562,1,8,0:0:0:0:
256,192,229917,1,0,0:0:0:0:
256,192,230497,1,8,0:0:0:0:
256,192,231078,1,0,0:0:0:0:
256,192,231659,1,8,0:0:0:0:
256,192,232239,1,0,0:0:0:0:
256,192,233014,1,0,0:0:0:0:
256,192,233594,1,8,0:0:0:0:
256,192,234175,1,0,0:0:0:0:
