osu file format v14

[General]
AudioFilename: audio.mp3
AudioLeadIn: 0
PreviewTime: 87465
Countdown: 0
SampleSet: Normal
StackLeniency: 0.7
Mode: 1
LetterboxInBreaks: 0
WidescreenStoryboard: 1

[Editor]
Bookmarks: 756,6949,13143,19336,25530,31723,37917,44110,50304,56497,62691,87078,87465,112239,118433,124626,130820,137014,143207,149401,155594,161788,167981,174175,180368,186562,211336,217530,223723,229917,234175
DistanceSpacing: 0.1
BeatDivisor: 4
GridSize: 32
TimelineZoom: 2

[Metadata]
Title:Surf
TitleUnicode:Surf
Artist:Hyper Potions
ArtistUnicode:Hyper Potions
Creator:eiri-
Version:Inner Oni
Source:osu!
Tags:Ayyri Trynna Featured Artist FA Electronic Instrumental Future Bass Neon FM
BeatmapID:2497951
BeatmapSetID:1192583

[Difficulty]
HPDrainRate:5
CircleSize:2
OverallDifficulty:6
ApproachRate:10
SliderMultiplier:1.4
SliderTickRate:1

[Events]
//Background and Video events
0,0,"Surf.jpg",0,45
//Break Periods
//Storyboard Layer 0 (Background)
//Storyboard Layer 1 (Fail)
//Storyboard Layer 2 (Pass)
//Storyboard Layer 3 (Foreground)
//Storyboard Layer 4 (Overlay)
//Storyboard Sound Samples

[TimingPoints]
756,387.096774193548,4,1,0,75,1,0
62691,-100,4,1,0,100,0,1
87078,-100,4,1,0,75,0,0
87465,-100,4,1,0,100,0,1
112239,-100,4,1,0,75,0,0
186562,-100,4,1,0,100,0,1
211336,-100,4,1,0,75,0,0

[HitObjects]
256,192,756,5,4,0:0:0:0:
256,192,1143,1,8,0:0:0:0:
256,192,1336,1,0,0:0:0:0:
256,192,1530,1,0,0:0:0:0:
256,192,1723,1,8,0:0:0:0:
256,192,1917,1,0,0:0:0:0:
256,192,2304,1,8,0:0:0:0:
256,192,2497,1,0,0:0:0:0:
256,192,2691,1,0,0:0:0:0:
256,192,2885,1,8,0:0:0:0:
256,192,2981,1,8,0:0:0:0:
256,192,3078,1,0,0:0:0:0:
256,192,3465,1,0,0:0:0:0:
256,192,3755,1,0,0:0:0:0:
256,192,3852,1,8,0:0:0:0:
256,192,4239,1,8,0:0:0:0:
256,192,4433,1,0,0:0:0:0:
256,192,4626,1,0,0:0:0:0:
256,192,4820,1,8,0:0:0:0:
256,192,5014,1,0,0:0:0:0:
256,192,5401,1,8,0:0:0:0:
256,192,5594,1,0,0:0:0:0:
256,192,5788,1,0,0:0:0:0:
256,192,5981,1,8,0:0:0:0:
256,192,6078,1,8,0:0:0:0:
256,192,6175,1,0,0:0:0:0:
256,192,6368,1,8,0:0:0:0:
256,192,6562,1,0,0:0:0:0:
256,192,6949,1,8,0:0:0:0:
256,192,7336,1,8,0:0:0:0:
256,192,7530,1,0,0:0:0:0:
256,192,7723,1,0,0:0:0:0:
256,192,7917,1,8,0:0:0:0:
256,192,8110,1,0,0:0:0:0:
256,192,8497,1,8,0:0:0:0:
256,192,8691,1,0,0:0:0:0:
256,192,8885,1,0,0:0:0:0:
256,192,9078,1,8,0:0:0:0:
256,192,9175,1,8,0:0:0:0:
256,192,9272,1,0,0:0:0:0:
256,192,9659,1,0,0:0:0:0:
256,192,9949,1,0,0:0:0:0:
256,192,10046,1,8,0:0:0:0:
256,192,10433,1,8,0:0:0:0:
256,192,10626,1,0,0:0:0:0:
256,192,10820,1,0,0:0:0:0:
256,192,11014,1,8,0:0:0:0:
256,192,11207,1,0,0:0:0:0:
256,192,11594,1,8,0:0:0:0:
256,192,11788,1,0,0:0:0:0:
256,192,11981,1,0,0:0:0:0:
256,192,12175,1,8,0:0:0:0:
256,192,12368,1,0,0:0:0:0:
256,192,12562,1,0,0:0:0:0:
256,192,12659,1,0,0:0:0:0:
256,192,12755,1,8,0:0:0:0:
256,192,13143,1,12,0:0:0:0:
256,192,13336,1,0,0:0:0:0:
256,192,13530,1,8,0:0:0:0:
256,192,13723,1,0,0:0:0:0:
256,192,13820,1,0,0:0:0:0:
256,192,13917,1,0,0:0:0:0:
256,192,14110,1,0,0:0:0:0:
256,192,14304,1,8,0:0:0:0:
256,192,14691,1,8,0:0:0:0:
256,192,14885,1,0,0:0:0:0:
256,192,15078,1,8,0:0:0:0:
256,192,15272,1,8,0:0:0:0:
256,192,15368,1,8,0:0:0:0:
256,192,15465,1,8,0:0:0:0:
256,192,15659,1,0,0:0:0:0:
256,192,15852,1,8,0:0:0:0:
256,192,16143,1,0,0:0:0:0:
256,192,16239,1,8,0:0:0:0:
256,192,16433,1,0,0:0:0:0:
256,192,16626,1,8,0:0:0:0:
256,192,16820,1,0,0:0:0:0:
256,192,16917,1,0,0:0:0:0:
256,192,17014,1,0,0:0:0:0:
256,192,17207,1,0,0:0:0:0:
256,192,17401,1,8,0:0:0:0:
256,192,17788,1,8,0:0:0:0:
256,192,17981,1,0,0:0:0:0:
256,192,18175,1,8,0:0:0:0:
256,192,18368,1,8,0:0:0:0:
256,192,18465,1,8,0:0:0:0:
256,192,18562,1,8,0:0:0:0:
256,192,18755,1,0,0:0:0:0:
256,192,18949,1,8,0:0:0:0:
256,192,19239,1,0,0:0:0:0:
256,192,19336,1,8,0:0:0:0:
256,192,19530,1,0,0:0:0:0:
256,192,19723,1,8,0:0:0:0:
256,192,19917,1,0,0:0:0:0:
256,192,20014,1,0,0:0:0:0:
256,192,20110,1,0,0:0:0:0:
256,192,20304,1,0,0:0:0:0:
256,192,20497,1,8,0:0:0:0:
256,192,20885,1,8,0:0:0:0:
256,192,21078,1,0,0:0:0:0:
256,192,21272,1,8,0:0:0:0:
256,192,21465,1,8,0:0:0:0:
256,192,21562,1,8,0:0:0:0:
256,192,21659,1,8,0:0:0:0:
256,192,21852,1,0,0:0:0:0:
256,192,22046,1,8,0:0:0:0:
256,192,22336,1,0,0:0:0:0:
256,192,22433,1,8,0:0:0:0:
256,192,22626,1,0,0:0:0:0:
256,192,22820,1,8,0:0:0:0:
256,192,23014,1,0,0:0:0:0:
256,192,23110,1,0,0:0:0:0:
256,192,23207,1,0,0:0:0:0:
256,192,23401,1,0,0:0:0:0:
256,192,23594,1,8,0:0:0:0:
256,192,23981,1,8,0:0:0:0:
256,192,24175,1,0,0:0:0:0:
256,192,24368,1,8,0:0:0:0:
256,192,24562,1,0,0:0:0:0:
256,192,24659,1,0,0:0:0:0:
256,192,24755,1,0,0:0:0:0:
256,192,24949,1,0,0:0:0:0:
256,192,25143,1,8,0:0:0:0:
256,192,25336,1,0,0:0:0:0:
256,192,25530,1,12,0:0:0:0:
256,192,25820,1,0,0:0:0:0:
256,192,25917,1,8,0:0:0:0:
256,192,26110,1,8,0:0:0:0:
256,192,26304,1,0,0:0:0:0:
256,192,26401,1,0,0:0:0:0:
256,192,26594,1,8,0:0:0:0:
256,192,26691,1,0,0:0:0:0:
256,192,26885,1,8,0:0:0:0:
256,192,27078,1,0,0:0:0:0:
256,192,27175,1,8,0:0:0:0:
256,192,27368,1,0,0:0:0:0:
256,192,27465,1,8,0:0:0:0:
256,192,27659,1,8,0:0:0:0:
256,192,27852,1,0,0:0:0:0:
256,192,28046,1,0,0:0:0:0:
256,192,28143,1,0,0:0:0:0:
256,192,28239,1,8,0:0:0:0:
256,192,28288,1,8,0:0:0:0:
256,192,28433,1,8,0:0:0:0:
256,192,28481,1,8,0:0:0:0:
256,192,28626,1,0,0:0:0:0:
256,192,28917,1,8,0:0:0:0:
256,192,29014,1,0,0:0:0:0:
256,192,29207,1,8,0:0:0:0:
256,192,29401,1,0,0:0:0:0:
256,192,29497,1,0,0:0:0:0:
256,192,29691,1,0,0:0:0:0:
256,192,29788,1,8,0:0:0:0:
256,192,29981,1,8,0:0:0:0:
256,192,30078,1,8,0:0:0:0:
256,192,30175,1,0,0:0:0:0:
256,192,30272,1,8,0:0:0:0:
256,192,30465,1,8,0:0:0:0:
256,192,30562,1,0,0:0:0:0:
256,192,30755,1,0,0:0:0:0:
256,192,30852,1,0,0:0:0:0:
256,192,30949,1,8,0:0:0:0:
256,192,30997,1,8,0:0:0:0:
256,192,31143,1,0,0:0:0:0:
256,192,31239,1,8,0:0:0:0:
256,192,31288,1,8,0:0:0:0:
256,192,31336,1,0,0:0:0:0:
256,192,31433,1,0,0:0:0:0:
256,192,31530,1,8,0:0:0:0:
256,192,31578,1,8,0:0:0:0:
256,192,31723,1,8,0:0:0:0:
256,192,31917,1,0,0:0:0:0:
256,192,32014,1,8,0:0:0:0:
256,192,32110,1,0,0:0:0:0:
256,192,32304,1,0,0:0:0:0:
256,192,32497,1,8,0:0:0:0:
256,192,32691,1,0,0:0:0:0:
256,192,32788,1,8,0:0:0:0:
256,192,32885,1,0,0:0:0:0:
256,192,33078,1,0,0:0:0:0:
256,192,33272,1,8,0:0:0:0:
256,192,33465,1,0,0:0:0:0:
256,192,33562,1,8,0:0:0:0:
256,192,33659,1,0,0:0:0:0:
256,192,33852,1,0,0:0:0:0:
256,192,34046,1,8,0:0:0:0:
256,192,34239,1,0,0:0:0:0:
256,192,34336,1,8,0:0:0:0:
256,192,34433,1,0,0:0:0:0:
256,192,34481,1,0,0:0:0:0:
256,192,34626,1,0,0:0:0:0:
256,192,34675,1,0,0:0:0:0:
256,192,34820,1,8,0:0:0:0:
256,192,34917,1,8,0:0:0:0:
256,192,35014,1,8,0:0:0:0:
256,192,35110,1,8,0:0:0:0:
256,192,35207,1,8,0:0:0:0:
256,192,35304,1,8,0:0:0:0:
256,192,35401,1,8,0:0:0:0:
256,192,35497,1,8,0:0:0:0:
256,192,35594,1,8,0:0:0:0:
256,192,35691,1,8,0:0:0:0:
256,192,35788,1,8,0:0:0:0:
256,192,35885,1,8,0:0:0:0:
256,192,35981,1,8,0:0:0:0:
256,192,36078,1,8,0:0:0:0:
256,192,36175,1,8,0:0:0:0:
256,192,36272,1,8,0:0:0:0:
256,192,36368,1,0,0:0:0:0:
256,192,36755,1,8,0:0:0:0:
256,192,37143,1,0,0:0:0:0:
256,192,37530,1,8,0:0:0:0:
256,192,37917,1,4,0:0:0:0:
256,192,38110,1,4,0:0:0:0:
256,192,38304,1,8,0:0:0:0:
256,192,38497,1,0,0:0:0:0:
256,192,38594,1,0,0:0:0:0:
256,192,38691,1,8,0:0:0:0:
256,192,39078,1,4,0:0:0:0:
256,192,39272,1,4,0:0:0:0:
256,192,39659,1,4,0:0:0:0:
256,192,39852,1,8,0:0:0:0:
256,192,40046,1,0,0:0:0:0:
256,192,40143,1,0,0:0:0:0:
256,192,40239,1,8,0:0:0:0:
256,192,40626,1,8,0:0:0:0:
256,192,41014,1,4,0:0:0:0:
256,192,41207,1,4,0:0:0:0:
256,192,41401,1,8,0:0:0:0:
256,192,41594,1,0,0:0:0:0:
256,192,41691,1,0,0:0:0:0:
256,192,41788,1,8,0:0:0:0:
256,192,42175,1,4,0:0:0:0:
256,192,42368,1,4,0:0:0:0:
256,192,42562,1,8,0:0:0:0:
256,192,42755,1,4,0:0:0:0:
256,192,42949,1,8,0:0:0:0:
256,192,43143,1,0,0:0:0:0:
256,192,43239,1,0,0:0:0:0:
256,192,43336,1,8,0:0:0:0:
256,192,43530,1,0,0:0:0:0:
256,192,43723,1,8,0:0:0:0:
256,192,43820,1,8,0:0:0:0:
256,192,43917,1,8,0:0:0:0:
256,192,44110,1,4,0:0:0:0:
256,192,44304,1,4,0:0:0:0:
256,192,44497,1,8,0:0:0:0:
256,192,44691,1,0,0:0:0:0:
256,192,44788,1,0,0:0:0:0:
256,192,44885,1,8,0:0:0:0:
256,192,45078,1,4,0:0:0:0:
256,192,45272,1,8,0:0:0:0:
256,192,45465,1,4,0:0:0:0:
256,192,45852,1,4,0:0:0:0:
256,192,46046,1,8,0:0:0:0:
256,192,46239,1,0,0:0:0:0:
256,192,46336,1,0,0:0:0:0:
256,192,46433,1,8,0:0:0:0:
256,192,46820,1,8,0:0:0:0:
256,192,47207,1,4,0:0:0:0:
256,192,47401,1,0,0:0:0:0:
256,192,47594,1,8,0:0:0:0:
256,192,47788,1,0,0:0:0:0:
256,192,47885,1,0,0:0:0:0:
256,192,47981,1,8,0:0:0:0:
256,192,48368,1,0,0:0:0:0:
256,192,48562,1,0,0:0:0:0:
256,192,48755,1,8,0:0:0:0:
256,192,48949,1,0,0:0:0:0:
256,192,49143,1,8,0:0:0:0:
256,192,49336,1,8,0:0:0:0:
256,192,49530,1,0,0:0:0:0:
256,192,49626,1,0,0:0:0:0:
256,192,49723,1,0,0:0:0:0:
256,192,49820,1,0,0:0:0:0:
256,192,49917,1,8,0:0:0:0:
256,192,50110,1,8,0:0:0:0:
256,192,50304,1,4,0:0:0:0:
256,192,50497,1,4,0:0:0:0:
256,192,50691,1,8,0:0:0:0:
256,192,50885,1,0,0:0:0:0:
256,192,50981,1,0,0:0:0:0:
256,192,51078,1,8,0:0:0:0:
256,192,51465,1,4,0:0:0:0:
256,192,51659,1,4,0:0:0:0:
256,192,52046,1,4,0:0:0:0:
256,192,52239,1,8,0:0:0:0:
256,192,52433,1,0,0:0:0:0:
256,192,52530,1,0,0:0:0:0:
256,192,52626,1,8,0:0:0:0:
256,192,53014,1,8,0:0:0:0:
256,192,53401,1,4,0:0:0:0:
256,192,53594,1,4,0:0:0:0:
256,192,53788,1,8,0:0:0:0:
256,192,53981,1,0,0:0:0:0:
256,192,54078,1,0,0:0:0:0:
256,192,54175,1,8,0:0:0:0:
256,192,54562,1,4,0:0:0:0:
256,192,54755,1,4,0:0:0:0:
256,192,54949,1,8,0:0:0:0:
256,192,55143,1,4,0:0:0:0:
256,192,55336,1,8,0:0:0:0:
256,192,55530,1,0,0:0:0:0:
256,192,55626,1,0,0:0:0:0:
256,192,55723,1,8,0:0:0:0:
256,192,55917,1,0,0:0:0:0:
256,192,56110,1,8,0:0:0:0:
256,192,56207,1,8,0:0:0:0:
256,192,56304,1,8,0:0:0:0:
256,192,56497,1,4,0:0:0:0:
256,192,56691,1,4,0:0:0:0:
256,192,56885,1,8,0:0:0:0:
256,192,57078,1,0,0:0:0:0:
256,192,57175,1,0,0:0:0:0:
256,192,57272,1,8,0:0:0:0:
256,192,57465,1,4,0:0:0:0:
256,192,57659,1,8,0:0:0:0:
256,192,57852,1,4,0:0:0:0:
256,192,58239,1,4,0:0:0:0:
256,192,58433,1,8,0:0:0:0:
256,192,58626,1,0,0:0:0:0:
256,192,58723,1,0,0:0:0:0:
256,192,58820,1,8,0:0:0:0:
256,192,59207,1,8,0:0:0:0:
256,192,59594,1,4,0:0:0:0:
256,192,59981,1,8,0:0:0:0:
256,192,60175,1,0,0:0:0:0:
256,192,60272,1,0,0:0:0:0:
256,192,60368,1,8,0:0:0:0:
256,192,60755,1,0,0:0:0:0:
256,192,60949,1,0,0:0:0:0:
256,192,61143,1,8,0:0:0:0:
256,192,61207,1,8,0:0:0:0:
256,192,61272,1,8,0:0:0:0:
256,192,61336,1,0,0:0:0:0:
256,192,61530,1,8,0:0:0:0:
256,192,61723,1,0,0:0:0:0:
256,192,61820,1,0,0:0:0:0:
256,192,61917,1,8,0:0:0:0:
256,192,62110,1,8,0:0:0:0:
256,192,62304,1,0,0:0:0:0:
256,192,62497,1,0,0:0:0:0:
256,192,62691,1,12,0:0:0:0:
256,192,62885,1,0,0:0:0:0:
256,192,62981,1,8,0:0:0:0:
256,192,63175,1,8,0:0:0:0:
256,192,63272,1,0,0:0:0:0:
256,192,63368,1,0,0:0:0:0:
256,192,63465,1,8,0:0:0:0:
256,192,63659,1,8,0:0:0:0:
256,192,63852,1,4,0:0:0:0:
256,192,64046,1,4,0:0:0:0:
256,192,64239,1,8,0:0:0:0:
256,192,64433,1,4,0:0:0:0:
256,192,64820,1,0,0:0:0:0:
256,192,65014,1,8,0:0:0:0:
256,192,65110,1,8,0:0:0:0:
256,192,65207,1,0,0:0:0:0:
256,192,65401,1,8,0:0:0:0:
256,192,65594,1,8,0:0:0:0:
256,192,65788,1,4,0:0:0:0:
256,192,65981,1,0,0:0:0:0:
256,192,66078,1,8,0:0:0:0:
256,192,66272,1,8,0:0:0:0:
256,192,66368,1,0,0:0:0:0:
256,192,66465,1,0,0:0:0:0:
256,192,66562,1,8,0:0:0:0:
256,192,66755,1,8,0:0:0:0:
256,192,66949,1,4,0:0:0:0:
256,192,67143,1,4,0:0:0:0:
256,192,67336,1,8,0:0:0:0:
256,192,67530,1,4,0:0:0:0:
256,192,67917,1,0,0:0:0:0:
256,192,68110,1,8,0:0:0:0:
256,192,68207,1,8,0:0:0:0:
256,192,68304,1,0,0:0:0:0:
256,192,68497,1,8,0:0:0:0:
256,192,68594,1,0,0:0:0:0:
256,192,68691,1,8,0:0:0:0:
256,192,68885,1,12,0:0:0:0:
256,192,69078,1,0,0:0:0:0:
256,192,69175,1,8,0:0:0:0:
256,192,69368,1,8,0:0:0:0:
256,192,69465,1,0,0:0:0:0:
256,192,69562,1,0,0:0:0:0:
256,192,69659,1,8,0:0:0:0:
256,192,69852,1,4,0:0:0:0:
256,192,70046,1,8,0:0:0:0:
256,192,70239,1,4,0:0:0:0:
256,192,70433,1,8,0:0:0:0:
256,192,70626,1,4,0:0:0:0:
256,192,71014,1,0,0:0:0:0:
256,192,71207,1,8,0:0:0:0:
256,192,71304,1,8,0:0:0:0:
256,192,71401,1,0,0:0:0:0:
256,192,71594,1,8,0:0:0:0:
256,192,71788,1,8,0:0:0:0:
256,192,71981,1,4,0:0:0:0:
256,192,72175,1,0,0:0:0:0:
256,192,72272,1,8,0:0:0:0:
256,192,72465,1,8,0:0:0:0:
256,192,72562,1,0,0:0:0:0:
256,192,72659,1,0,0:0:0:0:
256,192,72755,1,8,0:0:0:0:
256,192,72949,1,8,0:0:0:0:
256,192,73143,1,4,0:0:0:0:
256,192,73336,1,4,0:0:0:0:
256,192,73530,1,8,0:0:0:0:
256,192,73723,1,4,0:0:0:0:
256,192,74110,1,0,0:0:0:0:
256,192,74304,1,8,0:0:0:0:
256,192,74401,1,8,0:0:0:0:
256,192,74497,1,0,0:0:0:0:
256,192,74691,1,8,0:0:0:0:
256,192,74788,1,8,0:0:0:0:
256,192,74885,1,0,0:0:0:0:
256,192,74981,1,0,0:0:0:0:
256,192,75078,1,12,0:0:0:0:
256,192,75272,1,0,0:0:0:0:
256,192,75368,1,8,0:0:0:0:
256,192,75562,1,8,0:0:0:0:
256,192,75659,1,0,0:0:0:0:
256,192,75755,1,0,0:0:0:0:
256,192,75852,1,8,0:0:0:0:
256,192,76046,1,8,0:0:0:0:
256,192,76239,1,4,0:0:0:0:
256,192,76433,1,4,0:0:0:0:
256,192,76626,1,8,0:0:0:0:
256,192,76820,1,4,0:0:0:0:
256,192,77207,1,8,0:0:0:0:
256,192,77304,1,8,0:0:0:0:
256,192,77401,1,0,0:0:0:0:
256,192,77594,1,0,0:0:0:0:
256,192,77788,1,8,0:0:0:0:
256,192,77885,1,0,0:0:0:0:
256,192,77981,1,8,0:0:0:0:
256,192,78175,1,4,0:0:0:0:
256,192,78368,1,0,0:0:0:0:
256,192,78465,1,8,0:0:0:0:
256,192,78659,1,8,0:0:0:0:
256,192,78755,1,0,0:0:0:0:
256,192,78852,1,0,0:0:0:0:
256,192,78949,1,8,0:0:0:0:
256,192,79143,1,8,0:0:0:0:
256,192,79336,1,4,0:0:0:0:
256,192,79530,1,4,0:0:0:0:
256,192,79723,1,8,0:0:0:0:
256,192,79917,1,4,0:0:0:0:
256,192,80304,1,8,0:0:0:0:
256,192,80497,1,0,0:0:0:0:
256,192,80594,1,0,0:0:0:0:
256,192,80691,1,8,0:0:0:0:
256,192,80885,1,8,0:0:0:0:
256,192,80981,1,0,0:0:0:0:
256,192,81078,1,8,0:0:0:0:
256,192,81272,1,12,0:0:0:0:
256,192,81465,1,0,0:0:0:0:
256,192,81562,1,8,0:0:0:0:
256,192,81755,1,8,0:0:0:0:
256,192,81852,1,0,0:0:0:0:
256,192,82046,1,8,0:0:0:0:
256,192,82239,1,4,0:0:0:0:
256,192,82433,1,8,0:0:0:0:
256,192,82626,1,4,0:0:0:0:
256,192,82820,1,8,0:0:0:0:
256,192,83014,1,4,0:0:0:0:
256,192,83401,1,0,0:0:0:0:
256,192,83594,1,8,0:0:0:0:
256,192,83691,1,8,0:0:0:0:
256,192,83788,1,0,0:0:0:0:
256,192,83981,1,8,0:0:0:0:
256,192,84078,1,0,0:0:0:0:
256,192,84175,1,8,0:0:0:0:
256,192,84368,1,4,0:0:0:0:
256,192,84562,1,8,0:0:0:0:
256,192,84659,1,8,0:0:0:0:
256,192,84755,1,8,0:0:0:0:
256,192,84949,1,4,0:0:0:0:
256,192,85143,1,8,0:0:0:0:
256,192,85336,1,8,0:0:0:0:
256,192,85530,1,4,0:0:0:0:
256,192,85917,1,8,0:0:0:0:
256,192,86110,1,4,0:0:0:0:
256,192,86304,1,8,0:0:0:0:
256,192,86497,1,0,0:0:0:0:
256,192,86691,1,8,0:0:0:0:
256,192,86788,1,8,0:0:0:0:
256,192,86885,1,8,0:0:0:0:
256,192,86981,1,8,0:0:0:0:
256,192,87465,1,12,0:0:0:0:
256,192,87659,1,0,0:0:0:0:
256,192,87755,1,8,0:0:0:0:
256,192,87852,1,8,0:0:0:0:
256,192,87949,1,0,0:0:0:0:
256,192,88046,1,8,0:0:0:0:
256,192,88143,1,0,0:0:0:0:
256,192,88239,1,8,0:0:0:0:
256,192,88336,1,0,0:0:0:0:
256,192,88433,1,0,0:0:0:0:
256,192,88530,1,8,0:0:0:0:
256,192,88626,1,8,0:0:0:0:
256,192,88820,1,0,0:0:0:0:
256,192,89014,1,8,0:0:0:0:
256,192,89110,1,0,0:0:0:0:
256,192,89207,1,0,0:0:0:0:
256,192,89304,1,8,0:0:0:0:
256,192,89401,1,8,0:0:0:0:
256,192,89497,1,0,0:0:0:0:
256,192,89594,1,8,0:0:0:0:
256,192,89691,1,0,0:0:0:0:
256,192,89788,1,8,0:0:0:0:
256,192,89981,1,0,0:0:0:0:
256,192,90175,1,8,0:0:0:0:
256,192,90562,1,8,0:0:0:0:
256,192,90659,1,0,0:0:0:0:
256,192,90755,1,0,0:0:0:0:
256,192,90852,1,8,0:0:0:0:
256,192,90949,1,8,0:0:0:0:
256,192,91046,1,0,0:0:0:0:
256,192,91143,1,8,0:0:0:0:
256,192,91239,1,0,0:0:0:0:
256,192,91336,1,8,0:0:0:0:
256,192,91626,1,0,0:0:0:0:
256,192,91723,1,8,0:0:0:0:
256,192,91917,1,0,0:0:0:0:
256,192,92110,1,8,0:0:0:0:
256,192,92207,1,0,0:0:0:0:
256,192,92304,1,0,0:0:0:0:
256,192,92401,1,8,0:0:0:0:
256,192,92497,1,8,0:0:0:0:
256,192,92691,1,0,0:0:0:0:
256,192,92885,1,8,0:0:0:0:
256,192,93272,1,8,0:0:0:0:
256,192,93659,1,12,0:0:0:0:
256,192,93852,1,0,0:0:0:0:
256,192,93949,1,8,0:0:0:0:
256,192,94046,1,8,0:0:0:0:
256,192,94143,1,0,0:0:0:0:
256,192,94239,1,8,0:0:0:0:
256,192,94336,1,0,0:0:0:0:
256,192,94433,1,8,0:0:0:0:
256,192,94530,1,0,0:0:0:0:
256,192,94626,1,0,0:0:0:0:
256,192,94723,1,8,0:0:0:0:
256,192,94820,1,8,0:0:0:0:
256,192,95014,1,0,0:0:0:0:
256,192,95207,1,8,0:0:0:0:
256,192,95304,1,0,0:0:0:0:
256,192,95401,1,0,0:0:0:0:
256,192,95497,1,8,0:0:0:0:
256,192,95594,1,8,0:0:0:0:
256,192,95691,1,0,0:0:0:0:
256,192,95788,1,8,0:0:0:0:
256,192,95885,1,0,0:0:0:0:
256,192,95981,1,8,0:0:0:0:
256,192,96368,1,8,0:0:0:0:
256,192,96755,1,8,0:0:0:0:
256,192,96852,1,0,0:0:0:0:
256,192,96949,1,0,0:0:0:0:
256,192,97046,1,8,0:0:0:0:
256,192,97143,1,8,0:0:0:0:
256,192,97239,1,0,0:0:0:0:
256,192,97336,1,8,0:0:0:0:
256,192,97433,1,0,0:0:0:0:
256,192,97530,1,8,0:0:0:0:
256,192,97820,1,0,0:0:0:0:
256,192,97917,1,8,0:0:0:0:
256,192,98110,1,0,0:0:0:0:
256,192,98304,1,8,0:0:0:0:
256,192,98401,1,8,0:0:0:0:
256,192,98594,1,8,0:0:0:0:
256,192,98691,1,0,0:0:0:0:
256,192,98885,1,0,0:0:0:0:
256,192,99465,1,8,0:0:0:0:
256,192,99852,1,12,0:0:0:0:
256,192,100046,1,0,0:0:0:0:
256,192,100143,1,0,0:0:0:0:
256,192,100239,1,8,0:0:0:0:
256,192,100433,1,0,0:0:0:0:
256,192,100626,1,8,0:0:0:0:
256,192,100723,1,0,0:0:0:0:
256,192,100917,1,8,0:0:0:0:
256,192,101014,1,0,0:0:0:0:
256,192,101207,1,0,0:0:0:0:
256,192,101401,1,8,0:0:0:0:
256,192,101497,1,0,0:0:0:0:
256,192,101594,1,0,0:0:0:0:
256,192,101691,1,0,0:0:0:0:
256,192,101788,1,8,0:0:0:0:
256,192,101981,1,0,0:0:0:0:
256,192,102175,1,8,0:0:0:0:
256,192,102465,1,0,0:0:0:0:
256,192,102562,1,8,0:0:0:0:
256,192,102949,1,8,0:0:0:0:
256,192,103046,1,0,0:0:0:0:
256,192,103143,1,0,0:0:0:0:
256,192,103239,1,0,0:0:0:0:
256,192,103336,1,8,0:0:0:0:
256,192,103530,1,0,0:0:0:0:
256,192,103723,1,8,0:0:0:0:
256,192,103820,1,0,0:0:0:0:
256,192,104014,1,0,0:0:0:0:
256,192,104110,1,8,0:0:0:0:
256,192,104304,1,0,0:0:0:0:
256,192,104497,1,8,0:0:0:0:
256,192,104594,1,8,0:0:0:0:
256,192,104691,1,0,0:0:0:0:
256,192,104788,1,0,0:0:0:0:
256,192,104885,1,8,0:0:0:0:
256,192,105272,1,8,0:0:0:0:
256,192,105465,1,0,0:0:0:0:
256,192,105659,1,8,0:0:0:0:
256,192,105755,1,8,0:0:0:0:
256,192,105852,1,8,0:0:0:0:
256,192,106046,1,12,0:0:0:0:
256,192,106239,1,0,0:0:0:0:
256,192,106336,1,0,0:0:0:0:
256,192,106433,1,8,0:0:0:0:
256,192,106626,1,0,0:0:0:0:
256,192,106820,1,8,0:0:0:0:
256,192,106917,1,0,0:0:0:0:
256,192,107110,1,8,0:0:0:0:
256,192,107207,1,0,0:0:0:0:
256,192,107401,1,0,0:0:0:0:
256,192,107594,1,8,0:0:0:0:
256,192,107691,1,0,0:0:0:0:
256,192,107788,1,0,0:0:0:0:
256,192,107885,1,0,0:0:0:0:
256,192,107981,1,8,0:0:0:0:
256,192,108175,1,0,0:0:0:0:
256,192,108368,1,8,0:0:0:0:
256,192,108659,1,0,0:0:0:0:
256,192,108755,1,8,0:0:0:0:
256,192,109143,1,8,0:0:0:0:
256,192,109239,1,0,0:0:0:0:
256,192,109336,1,0,0:0:0:0:
256,192,109433,1,0,0:0:0:0:
256,192,109530,1,8,0:0:0:0:
256,192,109723,1,0,0:0:0:0:
256,192,109917,1,8,0:0:0:0:
256,192,110014,1,0,0:0:0:0:
256,192,110207,1,0,0:0:0:0:
256,192,110304,1,8,0:0:0:0:
256,192,110497,1,0,0:0:0:0:
256,192,110691,1,8,0:0:0:0:
256,192,110788,1,8,0:0:0:0:
256,192,110885,1,0,0:0:0:0:
256,192,111078,1,8,0:0:0:0:
256,192,111272,1,8,0:0:0:0:
256,192,111368,1,8,0:0:0:0:
256,192,111465,1,8,0:0:0:0:
256,192,111852,1,8,0:0:0:0:
256,192,111949,1,8,0:0:0:0:
256,192,112046,1,0,0:0:0:0:
256,192,112239,1,12,0:0:0:0:
256,192,113014,1,8,0:0:0:0:
256,192,113401,1,0,0:0:0:0:
256,192,113594,1,0,0:0:0:0:
256,192,113788,1,8,0:0:0:0:
256,192,114368,1,0,0:0:0:0:
256,192,114562,1,8,0:0:0:0:
256,192,114949,1,8,0:0:0:0:
256,192,115143,1,8,0:0:0:0:
256,192,115336,1,0,0:0:0:0:
256,192,116110,1,8,0:0:0:0:
256,192,116497,1,0,0:0:0:0:
256,192,116885,1,8,0:0:0:0:
256,192,117272,1,0,0:0:0:0:
256,192,117659,1,8,0:0:0:0:
256,192,117852,1,8,0:0:0:0:
256,192,118046,1,0,0:0:0:0:
256,192,118239,1,0,0:0:0:0:
256,192,118433,1,8,0:0:0:0:
256,192,119207,1,8,0:0:0:0:
256,192,119594,1,0,0:0:0:0:
256,192,119788,1,0,0:0:0:0:
256,192,119981,1,8,0:0:0:0:
256,192,120368,1,0,0:0:0:0:
256,192,120755,1,8,0:0:0:0:
256,192,120949,1,8,0:0:0:0:
256,192,121143,1,0,0:0:0:0:
256,192,121530,1,8,0:0:0:0:
256,192,121723,1,0,0:0:0:0:
256,192,122110,1,0,0:0:0:0:
256,192,122304,1,8,0:0:0:0:
256,192,122497,1,8,0:0:0:0:
256,192,122691,1,0,0:0:0:0:
256,192,122885,1,0,0:0:0:0:
256,192,123078,1,8,0:0:0:0:
256,192,123465,1,0,0:0:0:0:
256,192,123852,1,0,0:0:0:0:
256,192,124046,1,0,0:0:0:0:
256,192,124239,1,12,0:0:0:0:
256,192,124626,1,4,0:0:0:0:
256,192,125014,1,8,0:0:0:0:
256,192,125207,1,0,0:0:0:0:
256,192,125401,1,0,0:0:0:0:
256,192,125594,1,8,0:0:0:0:
256,192,125788,1,0,0:0:0:0:
256,192,126175,1,8,0:0:0:0:
256,192,126368,1,0,0:0:0:0:
256,192,126562,1,0,0:0:0:0:
256,192,126755,1,8,0:0:0:0:
256,192,126852,1,8,0:0:0:0:
256,192,126949,1,0,0:0:0:0:
256,192,127336,1,0,0:0:0:0:
256,192,127626,1,0,0:0:0:0:
256,192,127723,1,8,0:0:0:0:
256,192,128110,1,8,0:0:0:0:
256,192,128304,1,0,0:0:0:0:
256,192,128497,1,0,0:0:0:0:
256,192,128691,1,8,0:0:0:0:
256,192,128885,1,0,0:0:0:0:
256,192,129272,1,8,0:0:0:0:
256,192,129465,1,0,0:0:0:0:
256,192,129659,1,0,0:0:0:0:
256,192,129852,1,8,0:0:0:0:
256,192,129949,1,8,0:0:0:0:
256,192,130046,1,0,0:0:0:0:
256,192,130239,1,8,0:0:0:0:
256,192,130433,1,0,0:0:0:0:
256,192,130820,1,8,0:0:0:0:
256,192,131207,1,8,0:0:0:0:
256,192,131401,1,0,0:0:0:0:
256,192,131594,1,0,0:0:0:0:
256,192,131788,1,8,0:0:0:0:
256,192,131981,1,0,0:0:0:0:
256,192,132368,1,8,0:0:0:0:
256,192,132562,1,0,0:0:0:0:
256,192,132755,1,0,0:0:0:0:
256,192,132949,1,8,0:0:0:0:
256,192,133046,1,8,0:0:0:0:
256,192,133143,1,0,0:0:0:0:
256,192,133530,1,0,0:0:0:0:
256,192,133820,1,0,0:0:0:0:
256,192,133917,1,8,0:0:0:0:
256,192,134304,1,8,0:0:0:0:
256,192,134497,1,0,0:0:0:0:
256,192,134691,1,0,0:0:0:0:
256,192,134885,1,8,0:0:0:0:
256,192,135078,1,0,0:0:0:0:
256,192,135465,1,8,0:0:0:0:
256,192,135659,1,0,0:0:0:0:
256,192,135852,1,0,0:0:0:0:
256,192,136046,1,8,0:0:0:0:
256,192,136239,1,0,0:0:0:0:
256,192,136433,1,0,0:0:0:0:
256,192,136530,1,0,0:0:0:0:
256,192,136626,1,8,0:0:0:0:
256,192,137014,1,12,0:0:0:0:
256,192,137207,1,0,0:0:0:0:
256,192,137401,1,8,0:0:0:0:
256,192,137594,1,0,0:0:0:0:
256,192,137691,1,0,0:0:0:0:
256,192,137788,1,0,0:0:0:0:
256,192,137981,1,0,0:0:0:0:
256,192,138175,1,8,0:0:0:0:
256,192,138562,1,8,0:0:0:0:
256,192,138755,1,0,0:0:0:0:
256,192,138949,1,8,0:0:0:0:
256,192,139143,1,8,0:0:0:0:
256,192,139239,1,8,0:0:0:0:
256,192,139336,1,8,0:0:0:0:
256,192,139530,1,0,0:0:0:0:
256,192,139723,1,8,0:0:0:0:
256,192,140014,1,0,0:0:0:0:
256,192,140110,1,8,0:0:0:0:
256,192,140304,1,0,0:0:0:0:
256,192,140497,1,8,0:0:0:0:
256,192,140691,1,0,0:0:0:0:
256,192,140788,1,0,0:0:0:0:
256,192,140885,1,0,0:0:0:0:
256,192,141078,1,0,0:0:0:0:
256,192,141272,1,8,0:0:0:0:
256,192,141659,1,8,0:0:0:0:
256,192,141852,1,0,0:0:0:0:
256,192,142046,1,8,0:0:0:0:
256,192,142239,1,8,0:0:0:0:
256,192,142336,1,8,0:0:0:0:
256,192,142433,1,8,0:0:0:0:
256,192,142626,1,0,0:0:0:0:
256,192,142820,1,8,0:0:0:0:
256,192,143110,1,0,0:0:0:0:
256,192,143207,1,8,0:0:0:0:
256,192,143401,1,0,0:0:0:0:
256,192,143594,1,8,0:0:0:0:
256,192,143788,1,0,0:0:0:0:
256,192,143885,1,0,0:0:0:0:
256,192,143981,1,0,0:0:0:0:
256,192,144175,1,0,0:0:0:0:
256,192,144368,1,8,0:0:0:0:
256,192,144755,1,8,0:0:0:0:
256,192,144949,1,0,0:0:0:0:
256,192,145143,1,8,0:0:0:0:
256,192,145336,1,8,0:0:0:0:
256,192,145433,1,8,0:0:0:0:
256,192,145530,1,8,0:0:0:0:
256,192,145723,1,0,0:0:0:0:
256,192,145917,1,8,0:0:0:0:
256,192,146207,1,0,0:0:0:0:
256,192,146304,1,8,0:0:0:0:
256,192,146497,1,0,0:0:0:0:
256,192,146691,1,8,0:0:0:0:
256,192,146885,1,0,0:0:0:0:
256,192,146981,1,0,0:0:0:0:
256,192,147078,1,0,0:0:0:0:
256,192,147272,1,0,0:0:0:0:
256,192,147465,1,8,0:0:0:0:
256,192,147852,1,8,0:0:0:0:
256,192,148046,1,0,0:0:0:0:
256,192,148239,1,8,0:0:0:0:
256,192,148433,1,0,0:0:0:0:
256,192,148530,1,0,0:0:0:0:
256,192,148626,1,0,0:0:0:0:
256,192,148820,1,0,0:0:0:0:
256,192,149014,1,8,0:0:0:0:
256,192,149207,1,0,0:0:0:0:
256,192,149401,1,12,0:0:0:0:
256,192,149691,1,0,0:0:0:0:
256,192,149788,1,8,0:0:0:0:
256,192,149981,1,8,0:0:0:0:
256,192,150175,1,0,0:0:0:0:
256,192,150272,1,0,0:0:0:0:
256,192,150465,1,8,0:0:0:0:
256,192,150562,1,0,0:0:0:0:
256,192,150755,1,8,0:0:0:0:
256,192,150949,1,0,0:0:0:0:
256,192,151046,1,8,0:0:0:0:
256,192,151239,1,0,0:0:0:0:
256,192,151336,1,8,0:0:0:0:
256,192,151530,1,8,0:0:0:0:
256,192,151723,1,0,0:0:0:0:
256,192,151917,1,0,0:0:0:0:
256,192,152014,1,0,0:0:0:0:
256,192,152110,1,8,0:0:0:0:
256,192,152159,1,8,0:0:0:0:
256,192,152304,1,8,0:0:0:0:
256,192,152352,1,8,0:0:0:0:
256,192,152497,1,0,0:0:0:0:
256,192,152788,1,8,0:0:0:0:
256,192,152885,1,0,0:0:0:0:
256,192,153078,1,8,0:0:0:0:
256,192,153272,1,0,0:0:0:0:
256,192,153368,1,0,0:0:0:0:
256,192,153562,1,0,0:0:0:0:
256,192,153659,1,8,0:0:0:0:
256,192,153852,1,8,0:0:0:0:
256,192,153949,1,8,0:0:0:0:
256,192,154046,1,0,0:0:0:0:
256,192,154143,1,8,0:0:0:0:
256,192,154336,1,8,0:0:0:0:
256,192,154433,1,0,0:0:0:0:
256,192,154626,1,0,0:0:0:0:
256,192,154723,1,0,0:0:0:0:
256,192,154820,1,8,0:0:0:0:
256,192,154868,1,8,0:0:0:0:
256,192,155014,1,0,0:0:0:0:
256,192,155110,1,8,0:0:0:0:
256,192,155159,1,8,0:0:0:0:
256,192,155207,1,0,0:0:0:0:
256,192,155304,1,0,0:0:0:0:
256,192,155401,1,8,0:0:0:0:
256,192,155449,1,8,0:0:0:0:
256,192,155594,1,8,0:0:0:0:
256,192,155788,1,0,0:0:0:0:
256,192,155885,1,8,0:0:0:0:
256,192,155981,1,0,0:0:0:0:
256,192,156175,1,0,0:0:0:0:
256,192,156368,1,8,0:0:0:0:
256,192,156562,1,0,0:0:0:0:
256,192,156659,1,8,0:0:0:0:
256,192,156755,1,0,0:0:0:0:
256,192,156949,1,0,0:0:0:0:
256,192,157143,1,8,0:0:0:0:
256,192,157336,1,0,0:0:0:0:
256,192,157433,1,8,0:0:0:0:
256,192,157530,1,0,0:0:0:0:
256,192,157723,1,0,0:0:0:0:
256,192,157917,1,8,0:0:0:0:
256,192,158110,1,0,0:0:0:0:
256,192,158207,1,8,0:0:0:0:
256,192,158304,1,0,0:0:0:0:
256,192,158352,1,0,0:0:0:0:
256,192,158497,1,0,0:0:0:0:
256,192,158546,1,0,0:0:0:0:
256,192,158691,1,8,0:0:0:0:
256,192,158788,1,8,0:0:0:0:
256,192,158885,1,8,0:0:0:0:
256,192,158981,1,8,0:0:0:0:
256,192,159078,1,8,0:0:0:0:
256,192,159175,1,8,0:0:0:0:
256,192,159272,1,8,0:0:0:0:
256,192,159368,1,8,0:0:0:0:
256,192,159465,1,8,0:0:0:0:
256,192,159562,1,8,0:0:0:0:
256,192,159659,1,8,0:0:0:0:
256,192,159755,1,8,0:0:0:0:
256,192,159852,1,8,0:0:0:0:
256,192,159949,1,8,0:0:0:0:
256,192,160046,1,8,0:0:0:0:
256,192,160143,1,8,0:0:0:0:
256,192,160239,1,0,0:0:0:0:
256,192,160626,1,8,0:0:0:0:
256,192,161014,1,0,0:0:0:0:
256,192,161401,1,8,0:0:0:0:
256,192,161788,1,4,0:0:0:0:
256,192,161981,1,4,0:0:0:0:
256,192,162175,1,8,0:0:0:0:
256,192,162368,1,0,0:0:0:0:
256,192,162465,1,0,0:0:0:0:
256,192,162562,1,8,0:0:0:0:
256,192,162949,1,4,0:0:0:0:
256,192,163143,1,4,0:0:0:0:
256,192,163530,1,4,0:0:0:0:
256,192,163723,1,8,0:0:0:0:
256,192,163917,1,0,0:0:0:0:
256,192,164014,1,0,0:0:0:0:
256,192,164110,1,8,0:0:0:0:
256,192,164497,1,8,0:0:0:0:
256,192,164885,1,4,0:0:0:0:
256,192,165078,1,4,0:0:0:0:
256,192,165272,1,8,0:0:0:0:
256,192,165465,1,0,0:0:0:0:
256,192,165562,1,0,0:0:0:0:
256,192,165659,1,8,0:0:0:0:
256,192,166046,1,4,0:0:0:0:
256,192,166239,1,4,0:0:0:0:
256,192,166433,1,8,0:0:0:0:
256,192,166626,1,4,0:0:0:0:
256,192,166820,1,8,0:0:0:0:
256,192,167014,1,0,0:0:0:0:
256,192,167110,1,0,0:0:0:0:
256,192,167207,1,8,0:0:0:0:
256,192,167401,1,0,0:0:0:0:
256,192,167594,1,8,0:0:0:0:
256,192,167691,1,8,0:0:0:0:
256,192,167788,1,8,0:0:0:0:
256,192,167981,1,4,0:0:0:0:
256,192,168175,1,4,0:0:0:0:
256,192,168368,1,8,0:0:0:0:
256,192,168562,1,0,0:0:0:0:
256,192,168659,1,0,0:0:0:0:
256,192,168755,1,8,0:0:0:0:
256,192,168949,1,4,0:0:0:0:
256,192,169143,1,8,0:0:0:0:
256,192,169336,1,4,0:0:0:0:
256,192,169723,1,4,0:0:0:0:
256,192,169917,1,8,0:0:0:0:
256,192,170110,1,0,0:0:0:0:
256,192,170207,1,0,0:0:0:0:
256,192,170304,1,8,0:0:0:0:
256,192,170691,1,8,0:0:0:0:
256,192,171078,1,4,0:0:0:0:
256,192,171272,1,0,0:0:0:0:
256,192,171465,1,8,0:0:0:0:
256,192,171659,1,0,0:0:0:0:
256,192,171755,1,0,0:0:0:0:
256,192,171852,1,8,0:0:0:0:
256,192,172239,1,0,0:0:0:0:
256,192,172433,1,0,0:0:0:0:
256,192,172626,1,8,0:0:0:0:
256,192,172820,1,0,0:0:0:0:
256,192,173014,1,8,0:0:0:0:
256,192,173207,1,8,0:0:0:0:
256,192,173401,1,0,0:0:0:0:
256,192,173497,1,0,0:0:0:0:
256,192,173594,1,0,0:0:0:0:
256,192,173691,1,0,0:0:0:0:
256,192,173788,1,8,0:0:0:0:
256,192,173981,1,8,0:0:0:0:
256,192,174175,1,4,0:0:0:0:
256,192,174368,1,4,0:0:0:0:
256,192,174562,1,8,0:0:0:0:
256,192,174755,1,0,0:0:0:0:
256,192,174852,1,0,0:0:0:0:
256,192,174949,1,8,0:0:0:0:
256,192,175336,1,4,0:0:0:0:
256,192,175530,1,4,0:0:0:0:
256,192,175917,1,4,0:0:0:0:
256,192,176110,1,8,0:0:0:0:
256,192,176304,1,0,0:0:0:0:
256,192,176401,1,0,0:0:0:0:
256,192,176497,1,8,0:0:0:0:
256,192,176885,1,8,0:0:0:0:
256,192,177272,1,4,0:0:0:0:
256,192,177465,1,4,0:0:0:0:
256,192,177659,1,8,0:0:0:0:
256,192,177852,1,0,0:0:0:0:
256,192,177949,1,0,0:0:0:0:
256,192,178046,1,8,0:0:0:0:
256,192,178433,1,4,0:0:0:0:
256,192,178626,1,4,0:0:0:0:
256,192,178820,1,8,0:0:0:0:
256,192,179014,1,4,0:0:0:0:
256,192,179207,1,8,0:0:0:0:
256,192,179401,1,0,0:0:0:0:
256,192,179497,1,0,0:0:0:0:
256,192,179594,1,8,0:0:0:0:
256,192,179788,1,0,0:0:0:0:
256,192,179981,1,8,0:0:0:0:
256,192,180078,1,8,0:0:0:0:
256,192,180175,1,8,0:0:0:0:
256,192,180368,1,4,0:0:0:0:
256,192,180562,1,4,0:0:0:0:
256,192,180755,1,8,0:0:0:0:
256,192,180949,1,0,0:0:0:0:
256,192,181046,1,0,0:0:0:0:
256,192,181143,1,8,0:0:0:0:
256,192,181336,1,4,0:0:0:0:
256,192,181530,1,8,0:0:0:0:
256,192,181723,1,4,0:0:0:0:
256,192,182110,1,4,0:0:0:0:
256,192,182304,1,8,0:0:0:0:
256,192,182497,1,0,0:0:0:0:
256,192,182594,1,0,0:0:0:0:
256,192,182691,1,8,0:0:0:0:
256,192,183078,1,8,0:0:0:0:
256,192,183465,1,4,0:0:0:0:
256,192,183852,1,8,0:0:0:0:
256,192,184046,1,0,0:0:0:0:
256,192,184143,1,0,0:0:0:0:
256,192,184239,1,8,0:0:0:0:
256,192,184626,1,0,0:0:0:0:
256,192,184820,1,0,0:0:0:0:
256,192,185014,1,8,0:0:0:0:
256,192,185078,1,8,0:0:0:0:
256,192,185143,1,8,0:0:0:0:
256,192,185207,1,0,0:0:0:0:
256,192,185401,1,8,0:0:0:0:
256,192,185594,1,0,0:0:0:0:
256,192,185691,1,0,0:0:0:0:
256,192,185788,1,8,0:0:0:0:
256,192,185981,1,8,0:0:0:0:
256,192,186175,1,0,0:0:0:0:
256,192,186368,1,0,0:0:0:0:
256,192,186562,1,12,0:0:0:0:
256,192,186755,1,0,0:0:0:0:
256,192,187143,1,8,0:0:0:0:
256,192,187239,1,8,0:0:0:0:
256,192,187336,1,0,0:0:0:0:
256,192,187530,1,8,0:0:0:0:
256,192,187723,1,4,0:0:0:0:
256,192,187917,1,4,0:0:0:0:
256,192,188304,1,4,0:0:0:0:
256,192,188691,1,0,0:0:0:0:
256,192,188885,1,8,0:0:0:0:
256,192,188981,1,8,0:0:0:0:
256,192,189078,1,0,0:0:0:0:
256,192,189272,1,8,0:0:0:0:
256,192,189368,1,0,0:0:0:0:
256,192,189465,1,8,0:0:0:0:
256,192,189659,1,4,0:0:0:0:
256,192,189852,1,8,0:0:0:0:
256,192,190239,1,8,0:0:0:0:
256,192,190433,1,0,0:0:0:0:
256,192,190626,1,8,0:0:0:0:
256,192,190820,1,4,0:0:0:0:
256,192,191014,1,4,0:0:0:0:
256,192,191401,1,4,0:0:0:0:
256,192,191594,1,8,0:0:0:0:
256,192,191788,1,0,0:0:0:0:
256,192,191885,1,0,0:0:0:0:
256,192,191981,1,8,0:0:0:0:
256,192,192175,1,0,0:0:0:0:
256,192,192368,1,8,0:0:0:0:
256,192,192465,1,8,0:0:0:0:
256,192,192562,1,0,0:0:0:0:
256,192,192755,1,12,0:0:0:0:
256,192,192949,1,0,0:0:0:0:
256,192,193336,1,0,0:0:0:0:
256,192,193530,1,8,0:0:0:0:
256,192,193723,1,4,0:0:0:0:
256,192,193917,1,8,0:0:0:0:
256,192,194110,1,4,0:0:0:0:
256,192,194497,1,4,0:0:0:0:
256,192,194885,1,0,0:0:0:0:
256,192,195078,1,8,0:0:0:0:
256,192,195175,1,8,0:0:0:0:
256,192,195272,1,0,0:0:0:0:
256,192,195465,1,8,0:0:0:0:
256,192,195562,1,0,0:0:0:0:
256,192,195659,1,8,0:0:0:0:
256,192,195852,1,4,0:0:0:0:
256,192,196046,1,8,0:0:0:0:
256,192,196433,1,8,0:0:0:0:
256,192,196530,1,8,0:0:0:0:
256,192,196626,1,8,0:0:0:0:
256,192,196820,1,8,0:0:0:0:
256,192,197014,1,0,0:0:0:0:
256,192,197207,1,0,0:0:0:0:
256,192,197304,1,8,0:0:0:0:
256,192,197401,1,0,0:0:0:0:
256,192,197594,1,0,0:0:0:0:
256,192,197788,1,8,0:0:0:0:
256,192,197981,1,0,0:0:0:0:
256,192,198078,1,0,0:0:0:0:
256,192,198175,1,8,0:0:0:0:
256,192,198272,1,8,0:0:0:0:
256,192,198368,1,8,0:0:0:0:
256,192,198562,1,8,0:0:0:0:
256,192,198755,1,0,0:0:0:0:
256,192,198949,1,12,0:0:0:0:
256,192,199143,1,0,0:0:0:0:
256,192,199530,1,8,0:0:0:0:
256,192,199626,1,8,0:0:0:0:
256,192,199723,1,0,0:0:0:0:
256,192,199917,1,8,0:0:0:0:
256,192,200110,1,4,0:0:0:0:
256,192,200304,1,4,0:0:0:0:
256,192,200691,1,4,0:0:0:0:
256,192,201078,1,0,0:0:0:0:
256,192,201272,1,8,0:0:0:0:
256,192,201368,1,8,0:0:0:0:
256,192,201465,1,0,0:0:0:0:
256,192,201659,1,8,0:0:0:0:
256,192,201755,1,0,0:0:0:0:
256,192,201852,1,8,0:0:0:0:
256,192,202046,1,4,0:0:0:0:
256,192,202239,1,8,0:0:0:0:
256,192,202336,1,8,0:0:0:0:
256,192,202433,1,8,0:0:0:0:
256,192,202626,1,8,0:0:0:0:
256,192,202820,1,0,0:0:0:0:
256,192,203014,1,8,0:0:0:0:
256,192,203207,1,4,0:0:0:0:
256,192,203401,1,4,0:0:0:0:
256,192,203788,1,4,0:0:0:0:
256,192,203981,1,8,0:0:0:0:
256,192,204175,1,0,0:0:0:0:
256,192,204368,1,8,0:0:0:0:
256,192,204465,1,0,0:0:0:0:
256,192,204562,1,8,0:0:0:0:
256,192,204755,1,8,0:0:0:0:
256,192,204852,1,8,0:0:0:0:
256,192,204949,1,0,0:0:0:0:
256,192,205143,1,12,0:0:0:0:
256,192,205336,1,0,0:0:0:0:
256,192,205723,1,0,0:0:0:0:
256,192,205917,1,8,0:0:0:0:
256,192,206110,1,4,0:0:0:0:
256,192,206304,1,8,0:0:0:0:
256,192,206497,1,4,0:0:0:0:
256,192,206885,1,4,0:0:0:0:
256,192,207272,1,0,0:0:0:0:
256,192,207465,1,8,0:0:0:0:
256,192,207562,1,8,0:0:0:0:
256,192,207659,1,0,0:0:0:0:
256,192,207852,1,8,0:0:0:0:
256,192,207949,1,0,0:0:0:0:
256,192,208046,1,8,0:0:0:0:
256,192,208239,1,4,0:0:0:0:
256,192,208820,1,4,0:0:0:0:
256,192,209401,1,12,0:0:0:0:
256,192,209981,1,4,0:0:0:0:
256,192,210562,1,8,0:0:0:0:
256,192,210949,1,0,0:0:0:0:
256,192,211336,1,12,0:0:0:0:
256,192,211530,1,0,0:0:0:0:
256,192,211723,1,8,0:0:0:0:
256,192,211917,1,0,0:0:0:0:
256,192,212304,1,0,0:0:0:0:
256,192,212497,1,8,0:0:0:0:
256,192,213078,1,0,0:0:0:0:
256,192,213272,1,8,0:0:0:0:
256,192,213465,1,8,0:0:0:0:
256,192,213659,1,0,0:0:0:0:
256,192,214046,1,8,0:0:0:0:
256,192,214336,1,0,0:0:0:0:
256,192,214433,1,8,0:0:0:0:
256,192,214626,1,0,0:0:0:0:
256,192,214820,1,8,0:0:0:0:
256,192,215014,1,0,0:0:0:0:
256,192,215401,1,0,0:0:0:0:
256,192,215594,1,8,0:0:0:0:
256,192,215981,1,8,0:0:0:0:
256,192,216175,1,0,0:0:0:0:
256,192,216368,1,8,0:0:0:0:
256,192,216562,1,8,0:0:0:0:
256,192,216949,1,0,0:0:0:0:
256,192,217143,1,8,0:0:0:0:
256,192,217433,1,0,0:0:0:0:
256,192,217530,1,8,0:0:0:0:
256,192,217723,1,0,0:0:0:0:
256,192,217917,1,8,0:0:0:0:
256,192,218110,1,0,0:0:0:0:
256,192,218497,1,0,0:0:0:0:
256,192,218691,1,8,0:0:0:0:
256,192,219272,1,0,0:0:0:0:
256,192,219465,1,8,0:0:0:0:
256,192,219659,1,8,0:0:0:0:
256,192,219852,1,0,0:0:0:0:
256,192,220239,1,8,0:0:0:0:
256,192,220530,1,0,0:0:0:0:
256,192,220626,1,8,0:0:0:0:
256,192,220820,1,0,0:0:0:0:
256,192,221014,1,8,0:0:0:0:
256,192,221207,1,0,0:0:0:0:
256,192,221594,1,0,0:0:0:0:
256,192,221788,1,8,0:0:0:0:
256,192,222175,1,8,0:0:0:0:
256,192,222368,1,0,0:0:0:0:
256,192,222562,1,8,0:0:0:0:
256,192,222755,1,8,0:0:0:0:
256,192,222949,1,0,0:0:0:0:
256,192,223143,1,0,0:0:0:0:
256,192,223336,1,8,0:0:0:0:
256,192,223530,1,0,0:0:0:0:
256,192,223723,1,12,0:0:0:0:
256,192,224110,1,8,0:0:0:0:
256,192,224304,1,0,0:0:0:0:
256,192,224691,1,0,0:0:0:0:
256,192,224885,1,8,0:0:0:0:
256,192,225465,1,0,0:0:0:0:
256,192,225659,1,8,0:0:0:0:
256,192,225852,1,8,0:0:0:0:
256,192,226046,1,0,0:0:0:0:
256,192,226433,1,8,0:0:0:0:
256,192,226723,1,0,0:0:0:0:
256,192,226820,1,8,0:0:0:0:
256,192,227207,1,8,0:0:0:0:
256,192,227401,1,0,0:0:0:0:
256,192,227788,1,0,0:0:0:0:
256,192,227981,1,8,0:0:0:0:
256,192,228368,1,8,0:0:0:0:
256,192,228562,1,0,0:0:0:0:
256,192,228755,1,8,0:0:0:0:
256,192,228949,1,8,0:0:0:0:
256,192,229336,1,0,0:0:0:0:
256,192,229530,1,8,0:0:0:0:
256,192,229820,1,0,0:0:0:0:
256,192,229917,1,8,0:0:0:0:
256,192,230304,1,8,0:0:0:0:
256,192,230497,1,0,0:0:0:0:
256,192,230885,1,0,0:0:0:0:
256,192,231078,1,8,0:0:0:0:
256,192,231659,1,0,0:0:0:0:
256,192,231852,1,8,0:0:0:0:
256,192,232046,1,8,0:0:0:0:
256,192,232239,1,0,0:0:0:0:
256,192,232626,1,8,0:0:0:0:
256,192,232917,1,0,0:0:0:0:
256,192,233014,1,8,0:0:0:0:
256,192,233594,1,8,0:0:0:0:
256,192,233788,1,0,0:0:0:0:
256,192,233981,1,0,0:0:0:0:
256,192,234175,1,8,0:0:0:0:
